  0
SECTION
  2
HEADER
  9
$ACADVER
  1
AC1014
  9
$ACADMAINTVER
 70
     0
  9
$DWGCODEPAGE
  3
ANSI_1252
  9
$INSBASE
 10
0.0
 20
0.0
 30
0.0
  9
$EXTMIN
 10
159.363435
 20
128.908185
 30
-0.000797
  9
$EXTMAX
 10
224.343497
 20
212.982655
 30
10.78196
  9
$LIMMIN
 10
84.554777
 20
129.305886
  9
$LIMMAX
 10
150.523457
 20
215.578615
  9
$ORTHOMODE
 70
     0
  9
$REGENMODE
 70
     1
  9
$FILLMODE
 70
     1
  9
$QTEXTMODE
 70
     0
  9
$MIRRTEXT
 70
     1
  9
$DRAGMODE
 70
     2
  9
$LTSCALE
 40
1.0
  9
$OSMODE
 70
   675
  9
$ATTMODE
 70
     1
  9
$TEXTSIZE
 40
0.6
  9
$TRACEWID
 40
0.05
  9
$TEXTSTYLE
  7
ROMANS
  9
$CLAYER
  8
DIM
  9
$CELTYPE
  6
BYLAYER
  9
$CECOLOR
 62
   256
  9
$CELTSCALE
 40
1.0
  9
$DELOBJ
 70
     1
  9
$DISPSILH
 70
     0
  9
$DIMSCALE
 40
1.0
  9
$DIMASZ
 40
0.35
  9
$DIMEXO
 40
0.0625
  9
$DIMDLI
 40
0.38
  9
$DIMRND
 40
0.0
  9
$DIMDLE
 40
0.0
  9
$DIMEXE
 40
0.18
  9
$DIMTP
 40
0.0
  9
$DIMTM
 40
0.0
  9
$DIMTXT
 40
0.18
  9
$DIMCEN
 40
0.09
  9
$DIMTSZ
 40
0.0
  9
$DIMTOL
 70
     0
  9
$DIMLIM
 70
     0
  9
$DIMTIH
 70
     1
  9
$DIMTOH
 70
     1
  9
$DIMSE1
 70
     0
  9
$DIMSE2
 70
     0
  9
$DIMTAD
 70
     0
  9
$DIMZIN
 70
     0
  9
$DIMBLK
  1

  9
$DIMASO
 70
     1
  9
$DIMSHO
 70
     1
  9
$DIMPOST
  1

  9
$DIMAPOST
  1

  9
$DIMALT
 70
     0
  9
$DIMALTD
 70
     2
  9
$DIMALTF
 40
25.4
  9
$DIMLFAC
 40
1.0
  9
$DIMTOFL
 70
     0
  9
$DIMTVP
 40
0.0
  9
$DIMTIX
 70
     0
  9
$DIMSOXD
 70
     0
  9
$DIMSAH
 70
     0
  9
$DIMBLK1
  1

  9
$DIMBLK2
  1

  9
$DIMSTYLE
  2
STANDARD
  9
$DIMCLRD
 70
     0
  9
$DIMCLRE
 70
     0
  9
$DIMCLRT
 70
     0
  9
$DIMTFAC
 40
1.0
  9
$DIMGAP
 40
0.09
  9
$DIMJUST
 70
     0
  9
$DIMSD1
 70
     0
  9
$DIMSD2
 70
     0
  9
$DIMTOLJ
 70
     1
  9
$DIMTZIN
 70
     0
  9
$DIMALTZ
 70
     0
  9
$DIMALTTZ
 70
     0
  9
$DIMFIT
 70
     5
  9
$DIMUPT
 70
     0
  9
$DIMUNIT
 70
     5
  9
$DIMDEC
 70
     4
  9
$DIMTDEC
 70
     4
  9
$DIMALTU
 70
     5
  9
$DIMALTTD
 70
     2
  9
$DIMTXSTY
  7
ROMANS
  9
$DIMAUNIT
 70
     0
  9
$LUNITS
 70
     2
  9
$LUPREC
 70
     4
  9
$SKETCHINC
 40
0.1
  9
$FILLETRAD
 40
0.0
  9
$AUNITS
 70
     0
  9
$AUPREC
 70
     0
  9
$MENU
  1
acad
  9
$ELEVATION
 40
0.0
  9
$PELEVATION
 40
0.0
  9
$THICKNESS
 40
0.0
  9
$LIMCHECK
 70
     0
  9
$BLIPMODE
 70
     0
  9
$CHAMFERA
 40
0.0
  9
$CHAMFERB
 40
0.0
  9
$CHAMFERC
 40
0.0
  9
$CHAMFERD
 40
0.0
  9
$SKPOLY
 70
     0
  9
$TDCREATE
 40
2449612.337895370
  9
$TDUPDATE
 40
2453125.334247511
  9
$TDINDWG
 40
0.1582243287
  9
$TDUSRTIMER
 40
0.1582243287
  9
$USRTIMER
 70
     1
  9
$ANGBASE
 50
0.0
  9
$ANGDIR
 70
     0
  9
$PDMODE
 70
     0
  9
$PDSIZE
 40
0.0
  9
$PLINEWID
 40
0.0
  9
$COORDS
 70
     1
  9
$SPLFRAME
 70
     0
  9
$SPLINETYPE
 70
     6
  9
$SPLINESEGS
 70
     8
  9
$ATTDIA
 70
     0
  9
$ATTREQ
 70
     1
  9
$HANDLING
 70
     1
  9
$HANDSEED
  5
1DBA
  9
$SURFTAB1
 70
     6
  9
$SURFTAB2
 70
     6
  9
$SURFTYPE
 70
     6
  9
$SURFU
 70
     6
  9
$SURFV
 70
     6
  9
$UCSNAME
  2

  9
$UCSORG
 10
0.0
 20
0.0
 30
0.0
  9
$UCSXDIR
 10
1.0
 20
0.0
 30
0.0
  9
$UCSYDIR
 10
0.0
 20
1.0
 30
0.0
  9
$PUCSNAME
  2

  9
$PUCSORG
 10
0.0
 20
0.0
 30
0.0
  9
$PUCSXDIR
 10
1.0
 20
0.0
 30
0.0
  9
$PUCSYDIR
 10
0.0
 20
1.0
 30
0.0
  9
$USERI1
 70
     0
  9
$USERI2
 70
     0
  9
$USERI3
 70
     0
  9
$USERI4
 70
     0
  9
$USERI5
 70
     0
  9
$USERR1
 40
0.0
  9
$USERR2
 40
0.0
  9
$USERR3
 40
0.0
  9
$USERR4
 40
0.0
  9
$USERR5
 40
0.0
  9
$WORLDVIEW
 70
     1
  9
$SHADEDGE
 70
     3
  9
$SHADEDIF
 70
    70
  9
$TILEMODE
 70
     1
  9
$MAXACTVP
 70
    16
  9
$PINSBASE
 10
0.0
 20
0.0
 30
0.0
  9
$PLIMCHECK
 70
     0
  9
$PEXTMIN
 10
1.000000E+20
 20
1.000000E+20
 30
1.000000E+20
  9
$PEXTMAX
 10
-1.000000E+20
 20
-1.000000E+20
 30
-1.000000E+20
  9
$PLIMMIN
 10
0.0
 20
0.0
  9
$PLIMMAX
 10
12.0
 20
9.0
  9
$UNITMODE
 70
     0
  9
$VISRETAIN
 70
     0
  9
$PLINEGEN
 70
     0
  9
$PSLTSCALE
 70
     1
  9
$TREEDEPTH
 70
  3020
  9
$PICKSTYLE
 70
     1
  9
$CMLSTYLE
  2
STANDARD
  9
$CMLJUST
 70
     0
  9
$CMLSCALE
 40
1.0
  9
$PROXYGRAPHICS
 70
     1
  9
$MEASUREMENT
 70
     0
  0
ENDSEC
  0
SECTION
  2
CLASSES
  0
CLASS
  1
DICTIONARYVAR
  2
AcDbDictionaryVar
  3
"AutoCAD"
 90
        0
280
     0
281
     0
  0
CLASS
  1
LWPOLYLINE
  2
AcDbPolyline
  3
"AutoCAD"
 90
        0
280
     0
281
     1
  0
CLASS
  1
HATCH
  2
AcDbHatch
  3
"ACAD_SEDONA"
 90
        0
280
     0
281
     1
  0
ENDSEC
  0
SECTION
  2
TABLES
  0
TABLE
  2
VPORT
  5
8
100
AcDbSymbolTable
 70
     3
  0
VPORT
  5
1DB9
100
AcDbSymbolTableRecord
100
AcDbViewportTableRecord
  2
*ACTIVE
 70
     0
 10
0.0
 20
0.0
 11
1.0
 21
1.0
 12
191.853466
 22
170.94542
 13
0.0
 23
0.0
 14
1.0
 24
1.0
 15
0.0
 25
0.0
 16
0.0
 26
0.0
 36
1.0
 17
0.0
 27
0.0
 37
0.0
 40
84.989982
 41
1.750909
 42
50.0
 43
0.0
 44
0.0
 50
0.0
 51
0.0
 71
     0
 72
   100
 73
     1
 74
     0
 75
     0
 76
     0
 77
     0
 78
     0
  0
ENDTAB
  0
TABLE
  2
LTYPE
  5
5
100
AcDbSymbolTable
 70
     3
  0
LTYPE
  5
11
100
AcDbSymbolTableRecord
100
AcDbLinetypeTableRecord
  2
BYBLOCK
 70
     0
  3

 72
    65
 73
     0
 40
0.0
  0
LTYPE
  5
12
100
AcDbSymbolTableRecord
100
AcDbLinetypeTableRecord
  2
BYLAYER
 70
     0
  3

 72
    65
 73
     0
 40
0.0
  0
LTYPE
  5
13
100
AcDbSymbolTableRecord
100
AcDbLinetypeTableRecord
  2
CONTINUOUS
 70
     0
  3
Solid line
 72
    65
 73
     0
 40
0.0
  0
LTYPE
  5
62
100
AcDbSymbolTableRecord
100
AcDbLinetypeTableRecord
  2
CENTER
 70
     0
  3
____ _ ____ _ ____ _ ____ _ ____ _ ____ _ ____ 
 72
    65
 73
     4
 40
2.0
 49
1.25
 74
     0
 49
-0.25
 74
     0
 49
0.25
 74
     0
 49
-0.25
 74
     0
  0
LTYPE
  5
63
100
AcDbSymbolTableRecord
100
AcDbLinetypeTableRecord
  2
HIDDEN
 70
     0
  3
__ __ __ __ __ __ __ __ __ __ __ __ __ __ __ __
 72
    65
 73
     2
 40
0.375
 49
0.25
 74
     0
 49
-0.125
 74
     0
  0
ENDTAB
  0
TABLE
  2
LAYER
  5
2
100
AcDbSymbolTable
 70
     8
  0
LAYER
  5
E
100
AcDbSymbolTableRecord
100
AcDbLayerTableRecord
  2
0
 70
     0
 62
     7
  6
CONTINUOUS
  0
LAYER
  5
66
100
AcDbSymbolTableRecord
100
AcDbLayerTableRecord
  2
DIM
 70
     0
 62
     6
  6
CONTINUOUS
  0
LAYER
  5
67
100
AcDbSymbolTableRecord
100
AcDbLayerTableRecord
  2
BORDER
 70
     0
 62
     5
  6
CONTINUOUS
  0
LAYER
  5
68
100
AcDbSymbolTableRecord
100
AcDbLayerTableRecord
  2
OBJECT
 70
     0
 62
     2
  6
CONTINUOUS
  0
LAYER
  5
69
100
AcDbSymbolTableRecord
100
AcDbLayerTableRecord
  2
HIDDEN
 70
     0
 62
     1
  6
HIDDEN
  0
LAYER
  5
6A
100
AcDbSymbolTableRecord
100
AcDbLayerTableRecord
  2
CENTER
 70
     0
 62
     3
  6
CENTER
  0
LAYER
  5
6B
100
AcDbSymbolTableRecord
100
AcDbLayerTableRecord
  2
DEFPOINTS
 70
     0
 62
     7
  6
CONTINUOUS
  0
LAYER
  5
1BC6
100
AcDbSymbolTableRecord
100
AcDbLayerTableRecord
  2
LIMITS
 70
     0
 62
     7
  6
CONTINUOUS
  0
ENDTAB
  0
TABLE
  2
STYLE
  5
3
100
AcDbSymbolTable
 70
     5
  0
STYLE
  5
F
100
AcDbSymbolTableRecord
100
AcDbTextStyleTableRecord
  2
STANDARD
 70
     0
 40
0.0
 41
1.0
 50
0.0
 71
     0
 42
0.2
  3
txt
  4

  0
STYLE
  5
5D
100
AcDbSymbolTableRecord
100
AcDbTextStyleTableRecord
  2
ROMANS
 70
     0
 40
0.6
 41
1.0
 50
0.0
 71
     0
 42
0.6
  3
romans
  4

  0
STYLE
  5
5F
100
AcDbSymbolTableRecord
100
AcDbTextStyleTableRecord
  2
ROMAND
 70
     0
 40
1.5
 41
1.0
 50
0.0
 71
     0
 42
1.5
  3
ROMAND.SHX
  4

  0
STYLE
  5
60
100
AcDbSymbolTableRecord
100
AcDbTextStyleTableRecord
  2
ROMANC
 70
     0
 40
0.0531
 41
1.0
 50
0.0
 71
     0
 42
0.0531
  3
romanc
  4

  0
STYLE
  5
1BC7
100
AcDbSymbolTableRecord
100
AcDbTextStyleTableRecord
  2
COUNTRYBLUEPRINT
 70
     0
 40
0.061059
 41
1.0
 50
0.0
 71
     0
 42
0.061059
  3
cobt____.pfb
  4

  0
ENDTAB
  0
TABLE
  2
VIEW
  5
6
100
AcDbSymbolTable
 70
     0
  0
ENDTAB
  0
TABLE
  2
UCS
  5
7
100
AcDbSymbolTable
 70
     0
  0
ENDTAB
  0
TABLE
  2
APPID
  5
9
100
AcDbSymbolTable
 70
     1
  0
APPID
  5
10
100
AcDbSymbolTableRecord
100
AcDbRegAppTableRecord
  2
ACAD
 70
     0
  0
ENDTAB
  0
TABLE
  2
DIMSTYLE
  5
A
100
AcDbSymbolTable
 70
     1
  0
DIMSTYLE
105
1141
100
AcDbSymbolTableRecord
100
AcDbDimStyleTableRecord
  2
STANDARD
 70
     0
  3

  4

  5

  6

  7

 40
1.0
 41
0.18
 42
0.0625
 43
0.38
 44
0.18
 45
0.0
 46
0.0
 47
0.0
 48
0.0
140
0.18
141
0.09
142
0.0
143
25.4
144
1.0
145
0.0
146
1.0
147
0.09
 71
     0
 72
     0
 73
     1
 74
     1
 75
     0
 76
     0
 77
     0
 78
     0
170
     0
171
     2
172
     0
173
     0
174
     0
175
     0
176
     0
177
     0
178
     0
270
     2
271
     4
272
     4
273
     2
274
     2
340
F
275
     0
280
     0
281
     0
282
     0
283
     1
284
     0
285
     0
286
     0
287
     3
288
     0
  0
ENDTAB
  0
TABLE
  2
BLOCK_RECORD
  5
1
100
AcDbSymbolTable
 70
    28
  0
BLOCK_RECORD
  5
17
100
AcDbSymbolTableRecord
100
AcDbBlockTableRecord
  2
*MODEL_SPACE
  0
BLOCK_RECORD
  5
14
100
AcDbSymbolTableRecord
100
AcDbBlockTableRecord
  2
*PAPER_SPACE
  0
BLOCK_RECORD
  5
1A49
100
AcDbSymbolTableRecord
100
AcDbBlockTableRecord
  2
*D0
  0
BLOCK_RECORD
  5
1A56
100
AcDbSymbolTableRecord
100
AcDbBlockTableRecord
  2
*D1
  0
BLOCK_RECORD
  5
1A63
100
AcDbSymbolTableRecord
100
AcDbBlockTableRecord
  2
*D2
  0
BLOCK_RECORD
  5
1A70
100
AcDbSymbolTableRecord
100
AcDbBlockTableRecord
  2
*D3
  0
BLOCK_RECORD
  5
1A7C
100
AcDbSymbolTableRecord
100
AcDbBlockTableRecord
  2
*D4
  0
BLOCK_RECORD
  5
1A89
100
AcDbSymbolTableRecord
100
AcDbBlockTableRecord
  2
*D5
  0
BLOCK_RECORD
  5
1A97
100
AcDbSymbolTableRecord
100
AcDbBlockTableRecord
  2
*D6
  0
BLOCK_RECORD
  5
1AA5
100
AcDbSymbolTableRecord
100
AcDbBlockTableRecord
  2
*D7
  0
BLOCK_RECORD
  5
1AB3
100
AcDbSymbolTableRecord
100
AcDbBlockTableRecord
  2
*D8
  0
BLOCK_RECORD
  5
1AC0
100
AcDbSymbolTableRecord
100
AcDbBlockTableRecord
  2
*D9
  0
BLOCK_RECORD
  5
1ACE
100
AcDbSymbolTableRecord
100
AcDbBlockTableRecord
  2
*D10
  0
BLOCK_RECORD
  5
1ADB
100
AcDbSymbolTableRecord
100
AcDbBlockTableRecord
  2
*D11
  0
BLOCK_RECORD
  5
1AE8
100
AcDbSymbolTableRecord
100
AcDbBlockTableRecord
  2
*D12
  0
BLOCK_RECORD
  5
1AF5
100
AcDbSymbolTableRecord
100
AcDbBlockTableRecord
  2
*D13
  0
BLOCK_RECORD
  5
1B03
100
AcDbSymbolTableRecord
100
AcDbBlockTableRecord
  2
*D14
  0
BLOCK_RECORD
  5
1B10
100
AcDbSymbolTableRecord
100
AcDbBlockTableRecord
  2
*D15
  0
BLOCK_RECORD
  5
1B1D
100
AcDbSymbolTableRecord
100
AcDbBlockTableRecord
  2
*D16
  0
BLOCK_RECORD
  5
1B2A
100
AcDbSymbolTableRecord
100
AcDbBlockTableRecord
  2
*D17
  0
BLOCK_RECORD
  5
1B37
100
AcDbSymbolTableRecord
100
AcDbBlockTableRecord
  2
*D18
  0
BLOCK_RECORD
  5
1B44
100
AcDbSymbolTableRecord
100
AcDbBlockTableRecord
  2
*D19
  0
BLOCK_RECORD
  5
1B51
100
AcDbSymbolTableRecord
100
AcDbBlockTableRecord
  2
*D20
  0
BLOCK_RECORD
  5
1B5F
100
AcDbSymbolTableRecord
100
AcDbBlockTableRecord
  2
*D21
  0
BLOCK_RECORD
  5
1B6C
100
AcDbSymbolTableRecord
100
AcDbBlockTableRecord
  2
*D22
  0
BLOCK_RECORD
  5
1B7A
100
AcDbSymbolTableRecord
100
AcDbBlockTableRecord
  2
*D23
  0
BLOCK_RECORD
  5
1B87
100
AcDbSymbolTableRecord
100
AcDbBlockTableRecord
  2
*D24
  0
BLOCK_RECORD
  5
1B94
100
AcDbSymbolTableRecord
100
AcDbBlockTableRecord
  2
*D25
  0
BLOCK_RECORD
  5
1BA2
100
AcDbSymbolTableRecord
100
AcDbBlockTableRecord
  2
*D26
  0
BLOCK_RECORD
  5
1BAF
100
AcDbSymbolTableRecord
100
AcDbBlockTableRecord
  2
*D27
  0
ENDTAB
  0
ENDSEC
  0
SECTION
  2
BLOCKS
  0
BLOCK
  5
6E
100
AcDbEntity
  8
0
100
AcDbBlockBegin
  2
*MODEL_SPACE
 70
     0
 10
0.0
 20
0.0
 30
0.0
  3
*MODEL_SPACE
  1

  0
ENDBLK
  5
6F
100
AcDbEntity
  8
0
100
AcDbBlockEnd
  0
BLOCK
  5
6C
100
AcDbEntity
 67
     1
  8
0
100
AcDbBlockBegin
  2
*PAPER_SPACE
 70
     0
 10
0.0
 20
0.0
 30
0.0
  3
*PAPER_SPACE
  1

  0
ENDBLK
  5
6D
100
AcDbEntity
 67
     1
  8
0
100
AcDbBlockEnd
  0
BLOCK
  5
1A4A
100
AcDbEntity
  8
0
100
AcDbBlockBegin
  2
*D0
 70
     1
 10
0.0
 20
0.0
 30
0.0
  3
*D0
  1

  0
LINE
  5
1A4B
100
AcDbEntity
  8
0
  6
BYBLOCK
 62
     0
100
AcDbLine
 10
113.620052
 20
160.039777
 30
0.0
 11
113.620052
 21
163.04823
 31
0.0
  0
LINE
  5
1A4C
100
AcDbEntity
  8
0
  6
BYBLOCK
 62
     0
100
AcDbLine
 10
121.620052
 20
160.039777
 30
0.0
 11
121.620052
 21
163.04823
 31
0.0
  0
LINE
  5
1A4D
100
AcDbEntity
  8
0
  6
BYBLOCK
 62
     0
100
AcDbLine
 10
114.170052
 20
162.86823
 30
0.0
 11
116.505766
 21
162.86823
 31
0.0
  0
LINE
  5
1A4E
100
AcDbEntity
  8
0
  6
BYBLOCK
 62
     0
100
AcDbLine
 10
121.070052
 20
162.86823
 30
0.0
 11
118.734338
 21
162.86823
 31
0.0
  0
SOLID
  5
1A4F
100
AcDbEntity
  8
0
  6
BYBLOCK
 62
     0
100
AcDbTrace
 10
114.170052
 20
162.959897
 30
0.0
 11
114.170052
 21
162.776563
 31
0.0
 12
113.620052
 22
162.86823
 32
0.0
 13
113.620052
 23
162.86823
 33
0.0
  0
SOLID
  5
1A50
100
AcDbEntity
  8
0
  6
BYBLOCK
 62
     0
100
AcDbTrace
 10
121.070052
 20
162.959897
 30
0.0
 11
121.070052
 21
162.776563
 31
0.0
 12
121.620052
 22
162.86823
 32
0.0
 13
121.620052
 23
162.86823
 33
0.0
  0
MTEXT
  5
1A51
100
AcDbEntity
  8
0
  6
BYBLOCK
 62
     0
100
AcDbMText
 10
117.620052
 20
162.86823
 30
0.0
 40
0.6
 41
0.0
 71
     5
 72
     1
  1
\A1;8"
  7
ROMANS
  0
POINT
  5
1A52
100
AcDbEntity
  8
DEFPOINTS
  6
BYBLOCK
 62
     0
100
AcDbPoint
 10
113.620052
 20
159.977277
 30
0.0
  0
POINT
  5
1A53
100
AcDbEntity
  8
DEFPOINTS
  6
BYBLOCK
 62
     0
100
AcDbPoint
 10
121.620052
 20
159.977277
 30
0.0
  0
POINT
  5
1A54
100
AcDbEntity
  8
DEFPOINTS
  6
BYBLOCK
 62
     0
100
AcDbPoint
 10
121.620052
 20
162.86823
 30
0.0
  0
ENDBLK
  5
1A55
100
AcDbEntity
  8
0
100
AcDbBlockEnd
  0
BLOCK
  5
1A57
100
AcDbEntity
  8
0
100
AcDbBlockBegin
  2
*D1
 70
     1
 10
0.0
 20
0.0
 30
0.0
  3
*D1
  1

  0
LINE
  5
1A58
100
AcDbEntity
  8
0
  6
BYBLOCK
 62
     0
100
AcDbLine
 10
115.620052
 20
167.5773
 30
0.0
 11
115.620052
 21
166.372578
 31
0.0
  0
LINE
  5
1A59
100
AcDbEntity
  8
0
  6
BYBLOCK
 62
     0
100
AcDbLine
 10
119.620052
 20
167.5773
 30
0.0
 11
119.620052
 21
166.372578
 31
0.0
  0
LINE
  5
1A5A
100
AcDbEntity
  8
0
  6
BYBLOCK
 62
     0
100
AcDbLine
 10
116.170052
 20
166.552578
 30
0.0
 11
116.870052
 21
166.552578
 31
0.0
  0
LINE
  5
1A5B
100
AcDbEntity
  8
0
  6
BYBLOCK
 62
     0
100
AcDbLine
 10
119.070052
 20
166.552578
 30
0.0
 11
118.370052
 21
166.552578
 31
0.0
  0
MTEXT
  5
1A5C
100
AcDbEntity
  8
0
  6
BYBLOCK
 62
     0
100
AcDbMText
 10
117.703614
 20
166.504902
 30
0.0
 40
0.6
 41
0.0
 71
     5
 72
     1
  1
\A1;4"
  7
ROMANS
  0
SOLID
  5
1A5D
100
AcDbEntity
  8
0
  6
BYBLOCK
 62
     0
100
AcDbTrace
 10
116.170052
 20
166.644245
 30
0.0
 11
116.170052
 21
166.460912
 31
0.0
 12
115.620052
 22
166.552578
 32
0.0
 13
115.620052
 23
166.552578
 33
0.0
  0
SOLID
  5
1A5E
100
AcDbEntity
  8
0
  6
BYBLOCK
 62
     0
100
AcDbTrace
 10
119.070052
 20
166.644245
 30
0.0
 11
119.070052
 21
166.460912
 31
0.0
 12
119.620052
 22
166.552578
 32
0.0
 13
119.620052
 23
166.552578
 33
0.0
  0
POINT
  5
1A5F
100
AcDbEntity
  8
DEFPOINTS
  6
BYBLOCK
 62
     0
100
AcDbPoint
 10
115.620052
 20
167.6398
 30
0.0
  0
POINT
  5
1A60
100
AcDbEntity
  8
DEFPOINTS
  6
BYBLOCK
 62
     0
100
AcDbPoint
 10
119.620052
 20
167.6398
 30
0.0
  0
POINT
  5
1A61
100
AcDbEntity
  8
DEFPOINTS
  6
BYBLOCK
 62
     0
100
AcDbPoint
 10
119.620052
 20
166.552578
 30
0.0
  0
ENDBLK
  5
1A62
100
AcDbEntity
  8
0
100
AcDbBlockEnd
  0
BLOCK
  5
1D97
100
AcDbEntity
  8
0
100
AcDbBlockBegin
  2
*D2
 70
     1
 10
0.0
 20
0.0
 30
0.0
  3
*D2
  1

  0
LINE
  5
1D98
100
AcDbEntity
  8
0
  6
BYBLOCK
 62
     0
100
AcDbLine
 10
168.372291
 20
164.303697
 30
0.0
 11
168.372291
 21
167.31215
 31
0.0
  0
LINE
  5
1D99
100
AcDbEntity
  8
0
  6
BYBLOCK
 62
     0
100
AcDbLine
 10
174.372291
 20
164.303697
 30
0.0
 11
174.372291
 21
167.31215
 31
0.0
  0
LINE
  5
1D9A
100
AcDbEntity
  8
0
  6
BYBLOCK
 62
     0
100
AcDbLine
 10
168.922291
 20
167.13215
 30
0.0
 11
170.258006
 21
167.13215
 31
0.0
  0
LINE
  5
1D9B
100
AcDbEntity
  8
0
  6
BYBLOCK
 62
     0
100
AcDbLine
 10
173.822291
 20
167.13215
 30
0.0
 11
172.486577
 21
167.13215
 31
0.0
  0
SOLID
  5
1D9C
100
AcDbEntity
  8
0
  6
BYBLOCK
 62
     0
100
AcDbTrace
 10
168.922291
 20
167.223817
 30
0.0
 11
168.922291
 21
167.040483
 31
0.0
 12
168.372291
 22
167.13215
 32
0.0
 13
168.372291
 23
167.13215
 33
0.0
  0
SOLID
  5
1D9D
100
AcDbEntity
  8
0
  6
BYBLOCK
 62
     0
100
AcDbTrace
 10
173.822291
 20
167.223817
 30
0.0
 11
173.822291
 21
167.040483
 31
0.0
 12
174.372291
 22
167.13215
 32
0.0
 13
174.372291
 23
167.13215
 33
0.0
  0
MTEXT
  5
1D9E
100
AcDbEntity
  8
0
  6
BYBLOCK
 62
     0
100
AcDbMText
 10
171.372291
 20
167.13215
 30
0.0
 40
0.6
 41
0.0
 71
     5
 72
     1
  1
\A1;5"
  7
ROMANS
  0
POINT
  5
1D9F
100
AcDbEntity
  8
DEFPOINTS
  6
BYBLOCK
 62
     0
100
AcDbPoint
 10
168.372291
 20
164.241197
 30
0.0
  0
POINT
  5
1DA0
100
AcDbEntity
  8
DEFPOINTS
  6
BYBLOCK
 62
     0
100
AcDbPoint
 10
174.372291
 20
164.241197
 30
0.0
  0
POINT
  5
1DA1
100
AcDbEntity
  8
DEFPOINTS
  6
BYBLOCK
 62
     0
100
AcDbPoint
 10
174.372291
 20
167.13215
 30
0.0
  0
ENDBLK
  5
1DA2
100
AcDbEntity
  8
0
100
AcDbBlockEnd
  0
BLOCK
  5
1A71
100
AcDbEntity
  8
0
100
AcDbBlockBegin
  2
*D3
 70
     1
 10
0.0
 20
0.0
 30
0.0
  3
*D3
  1

  0
LINE
  5
1A72
100
AcDbEntity
  8
0
  6
BYBLOCK
 62
     0
100
AcDbLine
 10
95.690765
 20
168.1398
 30
0.0
 11
95.690765
 21
166.365443
 31
0.0
  0
LINE
  5
1A73
100
AcDbEntity
  8
0
  6
BYBLOCK
 62
     0
100
AcDbLine
 10
98.440765
 20
168.1398
 30
0.0
 11
98.440765
 21
166.365443
 31
0.0
  0
LINE
  5
1A74
100
AcDbEntity
  8
0
  6
BYBLOCK
 62
     0
100
AcDbLine
 10
96.240765
 20
166.545443
 30
0.0
 11
97.890765
 21
166.545443
 31
0.0
  0
MTEXT
  5
1A75
100
AcDbEntity
  8
0
  6
BYBLOCK
 62
     0
100
AcDbMText
 10
93.662027
 20
166.509257
 30
0.0
 40
0.6
 41
0.0
 71
     5
 72
     1
  1
\A1;2 3/4"
  7
ROMANS
  0
SOLID
  5
1A76
100
AcDbEntity
  8
0
  6
BYBLOCK
 62
     0
100
AcDbTrace
 10
96.240765
 20
166.63711
 30
0.0
 11
96.240765
 21
166.453776
 31
0.0
 12
95.690765
 22
166.545443
 32
0.0
 13
95.690765
 23
166.545443
 33
0.0
  0
SOLID
  5
1A77
100
AcDbEntity
  8
0
  6
BYBLOCK
 62
     0
100
AcDbTrace
 10
97.890765
 20
166.63711
 30
0.0
 11
97.890765
 21
166.453776
 31
0.0
 12
98.440765
 22
166.545443
 32
0.0
 13
98.440765
 23
166.545443
 33
0.0
  0
POINT
  5
1A78
100
AcDbEntity
  8
DEFPOINTS
  6
BYBLOCK
 62
     0
100
AcDbPoint
 10
95.690765
 20
168.2023
 30
0.0
  0
POINT
  5
1A79
100
AcDbEntity
  8
DEFPOINTS
  6
BYBLOCK
 62
     0
100
AcDbPoint
 10
98.440765
 20
168.2023
 30
0.0
  0
POINT
  5
1A7A
100
AcDbEntity
  8
DEFPOINTS
  6
BYBLOCK
 62
     0
100
AcDbPoint
 10
98.440765
 20
166.545443
 30
0.0
  0
ENDBLK
  5
1A7B
100
AcDbEntity
  8
0
100
AcDbBlockEnd
  0
BLOCK
  5
1DA3
100
AcDbEntity
  8
0
100
AcDbBlockBegin
  2
*D4
 70
     1
 10
0.0
 20
0.0
 30
0.0
  3
*D4
  1

  0
LINE
  5
1DA4
100
AcDbEntity
  8
0
  6
BYBLOCK
 62
     0
100
AcDbLine
 10
174.434791
 20
158.241197
 30
0.0
 11
176.486526
 21
158.241197
 31
0.0
  0
LINE
  5
1DA5
100
AcDbEntity
  8
0
  6
BYBLOCK
 62
     0
100
AcDbLine
 10
174.434791
 20
164.241197
 30
0.0
 11
176.486526
 21
164.241197
 31
0.0
  0
LINE
  5
1DA6
100
AcDbEntity
  8
0
  6
BYBLOCK
 62
     0
100
AcDbLine
 10
176.306526
 20
158.791197
 30
0.0
 11
176.306526
 21
160.184055
 31
0.0
  0
LINE
  5
1DA7
100
AcDbEntity
  8
0
  6
BYBLOCK
 62
     0
100
AcDbLine
 10
176.306526
 20
163.691197
 30
0.0
 11
176.306526
 21
162.29834
 31
0.0
  0
SOLID
  5
1DA8
100
AcDbEntity
  8
0
  6
BYBLOCK
 62
     0
100
AcDbTrace
 10
176.21486
 20
158.791197
 30
0.0
 11
176.398193
 21
158.791197
 31
0.0
 12
176.306526
 22
158.241197
 32
0.0
 13
176.306526
 23
158.241197
 33
0.0
  0
SOLID
  5
1DA9
100
AcDbEntity
  8
0
  6
BYBLOCK
 62
     0
100
AcDbTrace
 10
176.21486
 20
163.691197
 30
0.0
 11
176.398193
 21
163.691197
 31
0.0
 12
176.306526
 22
164.241197
 32
0.0
 13
176.306526
 23
164.241197
 33
0.0
  0
MTEXT
  5
1DAA
100
AcDbEntity
  8
0
  6
BYBLOCK
 62
     0
100
AcDbMText
 10
176.306526
 20
161.241197
 30
0.0
 40
0.6
 41
0.0
 71
     5
 72
     1
  1
\A1;5"
  7
ROMANS
  0
POINT
  5
1DAB
100
AcDbEntity
  8
DEFPOINTS
  6
BYBLOCK
 62
     0
100
AcDbPoint
 10
174.372291
 20
158.241197
 30
0.0
  0
POINT
  5
1DAC
100
AcDbEntity
  8
DEFPOINTS
  6
BYBLOCK
 62
     0
100
AcDbPoint
 10
174.372291
 20
164.241197
 30
0.0
  0
POINT
  5
1DAD
100
AcDbEntity
  8
DEFPOINTS
  6
BYBLOCK
 62
     0
100
AcDbPoint
 10
176.306526
 20
164.241197
 30
0.0
  0
ENDBLK
  5
1DAE
100
AcDbEntity
  8
0
100
AcDbBlockEnd
  0
BLOCK
  5
1A8A
100
AcDbEntity
  8
0
100
AcDbBlockBegin
  2
*D5
 70
     1
 10
0.0
 20
0.0
 30
0.0
  3
*D5
  1

  0
LINE
  5
1A8B
100
AcDbEntity
  8
0
  6
BYBLOCK
 62
     0
100
AcDbLine
 10
98.503265
 20
168.2023
 30
0.0
 11
105.18
 21
168.2023
 31
0.0
  0
LINE
  5
1A8C
100
AcDbEntity
  8
0
  6
BYBLOCK
 62
     0
100
AcDbLine
 10
98.503265
 20
170.3273
 30
0.0
 11
105.18
 21
170.3273
 31
0.0
  0
LINE
  5
1A8D
100
AcDbEntity
  8
0
  6
BYBLOCK
 62
     0
100
AcDbLine
 10
105.0
 20
167.6523
 30
0.0
 11
105.0
 21
167.1023
 31
0.0
  0
LINE
  5
1A8E
100
AcDbEntity
  8
0
  6
BYBLOCK
 62
     0
100
AcDbLine
 10
105.0
 20
170.8773
 30
0.0
 11
105.0
 21
171.4273
 31
0.0
  0
MTEXT
  5
1A8F
100
AcDbEntity
  8
0
  6
BYBLOCK
 62
     0
100
AcDbMText
 10
105.038047
 20
169.295549
 30
0.0
 40
0.6
 41
0.0
 71
     5
 72
     1
  1
\A1;2 1/8"
  7
ROMANS
  0
LINE
  5
1A90
100
AcDbEntity
  8
0
  6
BYBLOCK
 62
     0
100
AcDbLine
 10
105.0
 20
168.2023
 30
0.0
 11
105.0
 21
170.3273
 31
0.0
  0
SOLID
  5
1A91
100
AcDbEntity
  8
0
  6
BYBLOCK
 62
     0
100
AcDbTrace
 10
104.908333
 20
167.6523
 30
0.0
 11
105.091667
 21
167.6523
 31
0.0
 12
105.0
 22
168.2023
 32
0.0
 13
105.0
 23
168.2023
 33
0.0
  0
SOLID
  5
1A92
100
AcDbEntity
  8
0
  6
BYBLOCK
 62
     0
100
AcDbTrace
 10
104.908333
 20
170.8773
 30
0.0
 11
105.091667
 21
170.8773
 31
0.0
 12
105.0
 22
170.3273
 32
0.0
 13
105.0
 23
170.3273
 33
0.0
  0
POINT
  5
1A93
100
AcDbEntity
  8
DEFPOINTS
  6
BYBLOCK
 62
     0
100
AcDbPoint
 10
98.440765
 20
168.2023
 30
0.0
  0
POINT
  5
1A94
100
AcDbEntity
  8
DEFPOINTS
  6
BYBLOCK
 62
     0
100
AcDbPoint
 10
98.440765
 20
170.3273
 30
0.0
  0
POINT
  5
1A95
100
AcDbEntity
  8
DEFPOINTS
  6
BYBLOCK
 62
     0
100
AcDbPoint
 10
105.0
 20
170.3273
 30
0.0
  0
ENDBLK
  5
1A96
100
AcDbEntity
  8
0
100
AcDbBlockEnd
  0
BLOCK
  5
1A98
100
AcDbEntity
  8
0
100
AcDbBlockBegin
  2
*D6
 70
     1
 10
0.0
 20
0.0
 30
0.0
  3
*D6
  1

  0
LINE
  5
1A99
100
AcDbEntity
  8
0
  6
BYBLOCK
 62
     0
100
AcDbLine
 10
96.00241
 20
193.402154
 30
0.0
 11
101.397645
 21
193.402154
 31
0.0
  0
LINE
  5
1A9A
100
AcDbEntity
  8
0
  6
BYBLOCK
 62
     0
100
AcDbLine
 10
96.00241
 20
195.027154
 30
0.0
 11
101.397645
 21
195.027154
 31
0.0
  0
LINE
  5
1A9B
100
AcDbEntity
  8
0
  6
BYBLOCK
 62
     0
100
AcDbLine
 10
101.217645
 20
192.852154
 30
0.0
 11
101.217645
 21
192.302154
 31
0.0
  0
LINE
  5
1A9C
100
AcDbEntity
  8
0
  6
BYBLOCK
 62
     0
100
AcDbLine
 10
101.217645
 20
195.577154
 30
0.0
 11
101.217645
 21
196.127154
 31
0.0
  0
MTEXT
  5
1A9D
100
AcDbEntity
  8
0
  6
BYBLOCK
 62
     0
100
AcDbMText
 10
101.477986
 20
196.927612
 30
0.0
 40
0.6
 41
0.0
 71
     5
 72
     1
  1
\A1;1 1/16"
  7
ROMANS
  0
LINE
  5
1A9E
100
AcDbEntity
  8
0
  6
BYBLOCK
 62
     0
100
AcDbLine
 10
101.217645
 20
193.402154
 30
0.0
 11
101.217645
 21
195.027154
 31
0.0
  0
SOLID
  5
1A9F
100
AcDbEntity
  8
0
  6
BYBLOCK
 62
     0
100
AcDbTrace
 10
101.125978
 20
192.852154
 30
0.0
 11
101.309311
 21
192.852154
 31
0.0
 12
101.217645
 22
193.402154
 32
0.0
 13
101.217645
 23
193.402154
 33
0.0
  0
SOLID
  5
1AA0
100
AcDbEntity
  8
0
  6
BYBLOCK
 62
     0
100
AcDbTrace
 10
101.125978
 20
195.577154
 30
0.0
 11
101.309311
 21
195.577154
 31
0.0
 12
101.217645
 22
195.027154
 32
0.0
 13
101.217645
 23
195.027154
 33
0.0
  0
POINT
  5
1AA1
100
AcDbEntity
  8
DEFPOINTS
  6
BYBLOCK
 62
     0
100
AcDbPoint
 10
95.93991
 20
193.402154
 30
0.0
  0
POINT
  5
1AA2
100
AcDbEntity
  8
DEFPOINTS
  6
BYBLOCK
 62
     0
100
AcDbPoint
 10
95.93991
 20
195.027154
 30
0.0
  0
POINT
  5
1AA3
100
AcDbEntity
  8
DEFPOINTS
  6
BYBLOCK
 62
     0
100
AcDbPoint
 10
101.217645
 20
195.027154
 30
0.0
  0
ENDBLK
  5
1AA4
100
AcDbEntity
  8
0
100
AcDbBlockEnd
  0
BLOCK
  5
1AA6
100
AcDbEntity
  8
0
100
AcDbBlockBegin
  2
*D7
 70
     1
 10
0.0
 20
0.0
 30
0.0
  3
*D7
  1

  0
LINE
  5
1AA7
100
AcDbEntity
  8
0
  6
BYBLOCK
 62
     0
100
AcDbLine
 10
94.62691
 20
193.339654
 30
0.0
 11
94.62691
 21
191.522744
 31
0.0
  0
LINE
  5
1AA8
100
AcDbEntity
  8
0
  6
BYBLOCK
 62
     0
100
AcDbLine
 10
95.93991
 20
193.339654
 30
0.0
 11
95.93991
 21
191.522744
 31
0.0
  0
LINE
  5
1AA9
100
AcDbEntity
  8
0
  6
BYBLOCK
 62
     0
100
AcDbLine
 10
94.07691
 20
191.702744
 30
0.0
 11
93.52691
 21
191.702744
 31
0.0
  0
LINE
  5
1AAA
100
AcDbEntity
  8
0
  6
BYBLOCK
 62
     0
100
AcDbLine
 10
96.48991
 20
191.702744
 30
0.0
 11
97.03991
 21
191.702744
 31
0.0
  0
MTEXT
  5
1AAB
100
AcDbEntity
  8
0
  6
BYBLOCK
 62
     0
100
AcDbMText
 10
91.457342
 20
191.702744
 30
0.0
 40
0.6
 41
0.0
 71
     5
 72
     1
  1
\A1;1 5/16"
  7
ROMANS
  0
LINE
  5
1AAC
100
AcDbEntity
  8
0
  6
BYBLOCK
 62
     0
100
AcDbLine
 10
94.62691
 20
191.702744
 30
0.0
 11
95.93991
 21
191.702744
 31
0.0
  0
SOLID
  5
1AAD
100
AcDbEntity
  8
0
  6
BYBLOCK
 62
     0
100
AcDbTrace
 10
94.07691
 20
191.794411
 30
0.0
 11
94.07691
 21
191.611077
 31
0.0
 12
94.62691
 22
191.702744
 32
0.0
 13
94.62691
 23
191.702744
 33
0.0
  0
SOLID
  5
1AAE
100
AcDbEntity
  8
0
  6
BYBLOCK
 62
     0
100
AcDbTrace
 10
96.48991
 20
191.794411
 30
0.0
 11
96.48991
 21
191.611077
 31
0.0
 12
95.93991
 22
191.702744
 32
0.0
 13
95.93991
 23
191.702744
 33
0.0
  0
POINT
  5
1AAF
100
AcDbEntity
  8
DEFPOINTS
  6
BYBLOCK
 62
     0
100
AcDbPoint
 10
94.62691
 20
193.402154
 30
0.0
  0
POINT
  5
1AB0
100
AcDbEntity
  8
DEFPOINTS
  6
BYBLOCK
 62
     0
100
AcDbPoint
 10
95.93991
 20
193.402154
 30
0.0
  0
POINT
  5
1AB1
100
AcDbEntity
  8
DEFPOINTS
  6
BYBLOCK
 62
     0
100
AcDbPoint
 10
95.93991
 20
191.702744
 30
0.0
  0
ENDBLK
  5
1AB2
100
AcDbEntity
  8
0
100
AcDbBlockEnd
  0
BLOCK
  5
1AB4
100
AcDbEntity
  8
0
100
AcDbBlockBegin
  2
*D8
 70
     1
 10
0.0
 20
0.0
 30
0.0
  3
*D8
  1

  0
LINE
  5
1AB5
100
AcDbEntity
  8
0
  6
BYBLOCK
 62
     0
100
AcDbLine
 10
92.78341
 20
184.324672
 30
0.0
 11
92.78341
 21
187.333124
 31
0.0
  0
LINE
  5
1AB6
100
AcDbEntity
  8
0
  6
BYBLOCK
 62
     0
100
AcDbLine
 10
97.78341
 20
184.324672
 30
0.0
 11
97.78341
 21
187.333124
 31
0.0
  0
LINE
  5
1AB7
100
AcDbEntity
  8
0
  6
BYBLOCK
 62
     0
100
AcDbLine
 10
93.33341
 20
187.153124
 30
0.0
 11
94.169124
 21
187.153124
 31
0.0
  0
LINE
  5
1AB8
100
AcDbEntity
  8
0
  6
BYBLOCK
 62
     0
100
AcDbLine
 10
97.23341
 20
187.153124
 30
0.0
 11
96.397695
 21
187.153124
 31
0.0
  0
SOLID
  5
1AB9
100
AcDbEntity
  8
0
  6
BYBLOCK
 62
     0
100
AcDbTrace
 10
93.33341
 20
187.244791
 30
0.0
 11
93.33341
 21
187.061458
 31
0.0
 12
92.78341
 22
187.153124
 32
0.0
 13
92.78341
 23
187.153124
 33
0.0
  0
SOLID
  5
1ABA
100
AcDbEntity
  8
0
  6
BYBLOCK
 62
     0
100
AcDbTrace
 10
97.23341
 20
187.244791
 30
0.0
 11
97.23341
 21
187.061458
 31
0.0
 12
97.78341
 22
187.153124
 32
0.0
 13
97.78341
 23
187.153124
 33
0.0
  0
MTEXT
  5
1ABB
100
AcDbEntity
  8
0
  6
BYBLOCK
 62
     0
100
AcDbMText
 10
95.28341
 20
187.153124
 30
0.0
 40
0.6
 41
0.0
 71
     5
 72
     1
  1
\A1;5"
  7
ROMANS
  0
POINT
  5
1ABC
100
AcDbEntity
  8
DEFPOINTS
  6
BYBLOCK
 62
     0
100
AcDbPoint
 10
92.78341
 20
184.262172
 30
0.0
  0
POINT
  5
1ABD
100
AcDbEntity
  8
DEFPOINTS
  6
BYBLOCK
 62
     0
100
AcDbPoint
 10
97.78341
 20
184.262172
 30
0.0
  0
POINT
  5
1ABE
100
AcDbEntity
  8
DEFPOINTS
  6
BYBLOCK
 62
     0
100
AcDbPoint
 10
97.78341
 20
187.153124
 30
0.0
  0
ENDBLK
  5
1ABF
100
AcDbEntity
  8
0
100
AcDbBlockEnd
  0
BLOCK
  5
1AC1
100
AcDbEntity
  8
0
100
AcDbBlockBegin
  2
*D9
 70
     1
 10
0.0
 20
0.0
 30
0.0
  3
*D9
  1

  0
LINE
  5
1AC2
100
AcDbEntity
  8
0
  6
BYBLOCK
 62
     0
100
AcDbLine
 10
109.830528
 20
193.152154
 30
0.0
 11
109.830528
 21
191.517275
 31
0.0
  0
LINE
  5
1AC3
100
AcDbEntity
  8
0
  6
BYBLOCK
 62
     0
100
AcDbLine
 10
111.406528
 20
193.152154
 30
0.0
 11
111.406528
 21
191.517275
 31
0.0
  0
LINE
  5
1AC4
100
AcDbEntity
  8
0
  6
BYBLOCK
 62
     0
100
AcDbLine
 10
109.280528
 20
191.697275
 30
0.0
 11
108.730528
 21
191.697275
 31
0.0
  0
LINE
  5
1AC5
100
AcDbEntity
  8
0
  6
BYBLOCK
 62
     0
100
AcDbLine
 10
111.956528
 20
191.697275
 30
0.0
 11
112.506528
 21
191.697275
 31
0.0
  0
MTEXT
  5
1AC6
100
AcDbEntity
  8
0
  6
BYBLOCK
 62
     0
100
AcDbMText
 10
106.718411
 20
191.697275
 30
0.0
 40
0.6
 41
0.0
 71
     5
 72
     1
  1
\A1;1 9/16"
  7
ROMANS
  0
LINE
  5
1AC7
100
AcDbEntity
  8
0
  6
BYBLOCK
 62
     0
100
AcDbLine
 10
109.830528
 20
191.697275
 30
0.0
 11
111.406528
 21
191.697275
 31
0.0
  0
SOLID
  5
1AC8
100
AcDbEntity
  8
0
  6
BYBLOCK
 62
     0
100
AcDbTrace
 10
109.280528
 20
191.788941
 30
0.0
 11
109.280528
 21
191.605608
 31
0.0
 12
109.830528
 22
191.697275
 32
0.0
 13
109.830528
 23
191.697275
 33
0.0
  0
SOLID
  5
1AC9
100
AcDbEntity
  8
0
  6
BYBLOCK
 62
     0
100
AcDbTrace
 10
111.956528
 20
191.788941
 30
0.0
 11
111.956528
 21
191.605608
 31
0.0
 12
111.406528
 22
191.697275
 32
0.0
 13
111.406528
 23
191.697275
 33
0.0
  0
POINT
  5
1ACA
100
AcDbEntity
  8
DEFPOINTS
  6
BYBLOCK
 62
     0
100
AcDbPoint
 10
109.830528
 20
193.214654
 30
0.0
  0
POINT
  5
1ACB
100
AcDbEntity
  8
DEFPOINTS
  6
BYBLOCK
 62
     0
100
AcDbPoint
 10
111.406528
 20
193.214654
 30
0.0
  0
POINT
  5
1ACC
100
AcDbEntity
  8
DEFPOINTS
  6
BYBLOCK
 62
     0
100
AcDbPoint
 10
111.406528
 20
191.697275
 30
0.0
  0
ENDBLK
  5
1ACD
100
AcDbEntity
  8
0
100
AcDbBlockEnd
  0
BLOCK
  5
1ACF
100
AcDbEntity
  8
0
100
AcDbBlockBegin
  2
*D10
 70
     1
 10
0.0
 20
0.0
 30
0.0
  3
*D10
  1

  0
LINE
  5
1AD0
100
AcDbEntity
  8
0
  6
BYBLOCK
 62
     0
100
AcDbLine
 10
97.84591
 20
179.262172
 30
0.0
 11
99.897645
 21
179.262172
 31
0.0
  0
LINE
  5
1AD1
100
AcDbEntity
  8
0
  6
BYBLOCK
 62
     0
100
AcDbLine
 10
97.84591
 20
184.262172
 30
0.0
 11
99.897645
 21
184.262172
 31
0.0
  0
LINE
  5
1AD2
100
AcDbEntity
  8
0
  6
BYBLOCK
 62
     0
100
AcDbLine
 10
99.717645
 20
179.812172
 30
0.0
 11
99.717645
 21
180.705029
 31
0.0
  0
LINE
  5
1AD3
100
AcDbEntity
  8
0
  6
BYBLOCK
 62
     0
100
AcDbLine
 10
99.717645
 20
183.712172
 30
0.0
 11
99.717645
 21
182.819315
 31
0.0
  0
SOLID
  5
1AD4
100
AcDbEntity
  8
0
  6
BYBLOCK
 62
     0
100
AcDbTrace
 10
99.625978
 20
179.812172
 30
0.0
 11
99.809311
 21
179.812172
 31
0.0
 12
99.717645
 22
179.262172
 32
0.0
 13
99.717645
 23
179.262172
 33
0.0
  0
SOLID
  5
1AD5
100
AcDbEntity
  8
0
  6
BYBLOCK
 62
     0
100
AcDbTrace
 10
99.625978
 20
183.712172
 30
0.0
 11
99.809311
 21
183.712172
 31
0.0
 12
99.717645
 22
184.262172
 32
0.0
 13
99.717645
 23
184.262172
 33
0.0
  0
MTEXT
  5
1AD6
100
AcDbEntity
  8
0
  6
BYBLOCK
 62
     0
100
AcDbMText
 10
99.717645
 20
181.762172
 30
0.0
 40
0.6
 41
0.0
 71
     5
 72
     1
  1
\A1;5"
  7
ROMANS
  0
POINT
  5
1AD7
100
AcDbEntity
  8
DEFPOINTS
  6
BYBLOCK
 62
     0
100
AcDbPoint
 10
97.78341
 20
179.262172
 30
0.0
  0
POINT
  5
1AD8
100
AcDbEntity
  8
DEFPOINTS
  6
BYBLOCK
 62
     0
100
AcDbPoint
 10
97.78341
 20
184.262172
 30
0.0
  0
POINT
  5
1AD9
100
AcDbEntity
  8
DEFPOINTS
  6
BYBLOCK
 62
     0
100
AcDbPoint
 10
99.717645
 20
184.262172
 30
0.0
  0
ENDBLK
  5
1ADA
100
AcDbEntity
  8
0
100
AcDbBlockEnd
  0
BLOCK
  5
1ADC
100
AcDbEntity
  8
0
100
AcDbBlockBegin
  2
*D11
 70
     1
 10
0.0
 20
0.0
 30
0.0
  3
*D11
  1

  0
LINE
  5
1ADD
100
AcDbEntity
  8
0
  6
BYBLOCK
 62
     0
100
AcDbLine
 10
108.118528
 20
184.324672
 30
0.0
 11
108.118528
 21
187.333124
 31
0.0
  0
LINE
  5
1ADE
100
AcDbEntity
  8
0
  6
BYBLOCK
 62
     0
100
AcDbLine
 10
113.118528
 20
184.324672
 30
0.0
 11
113.118528
 21
187.333124
 31
0.0
  0
LINE
  5
1ADF
100
AcDbEntity
  8
0
  6
BYBLOCK
 62
     0
100
AcDbLine
 10
108.668528
 20
187.153124
 30
0.0
 11
109.504242
 21
187.153124
 31
0.0
  0
LINE
  5
1AE0
100
AcDbEntity
  8
0
  6
BYBLOCK
 62
     0
100
AcDbLine
 10
112.568528
 20
187.153124
 30
0.0
 11
111.732814
 21
187.153124
 31
0.0
  0
SOLID
  5
1AE1
100
AcDbEntity
  8
0
  6
BYBLOCK
 62
     0
100
AcDbTrace
 10
108.668528
 20
187.244791
 30
0.0
 11
108.668528
 21
187.061458
 31
0.0
 12
108.118528
 22
187.153124
 32
0.0
 13
108.118528
 23
187.153124
 33
0.0
  0
SOLID
  5
1AE2
100
AcDbEntity
  8
0
  6
BYBLOCK
 62
     0
100
AcDbTrace
 10
112.568528
 20
187.244791
 30
0.0
 11
112.568528
 21
187.061458
 31
0.0
 12
113.118528
 22
187.153124
 32
0.0
 13
113.118528
 23
187.153124
 33
0.0
  0
MTEXT
  5
1AE3
100
AcDbEntity
  8
0
  6
BYBLOCK
 62
     0
100
AcDbMText
 10
110.618528
 20
187.153124
 30
0.0
 40
0.6
 41
0.0
 71
     5
 72
     1
  1
\A1;5"
  7
ROMANS
  0
POINT
  5
1AE4
100
AcDbEntity
  8
DEFPOINTS
  6
BYBLOCK
 62
     0
100
AcDbPoint
 10
108.118528
 20
184.262172
 30
0.0
  0
POINT
  5
1AE5
100
AcDbEntity
  8
DEFPOINTS
  6
BYBLOCK
 62
     0
100
AcDbPoint
 10
113.118528
 20
184.262172
 30
0.0
  0
POINT
  5
1AE6
100
AcDbEntity
  8
DEFPOINTS
  6
BYBLOCK
 62
     0
100
AcDbPoint
 10
113.118528
 20
187.153124
 30
0.0
  0
ENDBLK
  5
1AE7
100
AcDbEntity
  8
0
100
AcDbBlockEnd
  0
BLOCK
  5
1AE9
100
AcDbEntity
  8
0
100
AcDbBlockBegin
  2
*D12
 70
     1
 10
0.0
 20
0.0
 30
0.0
  3
*D12
  1

  0
LINE
  5
1AEA
100
AcDbEntity
  8
0
  6
BYBLOCK
 62
     0
100
AcDbLine
 10
113.181028
 20
179.262172
 30
0.0
 11
115.232763
 21
179.262172
 31
0.0
  0
LINE
  5
1AEB
100
AcDbEntity
  8
0
  6
BYBLOCK
 62
     0
100
AcDbLine
 10
113.181028
 20
184.262172
 30
0.0
 11
115.232763
 21
184.262172
 31
0.0
  0
LINE
  5
1AEC
100
AcDbEntity
  8
0
  6
BYBLOCK
 62
     0
100
AcDbLine
 10
115.052763
 20
179.812172
 30
0.0
 11
115.052763
 21
180.705029
 31
0.0
  0
LINE
  5
1AED
100
AcDbEntity
  8
0
  6
BYBLOCK
 62
     0
100
AcDbLine
 10
115.052763
 20
183.712172
 30
0.0
 11
115.052763
 21
182.819315
 31
0.0
  0
SOLID
  5
1AEE
100
AcDbEntity
  8
0
  6
BYBLOCK
 62
     0
100
AcDbTrace
 10
114.961096
 20
179.812172
 30
0.0
 11
115.14443
 21
179.812172
 31
0.0
 12
115.052763
 22
179.262172
 32
0.0
 13
115.052763
 23
179.262172
 33
0.0
  0
SOLID
  5
1AEF
100
AcDbEntity
  8
0
  6
BYBLOCK
 62
     0
100
AcDbTrace
 10
114.961096
 20
183.712172
 30
0.0
 11
115.14443
 21
183.712172
 31
0.0
 12
115.052763
 22
184.262172
 32
0.0
 13
115.052763
 23
184.262172
 33
0.0
  0
MTEXT
  5
1AF0
100
AcDbEntity
  8
0
  6
BYBLOCK
 62
     0
100
AcDbMText
 10
115.052763
 20
181.762172
 30
0.0
 40
0.6
 41
0.0
 71
     5
 72
     1
  1
\A1;5"
  7
ROMANS
  0
POINT
  5
1AF1
100
AcDbEntity
  8
DEFPOINTS
  6
BYBLOCK
 62
     0
100
AcDbPoint
 10
113.118528
 20
179.262172
 30
0.0
  0
POINT
  5
1AF2
100
AcDbEntity
  8
DEFPOINTS
  6
BYBLOCK
 62
     0
100
AcDbPoint
 10
113.118528
 20
184.262172
 30
0.0
  0
POINT
  5
1AF3
100
AcDbEntity
  8
DEFPOINTS
  6
BYBLOCK
 62
     0
100
AcDbPoint
 10
115.052763
 20
184.262172
 30
0.0
  0
ENDBLK
  5
1AF4
100
AcDbEntity
  8
0
100
AcDbBlockEnd
  0
BLOCK
  5
1AF6
100
AcDbEntity
  8
0
100
AcDbBlockBegin
  2
*D13
 70
     1
 10
0.0
 20
0.0
 30
0.0
  3
*D13
  1

  0
LINE
  5
1AF7
100
AcDbEntity
  8
0
  6
BYBLOCK
 62
     0
100
AcDbLine
 10
111.469028
 20
193.214654
 30
0.0
 11
116.734229
 21
193.214654
 31
0.0
  0
LINE
  5
1AF8
100
AcDbEntity
  8
0
  6
BYBLOCK
 62
     0
100
AcDbLine
 10
111.469028
 20
195.214654
 30
0.0
 11
116.734229
 21
195.214654
 31
0.0
  0
LINE
  5
1AF9
100
AcDbEntity
  8
0
  6
BYBLOCK
 62
     0
100
AcDbLine
 10
116.554229
 20
192.664654
 30
0.0
 11
116.554229
 21
192.114654
 31
0.0
  0
LINE
  5
1AFA
100
AcDbEntity
  8
0
  6
BYBLOCK
 62
     0
100
AcDbLine
 10
116.554229
 20
195.764654
 30
0.0
 11
116.554229
 21
196.314654
 31
0.0
  0
MTEXT
  5
1AFB
100
AcDbEntity
  8
0
  6
BYBLOCK
 62
     0
100
AcDbMText
 10
116.645302
 20
197.109536
 30
0.0
 40
0.6
 41
0.0
 71
     5
 72
     1
  1
\A1;2"
  7
ROMANS
  0
LINE
  5
1AFC
100
AcDbEntity
  8
0
  6
BYBLOCK
 62
     0
100
AcDbLine
 10
116.554229
 20
193.214654
 30
0.0
 11
116.554229
 21
195.214654
 31
0.0
  0
SOLID
  5
1AFD
100
AcDbEntity
  8
0
  6
BYBLOCK
 62
     0
100
AcDbTrace
 10
116.462562
 20
192.664654
 30
0.0
 11
116.645895
 21
192.664654
 31
0.0
 12
116.554229
 22
193.214654
 32
0.0
 13
116.554229
 23
193.214654
 33
0.0
  0
SOLID
  5
1AFE
100
AcDbEntity
  8
0
  6
BYBLOCK
 62
     0
100
AcDbTrace
 10
116.462562
 20
195.764654
 30
0.0
 11
116.645895
 21
195.764654
 31
0.0
 12
116.554229
 22
195.214654
 32
0.0
 13
116.554229
 23
195.214654
 33
0.0
  0
POINT
  5
1AFF
100
AcDbEntity
  8
DEFPOINTS
  6
BYBLOCK
 62
     0
100
AcDbPoint
 10
111.406528
 20
193.214654
 30
0.0
  0
POINT
  5
1B00
100
AcDbEntity
  8
DEFPOINTS
  6
BYBLOCK
 62
     0
100
AcDbPoint
 10
111.406528
 20
195.214654
 30
0.0
  0
POINT
  5
1B01
100
AcDbEntity
  8
DEFPOINTS
  6
BYBLOCK
 62
     0
100
AcDbPoint
 10
116.554229
 20
195.214654
 30
0.0
  0
ENDBLK
  5
1B02
100
AcDbEntity
  8
0
100
AcDbBlockEnd
  0
BLOCK
  5
1B04
100
AcDbEntity
  8
0
100
AcDbBlockBegin
  2
*D14
 70
     1
 10
0.0
 20
0.0
 30
0.0
  3
*D14
  1

  0
LINE
  5
1B05
100
AcDbEntity
  8
0
  6
BYBLOCK
 62
     0
100
AcDbLine
 10
132.71905
 20
160.039777
 30
0.0
 11
132.71905
 21
163.04823
 31
0.0
  0
LINE
  5
1B06
100
AcDbEntity
  8
0
  6
BYBLOCK
 62
     0
100
AcDbLine
 10
140.71905
 20
160.039777
 30
0.0
 11
140.71905
 21
163.04823
 31
0.0
  0
LINE
  5
1B07
100
AcDbEntity
  8
0
  6
BYBLOCK
 62
     0
100
AcDbLine
 10
133.26905
 20
162.86823
 30
0.0
 11
135.604764
 21
162.86823
 31
0.0
  0
LINE
  5
1B08
100
AcDbEntity
  8
0
  6
BYBLOCK
 62
     0
100
AcDbLine
 10
140.16905
 20
162.86823
 30
0.0
 11
137.833336
 21
162.86823
 31
0.0
  0
SOLID
  5
1B09
100
AcDbEntity
  8
0
  6
BYBLOCK
 62
     0
100
AcDbTrace
 10
133.26905
 20
162.959897
 30
0.0
 11
133.26905
 21
162.776563
 31
0.0
 12
132.71905
 22
162.86823
 32
0.0
 13
132.71905
 23
162.86823
 33
0.0
  0
SOLID
  5
1B0A
100
AcDbEntity
  8
0
  6
BYBLOCK
 62
     0
100
AcDbTrace
 10
140.16905
 20
162.959897
 30
0.0
 11
140.16905
 21
162.776563
 31
0.0
 12
140.71905
 22
162.86823
 32
0.0
 13
140.71905
 23
162.86823
 33
0.0
  0
MTEXT
  5
1B0B
100
AcDbEntity
  8
0
  6
BYBLOCK
 62
     0
100
AcDbMText
 10
136.71905
 20
162.86823
 30
0.0
 40
0.6
 41
0.0
 71
     5
 72
     1
  1
\A1;8"
  7
ROMANS
  0
POINT
  5
1B0C
100
AcDbEntity
  8
DEFPOINTS
  6
BYBLOCK
 62
     0
100
AcDbPoint
 10
132.71905
 20
159.977277
 30
0.0
  0
POINT
  5
1B0D
100
AcDbEntity
  8
DEFPOINTS
  6
BYBLOCK
 62
     0
100
AcDbPoint
 10
140.71905
 20
159.977277
 30
0.0
  0
POINT
  5
1B0E
100
AcDbEntity
  8
DEFPOINTS
  6
BYBLOCK
 62
     0
100
AcDbPoint
 10
140.71905
 20
162.86823
 30
0.0
  0
ENDBLK
  5
1B0F
100
AcDbEntity
  8
0
100
AcDbBlockEnd
  0
BLOCK
  5
1B11
100
AcDbEntity
  8
0
100
AcDbBlockBegin
  2
*D15
 70
     1
 10
0.0
 20
0.0
 30
0.0
  3
*D15
  1

  0
LINE
  5
1B12
100
AcDbEntity
  8
0
  6
BYBLOCK
 62
     0
100
AcDbLine
 10
134.21905
 20
167.6023
 30
0.0
 11
134.21905
 21
166.421139
 31
0.0
  0
LINE
  5
1B13
100
AcDbEntity
  8
0
  6
BYBLOCK
 62
     0
100
AcDbLine
 10
139.21905
 20
167.6023
 30
0.0
 11
139.21905
 21
166.421139
 31
0.0
  0
LINE
  5
1B14
100
AcDbEntity
  8
0
  6
BYBLOCK
 62
     0
100
AcDbLine
 10
134.76905
 20
166.601139
 30
0.0
 11
135.604764
 21
166.601139
 31
0.0
  0
LINE
  5
1B15
100
AcDbEntity
  8
0
  6
BYBLOCK
 62
     0
100
AcDbLine
 10
138.66905
 20
166.601139
 30
0.0
 11
137.833336
 21
166.601139
 31
0.0
  0
SOLID
  5
1B16
100
AcDbEntity
  8
0
  6
BYBLOCK
 62
     0
100
AcDbTrace
 10
134.76905
 20
166.692806
 30
0.0
 11
134.76905
 21
166.509472
 31
0.0
 12
134.21905
 22
166.601139
 32
0.0
 13
134.21905
 23
166.601139
 33
0.0
  0
SOLID
  5
1B17
100
AcDbEntity
  8
0
  6
BYBLOCK
 62
     0
100
AcDbTrace
 10
138.66905
 20
166.692806
 30
0.0
 11
138.66905
 21
166.509472
 31
0.0
 12
139.21905
 22
166.601139
 32
0.0
 13
139.21905
 23
166.601139
 33
0.0
  0
MTEXT
  5
1B18
100
AcDbEntity
  8
0
  6
BYBLOCK
 62
     0
100
AcDbMText
 10
136.71905
 20
166.601139
 30
0.0
 40
0.6
 41
0.0
 71
     5
 72
     1
  1
\A1;5"
  7
ROMANS
  0
POINT
  5
1B19
100
AcDbEntity
  8
DEFPOINTS
  6
BYBLOCK
 62
     0
100
AcDbPoint
 10
134.21905
 20
167.6648
 30
0.0
  0
POINT
  5
1B1A
100
AcDbEntity
  8
DEFPOINTS
  6
BYBLOCK
 62
     0
100
AcDbPoint
 10
139.21905
 20
167.6648
 30
0.0
  0
POINT
  5
1B1B
100
AcDbEntity
  8
DEFPOINTS
  6
BYBLOCK
 62
     0
100
AcDbPoint
 10
139.21905
 20
166.601139
 30
0.0
  0
ENDBLK
  5
1B1C
100
AcDbEntity
  8
0
100
AcDbBlockEnd
  0
BLOCK
  5
1B1E
100
AcDbEntity
  8
0
100
AcDbBlockBegin
  2
*D16
 70
     1
 10
0.0
 20
0.0
 30
0.0
  3
*D16
  1

  0
LINE
  5
1B1F
100
AcDbEntity
  8
0
  6
BYBLOCK
 62
     0
100
AcDbLine
 10
121.682552
 20
151.977277
 30
0.0
 11
123.734287
 21
151.977277
 31
0.0
  0
LINE
  5
1B20
100
AcDbEntity
  8
0
  6
BYBLOCK
 62
     0
100
AcDbLine
 10
121.682552
 20
159.977277
 30
0.0
 11
123.734287
 21
159.977277
 31
0.0
  0
LINE
  5
1B21
100
AcDbEntity
  8
0
  6
BYBLOCK
 62
     0
100
AcDbLine
 10
123.554287
 20
152.527277
 30
0.0
 11
123.554287
 21
154.920135
 31
0.0
  0
LINE
  5
1B22
100
AcDbEntity
  8
0
  6
BYBLOCK
 62
     0
100
AcDbLine
 10
123.554287
 20
159.427277
 30
0.0
 11
123.554287
 21
157.03442
 31
0.0
  0
SOLID
  5
1B23
100
AcDbEntity
  8
0
  6
BYBLOCK
 62
     0
100
AcDbTrace
 10
123.46262
 20
152.527277
 30
0.0
 11
123.645954
 21
152.527277
 31
0.0
 12
123.554287
 22
151.977277
 32
0.0
 13
123.554287
 23
151.977277
 33
0.0
  0
SOLID
  5
1B24
100
AcDbEntity
  8
0
  6
BYBLOCK
 62
     0
100
AcDbTrace
 10
123.46262
 20
159.427277
 30
0.0
 11
123.645954
 21
159.427277
 31
0.0
 12
123.554287
 22
159.977277
 32
0.0
 13
123.554287
 23
159.977277
 33
0.0
  0
MTEXT
  5
1B25
100
AcDbEntity
  8
0
  6
BYBLOCK
 62
     0
100
AcDbMText
 10
123.554287
 20
155.977277
 30
0.0
 40
0.6
 41
0.0
 71
     5
 72
     1
  1
\A1;8"
  7
ROMANS
  0
POINT
  5
1B26
100
AcDbEntity
  8
DEFPOINTS
  6
BYBLOCK
 62
     0
100
AcDbPoint
 10
121.620052
 20
151.977277
 30
0.0
  0
POINT
  5
1B27
100
AcDbEntity
  8
DEFPOINTS
  6
BYBLOCK
 62
     0
100
AcDbPoint
 10
121.620052
 20
159.977277
 30
0.0
  0
POINT
  5
1B28
100
AcDbEntity
  8
DEFPOINTS
  6
BYBLOCK
 62
     0
100
AcDbPoint
 10
123.554287
 20
159.977277
 30
0.0
  0
ENDBLK
  5
1B29
100
AcDbEntity
  8
0
100
AcDbBlockEnd
  0
BLOCK
  5
1B2B
100
AcDbEntity
  8
0
100
AcDbBlockBegin
  2
*D17
 70
     1
 10
0.0
 20
0.0
 30
0.0
  3
*D17
  1

  0
LINE
  5
1B2C
100
AcDbEntity
  8
0
  6
BYBLOCK
 62
     0
100
AcDbLine
 10
119.620052
 20
170.8898
 30
0.0
 11
125.697335
 21
170.8898
 31
0.0
  0
LINE
  5
1B2D
100
AcDbEntity
  8
0
  6
BYBLOCK
 62
     0
100
AcDbLine
 10
119.620052
 20
167.6398
 30
0.0
 11
125.697335
 21
167.6398
 31
0.0
  0
LINE
  5
1B2E
100
AcDbEntity
  8
0
  6
BYBLOCK
 62
     0
100
AcDbLine
 10
125.517335
 20
170.3398
 30
0.0
 11
125.517335
 21
169.6398
 31
0.0
  0
LINE
  5
1B2F
100
AcDbEntity
  8
0
  6
BYBLOCK
 62
     0
100
AcDbLine
 10
125.517335
 20
168.1898
 30
0.0
 11
125.517335
 21
168.8898
 31
0.0
  0
MTEXT
  5
1B30
100
AcDbEntity
  8
0
  6
BYBLOCK
 62
     0
100
AcDbMText
 10
125.469601
 20
169.174814
 30
0.0
 40
0.6
 41
0.0
 71
     5
 72
     1
  1
\A1;3 1/4"
  7
ROMANS
  0
SOLID
  5
1B31
100
AcDbEntity
  8
0
  6
BYBLOCK
 62
     0
100
AcDbTrace
 10
125.425669
 20
170.3398
 30
0.0
 11
125.609002
 21
170.3398
 31
0.0
 12
125.517335
 22
170.8898
 32
0.0
 13
125.517335
 23
170.8898
 33
0.0
  0
SOLID
  5
1B32
100
AcDbEntity
  8
0
  6
BYBLOCK
 62
     0
100
AcDbTrace
 10
125.425669
 20
168.1898
 30
0.0
 11
125.609002
 21
168.1898
 31
0.0
 12
125.517335
 22
167.6398
 32
0.0
 13
125.517335
 23
167.6398
 33
0.0
  0
POINT
  5
1B33
100
AcDbEntity
  8
DEFPOINTS
  6
BYBLOCK
 62
     0
100
AcDbPoint
 10
119.557552
 20
170.8898
 30
0.0
  0
POINT
  5
1B34
100
AcDbEntity
  8
DEFPOINTS
  6
BYBLOCK
 62
     0
100
AcDbPoint
 10
119.557552
 20
167.6398
 30
0.0
  0
POINT
  5
1B35
100
AcDbEntity
  8
DEFPOINTS
  6
BYBLOCK
 62
     0
100
AcDbPoint
 10
125.517335
 20
167.6398
 30
0.0
  0
ENDBLK
  5
1B36
100
AcDbEntity
  8
0
100
AcDbBlockEnd
  0
BLOCK
  5
1B38
100
AcDbEntity
  8
0
100
AcDbBlockBegin
  2
*D18
 70
     1
 10
0.0
 20
0.0
 30
0.0
  3
*D18
  1

  0
LINE
  5
1B39
100
AcDbEntity
  8
0
  6
BYBLOCK
 62
     0
100
AcDbLine
 10
140.78155
 20
151.977277
 30
0.0
 11
142.833285
 21
151.977277
 31
0.0
  0
LINE
  5
1B3A
100
AcDbEntity
  8
0
  6
BYBLOCK
 62
     0
100
AcDbLine
 10
140.78155
 20
159.977277
 30
0.0
 11
142.833285
 21
159.977277
 31
0.0
  0
LINE
  5
1B3B
100
AcDbEntity
  8
0
  6
BYBLOCK
 62
     0
100
AcDbLine
 10
142.653285
 20
152.527277
 30
0.0
 11
142.653285
 21
154.920135
 31
0.0
  0
LINE
  5
1B3C
100
AcDbEntity
  8
0
  6
BYBLOCK
 62
     0
100
AcDbLine
 10
142.653285
 20
159.427277
 30
0.0
 11
142.653285
 21
157.03442
 31
0.0
  0
SOLID
  5
1B3D
100
AcDbEntity
  8
0
  6
BYBLOCK
 62
     0
100
AcDbTrace
 10
142.561618
 20
152.527277
 30
0.0
 11
142.744952
 21
152.527277
 31
0.0
 12
142.653285
 22
151.977277
 32
0.0
 13
142.653285
 23
151.977277
 33
0.0
  0
SOLID
  5
1B3E
100
AcDbEntity
  8
0
  6
BYBLOCK
 62
     0
100
AcDbTrace
 10
142.561618
 20
159.427277
 30
0.0
 11
142.744952
 21
159.427277
 31
0.0
 12
142.653285
 22
159.977277
 32
0.0
 13
142.653285
 23
159.977277
 33
0.0
  0
MTEXT
  5
1B3F
100
AcDbEntity
  8
0
  6
BYBLOCK
 62
     0
100
AcDbMText
 10
142.653285
 20
155.977277
 30
0.0
 40
0.6
 41
0.0
 71
     5
 72
     1
  1
\A1;8"
  7
ROMANS
  0
POINT
  5
1B40
100
AcDbEntity
  8
DEFPOINTS
  6
BYBLOCK
 62
     0
100
AcDbPoint
 10
140.71905
 20
151.977277
 30
0.0
  0
POINT
  5
1B41
100
AcDbEntity
  8
DEFPOINTS
  6
BYBLOCK
 62
     0
100
AcDbPoint
 10
140.71905
 20
159.977277
 30
0.0
  0
POINT
  5
1B42
100
AcDbEntity
  8
DEFPOINTS
  6
BYBLOCK
 62
     0
100
AcDbPoint
 10
142.653285
 20
159.977277
 30
0.0
  0
ENDBLK
  5
1B43
100
AcDbEntity
  8
0
100
AcDbBlockEnd
  0
BLOCK
  5
1B45
100
AcDbEntity
  8
0
100
AcDbBlockBegin
  2
*D19
 70
     1
 10
0.0
 20
0.0
 30
0.0
  3
*D19
  1

  0
LINE
  5
1B46
100
AcDbEntity
  8
0
  6
BYBLOCK
 62
     0
100
AcDbLine
 10
139.28155
 20
170.8648
 30
0.0
 11
144.845665
 21
170.8648
 31
0.0
  0
LINE
  5
1B47
100
AcDbEntity
  8
0
  6
BYBLOCK
 62
     0
100
AcDbLine
 10
139.28155
 20
167.6648
 30
0.0
 11
144.845665
 21
167.6648
 31
0.0
  0
LINE
  5
1B48
100
AcDbEntity
  8
0
  6
BYBLOCK
 62
     0
100
AcDbLine
 10
144.665665
 20
170.3148
 30
0.0
 11
144.665665
 21
169.6148
 31
0.0
  0
LINE
  5
1B49
100
AcDbEntity
  8
0
  6
BYBLOCK
 62
     0
100
AcDbLine
 10
144.665665
 20
168.2148
 30
0.0
 11
144.665665
 21
168.9148
 31
0.0
  0
MTEXT
  5
1B4A
100
AcDbEntity
  8
0
  6
BYBLOCK
 62
     0
100
AcDbMText
 10
144.831468
 20
169.333597
 30
0.0
 40
0.6
 41
0.0
 71
     5
 72
     1
  1
\A1;3 13/64"
  7
ROMANS
  0
SOLID
  5
1B4B
100
AcDbEntity
  8
0
  6
BYBLOCK
 62
     0
100
AcDbTrace
 10
144.573998
 20
170.3148
 30
0.0
 11
144.757331
 21
170.3148
 31
0.0
 12
144.665665
 22
170.8648
 32
0.0
 13
144.665665
 23
170.8648
 33
0.0
  0
SOLID
  5
1B4C
100
AcDbEntity
  8
0
  6
BYBLOCK
 62
     0
100
AcDbTrace
 10
144.573998
 20
168.2148
 30
0.0
 11
144.757331
 21
168.2148
 31
0.0
 12
144.665665
 22
167.6648
 32
0.0
 13
144.665665
 23
167.6648
 33
0.0
  0
POINT
  5
1B4D
100
AcDbEntity
  8
DEFPOINTS
  6
BYBLOCK
 62
     0
100
AcDbPoint
 10
139.21905
 20
170.8648
 30
0.0
  0
POINT
  5
1B4E
100
AcDbEntity
  8
DEFPOINTS
  6
BYBLOCK
 62
     0
100
AcDbPoint
 10
139.21905
 20
167.6648
 30
0.0
  0
POINT
  5
1B4F
100
AcDbEntity
  8
DEFPOINTS
  6
BYBLOCK
 62
     0
100
AcDbPoint
 10
144.665665
 20
167.6648
 30
0.0
  0
ENDBLK
  5
1B50
100
AcDbEntity
  8
0
100
AcDbBlockEnd
  0
BLOCK
  5
1B52
100
AcDbEntity
  8
0
100
AcDbBlockBegin
  2
*D20
 70
     1
 10
0.0
 20
0.0
 30
0.0
  3
*D20
  1

  0
LINE
  5
1B53
100
AcDbEntity
  8
0
  6
BYBLOCK
 62
     0
100
AcDbLine
 10
138.292583
 20
193.089654
 30
0.0
 11
138.292583
 21
191.567425
 31
0.0
  0
LINE
  5
1B54
100
AcDbEntity
  8
0
  6
BYBLOCK
 62
     0
100
AcDbLine
 10
140.492583
 20
193.089654
 30
0.0
 11
140.492583
 21
191.567425
 31
0.0
  0
LINE
  5
1B55
100
AcDbEntity
  8
0
  6
BYBLOCK
 62
     0
100
AcDbLine
 10
137.742583
 20
191.747425
 30
0.0
 11
137.192583
 21
191.747425
 31
0.0
  0
LINE
  5
1B56
100
AcDbEntity
  8
0
  6
BYBLOCK
 62
     0
100
AcDbLine
 10
141.042583
 20
191.747425
 30
0.0
 11
141.592583
 21
191.747425
 31
0.0
  0
MTEXT
  5
1B57
100
AcDbEntity
  8
0
  6
BYBLOCK
 62
     0
100
AcDbMText
 10
135.219513
 20
191.624586
 30
0.0
 40
0.6
 41
0.0
 71
     5
 72
     1
  1
\A1;2 13/64"
  7
ROMANS
  0
LINE
  5
1B58
100
AcDbEntity
  8
0
  6
BYBLOCK
 62
     0
100
AcDbLine
 10
138.292583
 20
191.747425
 30
0.0
 11
140.492583
 21
191.747425
 31
0.0
  0
SOLID
  5
1B59
100
AcDbEntity
  8
0
  6
BYBLOCK
 62
     0
100
AcDbTrace
 10
137.742583
 20
191.839091
 30
0.0
 11
137.742583
 21
191.655758
 31
0.0
 12
138.292583
 22
191.747425
 32
0.0
 13
138.292583
 23
191.747425
 33
0.0
  0
SOLID
  5
1B5A
100
AcDbEntity
  8
0
  6
BYBLOCK
 62
     0
100
AcDbTrace
 10
141.042583
 20
191.839091
 30
0.0
 11
141.042583
 21
191.655758
 31
0.0
 12
140.492583
 22
191.747425
 32
0.0
 13
140.492583
 23
191.747425
 33
0.0
  0
POINT
  5
1B5B
100
AcDbEntity
  8
DEFPOINTS
  6
BYBLOCK
 62
     0
100
AcDbPoint
 10
138.292583
 20
193.152154
 30
0.0
  0
POINT
  5
1B5C
100
AcDbEntity
  8
DEFPOINTS
  6
BYBLOCK
 62
     0
100
AcDbPoint
 10
140.492583
 20
193.152154
 30
0.0
  0
POINT
  5
1B5D
100
AcDbEntity
  8
DEFPOINTS
  6
BYBLOCK
 62
     0
100
AcDbPoint
 10
140.492583
 20
191.747425
 30
0.0
  0
ENDBLK
  5
1B5E
100
AcDbEntity
  8
0
100
AcDbBlockEnd
  0
BLOCK
  5
1B60
100
AcDbEntity
  8
0
100
AcDbBlockBegin
  2
*D21
 70
     1
 10
0.0
 20
0.0
 30
0.0
  3
*D21
  1

  0
LINE
  5
1B61
100
AcDbEntity
  8
0
  6
BYBLOCK
 62
     0
100
AcDbLine
 10
136.892583
 20
184.324672
 30
0.0
 11
136.892583
 21
187.333124
 31
0.0
  0
LINE
  5
1B62
100
AcDbEntity
  8
0
  6
BYBLOCK
 62
     0
100
AcDbLine
 10
141.892583
 20
184.324672
 30
0.0
 11
141.892583
 21
187.333124
 31
0.0
  0
LINE
  5
1B63
100
AcDbEntity
  8
0
  6
BYBLOCK
 62
     0
100
AcDbLine
 10
137.442583
 20
187.153124
 30
0.0
 11
138.278297
 21
187.153124
 31
0.0
  0
LINE
  5
1B64
100
AcDbEntity
  8
0
  6
BYBLOCK
 62
     0
100
AcDbLine
 10
141.342583
 20
187.153124
 30
0.0
 11
140.506869
 21
187.153124
 31
0.0
  0
SOLID
  5
1B65
100
AcDbEntity
  8
0
  6
BYBLOCK
 62
     0
100
AcDbTrace
 10
137.442583
 20
187.244791
 30
0.0
 11
137.442583
 21
187.061458
 31
0.0
 12
136.892583
 22
187.153124
 32
0.0
 13
136.892583
 23
187.153124
 33
0.0
  0
SOLID
  5
1B66
100
AcDbEntity
  8
0
  6
BYBLOCK
 62
     0
100
AcDbTrace
 10
141.342583
 20
187.244791
 30
0.0
 11
141.342583
 21
187.061458
 31
0.0
 12
141.892583
 22
187.153124
 32
0.0
 13
141.892583
 23
187.153124
 33
0.0
  0
MTEXT
  5
1B67
100
AcDbEntity
  8
0
  6
BYBLOCK
 62
     0
100
AcDbMText
 10
139.392583
 20
187.153124
 30
0.0
 40
0.6
 41
0.0
 71
     5
 72
     1
  1
\A1;5"
  7
ROMANS
  0
POINT
  5
1B68
100
AcDbEntity
  8
DEFPOINTS
  6
BYBLOCK
 62
     0
100
AcDbPoint
 10
136.892583
 20
184.262172
 30
0.0
  0
POINT
  5
1B69
100
AcDbEntity
  8
DEFPOINTS
  6
BYBLOCK
 62
     0
100
AcDbPoint
 10
141.892583
 20
184.262172
 30
0.0
  0
POINT
  5
1B6A
100
AcDbEntity
  8
DEFPOINTS
  6
BYBLOCK
 62
     0
100
AcDbPoint
 10
141.892583
 20
187.153124
 30
0.0
  0
ENDBLK
  5
1B6B
100
AcDbEntity
  8
0
100
AcDbBlockEnd
  0
BLOCK
  5
1B6D
100
AcDbEntity
  8
0
100
AcDbBlockBegin
  2
*D22
 70
     1
 10
0.0
 20
0.0
 30
0.0
  3
*D22
  1

  0
LINE
  5
1B6E
100
AcDbEntity
  8
0
  6
BYBLOCK
 62
     0
100
AcDbLine
 10
125.256507
 20
193.183154
 30
0.0
 11
130.338936
 21
193.183154
 31
0.0
  0
LINE
  5
1B6F
100
AcDbEntity
  8
0
  6
BYBLOCK
 62
     0
100
AcDbLine
 10
125.256507
 20
195.246154
 30
0.0
 11
130.338936
 21
195.246154
 31
0.0
  0
LINE
  5
1B70
100
AcDbEntity
  8
0
  6
BYBLOCK
 62
     0
100
AcDbLine
 10
130.158936
 20
192.633154
 30
0.0
 11
130.158936
 21
192.083154
 31
0.0
  0
LINE
  5
1B71
100
AcDbEntity
  8
0
  6
BYBLOCK
 62
     0
100
AcDbLine
 10
130.158936
 20
195.796154
 30
0.0
 11
130.158936
 21
196.346154
 31
0.0
  0
MTEXT
  5
1B72
100
AcDbEntity
  8
0
  6
BYBLOCK
 62
     0
100
AcDbMText
 10
130.158936
 20
197.19243
 30
0.0
 40
0.6
 41
0.0
 71
     5
 72
     1
  1
\A1;2 1/16"
  7
ROMANS
  0
LINE
  5
1B73
100
AcDbEntity
  8
0
  6
BYBLOCK
 62
     0
100
AcDbLine
 10
130.158936
 20
193.183154
 30
0.0
 11
130.158936
 21
195.246154
 31
0.0
  0
SOLID
  5
1B74
100
AcDbEntity
  8
0
  6
BYBLOCK
 62
     0
100
AcDbTrace
 10
130.067269
 20
192.633154
 30
0.0
 11
130.250602
 21
192.633154
 31
0.0
 12
130.158936
 22
193.183154
 32
0.0
 13
130.158936
 23
193.183154
 33
0.0
  0
SOLID
  5
1B75
100
AcDbEntity
  8
0
  6
BYBLOCK
 62
     0
100
AcDbTrace
 10
130.067269
 20
195.796154
 30
0.0
 11
130.250602
 21
195.796154
 31
0.0
 12
130.158936
 22
195.246154
 32
0.0
 13
130.158936
 23
195.246154
 33
0.0
  0
POINT
  5
1B76
100
AcDbEntity
  8
DEFPOINTS
  6
BYBLOCK
 62
     0
100
AcDbPoint
 10
125.194007
 20
193.183154
 30
0.0
  0
POINT
  5
1B77
100
AcDbEntity
  8
DEFPOINTS
  6
BYBLOCK
 62
     0
100
AcDbPoint
 10
125.194007
 20
195.246154
 30
0.0
  0
POINT
  5
1B78
100
AcDbEntity
  8
DEFPOINTS
  6
BYBLOCK
 62
     0
100
AcDbPoint
 10
130.158936
 20
195.246154
 30
0.0
  0
ENDBLK
  5
1B79
100
AcDbEntity
  8
0
100
AcDbBlockEnd
  0
BLOCK
  5
1B7B
100
AcDbEntity
  8
0
100
AcDbBlockBegin
  2
*D23
 70
     1
 10
0.0
 20
0.0
 30
0.0
  3
*D23
  1

  0
LINE
  5
1B7C
100
AcDbEntity
  8
0
  6
BYBLOCK
 62
     0
100
AcDbLine
 10
126.806507
 20
179.262172
 30
0.0
 11
128.858242
 21
179.262172
 31
0.0
  0
LINE
  5
1B7D
100
AcDbEntity
  8
0
  6
BYBLOCK
 62
     0
100
AcDbLine
 10
126.806507
 20
184.262172
 30
0.0
 11
128.858242
 21
184.262172
 31
0.0
  0
LINE
  5
1B7E
100
AcDbEntity
  8
0
  6
BYBLOCK
 62
     0
100
AcDbLine
 10
128.678242
 20
179.812172
 30
0.0
 11
128.678242
 21
180.705029
 31
0.0
  0
LINE
  5
1B7F
100
AcDbEntity
  8
0
  6
BYBLOCK
 62
     0
100
AcDbLine
 10
128.678242
 20
183.712172
 30
0.0
 11
128.678242
 21
182.819315
 31
0.0
  0
SOLID
  5
1B80
100
AcDbEntity
  8
0
  6
BYBLOCK
 62
     0
100
AcDbTrace
 10
128.586576
 20
179.812172
 30
0.0
 11
128.769909
 21
179.812172
 31
0.0
 12
128.678242
 22
179.262172
 32
0.0
 13
128.678242
 23
179.262172
 33
0.0
  0
SOLID
  5
1B81
100
AcDbEntity
  8
0
  6
BYBLOCK
 62
     0
100
AcDbTrace
 10
128.586576
 20
183.712172
 30
0.0
 11
128.769909
 21
183.712172
 31
0.0
 12
128.678242
 22
184.262172
 32
0.0
 13
128.678242
 23
184.262172
 33
0.0
  0
MTEXT
  5
1B82
100
AcDbEntity
  8
0
  6
BYBLOCK
 62
     0
100
AcDbMText
 10
128.678242
 20
181.762172
 30
0.0
 40
0.6
 41
0.0
 71
     5
 72
     1
  1
\A1;5"
  7
ROMANS
  0
POINT
  5
1B83
100
AcDbEntity
  8
DEFPOINTS
  6
BYBLOCK
 62
     0
100
AcDbPoint
 10
126.744007
 20
179.262172
 30
0.0
  0
POINT
  5
1B84
100
AcDbEntity
  8
DEFPOINTS
  6
BYBLOCK
 62
     0
100
AcDbPoint
 10
126.744007
 20
184.262172
 30
0.0
  0
POINT
  5
1B85
100
AcDbEntity
  8
DEFPOINTS
  6
BYBLOCK
 62
     0
100
AcDbPoint
 10
128.678242
 20
184.262172
 30
0.0
  0
ENDBLK
  5
1B86
100
AcDbEntity
  8
0
100
AcDbBlockEnd
  0
BLOCK
  5
1B88
100
AcDbEntity
  8
0
100
AcDbBlockBegin
  2
*D24
 70
     1
 10
0.0
 20
0.0
 30
0.0
  3
*D24
  1

  0
LINE
  5
1B89
100
AcDbEntity
  8
0
  6
BYBLOCK
 62
     0
100
AcDbLine
 10
121.744007
 20
184.324672
 30
0.0
 11
121.744007
 21
187.333124
 31
0.0
  0
LINE
  5
1B8A
100
AcDbEntity
  8
0
  6
BYBLOCK
 62
     0
100
AcDbLine
 10
126.744007
 20
184.324672
 30
0.0
 11
126.744007
 21
187.333124
 31
0.0
  0
LINE
  5
1B8B
100
AcDbEntity
  8
0
  6
BYBLOCK
 62
     0
100
AcDbLine
 10
122.294007
 20
187.153124
 30
0.0
 11
123.129722
 21
187.153124
 31
0.0
  0
LINE
  5
1B8C
100
AcDbEntity
  8
0
  6
BYBLOCK
 62
     0
100
AcDbLine
 10
126.194007
 20
187.153124
 30
0.0
 11
125.358293
 21
187.153124
 31
0.0
  0
SOLID
  5
1B8D
100
AcDbEntity
  8
0
  6
BYBLOCK
 62
     0
100
AcDbTrace
 10
122.294007
 20
187.244791
 30
0.0
 11
122.294007
 21
187.061458
 31
0.0
 12
121.744007
 22
187.153124
 32
0.0
 13
121.744007
 23
187.153124
 33
0.0
  0
SOLID
  5
1B8E
100
AcDbEntity
  8
0
  6
BYBLOCK
 62
     0
100
AcDbTrace
 10
126.194007
 20
187.244791
 30
0.0
 11
126.194007
 21
187.061458
 31
0.0
 12
126.744007
 22
187.153124
 32
0.0
 13
126.744007
 23
187.153124
 33
0.0
  0
MTEXT
  5
1B8F
100
AcDbEntity
  8
0
  6
BYBLOCK
 62
     0
100
AcDbMText
 10
124.244007
 20
187.153124
 30
0.0
 40
0.6
 41
0.0
 71
     5
 72
     1
  1
\A1;5"
  7
ROMANS
  0
POINT
  5
1B90
100
AcDbEntity
  8
DEFPOINTS
  6
BYBLOCK
 62
     0
100
AcDbPoint
 10
121.744007
 20
184.262172
 30
0.0
  0
POINT
  5
1B91
100
AcDbEntity
  8
DEFPOINTS
  6
BYBLOCK
 62
     0
100
AcDbPoint
 10
126.744007
 20
184.262172
 30
0.0
  0
POINT
  5
1B92
100
AcDbEntity
  8
DEFPOINTS
  6
BYBLOCK
 62
     0
100
AcDbPoint
 10
126.744007
 20
187.153124
 30
0.0
  0
ENDBLK
  5
1B93
100
AcDbEntity
  8
0
100
AcDbBlockEnd
  0
BLOCK
  5
1B95
100
AcDbEntity
  8
0
100
AcDbBlockBegin
  2
*D25
 70
     1
 10
0.0
 20
0.0
 30
0.0
  3
*D25
  1

  0
LINE
  5
1B96
100
AcDbEntity
  8
0
  6
BYBLOCK
 62
     0
100
AcDbLine
 10
123.294007
 20
193.120654
 30
0.0
 11
123.294007
 21
191.519476
 31
0.0
  0
LINE
  5
1B97
100
AcDbEntity
  8
0
  6
BYBLOCK
 62
     0
100
AcDbLine
 10
125.194007
 20
193.120654
 30
0.0
 11
125.194007
 21
191.519476
 31
0.0
  0
LINE
  5
1B98
100
AcDbEntity
  8
0
  6
BYBLOCK
 62
     0
100
AcDbLine
 10
122.744007
 20
191.699476
 30
0.0
 11
122.194007
 21
191.699476
 31
0.0
  0
LINE
  5
1B99
100
AcDbEntity
  8
0
  6
BYBLOCK
 62
     0
100
AcDbLine
 10
125.744007
 20
191.699476
 30
0.0
 11
126.294007
 21
191.699476
 31
0.0
  0
MTEXT
  5
1B9A
100
AcDbEntity
  8
0
  6
BYBLOCK
 62
     0
100
AcDbMText
 10
119.909686
 20
191.699476
 30
0.0
 40
0.6
 41
0.0
 71
     5
 72
     1
  1
\A1;1 29/32"
  7
ROMANS
  0
LINE
  5
1B9B
100
AcDbEntity
  8
0
  6
BYBLOCK
 62
     0
100
AcDbLine
 10
123.294007
 20
191.699476
 30
0.0
 11
125.194007
 21
191.699476
 31
0.0
  0
SOLID
  5
1B9C
100
AcDbEntity
  8
0
  6
BYBLOCK
 62
     0
100
AcDbTrace
 10
122.744007
 20
191.791143
 30
0.0
 11
122.744007
 21
191.607809
 31
0.0
 12
123.294007
 22
191.699476
 32
0.0
 13
123.294007
 23
191.699476
 33
0.0
  0
SOLID
  5
1B9D
100
AcDbEntity
  8
0
  6
BYBLOCK
 62
     0
100
AcDbTrace
 10
125.744007
 20
191.791143
 30
0.0
 11
125.744007
 21
191.607809
 31
0.0
 12
125.194007
 22
191.699476
 32
0.0
 13
125.194007
 23
191.699476
 33
0.0
  0
POINT
  5
1B9E
100
AcDbEntity
  8
DEFPOINTS
  6
BYBLOCK
 62
     0
100
AcDbPoint
 10
123.294007
 20
193.183154
 30
0.0
  0
POINT
  5
1B9F
100
AcDbEntity
  8
DEFPOINTS
  6
BYBLOCK
 62
     0
100
AcDbPoint
 10
125.194007
 20
193.183154
 30
0.0
  0
POINT
  5
1BA0
100
AcDbEntity
  8
DEFPOINTS
  6
BYBLOCK
 62
     0
100
AcDbPoint
 10
125.194007
 20
191.699476
 30
0.0
  0
ENDBLK
  5
1BA1
100
AcDbEntity
  8
0
100
AcDbBlockEnd
  0
BLOCK
  5
1BA3
100
AcDbEntity
  8
0
100
AcDbBlockBegin
  2
*D26
 70
     1
 10
0.0
 20
0.0
 30
0.0
  3
*D26
  1

  0
LINE
  5
1BA4
100
AcDbEntity
  8
0
  6
BYBLOCK
 62
     0
100
AcDbLine
 10
141.955083
 20
179.262172
 30
0.0
 11
144.006818
 21
179.262172
 31
0.0
  0
LINE
  5
1BA5
100
AcDbEntity
  8
0
  6
BYBLOCK
 62
     0
100
AcDbLine
 10
141.955083
 20
184.262172
 30
0.0
 11
144.006818
 21
184.262172
 31
0.0
  0
LINE
  5
1BA6
100
AcDbEntity
  8
0
  6
BYBLOCK
 62
     0
100
AcDbLine
 10
143.826818
 20
179.812172
 30
0.0
 11
143.826818
 21
180.705029
 31
0.0
  0
LINE
  5
1BA7
100
AcDbEntity
  8
0
  6
BYBLOCK
 62
     0
100
AcDbLine
 10
143.826818
 20
183.712172
 30
0.0
 11
143.826818
 21
182.819315
 31
0.0
  0
SOLID
  5
1BA8
100
AcDbEntity
  8
0
  6
BYBLOCK
 62
     0
100
AcDbTrace
 10
143.735151
 20
179.812172
 30
0.0
 11
143.918485
 21
179.812172
 31
0.0
 12
143.826818
 22
179.262172
 32
0.0
 13
143.826818
 23
179.262172
 33
0.0
  0
SOLID
  5
1BA9
100
AcDbEntity
  8
0
  6
BYBLOCK
 62
     0
100
AcDbTrace
 10
143.735151
 20
183.712172
 30
0.0
 11
143.918485
 21
183.712172
 31
0.0
 12
143.826818
 22
184.262172
 32
0.0
 13
143.826818
 23
184.262172
 33
0.0
  0
MTEXT
  5
1BAA
100
AcDbEntity
  8
0
  6
BYBLOCK
 62
     0
100
AcDbMText
 10
143.826818
 20
181.762172
 30
0.0
 40
0.6
 41
0.0
 71
     5
 72
     1
  1
\A1;5"
  7
ROMANS
  0
POINT
  5
1BAB
100
AcDbEntity
  8
DEFPOINTS
  6
BYBLOCK
 62
     0
100
AcDbPoint
 10
141.892583
 20
179.262172
 30
0.0
  0
POINT
  5
1BAC
100
AcDbEntity
  8
DEFPOINTS
  6
BYBLOCK
 62
     0
100
AcDbPoint
 10
141.892583
 20
184.262172
 30
0.0
  0
POINT
  5
1BAD
100
AcDbEntity
  8
DEFPOINTS
  6
BYBLOCK
 62
     0
100
AcDbPoint
 10
143.826818
 20
184.262172
 30
0.0
  0
ENDBLK
  5
1BAE
100
AcDbEntity
  8
0
100
AcDbBlockEnd
  0
BLOCK
  5
1BB0
100
AcDbEntity
  8
0
100
AcDbBlockBegin
  2
*D27
 70
     1
 10
0.0
 20
0.0
 30
0.0
  3
*D27
  1

  0
LINE
  5
1BB1
100
AcDbEntity
  8
0
  6
BYBLOCK
 62
     0
100
AcDbLine
 10
140.555083
 20
193.152154
 30
0.0
 11
145.525507
 21
193.152154
 31
0.0
  0
LINE
  5
1BB2
100
AcDbEntity
  8
0
  6
BYBLOCK
 62
     0
100
AcDbLine
 10
140.555083
 20
195.277154
 30
0.0
 11
145.525507
 21
195.277154
 31
0.0
  0
LINE
  5
1BB3
100
AcDbEntity
  8
0
  6
BYBLOCK
 62
     0
100
AcDbLine
 10
145.345507
 20
192.602154
 30
0.0
 11
145.345507
 21
192.052154
 31
0.0
  0
LINE
  5
1BB4
100
AcDbEntity
  8
0
  6
BYBLOCK
 62
     0
100
AcDbLine
 10
145.345507
 20
195.827154
 30
0.0
 11
145.345507
 21
196.377154
 31
0.0
  0
MTEXT
  5
1BB5
100
AcDbEntity
  8
0
  6
BYBLOCK
 62
     0
100
AcDbMText
 10
145.222519
 20
197.111404
 30
0.0
 40
0.6
 41
0.0
 71
     5
 72
     1
  1
\A1;2 1/4"
  7
ROMANS
  0
LINE
  5
1BB6
100
AcDbEntity
  8
0
  6
BYBLOCK
 62
     0
100
AcDbLine
 10
145.345507
 20
193.152154
 30
0.0
 11
145.345507
 21
195.277154
 31
0.0
  0
SOLID
  5
1BB7
100
AcDbEntity
  8
0
  6
BYBLOCK
 62
     0
100
AcDbTrace
 10
145.25384
 20
192.602154
 30
0.0
 11
145.437174
 21
192.602154
 31
0.0
 12
145.345507
 22
193.152154
 32
0.0
 13
145.345507
 23
193.152154
 33
0.0
  0
SOLID
  5
1BB8
100
AcDbEntity
  8
0
  6
BYBLOCK
 62
     0
100
AcDbTrace
 10
145.25384
 20
195.827154
 30
0.0
 11
145.437174
 21
195.827154
 31
0.0
 12
145.345507
 22
195.277154
 32
0.0
 13
145.345507
 23
195.277154
 33
0.0
  0
POINT
  5
1BB9
100
AcDbEntity
  8
DEFPOINTS
  6
BYBLOCK
 62
     0
100
AcDbPoint
 10
140.492583
 20
193.152154
 30
0.0
  0
POINT
  5
1BBA
100
AcDbEntity
  8
DEFPOINTS
  6
BYBLOCK
 62
     0
100
AcDbPoint
 10
140.492583
 20
195.277154
 30
0.0
  0
POINT
  5
1BBB
100
AcDbEntity
  8
DEFPOINTS
  6
BYBLOCK
 62
     0
100
AcDbPoint
 10
145.345507
 20
195.277154
 30
0.0
  0
ENDBLK
  5
1BBC
100
AcDbEntity
  8
0
100
AcDbBlockEnd
  0
ENDSEC
  0
SECTION
  2
ENTITIES
  0
CIRCLE
  5
BAA
100
AcDbEntity
  8
OBJECT
 62
     7
100
AcDbCircle
 10
169.94418
 20
186.849101
 30
0.0
 40
0.6565
  0
CIRCLE
  5
BAB
100
AcDbEntity
  8
HIDDEN
 62
     7
100
AcDbCircle
 10
169.94418
 20
186.849101
 30
0.0
 40
0.5435
  0
LINE
  5
BAC
100
AcDbEntity
  8
CENTER
 62
     7
100
AcDbLine
 10
173.19418
 20
186.849101
 30
0.0
 11
166.69418
 21
186.849101
 31
0.0
  0
LINE
  5
BAD
100
AcDbEntity
  8
CENTER
 62
     7
100
AcDbLine
 10
169.94418
 20
190.099101
 30
0.0
 11
169.94418
 21
183.599101
 31
0.0
  0
LINE
  5
BAE
100
AcDbEntity
  8
OBJECT
 62
     7
100
AcDbLine
 10
172.44418
 20
189.349101
 30
0.0
 11
167.44418
 21
189.349101
 31
0.0
  0
LINE
  5
BAF
100
AcDbEntity
  8
OBJECT
 62
     7
100
AcDbLine
 10
172.44418
 20
184.349101
 30
0.0
 11
167.44418
 21
184.349101
 31
0.0
  0
LINE
  5
BB0
100
AcDbEntity
  8
OBJECT
 62
     7
100
AcDbLine
 10
172.44418
 20
189.349101
 30
0.0
 11
172.44418
 21
184.349101
 31
0.0
  0
LINE
  5
BB1
100
AcDbEntity
  8
OBJECT
 62
     7
100
AcDbLine
 10
167.44418
 20
189.349101
 30
0.0
 11
167.44418
 21
184.349101
 31
0.0
  0
LINE
  5
BB2
100
AcDbEntity
  8
CENTER
 62
     7
100
AcDbLine
 10
188.529298
 20
186.849101
 30
0.0
 11
182.029298
 21
186.849101
 31
0.0
  0
LINE
  5
BB3
100
AcDbEntity
  8
OBJECT
 62
     7
100
AcDbLine
 10
187.779298
 20
189.349101
 30
0.0
 11
182.779298
 21
189.349101
 31
0.0
  0
LINE
  5
BB4
100
AcDbEntity
  8
OBJECT
 62
     7
100
AcDbLine
 10
187.779298
 20
184.349101
 30
0.0
 11
182.779298
 21
184.349101
 31
0.0
  0
LINE
  5
BB5
100
AcDbEntity
  8
OBJECT
 62
     7
100
AcDbLine
 10
182.779298
 20
189.349101
 30
0.0
 11
182.779298
 21
184.349101
 31
0.0
  0
LINE
  5
BB6
100
AcDbEntity
  8
OBJECT
 62
     7
100
AcDbLine
 10
187.779298
 20
189.349101
 30
0.0
 11
187.779298
 21
184.349101
 31
0.0
  0
LINE
  5
BB7
100
AcDbEntity
  8
CENTER
 62
     7
100
AcDbLine
 10
185.279298
 20
190.099101
 30
0.0
 11
185.279298
 21
183.599101
 31
0.0
  0
CIRCLE
  5
BB8
100
AcDbEntity
  8
OBJECT
 62
     7
100
AcDbCircle
 10
185.279298
 20
186.849101
 30
0.0
 40
0.788
  0
CIRCLE
  5
BB9
100
AcDbEntity
  8
OBJECT
 62
     7
100
AcDbCircle
 10
185.279298
 20
186.849101
 30
0.0
 40
0.655
  0
LINE
  5
BBA
100
AcDbEntity
  8
CENTER
 62
     7
100
AcDbLine
 10
198.904778
 20
190.099101
 30
0.0
 11
198.904778
 21
183.599101
 31
0.0
  0
LINE
  5
BBB
100
AcDbEntity
  8
OBJECT
 62
     7
100
AcDbLine
 10
201.404778
 20
184.349101
 30
0.0
 11
196.404778
 21
184.349101
 31
0.0
  0
LINE
  5
BBC
100
AcDbEntity
  8
OBJECT
 62
     7
100
AcDbLine
 10
201.404778
 20
189.349101
 30
0.0
 11
196.404778
 21
189.349101
 31
0.0
  0
LINE
  5
BBD
100
AcDbEntity
  8
CENTER
 62
     7
100
AcDbLine
 10
202.154778
 20
186.849101
 30
0.0
 11
195.654778
 21
186.849101
 31
0.0
  0
LINE
  5
BBE
100
AcDbEntity
  8
OBJECT
 62
     7
100
AcDbLine
 10
196.404778
 20
189.349101
 30
0.0
 11
196.404778
 21
184.349101
 31
0.0
  0
LINE
  5
BBF
100
AcDbEntity
  8
OBJECT
 62
     7
100
AcDbLine
 10
201.404778
 20
189.349101
 30
0.0
 11
201.404778
 21
184.349101
 31
0.0
  0
CIRCLE
  5
BC0
100
AcDbEntity
  8
OBJECT
 62
     7
100
AcDbCircle
 10
198.904778
 20
186.849101
 30
0.0
 40
0.95
  0
CIRCLE
  5
BC1
100
AcDbEntity
  8
OBJECT
 62
     7
100
AcDbCircle
 10
198.904778
 20
186.849101
 30
0.0
 40
0.81
  0
LINE
  5
BC2
100
AcDbEntity
  8
CENTER
 62
     7
100
AcDbLine
 10
214.053354
 20
190.099101
 30
0.0
 11
214.053354
 21
183.599101
 31
0.0
  0
LINE
  5
BC3
100
AcDbEntity
  8
CENTER
 62
     7
100
AcDbLine
 10
217.303354
 20
186.849101
 30
0.0
 11
210.803354
 21
186.849101
 31
0.0
  0
LINE
  5
BC4
100
AcDbEntity
  8
OBJECT
 62
     7
100
AcDbLine
 10
216.553354
 20
189.349101
 30
0.0
 11
211.553354
 21
189.349101
 31
0.0
  0
LINE
  5
BC5
100
AcDbEntity
  8
OBJECT
 62
     7
100
AcDbLine
 10
216.553354
 20
184.349101
 30
0.0
 11
211.553354
 21
184.349101
 31
0.0
  0
LINE
  5
BC6
100
AcDbEntity
  8
OBJECT
 62
     7
100
AcDbLine
 10
211.553354
 20
189.349101
 30
0.0
 11
211.553354
 21
184.349101
 31
0.0
  0
LINE
  5
BC7
100
AcDbEntity
  8
OBJECT
 62
     7
100
AcDbLine
 10
216.553354
 20
189.349101
 30
0.0
 11
216.553354
 21
184.349101
 31
0.0
  0
CIRCLE
  5
BC8
100
AcDbEntity
  8
OBJECT
 62
     7
100
AcDbCircle
 10
214.053354
 20
186.849101
 30
0.0
 40
1.1
  0
CIRCLE
  5
BC9
100
AcDbEntity
  8
OBJECT
 62
     7
100
AcDbCircle
 10
214.053354
 20
186.849101
 30
0.0
 40
0.955
  0
LINE
  5
BCA
100
AcDbEntity
  8
CENTER
 62
     7
100
AcDbLine
 10
171.372291
 20
164.991197
 30
0.0
 11
171.372291
 21
157.491197
 31
0.0
  0
LINE
  5
BCB
100
AcDbEntity
  8
CENTER
 62
     7
100
AcDbLine
 10
175.122291
 20
161.241197
 30
0.0
 11
167.622291
 21
161.241197
 31
0.0
  0
CIRCLE
  5
BCC
100
AcDbEntity
  8
OBJECT
 62
     7
100
AcDbCircle
 10
171.372291
 20
161.241197
 30
0.0
 40
1.375
  0
CIRCLE
  5
BCD
100
AcDbEntity
  8
OBJECT
 62
     7
100
AcDbCircle
 10
171.372291
 20
161.241197
 30
0.0
 40
1.221
  0
LINE
  5
BCE
100
AcDbEntity
  8
CENTER
 62
     7
100
AcDbLine
 10
196.676578
 20
161.241197
 30
0.0
 11
187.176578
 21
161.241197
 31
0.0
  0
LINE
  5
BCF
100
AcDbEntity
  8
CENTER
 62
     7
100
AcDbLine
 10
191.926578
 20
165.991197
 30
0.0
 11
191.926578
 21
156.491197
 31
0.0
  0
CIRCLE
  5
BD0
100
AcDbEntity
  8
OBJECT
 62
     7
100
AcDbCircle
 10
191.926578
 20
161.241197
 30
0.0
 40
2.0
  0
CIRCLE
  5
BD1
100
AcDbEntity
  8
OBJECT
 62
     7
100
AcDbCircle
 10
191.926578
 20
161.241197
 30
0.0
 40
1.784
  0
LINE
  5
BD2
100
AcDbEntity
  8
CENTER
 62
     7
100
AcDbLine
 10
215.775576
 20
161.241197
 30
0.0
 11
206.275576
 21
161.241197
 31
0.0
  0
LINE
  5
BD3
100
AcDbEntity
  8
CENTER
 62
     7
100
AcDbLine
 10
211.025576
 20
165.991197
 30
0.0
 11
211.025576
 21
156.491197
 31
0.0
  0
CIRCLE
  5
BD4
100
AcDbEntity
  8
OBJECT
 62
     7
100
AcDbCircle
 10
211.025576
 20
161.241197
 30
0.0
 40
2.5
  0
CIRCLE
  5
BD5
100
AcDbEntity
  8
OBJECT
 62
     7
100
AcDbCircle
 10
211.025576
 20
161.241197
 30
0.0
 40
2.263
  0
ARC
  5
BD6
100
AcDbEntity
  8
OBJECT
 62
     7
100
AcDbCircle
 10
169.589936
 20
214.184613
 30
0.0
 40
16.5133
100
AcDbArc
 50
261.292331
 51
278.707669
  0
ARC
  5
BD7
100
AcDbEntity
  8
OBJECT
 62
     7
100
AcDbCircle
 10
169.589936
 20
214.184613
 30
0.0
 40
16.4386
100
AcDbArc
 50
261.252452
 51
278.747548
  0
LINE
  5
BD8
100
AcDbEntity
  8
OBJECT
 62
     7
100
AcDbLine
 10
168.933436
 20
196.896163
 30
0.0
 11
168.933436
 21
197.684368
 31
0.0
  0
LINE
  5
BD9
100
AcDbEntity
  8
OBJECT
 62
     7
100
AcDbLine
 10
170.246436
 20
196.896163
 30
0.0
 11
170.246436
 21
197.684368
 31
0.0
  0
LINE
  5
BDA
100
AcDbEntity
  8
OBJECT
 62
     7
100
AcDbLine
 10
170.246436
 20
198.521163
 30
0.0
 11
168.933436
 21
198.521163
 31
0.0
  0
LINE
  5
BDB
100
AcDbEntity
  8
OBJECT
 62
     7
100
AcDbLine
 10
170.246436
 20
196.896163
 30
0.0
 11
168.933436
 21
196.896163
 31
0.0
  0
LINE
  5
BDC
100
AcDbEntity
  8
OBJECT
 62
     7
100
AcDbLine
 10
168.933436
 20
197.759128
 30
0.0
 11
168.933436
 21
198.521163
 31
0.0
  0
LINE
  5
BDD
100
AcDbEntity
  8
OBJECT
 62
     7
100
AcDbLine
 10
170.246436
 20
197.759128
 30
0.0
 11
170.246436
 21
198.521163
 31
0.0
  0
CIRCLE
  5
BDE
100
AcDbEntity
  8
OBJECT
 62
     7
100
AcDbCircle
 10
169.94418
 20
186.849101
 30
0.0
 40
0.5235
  0
LINE
  5
BDF
100
AcDbEntity
  8
CENTER
 62
     7
100
AcDbLine
 10
169.589936
 20
199.271163
 30
0.0
 11
169.589936
 21
196.146163
 31
0.0
  0
LINE
  5
BE0
100
AcDbEntity
  8
CENTER
 62
     7
100
AcDbLine
 10
184.925054
 20
199.271163
 30
0.0
 11
184.925054
 21
196.146163
 31
0.0
  0
ARC
  5
BE1
100
AcDbEntity
  8
OBJECT
 62
     7
100
AcDbCircle
 10
184.925054
 20
214.184613
 30
0.0
 40
16.5133
100
AcDbArc
 50
261.292331
 51
278.707669
  0
ARC
  5
BE2
100
AcDbEntity
  8
OBJECT
 62
     7
100
AcDbCircle
 10
184.925054
 20
214.184613
 30
0.0
 40
16.4386
100
AcDbArc
 50
261.252452
 51
278.747548
  0
LINE
  5
BE3
100
AcDbEntity
  8
OBJECT
 62
     7
100
AcDbLine
 10
184.137054
 20
196.708663
 30
0.0
 11
184.137054
 21
197.690125
 31
0.0
  0
LINE
  5
BE4
100
AcDbEntity
  8
OBJECT
 62
     7
100
AcDbLine
 10
185.713054
 20
196.708663
 30
0.0
 11
185.713054
 21
197.690125
 31
0.0
  0
CIRCLE
  5
BE5
100
AcDbEntity
  8
HIDDEN
 62
     7
100
AcDbCircle
 10
185.279298
 20
186.849101
 30
0.0
 40
0.675
  0
LINE
  5
BE6
100
AcDbEntity
  8
OBJECT
 62
     7
100
AcDbLine
 10
185.713054
 20
198.708663
 30
0.0
 11
184.137054
 21
198.708663
 31
0.0
  0
LINE
  5
BE7
100
AcDbEntity
  8
OBJECT
 62
     7
100
AcDbLine
 10
185.713054
 20
196.708663
 30
0.0
 11
184.137054
 21
196.708663
 31
0.0
  0
LINE
  5
BE8
100
AcDbEntity
  8
OBJECT
 62
     7
100
AcDbLine
 10
185.713054
 20
197.764911
 30
0.0
 11
185.713054
 21
198.708663
 31
0.0
  0
LINE
  5
BE9
100
AcDbEntity
  8
OBJECT
 62
     7
100
AcDbLine
 10
184.137054
 20
197.764911
 30
0.0
 11
184.137054
 21
198.708663
 31
0.0
  0
ARC
  5
BEA
100
AcDbEntity
  8
OBJECT
 62
     7
100
AcDbCircle
 10
198.550534
 20
214.184613
 30
0.0
 40
16.4386
100
AcDbArc
 50
261.252452
 51
278.747548
  0
ARC
  5
BEB
100
AcDbEntity
  8
OBJECT
 62
     7
100
AcDbCircle
 10
198.550534
 20
214.184613
 30
0.0
 40
16.5133
100
AcDbArc
 50
261.292331
 51
278.707669
  0
LINE
  5
BEC
100
AcDbEntity
  8
CENTER
 62
     7
100
AcDbLine
 10
198.550534
 20
199.271163
 30
0.0
 11
198.550534
 21
196.146163
 31
0.0
  0
CIRCLE
  5
BED
100
AcDbEntity
  8
HIDDEN
 62
     7
100
AcDbCircle
 10
198.904778
 20
186.849101
 30
0.0
 40
0.83
  0
LINE
  5
BEE
100
AcDbEntity
  8
OBJECT
 62
     7
100
AcDbLine
 10
197.600534
 20
196.677163
 30
0.0
 11
197.600534
 21
197.698662
 31
0.0
  0
LINE
  5
BEF
100
AcDbEntity
  8
OBJECT
 62
     7
100
AcDbLine
 10
199.500534
 20
196.677163
 30
0.0
 11
199.500534
 21
197.698662
 31
0.0
  0
LINE
  5
BF0
100
AcDbEntity
  8
OBJECT
 62
     7
100
AcDbLine
 10
199.500534
 20
198.740163
 30
0.0
 11
197.600534
 21
198.740163
 31
0.0
  0
LINE
  5
BF1
100
AcDbEntity
  8
OBJECT
 62
     7
100
AcDbLine
 10
199.500534
 20
196.677163
 30
0.0
 11
197.600534
 21
196.677163
 31
0.0
  0
LINE
  5
BF2
100
AcDbEntity
  8
OBJECT
 62
     7
100
AcDbLine
 10
197.600534
 20
197.773487
 30
0.0
 11
197.600534
 21
198.740163
 31
0.0
  0
LINE
  5
BF3
100
AcDbEntity
  8
OBJECT
 62
     7
100
AcDbLine
 10
199.500534
 20
197.773487
 30
0.0
 11
199.500534
 21
198.740163
 31
0.0
  0
ARC
  5
BF4
100
AcDbEntity
  8
OBJECT
 62
     7
100
AcDbCircle
 10
213.699109
 20
214.184613
 30
0.0
 40
16.5133
100
AcDbArc
 50
261.292331
 51
278.707669
  0
ARC
  5
BF5
100
AcDbEntity
  8
OBJECT
 62
     7
100
AcDbCircle
 10
213.699109
 20
214.184613
 30
0.0
 40
16.4386
100
AcDbArc
 50
261.252452
 51
278.747548
  0
LINE
  5
BF6
100
AcDbEntity
  8
CENTER
 62
     7
100
AcDbLine
 10
213.699109
 20
199.271163
 30
0.0
 11
213.699109
 21
196.146163
 31
0.0
  0
LINE
  5
BF7
100
AcDbEntity
  8
OBJECT
 62
     7
100
AcDbLine
 10
212.599109
 20
196.646163
 30
0.0
 11
212.599109
 21
197.707991
 31
0.0
  0
LINE
  5
BF8
100
AcDbEntity
  8
OBJECT
 62
     7
100
AcDbLine
 10
214.799109
 20
196.646163
 30
0.0
 11
214.799109
 21
197.707991
 31
0.0
  0
LINE
  5
BF9
100
AcDbEntity
  8
OBJECT
 62
     7
100
AcDbLine
 10
214.799109
 20
198.771163
 30
0.0
 11
212.599109
 21
198.771163
 31
0.0
  0
LINE
  5
BFA
100
AcDbEntity
  8
OBJECT
 62
     7
100
AcDbLine
 10
214.799109
 20
196.646163
 30
0.0
 11
212.599109
 21
196.646163
 31
0.0
  0
LINE
  5
BFB
100
AcDbEntity
  8
OBJECT
 62
     7
100
AcDbLine
 10
212.599109
 20
197.782858
 30
0.0
 11
212.599109
 21
198.771163
 31
0.0
  0
LINE
  5
BFC
100
AcDbEntity
  8
OBJECT
 62
     7
100
AcDbLine
 10
214.799109
 20
197.782858
 30
0.0
 11
214.799109
 21
198.771163
 31
0.0
  0
ARC
  5
BFD
100
AcDbEntity
  8
OBJECT
 62
     7
100
AcDbCircle
 10
171.372291
 20
195.414842
 30
0.0
 40
20.923472
100
AcDbArc
 50
261.756541
 51
278.243459
  0
ARC
  5
BFE
100
AcDbEntity
  8
OBJECT
 62
     7
100
AcDbCircle
 10
171.372291
 20
195.414842
 30
0.0
 40
20.848772
100
AcDbArc
 50
261.726798
 51
278.273202
  0
CIRCLE
  5
BFF
100
AcDbEntity
  8
HIDDEN
 62
     7
100
AcDbCircle
 10
171.372291
 20
161.241197
 30
0.0
 40
1.241
  0
LINE
  5
C00
100
AcDbEntity
  8
OBJECT
 62
     7
100
AcDbLine
 10
169.997291
 20
173.46622
 30
0.0
 11
169.997291
 21
174.536598
 31
0.0
  0
LINE
  5
C01
100
AcDbEntity
  8
OBJECT
 62
     7
100
AcDbLine
 10
172.747291
 20
173.46622
 30
0.0
 11
172.747291
 21
174.536598
 31
0.0
  0
LINE
  5
C02
100
AcDbEntity
  8
OBJECT
 62
     7
100
AcDbLine
 10
172.747291
 20
175.59122
 30
0.0
 11
169.997291
 21
175.59122
 31
0.0
  0
LINE
  5
C03
100
AcDbEntity
  8
OBJECT
 62
     7
100
AcDbLine
 10
172.747291
 20
173.46622
 30
0.0
 11
169.997291
 21
173.46622
 31
0.0
  0
LINE
  5
C04
100
AcDbEntity
  8
CENTER
 62
     7
100
AcDbLine
 10
171.372291
 20
172.71622
 30
0.0
 11
171.372291
 21
176.34122
 31
0.0
  0
LINE
  5
C05
100
AcDbEntity
  8
OBJECT
 62
     7
100
AcDbLine
 10
169.997291
 20
174.611461
 30
0.0
 11
169.997291
 21
175.59122
 31
0.0
  0
LINE
  5
C06
100
AcDbEntity
  8
OBJECT
 62
     7
100
AcDbLine
 10
172.747291
 20
174.611461
 30
0.0
 11
172.747291
 21
175.59122
 31
0.0
  0
LINE
  5
C07
100
AcDbEntity
  8
CENTER
 62
     7
100
AcDbLine
 10
191.926578
 20
172.71622
 30
0.0
 11
191.926578
 21
176.34122
 31
0.0
  0
LINE
  5
C08
100
AcDbEntity
  8
OBJECT
 62
     7
100
AcDbLine
 10
189.926578
 20
172.90372
 30
0.0
 11
189.926578
 21
174.587176
 31
0.0
  0
LINE
  5
C09
100
AcDbEntity
  8
OBJECT
 62
     7
100
AcDbLine
 10
193.926578
 20
172.90372
 30
0.0
 11
193.926578
 21
174.587176
 31
0.0
  0
LINE
  5
C0A
100
AcDbEntity
  8
OBJECT
 62
     7
100
AcDbLine
 10
193.926578
 20
176.15372
 30
0.0
 11
189.926578
 21
176.15372
 31
0.0
  0
LINE
  5
C0B
100
AcDbEntity
  8
OBJECT
 62
     7
100
AcDbLine
 10
193.926578
 20
172.90372
 30
0.0
 11
189.926578
 21
172.90372
 31
0.0
  0
LINE
  5
C0C
100
AcDbEntity
  8
OBJECT
 62
     7
100
AcDbLine
 10
189.926578
 20
174.66222
 30
0.0
 11
189.926578
 21
176.15372
 31
0.0
  0
LINE
  5
C0D
100
AcDbEntity
  8
OBJECT
 62
     7
100
AcDbLine
 10
193.926578
 20
174.66222
 30
0.0
 11
193.926578
 21
176.15372
 31
0.0
  0
LINE
  5
C0E
100
AcDbEntity
  8
CENTER
 62
     7
100
AcDbLine
 10
211.025576
 20
172.71622
 30
0.0
 11
211.025576
 21
176.34122
 31
0.0
  0
LINE
  5
C0F
100
AcDbEntity
  8
OBJECT
 62
     7
100
AcDbLine
 10
208.525576
 20
172.92872
 30
0.0
 11
208.525576
 21
174.64126
 31
0.0
  0
LINE
  5
C10
100
AcDbEntity
  8
OBJECT
 62
     7
100
AcDbLine
 10
213.525576
 20
172.92872
 30
0.0
 11
213.525576
 21
174.64126
 31
0.0
  0
LINE
  5
C11
100
AcDbEntity
  8
OBJECT
 62
     7
100
AcDbLine
 10
213.525576
 20
176.12872
 30
0.0
 11
208.525576
 21
176.12872
 31
0.0
  0
LINE
  5
C12
100
AcDbEntity
  8
OBJECT
 62
     7
100
AcDbLine
 10
213.525576
 20
172.92872
 30
0.0
 11
208.525576
 21
172.92872
 31
0.0
  0
LINE
  5
C13
100
AcDbEntity
  8
OBJECT
 62
     7
100
AcDbLine
 10
208.525576
 20
174.716501
 30
0.0
 11
208.525576
 21
176.12872
 31
0.0
  0
LINE
  5
C14
100
AcDbEntity
  8
OBJECT
 62
     7
100
AcDbLine
 10
213.525576
 20
174.716501
 30
0.0
 11
213.525576
 21
176.12872
 31
0.0
  0
TEXT
  5
10B1
100
AcDbEntity
  8
DIM
 62
     7
100
AcDbText
 10
171.022244
 20
204.726275
 30
0.0
 40
0.808594
  1
3/8-16 x 1 1/4" STAINLESS STEEL BOLTS, WASHERS, NUTS AND
  7
ROMANS
 72
     1
 11
191.85316
 21
204.726275
 31
0.0
100
AcDbText
  0
TEXT
  5
10B2
100
AcDbEntity
  8
DIM
 62
     7
100
AcDbText
 10
169.905305
 20
208.878905
 30
0.0
 40
1.617188
  1
STAINLESS STEEL AND INDUSTRIAL
  7
ROMAND
 72
     1
 11
191.50631
 21
208.878905
 31
0.0
100
AcDbText
  0
TEXT
  5
10B3
100
AcDbEntity
  8
DIM
 62
     7
100
AcDbText
 10
173.101485
 20
203.488581
 30
0.0
 40
0.808594
  1
3/4"x1/4" CLOSED CELL FOAM ADHESIVE GASKET MATERIAL
  7
ROMANS
 72
     1
 11
191.85316
 21
203.488581
 31
0.0
100
AcDbText
  0
DIMENSION
  5
10B4
100
AcDbEntity
  8
DIM
 62
     7
100
AcDbDimension
  2
*D8
 10
172.44418
 20
192.240053
 30
0.0
 11
169.94418
 21
192.240053
 31
0.0
 12
74.660771
 22
5.086929
 32
0.0
 70
    32
  1
5"
  3
STANDARD
100
AcDbAlignedDimension
 13
167.44418
 23
189.349101
 33
0.0
 14
172.44418
 24
189.349101
 34
0.0
100
AcDbRotatedDimension
1001
ACAD
1000
DSTYLE
1002
{
1070
   340
1005
5D
1070
   147
1040
0.7
1070
   287
1070
     5
1070
    41
1040
0.55
1002
}
  0
DIMENSION
  5
10B5
100
AcDbEntity
  8
DIM
 62
     7
100
AcDbDimension
  2
*D7
 10
170.246436
 20
195.196753
 30
0.0
 11
165.763869
 21
195.196753
 31
0.0
 12
74.306526
 22
3.494009
 32
0.0
 70
   160
  1
1 5/16"
  3
STANDARD
100
AcDbAlignedDimension
 13
168.933436
 23
196.896163
 33
0.0
 14
170.246436
 24
196.896163
 34
0.0
100
AcDbRotatedDimension
1001
ACAD
1000
DSTYLE
1002
{
1070
   340
1005
5D
1070
   147
1040
0.7
1070
   287
1070
     5
1070
    41
1040
0.55
1002
}
  0
DIMENSION
  5
10B6
100
AcDbEntity
  8
DIM
 62
     7
100
AcDbDimension
  2
*D10
 10
174.378415
 20
189.349101
 30
0.0
 11
174.378415
 21
186.849101
 31
0.0
 12
74.660771
 22
5.086929
 32
0.0
 70
    32
  1
5"
  3
STANDARD
100
AcDbAlignedDimension
 13
172.44418
 23
184.349101
 33
0.0
 14
172.44418
 24
189.349101
 34
0.0
 50
90.0
100
AcDbRotatedDimension
1001
ACAD
1000
DSTYLE
1002
{
1070
   340
1005
5D
1070
   147
1040
0.7
1070
   287
1070
     5
1070
    41
1040
0.55
1002
}
  0
DIMENSION
  5
10B7
100
AcDbEntity
  8
DIM
 62
     7
100
AcDbDimension
  2
*D6
 10
175.524171
 20
198.521163
 30
0.0
 11
175.784513
 21
200.421621
 31
0.0
 12
74.306526
 22
3.494009
 32
0.0
 70
   160
  1
1 1/16"
  3
STANDARD
100
AcDbAlignedDimension
 13
170.246436
 23
196.896163
 33
0.0
 14
170.246436
 24
198.521163
 34
0.0
 50
90.0
100
AcDbRotatedDimension
1001
ACAD
1000
DSTYLE
1002
{
1070
   340
1005
5D
1070
   147
1040
0.7
1070
   287
1070
     5
1070
    41
1040
0.55
1002
}
  0
TEXT
  5
10B8
100
AcDbEntity
  8
DIM
 62
     7
100
AcDbText
 10
163.987037
 20
180.468836
 30
0.0
 40
0.6
  1
3/4" FPT PIPE COUPLING
  7
ROMANS
 72
     1
 11
169.94418
 21
180.468836
 31
0.0
100
AcDbText
  0
TEXT
  5
10B9
100
AcDbEntity
  8
DIM
 62
     7
100
AcDbText
 10
167.487037
 20
179.497407
 30
0.0
 40
0.6
  1
PART NO. 
  7
ROMANS
 72
     1
 11
169.94418
 21
179.497407
 31
0.0
100
AcDbText
  0
TEXT
  5
10BA
100
AcDbEntity
  8
DIM
 62
     7
100
AcDbText
 10
163.94418
 20
178.525978
 30
0.0
 40
0.6
  1
C075E- ENAMELED STEEL
  7
ROMANS
 72
     1
 11
169.94418
 21
178.525978
 31
0.0
100
AcDbText
  0
TEXT
  5
10BB
100
AcDbEntity
  8
DIM
 62
     7
100
AcDbText
 10
163.915609
 20
177.55455
 30
0.0
 40
0.6
  1
C075S- STAINLESS STEEL
  7
ROMANS
 72
     1
 11
169.94418
 21
177.55455
 31
0.0
100
AcDbText
  0
LINE
  5
10BC
100
AcDbEntity
  8
DIM
 62
     7
100
AcDbLine
 10
167.364683
 20
179.372644
 30
0.0
 11
171.732418
 21
179.372644
 31
0.0
  0
DIMENSION
  5
10BD
100
AcDbEntity
  8
DIM
 62
     7
100
AcDbDimension
  2
*D11
 10
187.779298
 20
192.240053
 30
0.0
 11
185.279298
 21
192.240053
 31
0.0
 12
74.660771
 22
5.086929
 32
0.0
 70
    32
  1
5"
  3
STANDARD
100
AcDbAlignedDimension
 13
182.779298
 23
189.349101
 33
0.0
 14
187.779298
 24
189.349101
 34
0.0
100
AcDbRotatedDimension
1001
ACAD
1000
DSTYLE
1002
{
1070
   340
1005
5D
1070
   147
1040
0.7
1070
   287
1070
     5
1070
    41
1040
0.55
1002
}
  0
DIMENSION
  5
10BE
100
AcDbEntity
  8
DIM
 62
     7
100
AcDbDimension
  2
*D12
 10
189.713533
 20
189.349101
 30
0.0
 11
189.713533
 21
186.849101
 31
0.0
 12
74.660771
 22
5.086929
 32
0.0
 70
    32
  1
5"
  3
STANDARD
100
AcDbAlignedDimension
 13
187.779298
 23
184.349101
 33
0.0
 14
187.779298
 24
189.349101
 34
0.0
 50
90.0
100
AcDbRotatedDimension
1001
ACAD
1000
DSTYLE
1002
{
1070
   340
1005
5D
1070
   147
1040
0.7
1070
   287
1070
     5
1070
    41
1040
0.55
1002
}
  0
TEXT
  5
10BF
100
AcDbEntity
  8
DIM
 62
     7
100
AcDbText
 10
179.879298
 20
180.468836
 30
0.0
 40
0.6
  1
1" FPT PIPE COUPLING
  7
ROMANS
 72
     1
 11
185.279298
 21
180.468836
 31
0.0
100
AcDbText
  0
LINE
  5
10C0
100
AcDbEntity
  8
DIM
 62
     7
100
AcDbLine
 10
182.699801
 20
179.372644
 30
0.0
 11
187.067537
 21
179.372644
 31
0.0
  0
TEXT
  5
10C1
100
AcDbEntity
  8
DIM
 62
     7
100
AcDbText
 10
179.250727
 20
177.55455
 30
0.0
 40
0.6
  1
C100S- STAINLESS STEEL
  7
ROMANS
 72
     1
 11
185.279298
 21
177.55455
 31
0.0
100
AcDbText
  0
TEXT
  5
10C2
100
AcDbEntity
  8
DIM
 62
     7
100
AcDbText
 10
179.279298
 20
178.525978
 30
0.0
 40
0.6
  1
C100E- ENAMELED STEEL
  7
ROMANS
 72
     1
 11
185.279298
 21
178.525978
 31
0.0
100
AcDbText
  0
TEXT
  5
10C3
100
AcDbEntity
  8
DIM
 62
     7
100
AcDbText
 10
182.822156
 20
179.497407
 30
0.0
 40
0.6
  1
PART NO. 
  7
ROMANS
 72
     1
 11
185.279298
 21
179.497407
 31
0.0
100
AcDbText
  0
DIMENSION
  5
10C4
100
AcDbEntity
  8
DIM
 62
     7
100
AcDbDimension
  2
*D9
 10
185.713054
 20
195.191284
 30
0.0
 11
181.024937
 21
195.191284
 31
0.0
 12
74.306526
 22
3.494009
 32
0.0
 70
   160
  1
1 9/16"
  3
STANDARD
100
AcDbAlignedDimension
 13
184.137054
 23
196.708663
 33
0.0
 14
185.713054
 24
196.708663
 34
0.0
100
AcDbRotatedDimension
1001
ACAD
1000
DSTYLE
1002
{
1070
   340
1005
5D
1070
   147
1040
0.7
1070
   287
1070
     5
1070
    41
1040
0.55
1002
}
  0
DIMENSION
  5
10C5
100
AcDbEntity
  8
DIM
 62
     7
100
AcDbDimension
  2
*D13
 10
190.860755
 20
198.708663
 30
0.0
 11
190.951828
 21
200.603546
 31
0.0
 12
74.306526
 22
3.494009
 32
0.0
 70
   160
  1
2"
  3
STANDARD
100
AcDbAlignedDimension
 13
185.713054
 23
196.708663
 33
0.0
 14
185.713054
 24
198.708663
 34
0.0
 50
90.0
100
AcDbRotatedDimension
1001
ACAD
1000
DSTYLE
1002
{
1070
   340
1005
5D
1070
   147
1040
0.7
1070
   287
1070
     5
1070
    41
1040
0.55
1002
}
  0
TEXT
  5
10C6
100
AcDbEntity
  8
DIM
 62
     7
100
AcDbText
 10
192.876206
 20
177.55455
 30
0.0
 40
0.6
  1
C125S- STAINLESS STEEL
  7
ROMANS
 72
     1
 11
198.904778
 21
177.55455
 31
0.0
100
AcDbText
  0
TEXT
  5
10C7
100
AcDbEntity
  8
DIM
 62
     7
100
AcDbText
 10
192.904778
 20
178.525978
 30
0.0
 40
0.6
  1
C125E- ENAMELED STEEL
  7
ROMANS
 72
     1
 11
198.904778
 21
178.525978
 31
0.0
100
AcDbText
  0
TEXT
  5
10C8
100
AcDbEntity
  8
DIM
 62
     7
100
AcDbText
 10
192.319064
 20
180.468836
 30
0.0
 40
0.6
  1
1 1/4" FPT PIPE COUPLING
  7
ROMANS
 72
     1
 11
198.904778
 21
180.468836
 31
0.0
100
AcDbText
  0
TEXT
  5
10C9
100
AcDbEntity
  8
DIM
 62
     7
100
AcDbText
 10
196.447635
 20
179.497407
 30
0.0
 40
0.6
  1
PART NO. 
  7
ROMANS
 72
     1
 11
198.904778
 21
179.497407
 31
0.0
100
AcDbText
  0
LINE
  5
10CA
100
AcDbEntity
  8
DIM
 62
     7
100
AcDbLine
 10
196.32528
 20
179.372644
 30
0.0
 11
200.693016
 21
179.372644
 31
0.0
  0
DIMENSION
  5
10CB
100
AcDbEntity
  8
DIM
 62
     7
100
AcDbDimension
  2
*D24
 10
201.404778
 20
192.240053
 30
0.0
 11
198.904778
 21
192.240053
 31
0.0
 12
74.660771
 22
5.086929
 32
0.0
 70
    32
  1
5"
  3
STANDARD
100
AcDbAlignedDimension
 13
196.404778
 23
189.349101
 33
0.0
 14
201.404778
 24
189.349101
 34
0.0
100
AcDbRotatedDimension
1001
ACAD
1000
DSTYLE
1002
{
1070
   340
1005
5D
1070
   147
1040
0.7
1070
   287
1070
     5
1070
    41
1040
0.55
1002
}
  0
DIMENSION
  5
10CC
100
AcDbEntity
  8
DIM
 62
     7
100
AcDbDimension
  2
*D23
 10
203.339013
 20
189.349101
 30
0.0
 11
203.339013
 21
186.849101
 31
0.0
 12
74.660771
 22
5.086929
 32
0.0
 70
    32
  1
5"
  3
STANDARD
100
AcDbAlignedDimension
 13
201.404778
 23
184.349101
 33
0.0
 14
201.404778
 24
189.349101
 34
0.0
 50
90.0
100
AcDbRotatedDimension
1001
ACAD
1000
DSTYLE
1002
{
1070
   340
1005
5D
1070
   147
1040
0.7
1070
   287
1070
     5
1070
    41
1040
0.55
1002
}
  0
DIMENSION
  5
10CD
100
AcDbEntity
  8
DIM
 62
     7
100
AcDbDimension
  2
*D25
 10
199.500534
 20
195.193485
 30
0.0
 11
194.216212
 21
195.193485
 31
0.0
 12
74.306526
 22
3.494009
 32
0.0
 70
   160
  1
1 29/32"
  3
STANDARD
100
AcDbAlignedDimension
 13
197.600534
 23
196.677163
 33
0.0
 14
199.500534
 24
196.677163
 34
0.0
100
AcDbRotatedDimension
1001
ACAD
1000
DSTYLE
1002
{
1070
   340
1005
5D
1070
   147
1040
0.7
1070
   287
1070
     5
1070
    41
1040
0.55
1002
}
  0
DIMENSION
  5
10CE
100
AcDbEntity
  8
DIM
 62
     7
100
AcDbDimension
  2
*D22
 10
204.465462
 20
198.740163
 30
0.0
 11
204.465462
 21
200.686439
 31
0.0
 12
74.306526
 22
3.494009
 32
0.0
 70
   160
  1
2 1/16"
  3
STANDARD
100
AcDbAlignedDimension
 13
199.500534
 23
196.677163
 33
0.0
 14
199.500534
 24
198.740163
 34
0.0
 50
90.0
100
AcDbRotatedDimension
1001
ACAD
1000
DSTYLE
1002
{
1070
   340
1005
5D
1070
   147
1040
0.7
1070
   287
1070
     5
1070
    41
1040
0.55
1002
}
  0
TEXT
  5
10CF
100
AcDbEntity
  8
DIM
 62
     7
100
AcDbText
 10
208.024782
 20
177.55455
 30
0.0
 40
0.6
  1
C150S- STAINLESS STEEL
  7
ROMANS
 72
     1
 11
214.053354
 21
177.55455
 31
0.0
100
AcDbText
  0
TEXT
  5
10D0
100
AcDbEntity
  8
DIM
 62
     7
100
AcDbText
 10
208.053354
 20
178.525978
 30
0.0
 40
0.6
  1
C150E- ENAMELED STEEL
  7
ROMANS
 72
     1
 11
214.053354
 21
178.525978
 31
0.0
100
AcDbText
  0
TEXT
  5
10D1
100
AcDbEntity
  8
DIM
 62
     7
100
AcDbText
 10
207.467639
 20
180.468836
 30
0.0
 40
0.6
  1
1 1/2" FPT PIPE COUPLING
  7
ROMANS
 72
     1
 11
214.053354
 21
180.468836
 31
0.0
100
AcDbText
  0
LINE
  5
10D2
100
AcDbEntity
  8
DIM
 62
     7
100
AcDbLine
 10
211.473856
 20
179.372644
 30
0.0
 11
215.841592
 21
179.372644
 31
0.0
  0
TEXT
  5
10D3
100
AcDbEntity
  8
DIM
 62
     7
100
AcDbText
 10
211.596211
 20
179.497407
 30
0.0
 40
0.6
  1
PART NO. 
  7
ROMANS
 72
     1
 11
214.053354
 21
179.497407
 31
0.0
100
AcDbText
  0
DIMENSION
  5
10D4
100
AcDbEntity
  8
DIM
 62
     7
100
AcDbDimension
  2
*D26
 10
218.487589
 20
189.349101
 30
0.0
 11
218.487589
 21
186.849101
 31
0.0
 12
74.660771
 22
5.086929
 32
0.0
 70
    32
  1
5"
  3
STANDARD
100
AcDbAlignedDimension
 13
216.553354
 23
184.349101
 33
0.0
 14
216.553354
 24
189.349101
 34
0.0
 50
90.0
100
AcDbRotatedDimension
1001
ACAD
1000
DSTYLE
1002
{
1070
   340
1005
5D
1070
   147
1040
0.7
1070
   287
1070
     5
1070
    41
1040
0.55
1002
}
  0
DIMENSION
  5
10D5
100
AcDbEntity
  8
DIM
 62
     7
100
AcDbDimension
  2
*D21
 10
216.553354
 20
192.240053
 30
0.0
 11
214.053354
 21
192.240053
 31
0.0
 12
74.660771
 22
5.086929
 32
0.0
 70
    32
  1
5"
  3
STANDARD
100
AcDbAlignedDimension
 13
211.553354
 23
189.349101
 33
0.0
 14
216.553354
 24
189.349101
 34
0.0
100
AcDbRotatedDimension
1001
ACAD
1000
DSTYLE
1002
{
1070
   340
1005
5D
1070
   147
1040
0.7
1070
   287
1070
     5
1070
    41
1040
0.55
1002
}
  0
DIMENSION
  5
10D6
100
AcDbEntity
  8
DIM
 62
     7
100
AcDbDimension
  2
*D20
 10
214.799109
 20
195.241434
 30
0.0
 11
209.526039
 21
195.118595
 31
0.0
 12
74.306526
 22
3.494009
 32
0.0
 70
   160
  1
2 13/64"
  3
STANDARD
100
AcDbAlignedDimension
 13
212.599109
 23
196.646163
 33
0.0
 14
214.799109
 24
196.646163
 34
0.0
100
AcDbRotatedDimension
1001
ACAD
1000
DSTYLE
1002
{
1070
   340
1005
5D
1070
   147
1040
0.7
1070
   287
1070
     5
1070
    41
1040
0.55
1002
}
  0
DIMENSION
  5
10D7
100
AcDbEntity
  8
DIM
 62
     7
100
AcDbDimension
  2
*D27
 10
219.652033
 20
198.771163
 30
0.0
 11
219.529045
 21
200.605413
 31
0.0
 12
74.306526
 22
3.494009
 32
0.0
 70
   160
  1
2 1/4"
  3
STANDARD
100
AcDbAlignedDimension
 13
214.799109
 23
196.646163
 33
0.0
 14
214.799109
 24
198.771163
 34
0.0
 50
90.0
100
AcDbRotatedDimension
1001
ACAD
1000
DSTYLE
1002
{
1070
   340
1005
5D
1070
   147
1040
0.7
1070
   287
1070
     5
1070
    41
1040
0.55
1002
}
  0
TEXT
  5
10D8
100
AcDbEntity
  8
DIM
 62
     7
100
AcDbText
 10
165.34372
 20
150.946647
 30
0.0
 40
0.6
  1
C200S- STAINLESS STEEL
  7
ROMANS
 72
     1
 11
171.372291
 21
150.946647
 31
0.0
100
AcDbText
  0
TEXT
  5
10D9
100
AcDbEntity
  8
DIM
 62
     7
100
AcDbText
 10
165.372291
 20
151.918075
 30
0.0
 40
0.6
  1
C200E- ENAMELED STEEL
  7
ROMANS
 72
     1
 11
171.372291
 21
151.918075
 31
0.0
100
AcDbText
  0
TEXT
  5
10DA
100
AcDbEntity
  8
DIM
 62
     7
100
AcDbText
 10
165.919162
 20
153.860932
 30
0.0
 40
0.6
  1
2" FPT PIPE COUPLING
  7
ROMANS
 72
     1
 11
171.276305
 21
153.860932
 31
0.0
100
AcDbText
  0
LINE
  5
10DB
100
AcDbEntity
  8
DIM
 62
     7
100
AcDbLine
 10
168.792794
 20
152.764741
 30
0.0
 11
173.16053
 21
152.764741
 31
0.0
  0
TEXT
  5
10DC
100
AcDbEntity
  8
DIM
 62
     7
100
AcDbText
 10
168.915148
 20
152.889504
 30
0.0
 40
0.6
  1
PART NO. 
  7
ROMANS
 72
     1
 11
171.372291
 21
152.889504
 31
0.0
100
AcDbText
  0
DIMENSION
  5
10DD
100
AcDbEntity
  8
DIM
 62
     7
100
AcDbDimension
  2
*D3
 10
172.747291
 20
171.809363
 30
0.0
 11
167.968553
 21
171.773177
 31
0.0
 12
74.306526
 22
5.26392
 32
0.0
 70
   160
  1
2 3/4"
  3
STANDARD
100
AcDbAlignedDimension
 13
169.997291
 23
173.46622
 33
0.0
 14
172.747291
 24
173.46622
 34
0.0
100
AcDbRotatedDimension
1001
ACAD
1000
DSTYLE
1002
{
1070
   340
1005
5D
1070
   147
1040
0.7
1070
   287
1070
     5
1070
    41
1040
0.55
1002
}
  0
DIMENSION
  5
10DE
100
AcDbEntity
  8
DIM
 62
     7
100
AcDbDimension
  2
*D5
 10
179.306526
 20
175.59122
 30
0.0
 11
179.344573
 21
174.559469
 31
0.0
 12
74.306526
 22
5.26392
 32
0.0
 70
   160
  1
2 1/8"
  3
STANDARD
100
AcDbAlignedDimension
 13
172.747291
 23
173.46622
 33
0.0
 14
172.747291
 24
175.59122
 34
0.0
 50
90.0
100
AcDbRotatedDimension
1001
ACAD
1000
DSTYLE
1002
{
1070
   340
1005
5D
1070
   147
1040
0.7
1070
   287
1070
     5
1070
    41
1040
0.55
1002
}
  0
TEXT
  5
10DF
100
AcDbEntity
  8
DIM
 62
     7
100
AcDbText
 10
186.47345
 20
153.860932
 30
0.0
 40
0.6
  1
3" FPT PIPE COUPLING
  7
ROMANS
 72
     1
 11
191.830592
 21
153.860932
 31
0.0
100
AcDbText
  0
TEXT
  5
10E0
100
AcDbEntity
  8
DIM
 62
     7
100
AcDbText
 10
185.926578
 20
151.918075
 30
0.0
 40
0.6
  1
C300E- ENAMELED STEEL
  7
ROMANS
 72
     1
 11
191.926578
 21
151.918075
 31
0.0
100
AcDbText
  0
TEXT
  5
10E1
100
AcDbEntity
  8
DIM
 62
     7
100
AcDbText
 10
185.898007
 20
150.946647
 30
0.0
 40
0.6
  1
C300S- STAINLESS STEEL
  7
ROMANS
 72
     1
 11
191.926578
 21
150.946647
 31
0.0
100
AcDbText
  0
TEXT
  5
10E2
100
AcDbEntity
  8
DIM
 62
     7
100
AcDbText
 10
189.469435
 20
152.889504
 30
0.0
 40
0.6
  1
PART NO. 
  7
ROMANS
 72
     1
 11
191.926578
 21
152.889504
 31
0.0
100
AcDbText
  0
LINE
  5
10E3
100
AcDbEntity
  8
DIM
 62
     7
100
AcDbLine
 10
189.347081
 20
152.764741
 30
0.0
 11
193.714816
 21
152.764741
 31
0.0
  0
DIMENSION
  5
10E4
100
AcDbEntity
  8
DIM
 62
     7
100
AcDbDimension
  2
*D1
 10
193.926578
 20
171.816499
 30
0.0
 11
192.010141
 21
171.768822
 31
0.0
 12
74.306526
 22
5.26392
 32
0.0
 70
   160
  1
4"
  3
STANDARD
100
AcDbAlignedDimension
 13
189.926578
 23
172.90372
 33
0.0
 14
193.926578
 24
172.90372
 34
0.0
100
AcDbRotatedDimension
1001
ACAD
1000
DSTYLE
1002
{
1070
   340
1005
5D
1070
   147
1040
0.7
1070
   287
1070
     5
1070
    41
1040
0.55
1002
}
  0
DIMENSION
  5
10E5
100
AcDbEntity
  8
DIM
 62
     7
100
AcDbDimension
  2
*D17
 10
199.823862
 20
172.90372
 30
0.0
 11
199.776127
 21
174.438734
 31
0.0
 12
74.306526
 22
5.26392
 32
0.0
 70
   160
  1
3 1/4"
  3
STANDARD
100
AcDbAlignedDimension
 13
193.864078
 23
176.15372
 33
0.0
 14
193.864078
 24
172.90372
 34
0.0
 50
90.0
100
AcDbRotatedDimension
1001
ACAD
1000
DSTYLE
1002
{
1070
   340
1005
5D
1070
   147
1040
0.7
1070
   287
1070
     5
1070
    41
1040
0.55
1002
}
  0
TEXT
  5
10E6
100
AcDbEntity
  8
DIM
 62
     7
100
AcDbText
 10
205.025576
 20
151.918075
 30
0.0
 40
0.6
  1
C400E- ENAMELED STEEL
  7
ROMANS
 72
     1
 11
211.025576
 21
151.918075
 31
0.0
100
AcDbText
  0
TEXT
  5
10E7
100
AcDbEntity
  8
DIM
 62
     7
100
AcDbText
 10
204.996532
 20
153.860932
 30
0.0
 40
0.6
  1
4" FPT PIPE COUPLING
  7
ROMANS
 72
     1
 11
210.353675
 21
153.860932
 31
0.0
100
AcDbText
  0
LINE
  5
10E8
100
AcDbEntity
  8
DIM
 62
     7
100
AcDbLine
 10
208.446079
 20
152.764741
 30
0.0
 11
212.813815
 21
152.764741
 31
0.0
  0
TEXT
  5
10E9
100
AcDbEntity
  8
DIM
 62
     7
100
AcDbText
 10
208.568434
 20
152.971625
 30
0.0
 40
0.6
  1
PART NO. 
  7
ROMANS
 72
     1
 11
211.025576
 21
152.971625
 31
0.0
100
AcDbText
  0
TEXT
  5
10EA
100
AcDbEntity
  8
DIM
 62
     7
100
AcDbText
 10
204.997005
 20
150.946647
 30
0.0
 40
0.6
  1
C400S- STAINLESS STEEL
  7
ROMANS
 72
     1
 11
211.025576
 21
150.946647
 31
0.0
100
AcDbText
  0
DIMENSION
  5
10EB
100
AcDbEntity
  8
DIM
 62
     7
100
AcDbDimension
  2
*D15
 10
213.525576
 20
171.865059
 30
0.0
 11
211.025576
 21
171.865059
 31
0.0
 12
74.306526
 22
5.26392
 32
0.0
 70
    32
  1
5"
  3
STANDARD
100
AcDbAlignedDimension
 13
208.525576
 23
172.92872
 33
0.0
 14
213.525576
 24
172.92872
 34
0.0
100
AcDbRotatedDimension
1001
ACAD
1000
DSTYLE
1002
{
1070
   340
1005
5D
1070
   147
1040
0.7
1070
   287
1070
     5
1070
    41
1040
0.55
1002
}
  0
DIMENSION
  5
10EC
100
AcDbEntity
  8
DIM
 62
     7
100
AcDbDimension
  2
*D19
 10
218.972191
 20
172.92872
 30
0.0
 11
219.137995
 21
174.597517
 31
0.0
 12
74.306526
 22
5.26392
 32
0.0
 70
   160
  1
3 13/64"
  3
STANDARD
100
AcDbAlignedDimension
 13
213.525576
 23
176.12872
 33
0.0
 14
213.525576
 24
172.92872
 34
0.0
 50
90.0
100
AcDbRotatedDimension
1001
ACAD
1000
DSTYLE
1002
{
1070
   340
1005
5D
1070
   147
1040
0.7
1070
   287
1070
     5
1070
    41
1040
0.55
1002
}
  0
TEXT
  5
10ED
100
AcDbEntity
  8
DIM
 62
     7
100
AcDbText
 10
164.707203
 20
206.723562
 30
0.0
 40
1.617188
  1
ENAMEL COATED PIPE SEALING COUPLINGS
  7
ROMAND
 72
     1
 11
191.50631
 21
206.723562
 31
0.0
100
AcDbText
  0
LWPOLYLINE
  5
10EE
100
AcDbEntity
  8
DIM
 62
     7
100
AcDbPolyline
 90
        2
 70
     0
 43
0.134766
 39
10.78125
 10
164.633258
 20
205.983039
 10
218.331797
 20
205.983039
  0
TEXT
  5
10F2
100
AcDbEntity
  8
DIM
 62
     7
100
AcDbText
 10
180.417334
 20
202.291943
 30
0.0
 40
0.808594
  1
PROVIDED WITH EACH COUPLING KIT.
  7
ROMANS
 72
     1
 11
191.85316
 21
202.291943
 31
0.0
100
AcDbText
  0
TEXT
  5
10F3
100
AcDbEntity
  8
DIM
 62
     7
100
AcDbText
 10
161.554646
 20
148.747485
 30
0.0
 40
0.6
  1
INSTALLATION INSTRUCTIONS
  7
ROMANS
100
AcDbText
  0
TEXT
  5
10F4
100
AcDbEntity
  8
DIM
 62
     7
100
AcDbText
 10
161.554646
 20
147.776057
 30
0.0
 40
0.6
  1
 1. LOCATE PIPE OR COUPLING CENTER.
  7
ROMANS
100
AcDbText
  0
TEXT
  5
10F5
100
AcDbEntity
  8
DIM
 62
     7
100
AcDbText
 10
161.554646
 20
146.804628
 30
0.0
 40
0.6
  1
 2. CUT HOLE TO THE OUTSIDE DIAMETER
  7
ROMANS
100
AcDbText
  0
TEXT
  5
10F6
100
AcDbEntity
  8
DIM
 62
     7
100
AcDbText
 10
163.003401
 20
145.8332
 30
0.0
 40
0.6
  1
 OF THE COUPLING.
  7
ROMANS
100
AcDbText
  0
TEXT
  5
10F7
100
AcDbEntity
  8
DIM
 62
     7
100
AcDbText
 10
161.554646
 20
144.861771
 30
0.0
 40
0.6
  1
 3. APPLY GASKET TO COUPLING OR BASIN.
  7
ROMANS
100
AcDbText
  0
TEXT
  5
10F8
100
AcDbEntity
  8
DIM
 62
     7
100
AcDbText
 10
161.554646
 20
143.890343
 30
0.0
 40
0.6
  1
 4. PLACE COUPLING AND DRILL HOLES FOR
  7
ROMANS
100
AcDbText
  0
TEXT
  5
10F9
100
AcDbEntity
  8
DIM
 62
     7
100
AcDbText
 10
163.003401
 20
142.918914
 30
0.0
 40
0.6
  1
 BOLTS.
  7
ROMANS
100
AcDbText
  0
TEXT
  5
10FA
100
AcDbEntity
  8
DIM
 62
     7
100
AcDbText
 10
161.554646
 20
141.947485
 30
0.0
 40
0.6
  1
 5. INSERT BOLTS, WASHERS, NUTS AND 
  7
ROMANS
100
AcDbText
  0
TEXT
  5
10FB
100
AcDbEntity
  8
DIM
 62
     7
100
AcDbText
 10
163.003401
 20
140.976057
 30
0.0
 40
0.6
  1
 TIGHTEN.
  7
ROMANS
100
AcDbText
  0
TEXT
  5
10FC
100
AcDbEntity
  8
DIM
 62
     7
100
AcDbText
 10
161.554646
 20
140.004628
 30
0.0
 40
0.6
  1
 6. DOPE THREADS AND INSERT PIPE.
  7
ROMANS
100
AcDbText
  0
LINE
  5
10FD
100
AcDbEntity
  8
DIM
 62
     7
100
AcDbLine
 10
161.652983
 20
148.640946
 30
0.0
 11
174.299297
 21
148.640946
 31
0.0
  0
CIRCLE
  5
10FE
100
AcDbEntity
  8
HIDDEN
 62
     7
100
AcDbCircle
 10
191.926578
 20
161.241197
 30
0.0
 40
1.804
  0
CIRCLE
  5
10FF
100
AcDbEntity
  8
HIDDEN
 62
     7
100
AcDbCircle
 10
211.025576
 20
161.241197
 30
0.0
 40
2.283
  0
CIRCLE
  5
1100
100
AcDbEntity
  8
OBJECT
 62
     7
100
AcDbCircle
 10
167.957727
 20
188.835554
 30
0.0
 40
0.25
  0
CIRCLE
  5
1101
100
AcDbEntity
  8
OBJECT
 62
     7
100
AcDbCircle
 10
171.930634
 20
188.835554
 30
0.0
 40
0.25
  0
CIRCLE
  5
1102
100
AcDbEntity
  8
OBJECT
 62
     7
100
AcDbCircle
 10
167.957727
 20
184.862647
 30
0.0
 40
0.25
  0
CIRCLE
  5
1103
100
AcDbEntity
  8
OBJECT
 62
     7
100
AcDbCircle
 10
171.930634
 20
184.862647
 30
0.0
 40
0.25
  0
CIRCLE
  5
1104
100
AcDbEntity
  8
OBJECT
 62
     7
100
AcDbCircle
 10
187.265752
 20
184.862647
 30
0.0
 40
0.25
  0
CIRCLE
  5
1105
100
AcDbEntity
  8
OBJECT
 62
     7
100
AcDbCircle
 10
183.292845
 20
184.862647
 30
0.0
 40
0.25
  0
CIRCLE
  5
1106
100
AcDbEntity
  8
OBJECT
 62
     7
100
AcDbCircle
 10
187.265752
 20
188.835554
 30
0.0
 40
0.25
  0
CIRCLE
  5
1107
100
AcDbEntity
  8
OBJECT
 62
     7
100
AcDbCircle
 10
183.292845
 20
188.835554
 30
0.0
 40
0.25
  0
CIRCLE
  5
1108
100
AcDbEntity
  8
OBJECT
 62
     7
100
AcDbCircle
 10
200.891231
 20
184.862647
 30
0.0
 40
0.25
  0
CIRCLE
  5
1109
100
AcDbEntity
  8
OBJECT
 62
     7
100
AcDbCircle
 10
196.918325
 20
184.862647
 30
0.0
 40
0.25
  0
CIRCLE
  5
110A
100
AcDbEntity
  8
OBJECT
 62
     7
100
AcDbCircle
 10
200.891231
 20
188.835554
 30
0.0
 40
0.25
  0
CIRCLE
  5
110B
100
AcDbEntity
  8
OBJECT
 62
     7
100
AcDbCircle
 10
196.918325
 20
188.835554
 30
0.0
 40
0.25
  0
CIRCLE
  5
110C
100
AcDbEntity
  8
OBJECT
 62
     7
100
AcDbCircle
 10
216.039807
 20
184.862647
 30
0.0
 40
0.25
  0
CIRCLE
  5
110D
100
AcDbEntity
  8
OBJECT
 62
     7
100
AcDbCircle
 10
212.0669
 20
184.862647
 30
0.0
 40
0.25
  0
CIRCLE
  5
110E
100
AcDbEntity
  8
OBJECT
 62
     7
100
AcDbCircle
 10
216.039807
 20
188.835554
 30
0.0
 40
0.25
  0
CIRCLE
  5
110F
100
AcDbEntity
  8
OBJECT
 62
     7
100
AcDbCircle
 10
212.0669
 20
188.835554
 30
0.0
 40
0.25
  0
CIRCLE
  5
1110
100
AcDbEntity
  8
OBJECT
 62
     7
100
AcDbCircle
 10
168.9018
 20
163.659797
 30
0.0
 40
0.25
  0
LINE
  5
1112
100
AcDbEntity
  8
OBJECT
 62
     7
100
AcDbLine
 10
174.372291
 20
164.241197
 30
0.0
 11
174.372291
 21
158.241197
 31
0.0
  0
LINE
  5
1113
100
AcDbEntity
  8
OBJECT
 62
     7
100
AcDbLine
 10
168.372291
 20
164.241197
 30
0.0
 11
168.372291
 21
158.241197
 31
0.0
  0
LINE
  5
1114
100
AcDbEntity
  8
OBJECT
 62
     7
100
AcDbLine
 10
174.372291
 20
158.241197
 30
0.0
 11
168.372291
 21
158.241197
 31
0.0
  0
LINE
  5
1115
100
AcDbEntity
  8
OBJECT
 62
     7
100
AcDbLine
 10
174.372291
 20
164.241197
 30
0.0
 11
168.372291
 21
164.241197
 31
0.0
  0
CIRCLE
  5
1116
100
AcDbEntity
  8
OBJECT
 62
     7
100
AcDbCircle
 10
173.842783
 20
163.659797
 30
0.0
 40
0.25
  0
CIRCLE
  5
1117
100
AcDbEntity
  8
OBJECT
 62
     7
100
AcDbCircle
 10
168.9018
 20
158.822598
 30
0.0
 40
0.25
  0
CIRCLE
  5
1118
100
AcDbEntity
  8
OBJECT
 62
     7
100
AcDbCircle
 10
173.842783
 20
158.822598
 30
0.0
 40
0.25
  0
ARC
  5
1119
100
AcDbEntity
  8
OBJECT
 62
     7
100
AcDbCircle
 10
191.926578
 20
195.414842
 30
0.0
 40
20.923472
100
AcDbArc
 50
258.978761
 51
281.021239
  0
ARC
  5
111A
100
AcDbEntity
  8
OBJECT
 62
     7
100
AcDbCircle
 10
191.926578
 20
195.414842
 30
0.0
 40
20.848772
100
AcDbArc
 50
258.938776
 51
281.061224
  0
LINE
  5
111B
100
AcDbEntity
  8
OBJECT
 62
     7
100
AcDbLine
 10
195.926578
 20
174.877274
 30
0.0
 11
195.926578
 21
174.953383
 31
0.0
  0
LINE
  5
111C
100
AcDbEntity
  8
OBJECT
 62
     7
100
AcDbLine
 10
187.926578
 20
174.877274
 30
0.0
 11
187.926578
 21
174.953383
 31
0.0
  0
LINE
  5
111D
100
AcDbEntity
  8
OBJECT
 62
     7
100
AcDbLine
 10
195.926578
 20
157.241197
 30
0.0
 11
187.926578
 21
157.241197
 31
0.0
  0
LINE
  5
111E
100
AcDbEntity
  8
OBJECT
 62
     7
100
AcDbLine
 10
195.926578
 20
165.241197
 30
0.0
 11
195.926578
 21
157.241197
 31
0.0
  0
CIRCLE
  5
111F
100
AcDbEntity
  8
OBJECT
 62
     7
100
AcDbCircle
 10
195.39707
 20
157.822598
 30
0.0
 40
0.25
  0
LINE
  5
1120
100
AcDbEntity
  8
OBJECT
 62
     7
100
AcDbLine
 10
187.926578
 20
165.241197
 30
0.0
 11
187.926578
 21
157.241197
 31
0.0
  0
CIRCLE
  5
1121
100
AcDbEntity
  8
OBJECT
 62
     7
100
AcDbCircle
 10
188.456087
 20
157.822598
 30
0.0
 40
0.25
  0
LINE
  5
1122
100
AcDbEntity
  8
OBJECT
 62
     7
100
AcDbLine
 10
195.926578
 20
165.241197
 30
0.0
 11
187.926578
 21
165.241197
 31
0.0
  0
CIRCLE
  5
1123
100
AcDbEntity
  8
OBJECT
 62
     7
100
AcDbCircle
 10
188.456087
 20
164.659797
 30
0.0
 40
0.25
  0
CIRCLE
  5
1124
100
AcDbEntity
  8
OBJECT
 62
     7
100
AcDbCircle
 10
195.39707
 20
164.659797
 30
0.0
 40
0.25
  0
LINE
  5
1125
100
AcDbEntity
  8
OBJECT
 62
     7
100
AcDbLine
 10
215.025576
 20
165.241197
 30
0.0
 11
215.025576
 21
157.241197
 31
0.0
  0
CIRCLE
  5
1126
100
AcDbEntity
  8
OBJECT
 62
     7
100
AcDbCircle
 10
214.496068
 20
157.822598
 30
0.0
 40
0.25
  0
LINE
  5
1127
100
AcDbEntity
  8
OBJECT
 62
     7
100
AcDbLine
 10
215.025576
 20
157.241197
 30
0.0
 11
207.025576
 21
157.241197
 31
0.0
  0
LINE
  5
1128
100
AcDbEntity
  8
OBJECT
 62
     7
100
AcDbLine
 10
207.025576
 20
165.241197
 30
0.0
 11
207.025576
 21
157.241197
 31
0.0
  0
CIRCLE
  5
1129
100
AcDbEntity
  8
OBJECT
 62
     7
100
AcDbCircle
 10
207.555085
 20
157.822598
 30
0.0
 40
0.25
  0
LINE
  5
112A
100
AcDbEntity
  8
OBJECT
 62
     7
100
AcDbLine
 10
215.025576
 20
165.241197
 30
0.0
 11
207.025576
 21
165.241197
 31
0.0
  0
CIRCLE
  5
112B
100
AcDbEntity
  8
OBJECT
 62
     7
100
AcDbCircle
 10
207.555085
 20
164.659797
 30
0.0
 40
0.25
  0
CIRCLE
  5
112C
100
AcDbEntity
  8
OBJECT
 62
     7
100
AcDbCircle
 10
214.496068
 20
164.659797
 30
0.0
 40
0.25
  0
ARC
  5
112D
100
AcDbEntity
  8
OBJECT
 62
     7
100
AcDbCircle
 10
211.025576
 20
195.414842
 30
0.0
 40
20.848772
100
AcDbArc
 50
258.938776
 51
281.061224
  0
ARC
  5
112E
100
AcDbEntity
  8
OBJECT
 62
     7
100
AcDbCircle
 10
211.025576
 20
195.414842
 30
0.0
 40
20.923472
100
AcDbArc
 50
258.978761
 51
281.021239
  0
LINE
  5
112F
100
AcDbEntity
  8
OBJECT
 62
     7
100
AcDbLine
 10
215.025576
 20
174.877274
 30
0.0
 11
215.025576
 21
174.953383
 31
0.0
  0
LINE
  5
1130
100
AcDbEntity
  8
OBJECT
 62
     7
100
AcDbLine
 10
207.025576
 20
174.877274
 30
0.0
 11
207.025576
 21
174.953383
 31
0.0
  0
DIMENSION
  5
1131
100
AcDbEntity
  8
DIM
 62
     7
100
AcDbDimension
  2
*D4
 10
176.306526
 20
164.241197
 30
0.0
 11
176.306526
 21
161.241197
 31
0.0
 70
    32
  1
5"
  3
STANDARD
100
AcDbAlignedDimension
 13
174.372291
 23
158.241197
 33
0.0
 14
174.372291
 24
164.241197
 34
0.0
 50
90.0
100
AcDbRotatedDimension
1001
ACAD
1000
DSTYLE
1002
{
1070
   340
1005
5D
1070
   147
1040
0.7
1070
   287
1070
     5
1070
    41
1040
0.55
1002
}
  0
DIMENSION
  5
1132
100
AcDbEntity
  8
DIM
 62
     7
100
AcDbDimension
  2
*D2
 10
174.372291
 20
167.13215
 30
0.0
 11
171.372291
 21
167.13215
 31
0.0
 70
    32
  1
5"
  3
STANDARD
100
AcDbAlignedDimension
 13
168.372291
 23
164.241197
 33
0.0
 14
174.372291
 24
164.241197
 34
0.0
100
AcDbRotatedDimension
1001
ACAD
1000
DSTYLE
1002
{
1070
   340
1005
5D
1070
   147
1040
0.7
1070
   287
1070
     5
1070
    41
1040
0.55
1002
}
  0
DIMENSION
  5
1133
100
AcDbEntity
  8
DIM
 62
     7
100
AcDbDimension
  2
*D16
 10
197.860813
 20
165.241197
 30
0.0
 11
197.860813
 21
161.241197
 31
0.0
 12
74.306526
 22
5.26392
 32
0.0
 70
    32
  1
8"
  3
STANDARD
100
AcDbAlignedDimension
 13
195.926578
 23
157.241197
 33
0.0
 14
195.926578
 24
165.241197
 34
0.0
 50
90.0
100
AcDbRotatedDimension
1001
ACAD
1000
DSTYLE
1002
{
1070
   340
1005
5D
1070
   147
1040
0.7
1070
   287
1070
     5
1070
    41
1040
0.55
1002
}
  0
DIMENSION
  5
1134
100
AcDbEntity
  8
DIM
 62
     7
100
AcDbDimension
  2
*D0
 10
195.926578
 20
168.13215
 30
0.0
 11
191.926578
 21
168.13215
 31
0.0
 12
74.306526
 22
5.26392
 32
0.0
 70
    32
  1
8"
  3
STANDARD
100
AcDbAlignedDimension
 13
187.926578
 23
165.241197
 33
0.0
 14
195.926578
 24
165.241197
 34
0.0
100
AcDbRotatedDimension
1001
ACAD
1000
DSTYLE
1002
{
1070
   340
1005
5D
1070
   147
1040
0.7
1070
   287
1070
     5
1070
    41
1040
0.55
1002
}
  0
DIMENSION
  5
1135
100
AcDbEntity
  8
DIM
 62
     7
100
AcDbDimension
  2
*D18
 10
216.959812
 20
165.241197
 30
0.0
 11
216.959812
 21
161.241197
 31
0.0
 12
74.306526
 22
5.26392
 32
0.0
 70
    32
  1
8"
  3
STANDARD
100
AcDbAlignedDimension
 13
215.025576
 23
157.241197
 33
0.0
 14
215.025576
 24
165.241197
 34
0.0
 50
90.0
100
AcDbRotatedDimension
1001
ACAD
1000
DSTYLE
1002
{
1070
   340
1005
5D
1070
   147
1040
0.7
1070
   287
1070
     5
1070
    41
1040
0.55
1002
}
  0
DIMENSION
  5
1136
100
AcDbEntity
  8
DIM
 62
     7
100
AcDbDimension
  2
*D14
 10
215.025576
 20
168.13215
 30
0.0
 11
211.025576
 21
168.13215
 31
0.0
 12
74.306526
 22
5.26392
 32
0.0
 70
    32
  1
8"
  3
STANDARD
100
AcDbAlignedDimension
 13
207.025576
 23
165.241197
 33
0.0
 14
215.025576
 24
165.241197
 34
0.0
100
AcDbRotatedDimension
1001
ACAD
1000
DSTYLE
1002
{
1070
   340
1005
5D
1070
   147
1040
0.7
1070
   287
1070
     5
1070
    41
1040
0.55
1002
}
  0
LINE
  5
1137
100
AcDbEntity
  8
OBJECT
 62
     7
100
AcDbLine
 10
167.089936
 20
197.861652
 30
0.0
 11
167.089936
 21
197.937227
 31
0.0
  0
LINE
  5
1138
100
AcDbEntity
  8
OBJECT
 62
     7
100
AcDbLine
 10
172.089936
 20
197.861652
 30
0.0
 11
172.089936
 21
197.937227
 31
0.0
  0
LINE
  5
1139
100
AcDbEntity
  8
OBJECT
 62
     7
100
AcDbLine
 10
182.425054
 20
197.861652
 30
0.0
 11
182.425054
 21
197.937227
 31
0.0
  0
LINE
  5
113A
100
AcDbEntity
  8
OBJECT
 62
     7
100
AcDbLine
 10
187.425054
 20
197.861652
 30
0.0
 11
187.425054
 21
197.937227
 31
0.0
  0
LINE
  5
113B
100
AcDbEntity
  8
OBJECT
 62
     7
100
AcDbLine
 10
196.050534
 20
197.861652
 30
0.0
 11
196.050534
 21
197.937227
 31
0.0
  0
LINE
  5
113C
100
AcDbEntity
  8
OBJECT
 62
     7
100
AcDbLine
 10
201.050534
 20
197.861652
 30
0.0
 11
201.050534
 21
197.937227
 31
0.0
  0
LINE
  5
113D
100
AcDbEntity
  8
OBJECT
 62
     7
100
AcDbLine
 10
211.199109
 20
197.861652
 30
0.0
 11
211.199109
 21
197.937227
 31
0.0
  0
LINE
  5
113E
100
AcDbEntity
  8
OBJECT
 62
     7
100
AcDbLine
 10
216.199109
 20
197.861652
 30
0.0
 11
216.199109
 21
197.937227
 31
0.0
  0
LINE
  5
113F
100
AcDbEntity
  8
OBJECT
 62
     7
100
AcDbLine
 10
168.372291
 20
174.707556
 30
0.0
 11
168.372291
 21
174.783039
 31
0.0
  0
LINE
  5
1140
100
AcDbEntity
  8
OBJECT
 62
     7
100
AcDbLine
 10
174.372291
 20
174.707556
 30
0.0
 11
174.372291
 21
174.783039
 31
0.0
  0
LWPOLYLINE
  5
1CAB
100
AcDbEntity
  8
BORDER
 62
     5
100
AcDbPolyline
 90
        6
 70
     0
 43
0.30571
 10
160.744145
 20
138.675827
 10
160.744145
 20
210.922852
 42
-0.414214
 10
161.430461
 20
211.609168
 10
222.275858
 20
211.609168
 42
-0.414214
 10
222.962174
 20
210.922852
 10
222.962174
 20
138.675827
  0
LWPOLYLINE
  5
1CAC
100
AcDbEntity
  8
BORDER
 62
     5
100
AcDbPolyline
 90
        2
 70
     0
 43
0.171579
 10
160.744145
 20
138.675827
 10
160.744145
 20
210.922852
  0
LINE
  5
1CAD
100
AcDbEntity
  8
LIMITS
 62
     7
100
AcDbLine
 10
159.371513
 20
212.9818
 30
0.0
 11
159.371513
 21
128.911656
 31
0.0
  0
LWPOLYLINE
  5
1CAE
100
AcDbEntity
  8
BORDER
 62
     5
100
AcDbPolyline
 90
        2
 70
     0
 43
0.171579
 10
222.962174
 20
138.675827
 10
222.962174
 20
210.922852
  0
LINE
  5
1CAF
100
AcDbEntity
  8
LIMITS
 62
     7
100
AcDbLine
 10
224.334806
 20
128.911656
 30
0.0
 11
224.334806
 21
212.9818
 31
0.0
  0
LINE
  5
1CB0
100
AcDbEntity
  8
LIMITS
100
AcDbLine
 10
224.334806
 20
211.269565
 30
0.0
 11
224.334806
 21
128.911656
 31
0.0
  0
LINE
  5
1CB1
100
AcDbEntity
  8
LIMITS
100
AcDbLine
 10
224.334806
 20
128.911656
 30
0.0
 11
224.334806
 21
211.269565
 31
0.0
  0
LWPOLYLINE
  5
1CB2
100
AcDbEntity
  8
BORDER
 62
     5
100
AcDbPolyline
 90
        2
 70
     0
 43
0.428947
 10
211.809541
 20
138.348499
 42
0.414214
 10
210.093751
 20
136.63271
 42
-0.560527
  0
LWPOLYLINE
  5
1CB3
100
AcDbEntity
  8
BORDER
 62
     5
100
AcDbPolyline
 90
        2
 70
     0
 43
0.428947
 10
221.246385
 20
130.627445
 10
162.459935
 20
130.627445
  0
LINE
  5
1CB4
100
AcDbEntity
  8
LIMITS
 62
     7
100
AcDbLine
 10
159.371513
 20
128.911656
 30
0.0
 11
224.334806
 21
128.911656
 31
0.0
  0
LWPOLYLINE
  5
1CB5
100
AcDbEntity
  8
BORDER
 62
     5
100
AcDbPolyline
 90
        2
 70
     0
 43
0.428947
 10
176.186253
 20
138.348499
 10
207.520066
 20
138.348499
  0
TEXT
  5
1CB6
100
AcDbEntity
  8
BORDER
 62
     6
100
AcDbText
 10
178.88547
 20
132.285878
 30
0.0
 40
0.327179
  1
Rochester, IN  46975
  7
ROMANC
100
AcDbText
  0
TEXT
  5
1CB7
100
AcDbEntity
  8
BORDER
 62
     6
100
AcDbText
 10
175.931476
 20
131.627854
 30
0.0
 40
0.327179
  1
Phone: 800/354-4534  Fax: 574/223-6106
  7
ROMANC
100
AcDbText
  0
LINE
  5
1CB8
100
AcDbEntity
  8
BORDER
100
AcDbLine
 10
175.328358
 20
135.509393
 30
0.0
 11
188.404755
 21
135.509393
 31
0.0
  0
LINE
  5
1CB9
100
AcDbEntity
  8
BORDER
100
AcDbLine
 10
175.328358
 20
133.442754
 30
0.0
 11
195.565738
 21
133.442754
 31
0.0
  0
LINE
  5
1CBA
100
AcDbEntity
  8
BORDER
100
AcDbLine
 10
175.328358
 20
134.059025
 30
0.0
 11
195.565738
 21
134.059025
 31
0.0
  0
LINE
  5
1CBB
100
AcDbEntity
  8
BORDER
100
AcDbLine
 10
176.186253
 20
137.490605
 30
0.0
 11
195.565738
 21
137.490605
 31
0.0
  0
LINE
  5
1CBC
100
AcDbEntity
  8
BORDER
100
AcDbLine
 10
175.328358
 20
131.48534
 30
0.0
 11
195.565738
 21
131.48534
 31
0.0
  0
TEXT
  5
1CBD
100
AcDbEntity
  8
BORDER
 62
     6
100
AcDbText
 10
177.476543
 20
132.866919
 30
0.0
 40
0.327179
  1
Highway 25 North P.O. Box 420
  7
ROMANC
100
AcDbText
  0
ARC
  5
1CBE
100
AcDbEntity
  8
BORDER
100
AcDbCircle
 10
167.951232
 20
135.993082
 30
0.0
 40
0.257531
100
AcDbArc
 50
270.0
 51
90.0
  0
LINE
  5
1CBF
100
AcDbEntity
  8
BORDER
100
AcDbLine
 10
167.99807
 20
132.716587
 30
0.0
 11
168.241999
 21
132.716587
 31
0.0
  0
LINE
  5
1CC0
100
AcDbEntity
  8
BORDER
100
AcDbLine
 10
168.241999
 20
133.078382
 30
0.0
 11
167.99807
 21
133.078382
 31
0.0
  0
ELLIPSE
  5
1CC1
102
{ACAD_REACTORS
330
1CC2
102
}
100
AcDbEntity
  8
BORDER
100
AcDbEllipse
 10
167.402902
 20
134.360466
 30
0.0
 11
0.0000000000000065
 21
0.9582629293108389
 31
0.0
210
0.0
220
0.0
230
1.0
 40
0.93822
 41
0.0
 42
6.283185307179586
  0
HATCH
  5
1CC2
100
AcDbEntity
  8
BORDER
100
AcDbHatch
 10
0.0
 20
0.0
 30
0.0
210
0.0
220
0.0
230
1.0
  2
ANSI37
 70
     0
 71
     1
 91
        2
 92
        5
 93
        1
 72
     3
 10
167.402902
 20
134.360466
 11
0.0
 21
0.958263
 40
0.93822
 50
0.0
 51
360.0
 73
     1
 97
        1
330
1CC1
 92
       20
 93
        1
 72
     3
 10
167.402902
 20
134.365926
 11
0.0
 21
0.85998
 40
0.683214
 50
0.0
 51
360.0
 73
     1
 97
        1
330
1CE2
 75
     0
 76
     1
 52
0.0
 41
0.013292
 77
     0
 78
     2
 53
45.0
 43
160.226151
 44
85.438174
 45
-0.0011748402902676
 46
0.0011748402902676
 79
     0
 53
135.0
 43
160.226151
 44
85.438174
 45
-0.0011748402902676
 46
-0.0011748402902676
 79
     0
 47
0.027301
 98
        2
 10
166.756276
 20
134.750496
 10
166.756276
 20
134.750496
  0
LINE
  5
1CC3
100
AcDbEntity
  8
BORDER
100
AcDbLine
 10
166.914788
 20
135.498276
 30
0.0
 11
171.31122
 21
135.498276
 31
0.0
  0
LINE
  5
1CC4
100
AcDbEntity
  8
BORDER
100
AcDbLine
 10
162.890691
 20
133.305376
 30
0.0
 11
171.51412
 21
133.305376
 31
0.0
  0
LINE
  5
1CC5
100
AcDbEntity
  8
BORDER
100
AcDbLine
 10
162.890691
 20
133.305376
 30
0.0
 11
171.51412
 21
133.305376
 31
0.0
  0
LWPOLYLINE
  5
1CC6
100
AcDbEntity
  8
BORDER
 62
     5
100
AcDbPolyline
 90
        2
 70
     0
 43
0.428947
 10
162.459935
 20
138.348499
 10
171.896778
 20
138.348499
  0
LINE
  5
1CC7
100
AcDbEntity
  8
BORDER
100
AcDbLine
 10
162.459935
 20
137.490605
 30
0.0
 11
171.896778
 21
137.490605
 31
0.0
  0
LINE
  5
1CC8
100
AcDbEntity
  8
BORDER
100
AcDbLine
 10
162.459935
 20
131.48534
 30
0.0
 11
172.754673
 21
131.48534
 31
0.0
  0
LWPOLYLINE
  5
1CC9
100
AcDbEntity
  8
BORDER
 62
     5
100
AcDbPolyline
 90
        2
 70
     0
 43
0.428947
 10
162.459935
 20
130.627445
 42
-0.414214
 10
160.744145
 20
132.343235
 42
0.560527
  0
LWPOLYLINE
  5
1CCA
100
AcDbEntity
  8
BORDER
 62
     5
100
AcDbPolyline
 90
        2
 70
     0
 43
0.428947
 10
162.459935
 20
138.348499
 42
0.414214
 10
160.744145
 20
136.63271
 42
-0.560527
  0
LWPOLYLINE
  5
1CCB
100
AcDbEntity
  8
BORDER
 62
     5
100
AcDbPolyline
 90
        2
 70
     0
 43
0.428947
 10
160.744145
 20
136.63271
 10
160.744145
 20
132.343235
  0
ARC
  5
1CCC
100
AcDbEntity
  8
BORDER
100
AcDbCircle
 10
162.459935
 20
136.63271
 30
0.0
 40
0.857895
100
AcDbArc
 50
90.0
 51
180.0
  0
LINE
  5
1CCD
102
{ACAD_REACTORS
330
1CD3
102
}
100
AcDbEntity
  8
BORDER
100
AcDbLine
 10
164.304479
 20
136.363363
 30
0.0
 11
164.689868
 21
136.363363
 31
0.0
  0
ARC
  5
1CCE
100
AcDbEntity
  8
BORDER
100
AcDbCircle
 10
164.631417
 20
132.731129
 30
0.0
 40
0.347343
100
AcDbArc
 50
44.321228
 51
180.91508
  0
ARC
  5
1CCF
102
{ACAD_REACTORS
330
1CD3
102
}
100
AcDbEntity
  8
BORDER
100
AcDbCircle
 10
164.252017
 20
133.953597
 30
0.0
 40
0.437851
100
AcDbArc
 50
270.0
 51
0.0
  0
LINE
  5
1CD0
102
{ACAD_REACTORS
330
1CD3
102
}
100
AcDbEntity
  8
BORDER
100
AcDbLine
 10
164.111009
 20
133.424416
 30
0.0
 11
166.025451
 21
133.424416
 31
0.0
  0
ARC
  5
1CD1
100
AcDbEntity
  8
BORDER
100
AcDbCircle
 10
164.606336
 20
132.695905
 30
0.0
 40
0.323581
100
AcDbArc
 50
174.737783
 51
327.723969
  0
LINE
  5
1CD2
102
{ACAD_REACTORS
330
1CD3
102
}
100
AcDbEntity
  8
BORDER
100
AcDbLine
 10
163.339197
 20
136.586614
 30
0.0
 11
166.797263
 21
136.586614
 31
0.0
  0
HATCH
  5
1CD3
100
AcDbEntity
  8
BORDER
100
AcDbHatch
 10
0.0
 20
0.0
 30
0.0
210
0.0
220
0.0
230
1.0
  2
ANSI37
 70
     0
 71
     1
 91
        1
 92
        7
 72
     1
 73
     1
 93
       18
 10
164.6898684783313
 20
133.9535968785691
 42
-0.4142135623730761
 10
164.2520174271337
 20
133.5157458273715
 42
0.0
 10
164.111009129746
 20
133.5157458273715
 42
0.0
 10
164.111009129746
 20
133.4244157658149
 42
0.0
 10
166.0254508499837
 20
133.4244157658149
 42
0.0
 10
166.0254508499837
 20
133.5157458273715
 42
0.0
 10
165.8844425525957
 20
133.5157458273715
 42
-0.414213562373038
 10
165.4465915013982
 20
133.9535968785691
 42
0.0
 10
165.4465915013982
 20
136.3633627933204
 42
0.0
 10
165.8319807927717
 20
136.3633627933204
 42
-0.4138200196737669
 10
166.7058637877889
 20
135.4906533564211
 42
0.0
 10
166.7972633147644
 20
135.4906533564211
 42
0.0
 10
166.7972633147646
 20
136.5866140950985
 42
0.0
 10
163.339196664965
 20
136.5866140950985
 42
0.0
 10
163.3391966649651
 20
135.4906533564211
 42
0.0
 10
163.4305961919408
 20
135.4906533564211
 42
-0.4138200196737671
 10
164.3044791869579
 20
136.3633627933204
 42
0.0
 10
164.6898684783313
 20
136.3633627933204
 42
0.0
 97
       18
330
1CF4
330
1CF1
330
1CF8
330
1CFC
330
1CD2
330
1CE0
330
1CDF
330
1CDE
330
1CCD
330
1CF2
330
1CCF
330
1CDC
330
1CDB
330
1CD0
330
1CE8
330
1CE4
330
1CE1
330
1CF3
 75
     0
 76
     1
 52
0.0
 41
0.013292
 77
     0
 78
     2
 53
45.0
 43
160.226151
 44
85.438174
 45
-0.0011748402902676
 46
0.0011748402902676
 79
     0
 53
135.0
 43
160.226151
 44
85.438174
 45
-0.0011748402902676
 46
-0.0011748402902676
 79
     0
 47
0.049862
 98
        1
 10
164.975364
 20
135.111732
  0
LINE
  5
1CD4
100
AcDbEntity
  8
BORDER
100
AcDbLine
 10
161.60204
 20
132.343235
 30
0.0
 11
161.60204
 21
136.63271
 31
0.0
  0
ARC
  5
1CD5
100
AcDbEntity
  8
BORDER
100
AcDbCircle
 10
162.459935
 20
132.343235
 30
0.0
 40
0.857895
100
AcDbArc
 50
180.0
 51
270.0
  0
LINE
  5
1CD6
100
AcDbEntity
  8
BORDER
100
AcDbLine
 10
164.118619
 20
132.372781
 30
0.0
 11
163.577986
 21
133.078382
 31
0.0
  0
LINE
  5
1CD7
100
AcDbEntity
  8
BORDER
100
AcDbLine
 10
163.124571
 20
133.078382
 30
0.0
 11
163.413536
 21
133.078382
 31
0.0
  0
LINE
  5
1CD8
100
AcDbEntity
  8
BORDER
100
AcDbLine
 10
163.124571
 20
132.372781
 30
0.0
 11
163.413536
 21
132.372781
 31
0.0
  0
LINE
  5
1CD9
100
AcDbEntity
  8
BORDER
100
AcDbLine
 10
163.269054
 20
133.078382
 30
0.0
 11
163.269054
 21
132.372781
 31
0.0
  0
LINE
  5
1CDA
100
AcDbEntity
  8
BORDER
100
AcDbLine
 10
163.577986
 20
133.078382
 30
0.0
 11
163.577986
 21
132.372781
 31
0.0
  0
LINE
  5
1CDB
102
{ACAD_REACTORS
330
1CD3
102
}
100
AcDbEntity
  8
BORDER
100
AcDbLine
 10
164.111009
 20
133.515746
 30
0.0
 11
164.111009
 21
133.424416
 31
0.0
  0
LINE
  5
1CDC
102
{ACAD_REACTORS
330
1CD3
102
}
100
AcDbEntity
  8
BORDER
100
AcDbLine
 10
164.111009
 20
133.515746
 30
0.0
 11
164.252017
 21
133.515746
 31
0.0
  0
LINE
  5
1CDD
100
AcDbEntity
  8
BORDER
100
AcDbLine
 10
164.118619
 20
133.078382
 30
0.0
 11
164.118619
 21
132.372781
 31
0.0
  0
ARC
  5
1CDE
102
{ACAD_REACTORS
330
1CD3
102
}
100
AcDbEntity
  8
BORDER
100
AcDbCircle
 10
164.304479
 20
135.489479
 30
0.0
 40
0.873884
100
AcDbArc
 50
90.0
 51
179.923004
  0
LINE
  5
1CDF
102
{ACAD_REACTORS
330
1CD3
102
}
100
AcDbEntity
  8
BORDER
100
AcDbLine
 10
163.339197
 20
135.490653
 30
0.0
 11
163.430595
 21
135.490653
 31
0.0
  0
LINE
  5
1CE0
102
{ACAD_REACTORS
330
1CD3
102
}
100
AcDbEntity
  8
BORDER
100
AcDbLine
 10
163.339197
 20
135.490653
 30
0.0
 11
163.339197
 21
136.586614
 31
0.0
  0
ARC
  5
1CE1
102
{ACAD_REACTORS
330
1CD3
102
}
100
AcDbEntity
  8
BORDER
100
AcDbCircle
 10
165.884443
 20
133.953597
 30
0.0
 40
0.437851
100
AcDbArc
 50
180.0
 51
270.0
  0
ELLIPSE
  5
1CE2
102
{ACAD_REACTORS
330
1CC2
102
}
100
AcDbEntity
  8
BORDER
100
AcDbEllipse
 10
167.402902
 20
134.365926
 30
0.0
 11
0.0000000000000065
 21
0.8599795867301606
 31
0.0
210
0.0
220
0.0
230
1.0
 40
0.683214
 41
0.0
 42
6.283185307179586
  0
SPLINE
  5
1CE3
100
AcDbEntity
  8
BORDER
100
AcDbSpline
210
0.0
220
0.0
230
1.0
 70
    11
 71
     3
 72
    24
 73
    20
 74
     0
 42
0.0000001
 43
0.0000001
 40
0.0
 40
0.0
 40
0.0
 40
0.0
 40
0.474866629778075
 40
0.474866629778075
 40
1.277791044886493
 40
1.277791044886493
 40
2.080715459994911
 40
2.080715459994911
 40
2.883639875103329
 40
2.883639875103329
 40
3.686564290211747
 40
3.686564290211747
 40
4.489488705320165
 40
4.489488705320165
 40
5.292413120428583
 40
5.292413120428583
 40
6.095337535537001
 40
6.095337535537001
 40
6.283185307179586
 40
6.283185307179586
 40
6.283185307179586
 40
6.283185307179586
 10
165.3426201582611
 20
133.0879522940204
 30
0.0
 10
165.2854325578615
 20
133.0879522940204
 30
0.0
 10
165.2282931293561
 20
133.0740804811556
 30
0.0
 10
165.091444123988
 20
133.0035029487036
 30
0.0
 10
165.0246805656448
 20
132.9230835367286
 30
0.0
 10
164.968836342988
 20
132.7373913727693
 30
0.0
 10
164.9801269379114
 20
132.6333627282039
 30
0.0
 10
165.0745039882825
 20
132.4640721821489
 30
0.0
 10
165.1569615324615
 20
132.3999471953204
 30
0.0
 10
165.3439503760529
 20
132.3504574525296
 30
0.0
 10
165.4472219927707
 20
132.3654287146751
 30
0.0
 10
165.6125870112402
 20
132.4659920151865
 30
0.0
 10
165.673569988111
 20
132.5509034745236
 30
0.0
 10
165.7163104748448
 20
132.7400620348385
 30
0.0
 10
165.697783989371
 20
132.8430424716722
 30
0.0
 10
165.5918161849842
 20
133.0052878637733
 30
0.0
 10
165.505081688402
 20
133.0634621735155
 30
0.0
 10
165.3878642364311
 20
133.0858145328924
 30
0.0
 10
165.3652424328683
 20
133.0879522940204
 30
0.0
 10
165.3426201582611
 20
133.0879522940204
 30
0.0
  0
LINE
  5
1CE4
102
{ACAD_REACTORS
330
1CD3
102
}
100
AcDbEntity
  8
BORDER
100
AcDbLine
 10
166.025451
 20
133.515746
 30
0.0
 11
165.884443
 21
133.515746
 31
0.0
  0
LINE
  5
1CE5
100
AcDbEntity
  8
BORDER
100
AcDbLine
 10
166.114466
 20
133.078382
 30
0.0
 11
165.870537
 21
133.078382
 31
0.0
  0
LINE
  5
1CE6
100
AcDbEntity
  8
BORDER
100
AcDbLine
 10
165.870537
 20
132.716587
 30
0.0
 11
166.114466
 21
132.716587
 31
0.0
  0
ARC
  5
1CE7
100
AcDbEntity
  8
BORDER
100
AcDbCircle
 10
166.114466
 20
132.897485
 30
0.0
 40
0.180898
100
AcDbArc
 50
270.0
 51
90.0
  0
LINE
  5
1CE8
102
{ACAD_REACTORS
330
1CD3
102
}
100
AcDbEntity
  8
BORDER
100
AcDbLine
 10
166.025451
 20
133.515746
 30
0.0
 11
166.025451
 21
133.424416
 31
0.0
  0
LINE
  5
1CE9
100
AcDbEntity
  8
BORDER
100
AcDbLine
 10
165.870537
 20
133.078382
 30
0.0
 11
165.870537
 21
132.372781
 31
0.0
  0
LINE
  5
1CEA
100
AcDbEntity
  8
BORDER
100
AcDbLine
 10
166.063667
 20
132.716587
 30
0.0
 11
166.34379
 21
132.372781
 31
0.0
  0
SPLINE
  5
1CEB
100
AcDbEntity
  8
BORDER
100
AcDbSpline
210
0.0
220
0.0
230
1.0
 70
    11
 71
     3
 72
    24
 73
    20
 74
     0
 42
0.0000001
 43
0.0000001
 40
0.0
 40
0.0
 40
0.0
 40
0.0
 40
0.474866629778075
 40
0.474866629778075
 40
1.277791044886493
 40
1.277791044886493
 40
2.080715459994911
 40
2.080715459994911
 40
2.883639875103329
 40
2.883639875103329
 40
3.686564290211747
 40
3.686564290211747
 40
4.489488705320165
 40
4.489488705320165
 40
5.292413120428583
 40
5.292413120428583
 40
6.095337535537001
 40
6.095337535537001
 40
6.283185307179586
 40
6.283185307179586
 40
6.283185307179586
 40
6.283185307179586
 10
167.4421020148622
 20
133.0879522940204
 30
0.0
 10
167.3849144144623
 20
133.0879522940204
 30
0.0
 10
167.327774985957
 20
133.0740804811556
 30
0.0
 10
167.190925980589
 20
133.0035029487036
 30
0.0
 10
167.1241624222458
 20
132.9230835367286
 30
0.0
 10
167.0683181995891
 20
132.7373913727693
 30
0.0
 10
167.0796087945125
 20
132.6333627282039
 30
0.0
 10
167.1739858448835
 20
132.4640721821489
 30
0.0
 10
167.2564433890625
 20
132.3999471953204
 30
0.0
 10
167.4434322326539
 20
132.3504574525296
 30
0.0
 10
167.5467038493716
 20
132.3654287146751
 30
0.0
 10
167.7120688678412
 20
132.4659920151865
 30
0.0
 10
167.7730518447119
 20
132.5509034745236
 30
0.0
 10
167.815792331446
 20
132.7400620348385
 30
0.0
 10
167.7972658459722
 20
132.8430424716722
 30
0.0
 10
167.6912980415853
 20
133.0052878637733
 30
0.0
 10
167.6045635450029
 20
133.0634621735155
 30
0.0
 10
167.487346093032
 20
133.0858145328924
 30
0.0
 10
167.4647242894694
 20
133.0879522940204
 30
0.0
 10
167.4421020148622
 20
133.0879522940204
 30
0.0
  0
ARC
  5
1CEC
100
AcDbEntity
  8
BORDER
100
AcDbCircle
 10
166.799051
 20
132.897485
 30
0.0
 40
0.180898
100
AcDbArc
 50
270.0
 51
90.0
  0
LINE
  5
1CED
100
AcDbEntity
  8
BORDER
100
AcDbLine
 10
166.615916
 20
133.078382
 30
0.0
 11
166.615916
 21
132.372781
 31
0.0
  0
LINE
  5
1CEE
100
AcDbEntity
  8
BORDER
100
AcDbLine
 10
166.799051
 20
133.078382
 30
0.0
 11
166.615916
 21
133.078382
 31
0.0
  0
LINE
  5
1CEF
100
AcDbEntity
  8
BORDER
100
AcDbLine
 10
166.615916
 20
132.716587
 30
0.0
 11
166.799051
 21
132.716587
 31
0.0
  0
LINE
  5
1CF0
100
AcDbEntity
  8
BORDER
100
AcDbLine
 10
167.99807
 20
133.078382
 30
0.0
 11
167.99807
 21
132.372781
 31
0.0
  0
ARC
  5
1CF1
102
{ACAD_REACTORS
330
1CD3
102
}
100
AcDbEntity
  8
BORDER
100
AcDbCircle
 10
165.831981
 20
135.489479
 30
0.0
 40
0.873884
100
AcDbArc
 50
0.076996
 51
90.0
  0
LINE
  5
1CF2
102
{ACAD_REACTORS
330
1CD3
102
}
100
AcDbEntity
  8
BORDER
100
AcDbLine
 10
164.689868
 20
133.953597
 30
0.0
 11
164.689868
 21
136.363363
 31
0.0
  0
LINE
  5
1CF3
102
{ACAD_REACTORS
330
1CD3
102
}
100
AcDbEntity
  8
BORDER
100
AcDbLine
 10
165.446592
 20
133.953597
 30
0.0
 11
165.446592
 21
136.363363
 31
0.0
  0
LINE
  5
1CF4
102
{ACAD_REACTORS
330
1CD3
102
}
100
AcDbEntity
  8
BORDER
100
AcDbLine
 10
165.831981
 20
136.363363
 30
0.0
 11
165.446592
 21
136.363363
 31
0.0
  0
LINE
  5
1CF5
100
AcDbEntity
  8
BORDER
100
AcDbLine
 10
167.622704
 20
135.735551
 30
0.0
 11
167.269657
 21
136.261381
 31
0.0
  0
LINE
  5
1CF6
100
AcDbEntity
  8
BORDER
100
AcDbLine
 10
166.957355
 20
136.250612
 30
0.0
 11
167.036645
 21
136.250612
 31
0.0
  0
LINE
  5
1CF7
100
AcDbEntity
  8
BORDER
100
AcDbLine
 10
167.036645
 20
136.250612
 30
0.0
 11
167.115936
 21
136.250612
 31
0.0
  0
LINE
  5
1CF8
102
{ACAD_REACTORS
330
1CD3
102
}
100
AcDbEntity
  8
BORDER
100
AcDbLine
 10
166.797263
 20
135.490653
 30
0.0
 11
166.705865
 21
135.490653
 31
0.0
  0
LINE
  5
1CF9
100
AcDbEntity
  8
BORDER
100
AcDbLine
 10
166.957355
 20
135.735551
 30
0.0
 11
167.115936
 21
135.735551
 31
0.0
  0
LINE
  5
1CFA
100
AcDbEntity
  8
BORDER
100
AcDbLine
 10
167.036645
 20
136.250612
 30
0.0
 11
167.036645
 21
135.735551
 31
0.0
  0
LINE
  5
1CFB
100
AcDbEntity
  8
BORDER
100
AcDbLine
 10
167.269657
 20
136.261381
 30
0.0
 11
167.269657
 21
135.735551
 31
0.0
  0
LINE
  5
1CFC
102
{ACAD_REACTORS
330
1CD3
102
}
100
AcDbEntity
  8
BORDER
100
AcDbLine
 10
166.797263
 20
135.490653
 30
0.0
 11
166.797263
 21
136.586614
 31
0.0
  0
LINE
  5
1CFD
100
AcDbEntity
  8
BORDER
100
AcDbLine
 10
167.951232
 20
136.250612
 30
0.0
 11
167.841593
 21
136.250612
 31
0.0
  0
LINE
  5
1CFE
100
AcDbEntity
  8
BORDER
100
AcDbLine
 10
167.841593
 20
135.735551
 30
0.0
 11
167.951232
 21
135.735551
 31
0.0
  0
LINE
  5
1CFF
100
AcDbEntity
  8
BORDER
100
AcDbLine
 10
167.622704
 20
136.250612
 30
0.0
 11
167.622704
 21
135.735551
 31
0.0
  0
LINE
  5
1D00
100
AcDbEntity
  8
BORDER
100
AcDbLine
 10
167.841593
 20
136.250612
 30
0.0
 11
167.841593
 21
135.735551
 31
0.0
  0
ARC
  5
1D01
100
AcDbEntity
  8
BORDER
100
AcDbCircle
 10
176.186253
 20
136.63271
 30
0.0
 40
0.857895
100
AcDbArc
 50
90.0
 51
180.0
  0
LWPOLYLINE
  5
1D02
100
AcDbEntity
  8
BORDER
 62
     5
100
AcDbPolyline
 90
        2
 70
     0
 43
0.428947
 10
176.186253
 20
138.348499
 42
0.414214
 10
174.470463
 20
136.63271
 42
-0.560527
  0
ARC
  5
1D03
100
AcDbEntity
  8
BORDER
100
AcDbCircle
 10
171.896778
 20
136.63271
 30
0.0
 40
0.857895
100
AcDbArc
 50
0.0
 51
90.0
  0
LWPOLYLINE
  5
1D04
100
AcDbEntity
  8
BORDER
 62
     5
100
AcDbPolyline
 90
        2
 70
     0
 43
0.428947
 10
171.896778
 20
138.348499
 42
-0.414214
 10
173.612568
 20
136.63271
 42
0.560527
  0
ARC
  5
1D05
102
{ACAD_REACTORS
330
1D07
102
}
100
AcDbEntity
  8
BORDER
100
AcDbCircle
 10
170.695909
 20
133.667339
 30
0.0
 40
0.180741
100
AcDbArc
 50
180.0
 51
270.0
  0
ARC
  5
1D06
102
{ACAD_REACTORS
330
1D07
102
}
100
AcDbEntity
  8
BORDER
100
AcDbCircle
 10
170.078713
 20
133.667339
 30
0.0
 40
0.180741
100
AcDbArc
 50
270.0
 51
360.0
  0
HATCH
  5
1D07
100
AcDbEntity
  8
BORDER
100
AcDbHatch
 10
0.0
 20
0.0
 30
0.0
210
0.0
220
0.0
230
1.0
  2
ANSI37
 70
     0
 71
     1
 91
        2
 92
        7
 72
     1
 73
     1
 93
       16
 10
170.259454208032
 20
133.6673388340142
 42
-0.4142135623729099
 10
170.0787133671307
 20
133.486597993113
 42
0.0
 10
169.9950719306194
 20
133.486597993113
 42
0.0
 10
169.9950719306195
 20
133.4389583003434
 42
0.0
 10
170.7795503017389
 20
133.4389583003434
 42
0.0
 10
170.7795503017389
 20
133.486597993113
 42
0.0
 10
170.6959088652279
 20
133.486597993113
 42
-0.4142135623735557
 10
170.5151680243263
 20
133.6673388340143
 42
0.0
 10
170.5151680243263
 20
134.3008017603437
 42
0.0609117558027671
 10
170.8315599111117
 20
134.261824027219
 42
0.429149743435417
 10
171.3906632118446
 20
134.7642052059329
 42
0.391631177149745
 10
170.8433080377081
 20
135.2767366211887
 42
0.0
 10
169.9964309346873
 20
135.2767366211887
 42
0.0
 10
169.9964309346873
 20
135.2262909440392
 42
0.0
 10
170.0787133671308
 20
135.2262909440392
 42
-0.4142135623730029
 10
170.259454208032
 20
135.0455501031379
 42
0.0
 97
       16
330
1D2C
330
1D30
330
1D33
330
1D34
330
1D32
330
1D36
330
1D06
330
1D15
330
1D14
330
1D19
330
1D13
330
1D18
330
1D05
330
1D35
330
1D2F
330
1D37
 92
       22
 72
     1
 73
     1
 93
        3
 10
170.5151680243263
 20
135.1409909484369
 42
-0.5287425889422634
 10
171.082939496845
 20
134.7425508494662
 42
-0.5439228899268879
 10
170.5151680243263
 20
134.3700958095868
 42
0.0
 97
        3
330
1D2D
330
1D2E
330
1D31
 75
     0
 76
     1
 52
0.0
 41
0.013292
 77
     0
 78
     2
 53
45.0
 43
160.226151
 44
85.438174
 45
-0.0011748402902676
 46
0.0011748402902676
 79
     0
 53
135.0
 43
160.226151
 44
85.438174
 45
-0.0011748402902676
 46
-0.0011748402902676
 79
     0
 47
0.027301
 98
        2
 10
170.365997
 20
134.656147
 10
170.365997
 20
134.656147
  0
LWPOLYLINE
  5
1D08
102
{ACAD_REACTORS
330
1D09
102
}
100
AcDbEntity
  8
BORDER
100
AcDbPolyline
 90
       17
 70
     0
 43
0.0
 10
169.288448
 20
134.268786
 42
-0.060912
 10
168.972056
 20
134.307764
 10
168.972056
 20
133.674301
 42
0.414214
 10
169.152797
 20
133.49356
 10
169.236438
 20
133.49356
 10
169.236438
 20
133.445921
 10
168.45196
 20
133.445921
 10
168.45196
 20
133.49356
 10
168.535601
 20
133.49356
 42
0.414214
 10
168.716342
 20
133.674301
 10
168.716342
 20
135.052512
 42
0.414214
 10
168.535601
 20
135.233253
 10
168.453319
 20
135.233253
 10
168.453319
 20
135.283699
 10
169.293558
 20
135.283699
 42
-0.395102
 10
169.847551
 20
134.771167
 42
-0.42915
 10
169.288448
 20
134.268786
  0
HATCH
  5
1D09
100
AcDbEntity
  8
BORDER
100
AcDbHatch
 10
0.0
 20
0.0
 30
0.0
210
0.0
220
0.0
230
1.0
  2
ANSI37
 70
     0
 71
     1
 91
        2
 92
        7
 72
     1
 73
     1
 93
       16
 10
168.7163419791747
 20
133.6743010685761
 42
-0.4142135623730479
 10
168.5356011382735
 20
133.4935602276748
 42
0.0
 10
168.4519597017622
 20
133.4935602276748
 42
0.0
 10
168.4519597017622
 20
133.4459205349049
 42
0.0
 10
169.2364380728817
 20
133.4459205349049
 42
0.0
 10
169.2364380728817
 20
133.4935602276748
 42
0.0
 10
169.1527966363705
 20
133.4935602276748
 42
-0.4142135623731412
 10
168.9720557954692
 20
133.6743010685761
 42
0.0
 10
168.9720557954692
 20
134.3077639949052
 42
0.0609117558023272
 10
169.2884476822524
 20
134.2687862617805
 42
0.4291497434372717
 10
169.8475509829872
 20
134.7711674404957
 42
0.3916311771396397
 10
169.3001958088693
 20
135.2836988557502
 42
0.0
 10
168.45331870583
 20
135.2836988557502
 42
0.0
 10
168.45331870583
 20
135.2332531786011
 42
0.0
 10
168.5356011382735
 20
135.2332531786011
 42
-0.414213562373095
 10
168.7163419791747
 20
135.0525123376998
 42
0.0
 97
        1
330
1D08
 92
       22
 72
     1
 73
     1
 93
        3
 10
168.9720557954692
 20
135.1479531829983
 42
-0.5287425889464384
 10
169.5398272679877
 20
134.7495130840221
 42
-0.5439228899220245
 10
168.9720557954692
 20
134.3770580441485
 42
0.0
 97
        1
330
1D20
 75
     0
 76
     1
 52
0.0
 41
0.013292
 77
     0
 78
     2
 53
45.0
 43
160.226151
 44
85.438174
 45
-0.0011748402902676
 46
0.0011748402902676
 79
     0
 53
135.0
 43
160.226151
 44
85.438174
 45
-0.0011748402902676
 46
-0.0011748402902676
 79
     0
 47
0.027301
 98
        2
 10
168.818973
 20
134.815814
 10
168.818973
 20
134.815814
  0
LINE
  5
1D0A
100
AcDbEntity
  8
BORDER
100
AcDbLine
 10
169.358578
 20
133.078382
 30
0.0
 11
169.956472
 21
133.078382
 31
0.0
  0
LINE
  5
1D0B
100
AcDbEntity
  8
BORDER
100
AcDbLine
 10
168.763526
 20
132.630061
 30
0.0
 11
169.113044
 21
132.630061
 31
0.0
  0
LINE
  5
1D0C
100
AcDbEntity
  8
BORDER
100
AcDbLine
 10
169.21508
 20
132.372781
 30
0.0
 11
168.93524
 21
133.078382
 31
0.0
  0
ARC
  5
1D0D
100
AcDbEntity
  8
BORDER
100
AcDbCircle
 10
168.241999
 20
132.897485
 30
0.0
 40
0.180898
100
AcDbArc
 50
270.0
 51
90.0
  0
LINE
  5
1D0E
100
AcDbEntity
  8
BORDER
100
AcDbLine
 10
168.93524
 20
133.078382
 30
0.0
 11
168.664985
 21
132.372781
 31
0.0
  0
LINE
  5
1D0F
100
AcDbEntity
  8
BORDER
100
AcDbLine
 10
168.1912
 20
132.716587
 30
0.0
 11
168.471323
 21
132.372781
 31
0.0
  0
LINE
  5
1D10
100
AcDbEntity
  8
BORDER
100
AcDbLine
 10
169.657525
 20
133.078382
 30
0.0
 11
169.657525
 21
132.372781
 31
0.0
  0
LINE
  5
1D11
100
AcDbEntity
  8
BORDER
100
AcDbLine
 10
171.030623
 20
133.078382
 30
0.0
 11
170.764319
 21
133.078382
 31
0.0
  0
LINE
  5
1D12
100
AcDbEntity
  8
BORDER
100
AcDbLine
 10
170.764319
 20
132.372781
 30
0.0
 11
171.030623
 21
132.372781
 31
0.0
  0
LINE
  5
1D13
102
{ACAD_REACTORS
330
1D07
102
}
100
AcDbEntity
  8
BORDER
100
AcDbLine
 10
170.77955
 20
133.486598
 30
0.0
 11
170.77955
 21
133.438958
 31
0.0
  0
LINE
  5
1D14
102
{ACAD_REACTORS
330
1D07
102
}
100
AcDbEntity
  8
BORDER
100
AcDbLine
 10
169.995072
 20
133.486598
 30
0.0
 11
169.995072
 21
133.438958
 31
0.0
  0
LINE
  5
1D15
102
{ACAD_REACTORS
330
1D07
102
}
100
AcDbEntity
  8
BORDER
100
AcDbLine
 10
169.995072
 20
133.486598
 30
0.0
 11
170.078713
 21
133.486598
 31
0.0
  0
LINE
  5
1D16
100
AcDbEntity
  8
BORDER
100
AcDbLine
 10
170.112444
 20
133.078382
 30
0.0
 11
170.567677
 21
133.078382
 31
0.0
  0
LINE
  5
1D17
100
AcDbEntity
  8
BORDER
100
AcDbLine
 10
170.112444
 20
132.725582
 30
0.0
 11
170.415179
 21
132.725582
 31
0.0
  0
LINE
  5
1D18
102
{ACAD_REACTORS
330
1D07
102
}
100
AcDbEntity
  8
BORDER
100
AcDbLine
 10
170.695909
 20
133.486598
 30
0.0
 11
170.77955
 21
133.486598
 31
0.0
  0
LINE
  5
1D19
102
{ACAD_REACTORS
330
1D07
102
}
100
AcDbEntity
  8
BORDER
100
AcDbLine
 10
169.995072
 20
133.438958
 30
0.0
 11
170.77955
 21
133.438958
 31
0.0
  0
LINE
  5
1D1A
100
AcDbEntity
  8
BORDER
100
AcDbLine
 10
170.567677
 20
132.372781
 30
0.0
 11
170.112444
 21
132.372781
 31
0.0
  0
LINE
  5
1D1B
100
AcDbEntity
  8
BORDER
100
AcDbLine
 10
170.764319
 20
133.078382
 30
0.0
 11
170.764319
 21
132.372781
 31
0.0
  0
LINE
  5
1D1C
100
AcDbEntity
  8
BORDER
100
AcDbLine
 10
170.112444
 20
132.372781
 30
0.0
 11
170.112444
 21
133.078382
 31
0.0
  0
ARC
  5
1D1D
100
AcDbEntity
  8
BORDER
100
AcDbCircle
 10
171.030623
 20
132.725582
 30
0.0
 40
0.3528
100
AcDbArc
 50
270.0
 51
90.0
  0
LINE
  5
1D1E
100
AcDbEntity
  8
BORDER
100
AcDbLine
 10
170.017591
 20
136.250612
 30
0.0
 11
169.830242
 21
136.250612
 31
0.0
  0
LINE
  5
1D1F
100
AcDbEntity
  8
BORDER
100
AcDbLine
 10
169.830242
 20
135.9906
 30
0.0
 11
170.017591
 21
135.9906
 31
0.0
  0
LWPOLYLINE
  5
1D20
102
{ACAD_REACTORS
330
1D09
102
}
100
AcDbEntity
  8
BORDER
100
AcDbPolyline
 90
        3
 70
     1
 43
0.0
 10
168.972056
 20
134.377058
 42
0.543923
 10
169.539827
 20
134.749513
 42
0.528743
 10
168.972056
 20
135.147953
  0
ARC
  5
1D21
100
AcDbEntity
  8
BORDER
100
AcDbCircle
 10
171.310524
 20
139.6659
 30
0.0
 40
4.305766
100
AcDbArc
 50
236.383068
 51
240.315223
  0
ARC
  5
1D22
100
AcDbEntity
  8
BORDER
100
AcDbCircle
 10
169.03883
 20
136.091422
 30
0.0
 40
0.159762
100
AcDbArc
 50
25.379638
 51
143.047804
  0
ARC
  5
1D23
100
AcDbEntity
  8
BORDER
100
AcDbCircle
 10
169.059565
 20
135.898883
 30
0.0
 40
0.163074
100
AcDbArc
 50
200.502447
 51
334.026213
  0
LINE
  5
1D24
100
AcDbEntity
  8
BORDER
100
AcDbLine
 10
168.738334
 20
136.250612
 30
0.0
 11
168.738334
 21
135.908544
 31
0.0
  0
LINE
  5
1D25
100
AcDbEntity
  8
BORDER
100
AcDbLine
 10
168.392347
 20
135.908544
 30
0.0
 11
168.392347
 21
136.250612
 31
0.0
  0
ARC
  5
1D26
100
AcDbEntity
  8
BORDER
100
AcDbCircle
 10
168.966958
 20
136.140809
 30
0.0
 40
0.072733
100
AcDbArc
 50
140.101426
 51
236.383068
  0
ARC
  5
1D27
100
AcDbEntity
  8
BORDER
100
AcDbCircle
 10
168.56534
 20
135.908544
 30
0.0
 40
0.172993
100
AcDbArc
 50
180.0
 51
0.0
  0
LINE
  5
1D28
100
AcDbEntity
  8
BORDER
100
AcDbLine
 10
169.830242
 20
136.250612
 30
0.0
 11
169.830242
 21
135.735551
 31
0.0
  0
LINE
  5
1D29
100
AcDbEntity
  8
BORDER
100
AcDbLine
 10
169.509311
 20
136.250612
 30
0.0
 11
169.509311
 21
135.735551
 31
0.0
  0
ARC
  5
1D2A
100
AcDbEntity
  8
BORDER
100
AcDbCircle
 10
169.14217
 20
135.862022
 30
0.0
 40
0.072733
100
AcDbArc
 50
331.630608
 51
60.315223
  0
LINE
  5
1D2B
100
AcDbEntity
  8
BORDER
100
AcDbLine
 10
169.297708
 20
136.250612
 30
0.0
 11
169.720914
 21
136.250612
 31
0.0
  0
ARC
  5
1D2C
102
{ACAD_REACTORS
330
1D07
102
}
100
AcDbEntity
  8
BORDER
100
AcDbCircle
 10
170.839989
 20
134.724654
 30
0.0
 40
0.552093
100
AcDbArc
 50
4.10812
 51
90.34444
  0
ARC
  5
1D2D
102
{ACAD_REACTORS
330
1D07
102
}
100
AcDbEntity
  8
BORDER
100
AcDbCircle
 10
170.663331
 20
134.748369
 30
0.0
 40
0.419648
100
AcDbArc
 50
359.205673
 51
110.674935
  0
ARC
  5
1D2E
102
{ACAD_REACTORS
330
1D07
102
}
100
AcDbEntity
  8
BORDER
100
AcDbCircle
 10
170.678511
 20
134.740079
 30
0.0
 40
0.404436
100
AcDbArc
 50
246.179097
 51
0.350223
  0
ARC
  5
1D2F
102
{ACAD_REACTORS
330
1D07
102
}
100
AcDbEntity
  8
BORDER
100
AcDbCircle
 10
170.832747
 20
135.575061
 30
0.0
 40
1.313238
100
AcDbArc
 50
256.005504
 51
269.948223
  0
LINE
  5
1D30
102
{ACAD_REACTORS
330
1D07
102
}
100
AcDbEntity
  8
BORDER
100
AcDbLine
 10
169.996431
 20
135.276737
 30
0.0
 11
170.843308
 21
135.276737
 31
0.0
  0
LINE
  5
1D31
102
{ACAD_REACTORS
330
1D07
102
}
100
AcDbEntity
  8
BORDER
100
AcDbLine
 10
170.515168
 20
135.140991
 30
0.0
 11
170.515168
 21
134.370096
 31
0.0
  0
ARC
  5
1D32
102
{ACAD_REACTORS
330
1D07
102
}
100
AcDbEntity
  8
BORDER
100
AcDbCircle
 10
170.078713
 20
135.04555
 30
0.0
 40
0.180741
100
AcDbArc
 50
0.0
 51
90.0
  0
LINE
  5
1D33
102
{ACAD_REACTORS
330
1D07
102
}
100
AcDbEntity
  8
BORDER
100
AcDbLine
 10
169.996431
 20
135.276737
 30
0.0
 11
169.996431
 21
135.226291
 31
0.0
  0
LINE
  5
1D34
102
{ACAD_REACTORS
330
1D07
102
}
100
AcDbEntity
  8
BORDER
100
AcDbLine
 10
169.996431
 20
135.226291
 30
0.0
 11
170.078713
 21
135.226291
 31
0.0
  0
LINE
  5
1D35
102
{ACAD_REACTORS
330
1D07
102
}
100
AcDbEntity
  8
BORDER
100
AcDbLine
 10
170.515168
 20
134.300802
 30
0.0
 11
170.515168
 21
133.667339
 31
0.0
  0
LINE
  5
1D36
102
{ACAD_REACTORS
330
1D07
102
}
100
AcDbEntity
  8
BORDER
100
AcDbLine
 10
170.259454
 20
133.667339
 30
0.0
 11
170.259454
 21
135.04555
 31
0.0
  0
ARC
  5
1D37
102
{ACAD_REACTORS
330
1D07
102
}
100
AcDbEntity
  8
BORDER
100
AcDbCircle
 10
170.87235
 20
134.778734
 30
0.0
 40
0.518517
100
AcDbArc
 50
265.488062
 51
358.394374
  0
LINE
  5
1D38
100
AcDbEntity
  8
BORDER
100
AcDbLine
 10
170.623983
 20
136.250612
 30
0.0
 11
170.93402
 21
136.250612
 31
0.0
  0
LINE
  5
1D39
100
AcDbEntity
  8
BORDER
100
AcDbLine
 10
170.623983
 20
135.993082
 30
0.0
 11
170.866417
 21
135.993082
 31
0.0
  0
LINE
  5
1D3A
100
AcDbEntity
  8
BORDER
100
AcDbLine
 10
170.93402
 20
135.735551
 30
0.0
 11
170.623983
 21
135.735551
 31
0.0
  0
ARC
  5
1D3B
100
AcDbEntity
  8
BORDER
100
AcDbCircle
 10
170.017591
 20
136.120606
 30
0.0
 40
0.130006
100
AcDbArc
 50
270.0
 51
90.0
  0
LINE
  5
1D3C
100
AcDbEntity
  8
BORDER
100
AcDbLine
 10
170.305979
 20
136.250612
 30
0.0
 11
170.46456
 21
136.250612
 31
0.0
  0
LINE
  5
1D3D
100
AcDbEntity
  8
BORDER
100
AcDbLine
 10
170.305979
 20
135.735551
 30
0.0
 11
170.46456
 21
135.735551
 31
0.0
  0
LINE
  5
1D3E
100
AcDbEntity
  8
BORDER
100
AcDbLine
 10
170.38527
 20
136.250612
 30
0.0
 11
170.38527
 21
135.735551
 31
0.0
  0
LINE
  5
1D3F
100
AcDbEntity
  8
BORDER
100
AcDbLine
 10
170.623983
 20
135.735551
 30
0.0
 11
170.623983
 21
136.250612
 31
0.0
  0
LINE
  5
1D40
100
AcDbEntity
  8
BORDER
100
AcDbLine
 10
169.981678
 20
135.9906
 30
0.0
 11
170.145032
 21
135.735551
 31
0.0
  0
ARC
  5
1D41
100
AcDbEntity
  8
BORDER
100
AcDbCircle
 10
171.28463
 20
135.862022
 30
0.0
 40
0.072733
100
AcDbArc
 50
331.630608
 51
60.315223
  0
ARC
  5
1D42
100
AcDbEntity
  8
BORDER
100
AcDbCircle
 10
171.109418
 20
136.140809
 30
0.0
 40
0.072733
100
AcDbArc
 50
140.101426
 51
236.383068
  0
ARC
  5
1D43
100
AcDbEntity
  8
BORDER
100
AcDbCircle
 10
173.452985
 20
139.6659
 30
0.0
 40
4.305766
100
AcDbArc
 50
236.383068
 51
240.315223
  0
ARC
  5
1D44
100
AcDbEntity
  8
BORDER
100
AcDbCircle
 10
171.181291
 20
136.091422
 30
0.0
 40
0.159762
100
AcDbArc
 50
25.379638
 51
143.047804
  0
ARC
  5
1D45
100
AcDbEntity
  8
BORDER
100
AcDbCircle
 10
171.202025
 20
135.898883
 30
0.0
 40
0.163074
100
AcDbArc
 50
200.502447
 51
334.026213
  0
LINE
  5
1D46
100
AcDbEntity
  8
BORDER
100
AcDbLine
 10
172.754673
 20
131.48534
 30
0.0
 11
172.754673
 21
136.63271
 31
0.0
  0
LWPOLYLINE
  5
1D47
100
AcDbEntity
  8
BORDER
 62
     5
100
AcDbPolyline
 90
        2
 70
     0
 43
0.428947
 10
173.612568
 20
131.48534
 10
173.612568
 20
136.63271
  0
LWPOLYLINE
  5
1D48
100
AcDbEntity
  8
BORDER
 62
     5
100
AcDbPolyline
 90
        2
 70
     0
 43
0.428947
 10
174.470463
 20
136.63271
 10
174.470463
 20
131.48534
  0
TEXT
  5
1D49
100
AcDbEntity
  8
BORDER
 62
     6
100
AcDbText
 10
177.977471
 20
136.264699
 30
0.0
 40
0.442654
  1
PIPE COUPLINGS
  7
ROMANC
100
AcDbText
  0
LINE
  5
1D4A
100
AcDbEntity
  8
BORDER
100
AcDbLine
 10
175.328358
 20
131.48534
 30
0.0
 11
175.328358
 21
133.442754
 31
0.0
  0
TEXT
  5
1D4B
100
AcDbEntity
  8
BORDER
 62
     6
100
AcDbText
 10
175.452664
 20
134.937864
 30
0.0
 40
0.384917
  1
Reference:
  7
ROMANC
100
AcDbText
  0
LINE
  5
1D4C
100
AcDbEntity
  8
BORDER
100
AcDbLine
 10
175.328358
 20
134.059025
 30
0.0
 11
175.328358
 21
136.63271
 31
0.0
  0
TEXT
  5
1D4D
100
AcDbEntity
  8
BORDER
 62
     6
100
AcDbText
 10
181.530789
 20
134.664964
 30
0.0
 40
0.384917
  1
-
  7
ROMANC
100
AcDbText
  0
TEXT
  5
1D4E
100
AcDbEntity
  8
BORDER
 62
     6
100
AcDbText
 10
192.742068
 20
131.830022
 30
0.0
 40
0.49329
  1
07/08/03
  7
ROMAND
100
AcDbText
  0
LINE
  5
1D4F
100
AcDbEntity
  8
BORDER
100
AcDbLine
 10
188.404755
 20
137.490605
 30
0.0
 11
207.520066
 21
137.490605
 31
0.0
  0
LINE
  5
1D50
100
AcDbEntity
  8
BORDER
100
AcDbLine
 10
188.404755
 20
133.442754
 30
0.0
 11
198.083223
 21
133.442754
 31
0.0
  0
LINE
  5
1D51
100
AcDbEntity
  8
BORDER
100
AcDbLine
 10
188.404755
 20
131.48534
 30
0.0
 11
198.083223
 21
131.48534
 31
0.0
  0
TEXT
  5
1D52
100
AcDbEntity
  8
BORDER
 62
     6
100
AcDbText
 10
194.878774
 20
134.294367
 30
0.0
 40
0.321995
  1
in this print by any other source than TOPP INDUSTRIES, INC.
 41
0.839168
  7
ROMANS
 72
     5
 11
208.14467
 21
134.294367
 31
0.0
100
AcDbText
  0
TEXT
  5
1D53
100
AcDbEntity
  8
BORDER
 62
     6
100
AcDbText
 10
194.878774
 20
134.815691
 30
0.0
 40
0.321995
  1
and will not be used to manufacture or procure the manufacture of the items shown
 41
0.600404
  7
ROMANS
 72
     5
 11
208.14467
 21
134.815691
 31
0.0
100
AcDbText
  0
TEXT
  5
1D54
100
AcDbEntity
  8
BORDER
 62
     6
100
AcDbText
 10
194.878774
 20
135.337016
 30
0.0
 40
0.321995
  1
be used as a record or to identify or inspect parts or for other information purposes
 41
0.596266
  7
ROMANS
 72
     5
 11
208.14467
 21
135.337016
 31
0.0
100
AcDbText
  0
TEXT
  5
1D55
100
AcDbEntity
  8
BORDER
 62
     6
100
AcDbText
 10
194.878774
 20
135.85834
 30
0.0
 40
0.321995
  1
restriction includes, but is not limited to the condition that this print will not only
 41
0.626489
  7
ROMANS
 72
     5
 11
208.14467
 21
135.85834
 31
0.0
100
AcDbText
  0
TEXT
  5
1D56
100
AcDbEntity
  8
BORDER
 62
     6
100
AcDbText
 10
194.878774
 20
136.379665
 30
0.0
 40
0.321995
  1
by TOPP INDUSTRIES, INC. It is furnished on a strictly confidential basis.  This
 41
0.659437
  7
ROMANS
 72
     5
 11
208.14467
 21
136.379665
 31
0.0
100
AcDbText
  0
TEXT
  5
1D57
100
AcDbEntity
  8
BORDER
 62
     6
100
AcDbText
 10
194.878774
 20
136.900989
 30
0.0
 40
0.321995
  1
This print is and contains confidential proprietary information owned exclusively
 41
0.656934
  7
ROMANS
 72
     5
 11
208.14467
 21
136.900989
 31
0.0
100
AcDbText
  0
LINE
  5
1D58
100
AcDbEntity
  8
BORDER
100
AcDbLine
 10
188.404755
 20
134.059025
 30
0.0
 11
208.377961
 21
134.059025
 31
0.0
  0
TEXT
  5
1D59
100
AcDbEntity
  8
BORDER
 62
     6
100
AcDbText
 10
188.580592
 20
134.171362
 30
0.0
 40
0.384917
  1
Date: 07/08/03
  7
ROMANC
100
AcDbText
  0
TEXT
  5
1D5A
100
AcDbEntity
  8
BORDER
 62
     6
100
AcDbText
 10
188.602534
 20
132.772979
 30
0.0
 40
0.384917
  1
Supersedes Prints
  7
ROMANC
100
AcDbText
  0
TEXT
  5
1D5B
100
AcDbEntity
  8
BORDER
 62
     6
100
AcDbText
 10
188.602534
 20
132.14978
 30
0.0
 40
0.384917
  1
Prior To:
  7
ROMANC
100
AcDbText
  0
TEXT
  5
1D5C
100
AcDbEntity
  8
BORDER
 62
     6
100
AcDbText
 10
188.580592
 20
136.922749
 30
0.0
 40
0.384917
  1
Scale: None
  7
ROMANC
100
AcDbText
  0
TEXT
  5
1D5D
100
AcDbEntity
  8
BORDER
 62
     6
100
AcDbText
 10
188.580592
 20
135.088491
 30
0.0
 40
0.384917
  1
Appv'd By: .
  7
ROMANC
100
AcDbText
  0
TEXT
  5
1D5E
100
AcDbEntity
  8
BORDER
 62
     6
100
AcDbText
 10
188.580592
 20
136.00562
 30
0.0
 40
0.384917
  1
Drawn By:
  7
ROMANC
100
AcDbText
  0
LINE
  5
1D5F
100
AcDbEntity
  8
BORDER
100
AcDbLine
 10
188.404755
 20
134.059025
 30
0.0
 11
188.404755
 21
137.490605
 31
0.0
  0
LINE
  5
1D60
100
AcDbEntity
  8
BORDER
100
AcDbLine
 10
188.404755
 20
131.48534
 30
0.0
 11
188.404755
 21
133.442754
 31
0.0
  0
TEXT
  5
1D61
100
AcDbEntity
  8
BORDER
 62
     6
100
AcDbText
 10
192.113066
 20
135.964626
 30
0.0
 40
0.524992
  1
RM
  7
COUNTRYBLUEPRINT
100
AcDbText
  0
TEXT
  5
1D62
100
AcDbEntity
  8
BORDER
 62
     6
100
AcDbText
 10
202.194296
 20
131.922924
 30
0.0
 40
1.154751
  1
10095
  7
ROMANC
100
AcDbText
  0
LINE
  5
1D63
100
AcDbEntity
  8
BORDER
100
AcDbLine
 10
198.699494
 20
131.48534
 30
0.0
 11
208.377961
 21
131.48534
 31
0.0
  0
LINE
  5
1D64
100
AcDbEntity
  8
BORDER
100
AcDbLine
 10
198.699494
 20
133.442754
 30
0.0
 11
208.377961
 21
133.442754
 31
0.0
  0
TEXT
  5
1D65
100
AcDbEntity
  8
BORDER
 62
     6
100
AcDbText
 10
198.902068
 20
132.815633
 30
0.0
 40
0.384917
  1
Reference
  7
ROMANC
100
AcDbText
  0
TEXT
  5
1D66
100
AcDbEntity
  8
BORDER
 62
     6
100
AcDbText
 10
198.902068
 20
132.192434
 30
0.0
 40
0.384917
  1
No:
  7
ROMANC
100
AcDbText
  0
LINE
  5
1D67
100
AcDbEntity
  8
BORDER
100
AcDbLine
 10
198.083223
 20
133.442754
 30
0.0
 11
198.083223
 21
131.48534
 31
0.0
  0
LINE
  5
1D68
100
AcDbEntity
  8
BORDER
100
AcDbLine
 10
198.699494
 20
133.442754
 30
0.0
 11
198.699494
 21
131.48534
 31
0.0
  0
LWPOLYLINE
  5
1D69
100
AcDbEntity
  8
BORDER
 62
     5
100
AcDbPolyline
 90
        2
 70
     0
 43
0.428947
 10
207.520066
 20
138.348499
 42
-0.414214
 10
209.235856
 20
136.63271
 42
0.560527
  0
ARC
  5
1D6A
100
AcDbEntity
  8
BORDER
100
AcDbCircle
 10
207.520066
 20
136.63271
 30
0.0
 40
0.857895
100
AcDbArc
 50
0.0
 51
90.0
  0
LWPOLYLINE
  5
1D6B
100
AcDbEntity
  8
BORDER
 62
     5
100
AcDbPolyline
 90
        2
 70
     0
 43
0.428947
 10
209.235856
 20
131.48534
 10
209.235856
 20
136.63271
  0
LWPOLYLINE
  5
1D6C
100
AcDbEntity
  8
BORDER
 62
     5
100
AcDbPolyline
 90
        2
 70
     0
 43
0.428947
 10
210.093751
 20
131.48534
 10
210.093751
 20
136.63271
  0
LINE
  5
1D6D
100
AcDbEntity
  8
BORDER
100
AcDbLine
 10
208.377961
 20
133.442754
 30
0.0
 11
208.377961
 21
131.48534
 31
0.0
  0
LINE
  5
1D6E
100
AcDbEntity
  8
BORDER
100
AcDbLine
 10
208.377961
 20
136.63271
 30
0.0
 11
208.377961
 21
134.059025
 31
0.0
  0
LWPOLYLINE
  5
1D6F
100
AcDbEntity
  8
BORDER
 62
     5
100
AcDbPolyline
 90
        2
 70
     0
 43
0.428947
 10
221.246385
 20
130.627445
 42
0.414214
 10
222.962174
 20
132.343235
 42
-0.560527
  0
LINE
  5
1D70
100
AcDbEntity
  8
BORDER
100
AcDbLine
 10
221.246385
 20
131.48534
 30
0.0
 11
210.951646
 21
131.48534
 31
0.0
  0
TEXT
  5
1D71
100
AcDbEntity
  8
BORDER
 62
     6
100
AcDbText
 10
212.741154
 20
135.316902
 30
0.0
 40
0.428947
  1
First Released 06/27/03
  7
ROMAND
100
AcDbText
  0
LINE
  5
1D72
100
AcDbEntity
  8
BORDER
100
AcDbLine
 10
221.246385
 20
132.528012
 30
0.0
 11
211.809541
 21
132.528012
 31
0.0
  0
LINE
  5
1D73
100
AcDbEntity
  8
BORDER
100
AcDbLine
 10
221.246385
 20
133.385907
 30
0.0
 11
211.809541
 21
133.385907
 31
0.0
  0
LINE
  5
1D74
100
AcDbEntity
  8
BORDER
100
AcDbLine
 10
221.246385
 20
134.243802
 30
0.0
 11
211.809541
 21
134.243802
 31
0.0
  0
LINE
  5
1D75
100
AcDbEntity
  8
BORDER
100
AcDbLine
 10
221.246385
 20
135.101697
 30
0.0
 11
211.809541
 21
135.101697
 31
0.0
  0
LINE
  5
1D76
100
AcDbEntity
  8
BORDER
100
AcDbLine
 10
221.246385
 20
135.959592
 30
0.0
 11
211.809541
 21
135.959592
 31
0.0
  0
LINE
  5
1D77
100
AcDbEntity
  8
BORDER
100
AcDbLine
 10
221.246385
 20
137.490605
 30
0.0
 11
211.809541
 21
137.490605
 31
0.0
  0
LWPOLYLINE
  5
1D78
100
AcDbEntity
  8
BORDER
 62
     5
100
AcDbPolyline
 90
        2
 70
     0
 43
0.428947
 10
221.246385
 20
138.348499
 10
211.809541
 20
138.348499
  0
TEXT
  5
1D79
100
AcDbEntity
  8
BORDER
 62
     6
100
AcDbText
 10
214.239889
 20
136.343811
 30
0.0
 40
0.577375
  1
Revisions
  7
ROMANC
100
AcDbText
  0
ARC
  5
1D7A
100
AcDbEntity
  8
BORDER
100
AcDbCircle
 10
211.809541
 20
136.63271
 30
0.0
 40
0.857895
100
AcDbArc
 50
90.0
 51
180.0
  0
LINE
  5
1D7B
100
AcDbEntity
  8
BORDER
100
AcDbLine
 10
211.809541
 20
135.959592
 30
0.0
 11
211.809541
 21
132.528012
 31
0.0
  0
LINE
  5
1D7C
100
AcDbEntity
  8
BORDER
100
AcDbLine
 10
212.667436
 20
135.959592
 30
0.0
 11
212.667436
 21
132.528012
 31
0.0
  0
LINE
  5
1D7D
100
AcDbEntity
  8
BORDER
100
AcDbLine
 10
210.951646
 20
131.48534
 30
0.0
 11
210.951646
 21
136.63271
 31
0.0
  0
LWPOLYLINE
  5
1D7E
100
AcDbEntity
  8
BORDER
100
AcDbPolyline
 90
        6
 70
     1
 43
0.0
 10
212.421132
 20
135.212537
 10
212.603907
 20
135.529112
 10
212.421132
 20
135.845688
 10
212.055583
 20
135.845688
 10
211.872808
 20
135.529112
 10
212.055583
 20
135.212537
  0
TEXT
  5
1D7F
100
AcDbEntity
  8
BORDER
 62
     6
100
AcDbText
 10
212.03464
 20
135.316902
 30
0.0
 40
0.428947
  1
1
  7
ROMAND
100
AcDbText
  0
ARC
  5
1D80
100
AcDbEntity
  8
BORDER
100
AcDbCircle
 10
221.246385
 20
136.63271
 30
0.0
 40
0.857895
100
AcDbArc
 50
0.0
 51
90.0
  0
LWPOLYLINE
  5
1D81
100
AcDbEntity
  8
BORDER
 62
     5
100
AcDbPolyline
 90
        2
 70
     0
 43
0.428947
 10
221.246385
 20
138.348499
 42
-0.414214
 10
222.962174
 20
136.63271
 42
0.560527
  0
LINE
  5
1D82
100
AcDbEntity
  8
BORDER
100
AcDbLine
 10
221.246385
 20
135.959592
 30
0.0
 11
221.246385
 21
132.528012
 31
0.0
  0
LINE
  5
1D83
100
AcDbEntity
  8
BORDER
100
AcDbLine
 10
222.104279
 20
132.343235
 30
0.0
 11
222.104279
 21
136.63271
 31
0.0
  0
LWPOLYLINE
  5
1D84
100
AcDbEntity
  8
BORDER
 62
     5
100
AcDbPolyline
 90
        2
 70
     0
 43
0.428947
 10
222.962174
 20
136.63271
 10
222.962174
 20
132.343235
  0
ARC
  5
1D85
100
AcDbEntity
  8
BORDER
100
AcDbCircle
 10
221.246385
 20
132.343235
 30
0.0
 40
0.857895
100
AcDbArc
 50
270.0
 51
0.0
  0
LWPOLYLINE
  5
1D86
100
AcDbEntity
  8
BORDER
 62
     5
100
AcDbPolyline
 90
        2
 70
     0
 43
0.171579
 10
222.275858
 20
211.609168
 10
161.430461
 20
211.609168
  0
LINE
  5
1D87
100
AcDbEntity
  8
BORDER
 62
     5
100
AcDbLine
 10
222.275858
 20
211.609168
 30
0.0
 11
161.430461
 21
211.609168
 31
0.0
  0
LINE
  5
1D88
100
AcDbEntity
  8
LIMITS
 62
     7
100
AcDbLine
 10
224.334806
 20
212.9818
 30
0.0
 11
159.371513
 21
212.9818
 31
0.0
  0
ENDSEC
  0
SECTION
  2
OBJECTS
  0
DICTIONARY
  5
C
100
AcDbDictionary
  3
ACAD_GROUP
350
D
  3
ACAD_MLINESTYLE
350
1A
  3
ACDBVARIABLEDICTIONARY
350
70
  0
DICTIONARY
  5
D
102
{ACAD_REACTORS
330
C
102
}
100
AcDbDictionary
  0
DICTIONARY
  5
1A
102
{ACAD_REACTORS
330
C
102
}
100
AcDbDictionary
  3
STANDARD
350
1B
  0
DICTIONARY
  5
70
102
{ACAD_REACTORS
330
C
102
}
100
AcDbDictionary
  3
DIMADEC
350
71
  0
MLINESTYLE
  5
1B
102
{ACAD_REACTORS
330
1A
102
}
100
AcDbMlineStyle
  2
STANDARD
 70
     0
  3

 62
   256
 51
90.0
 52
90.0
 71
     2
 49
0.5
 62
   256
  6
BYLAYER
 49
-0.5
 62
   256
  6
BYLAYER
  0
DICTIONARYVAR
  5
71
102
{ACAD_REACTORS
330
70
102
}
100
DictionaryVariables
280
     0
  1
0
  0
ENDSEC
  0
EOF
