  0
SECTION
  2
HEADER
  9
$ACADVER
  1
AC1014
  9
$ACADMAINTVER
 70
     0
  9
$DWGCODEPAGE
  3
ANSI_1252
  9
$INSBASE
 10
0.0
 20
0.0
 30
0.0
  9
$EXTMIN
 10
367.913563
 20
238.869049
 30
0.0
  9
$EXTMAX
 10
514.793563
 20
428.949049
 30
50.0
  9
$LIMMIN
 10
477.060228
 20
225.536547
  9
$LIMMAX
 10
624.660228
 20
418.136547
  9
$ORTHOMODE
 70
     0
  9
$REGENMODE
 70
     1
  9
$FILLMODE
 70
     1
  9
$QTEXTMODE
 70
     0
  9
$MIRRTEXT
 70
     1
  9
$DRAGMODE
 70
     2
  9
$LTSCALE
 40
5.0
  9
$OSMODE
 70
   675
  9
$ATTMODE
 70
     1
  9
$TEXTSIZE
 40
0.1
  9
$TRACEWID
 40
0.05
  9
$TEXTSTYLE
  7
ROMAND
  9
$CLAYER
  8
DIM
  9
$CELTYPE
  6
BYLAYER
  9
$CECOLOR
 62
   256
  9
$CELTSCALE
 40
1.0
  9
$DELOBJ
 70
     1
  9
$DISPSILH
 70
     0
  9
$DIMSCALE
 40
1.0
  9
$DIMASZ
 40
1.1
  9
$DIMEXO
 40
0.0625
  9
$DIMDLI
 40
0.38
  9
$DIMRND
 40
0.0
  9
$DIMDLE
 40
0.0
  9
$DIMEXE
 40
1.25
  9
$DIMTP
 40
0.0
  9
$DIMTM
 40
0.0
  9
$DIMTXT
 40
0.18
  9
$DIMCEN
 40
0.09
  9
$DIMTSZ
 40
0.0
  9
$DIMTOL
 70
     0
  9
$DIMLIM
 70
     0
  9
$DIMTIH
 70
     1
  9
$DIMTOH
 70
     1
  9
$DIMSE1
 70
     0
  9
$DIMSE2
 70
     0
  9
$DIMTAD
 70
     0
  9
$DIMZIN
 70
     0
  9
$DIMBLK
  1

  9
$DIMASO
 70
     1
  9
$DIMSHO
 70
     1
  9
$DIMPOST
  1

  9
$DIMAPOST
  1

  9
$DIMALT
 70
     0
  9
$DIMALTD
 70
     2
  9
$DIMALTF
 40
25.4
  9
$DIMLFAC
 40
1.0
  9
$DIMTOFL
 70
     0
  9
$DIMTVP
 40
0.0
  9
$DIMTIX
 70
     0
  9
$DIMSOXD
 70
     0
  9
$DIMSAH
 70
     0
  9
$DIMBLK1
  1

  9
$DIMBLK2
  1

  9
$DIMSTYLE
  2
STANDARD
  9
$DIMCLRD
 70
     0
  9
$DIMCLRE
 70
     0
  9
$DIMCLRT
 70
     0
  9
$DIMTFAC
 40
1.0
  9
$DIMGAP
 40
1.25
  9
$DIMJUST
 70
     0
  9
$DIMSD1
 70
     0
  9
$DIMSD2
 70
     0
  9
$DIMTOLJ
 70
     1
  9
$DIMTZIN
 70
     0
  9
$DIMALTZ
 70
     0
  9
$DIMALTTZ
 70
     0
  9
$DIMFIT
 70
     5
  9
$DIMUPT
 70
     0
  9
$DIMUNIT
 70
     2
  9
$DIMDEC
 70
     2
  9
$DIMTDEC
 70
     2
  9
$DIMALTU
 70
     2
  9
$DIMALTTD
 70
     2
  9
$DIMTXSTY
  7
ROMAND
  9
$DIMAUNIT
 70
     0
  9
$LUNITS
 70
     2
  9
$LUPREC
 70
     2
  9
$SKETCHINC
 40
0.1
  9
$FILLETRAD
 40
0.0
  9
$AUNITS
 70
     0
  9
$AUPREC
 70
     0
  9
$MENU
  1
acad
  9
$ELEVATION
 40
0.0
  9
$PELEVATION
 40
0.0
  9
$THICKNESS
 40
0.0
  9
$LIMCHECK
 70
     0
  9
$BLIPMODE
 70
     0
  9
$CHAMFERA
 40
0.0
  9
$CHAMFERB
 40
0.0
  9
$CHAMFERC
 40
0.0
  9
$CHAMFERD
 40
0.0
  9
$SKPOLY
 70
     0
  9
$TDCREATE
 40
2449590.727693403
  9
$TDUPDATE
 40
2452821.627184595
  9
$TDINDWG
 40
0.7041874306
  9
$TDUSRTIMER
 40
0.7041874306
  9
$USRTIMER
 70
     1
  9
$ANGBASE
 50
0.0
  9
$ANGDIR
 70
     0
  9
$PDMODE
 70
     0
  9
$PDSIZE
 40
0.0
  9
$PLINEWID
 40
0.0625
  9
$COORDS
 70
     2
  9
$SPLFRAME
 70
     0
  9
$SPLINETYPE
 70
     6
  9
$SPLINESEGS
 70
     8
  9
$ATTDIA
 70
     0
  9
$ATTREQ
 70
     1
  9
$HANDLING
 70
     1
  9
$HANDSEED
  5
F0ED
  9
$SURFTAB1
 70
     6
  9
$SURFTAB2
 70
     6
  9
$SURFTYPE
 70
     6
  9
$SURFU
 70
     6
  9
$SURFV
 70
     6
  9
$UCSNAME
  2

  9
$UCSORG
 10
0.0
 20
0.0
 30
0.0
  9
$UCSXDIR
 10
1.0
 20
0.0
 30
0.0
  9
$UCSYDIR
 10
0.0
 20
1.0
 30
0.0
  9
$PUCSNAME
  2

  9
$PUCSORG
 10
0.0
 20
0.0
 30
0.0
  9
$PUCSXDIR
 10
1.0
 20
0.0
 30
0.0
  9
$PUCSYDIR
 10
0.0
 20
1.0
 30
0.0
  9
$USERI1
 70
     0
  9
$USERI2
 70
     0
  9
$USERI3
 70
     0
  9
$USERI4
 70
     0
  9
$USERI5
 70
     0
  9
$USERR1
 40
0.0
  9
$USERR2
 40
0.0
  9
$USERR3
 40
0.0
  9
$USERR4
 40
0.0
  9
$USERR5
 40
0.0
  9
$WORLDVIEW
 70
     1
  9
$SHADEDGE
 70
     3
  9
$SHADEDIF
 70
    70
  9
$TILEMODE
 70
     1
  9
$MAXACTVP
 70
    16
  9
$PINSBASE
 10
0.0
 20
0.0
 30
0.0
  9
$PLIMCHECK
 70
     0
  9
$PEXTMIN
 10
1.000000E+20
 20
1.000000E+20
 30
1.000000E+20
  9
$PEXTMAX
 10
-1.000000E+20
 20
-1.000000E+20
 30
-1.000000E+20
  9
$PLIMMIN
 10
0.0
 20
0.0
  9
$PLIMMAX
 10
12.0
 20
9.0
  9
$UNITMODE
 70
     0
  9
$VISRETAIN
 70
     0
  9
$PLINEGEN
 70
     0
  9
$PSLTSCALE
 70
     1
  9
$TREEDEPTH
 70
  3020
  9
$PICKSTYLE
 70
     1
  9
$CMLSTYLE
  2
STANDARD
  9
$CMLJUST
 70
     0
  9
$CMLSCALE
 40
1.0
  9
$PROXYGRAPHICS
 70
     1
  9
$MEASUREMENT
 70
     0
  0
ENDSEC
  0
SECTION
  2
CLASSES
  0
CLASS
  1
DICTIONARYVAR
  2
AcDbDictionaryVar
  3
"AutoCAD"
 90
        0
280
     0
281
     0
  0
CLASS
  1
LWPOLYLINE
  2
AcDbPolyline
  3
"AutoCAD"
 90
        0
280
     0
281
     1
  0
CLASS
  1
HATCH
  2
AcDbHatch
  3
"ACAD_SEDONA"
 90
        0
280
     0
281
     1
  0
ENDSEC
  0
SECTION
  2
TABLES
  0
TABLE
  2
VPORT
  5
8
100
AcDbSymbolTable
 70
     1
  0
VPORT
  5
F0E4
100
AcDbSymbolTableRecord
100
AcDbViewportTableRecord
  2
*ACTIVE
 70
     0
 10
0.0
 20
0.0
 11
1.0
 21
1.0
 12
441.351744
 22
333.90827
 13
0.0
 23
0.0
 14
1.0
 24
1.0
 15
0.0
 25
0.0
 16
0.0
 26
0.0
 36
1.0
 17
0.0
 27
0.0
 37
0.0
 40
192.116251
 41
1.71048
 42
50.0
 43
0.0
 44
0.0
 50
0.0
 51
0.0
 71
     0
 72
   100
 73
     1
 74
     0
 75
     0
 76
     0
 77
     0
 78
     0
  0
ENDTAB
  0
TABLE
  2
LTYPE
  5
5
100
AcDbSymbolTable
 70
     2
  0
LTYPE
  5
11
100
AcDbSymbolTableRecord
100
AcDbLinetypeTableRecord
  2
BYBLOCK
 70
     0
  3

 72
    65
 73
     0
 40
0.0
  0
LTYPE
  5
12
100
AcDbSymbolTableRecord
100
AcDbLinetypeTableRecord
  2
BYLAYER
 70
     0
  3

 72
    65
 73
     0
 40
0.0
  0
LTYPE
  5
13
100
AcDbSymbolTableRecord
100
AcDbLinetypeTableRecord
  2
CONTINUOUS
 70
     0
  3
Solid line
 72
    65
 73
     0
 40
0.0
  0
LTYPE
  5
31
100
AcDbSymbolTableRecord
100
AcDbLinetypeTableRecord
  2
CENTER
 70
     0
  3
____ _ ____ _ ____ _ ____ _ ____ _ ____ _ ____ 
 72
    65
 73
     4
 40
2.0
 49
1.25
 74
     0
 49
-0.25
 74
     0
 49
0.25
 74
     0
 49
-0.25
 74
     0
  0
ENDTAB
  0
TABLE
  2
LAYER
  5
2
100
AcDbSymbolTable
 70
    10
  0
LAYER
  5
E
100
AcDbSymbolTableRecord
100
AcDbLayerTableRecord
  2
0
 70
     0
 62
     7
  6
CONTINUOUS
  0
LAYER
  5
36
100
AcDbSymbolTableRecord
100
AcDbLayerTableRecord
  2
OBJECT
 70
     0
 62
     2
  6
CONTINUOUS
  0
LAYER
  5
37
100
AcDbSymbolTableRecord
100
AcDbLayerTableRecord
  2
DIM
 70
     0
 62
     6
  6
CONTINUOUS
  0
LAYER
  5
39
100
AcDbSymbolTableRecord
100
AcDbLayerTableRecord
  2
CENTER
 70
     0
 62
     3
  6
CENTER
  0
LAYER
  5
3B
100
AcDbSymbolTableRecord
100
AcDbLayerTableRecord
  2
DEFPOINTS
 70
     0
 62
     7
  6
CONTINUOUS
  0
LAYER
  5
3C
100
AcDbSymbolTableRecord
100
AcDbLayerTableRecord
  2
BORDER
 70
     0
 62
     5
  6
CONTINUOUS
  0
LAYER
  5
3D
100
AcDbSymbolTableRecord
100
AcDbLayerTableRecord
  2
ELEV
 70
     0
 62
     3
  6
CONTINUOUS
  0
LAYER
  5
3E
100
AcDbSymbolTableRecord
100
AcDbLayerTableRecord
  2
HATCH
 70
     0
 62
     4
  6
CONTINUOUS
  0
LAYER
  5
3F
100
AcDbSymbolTableRecord
100
AcDbLayerTableRecord
  2
LIMITS
 70
     0
 62
     7
  6
CONTINUOUS
  0
LAYER
  5
40
100
AcDbSymbolTableRecord
100
AcDbLayerTableRecord
  2
PUMP
 70
     0
 62
     4
  6
CONTINUOUS
  0
ENDTAB
  0
TABLE
  2
STYLE
  5
3
100
AcDbSymbolTable
 70
     6
  0
STYLE
  5
F
100
AcDbSymbolTableRecord
100
AcDbTextStyleTableRecord
  2
STANDARD
 70
     0
 40
0.0
 41
1.0
 50
0.0
 71
     0
 42
0.2
  3
txt
  4

  0
STYLE
  5
2A
100
AcDbSymbolTableRecord
100
AcDbTextStyleTableRecord
  2
ROMANS
 70
     0
 40
1.25
 41
1.0
 50
0.0
 71
     0
 42
1.25
  3
romans
  4

  0
STYLE
  5
2C
100
AcDbSymbolTableRecord
100
AcDbTextStyleTableRecord
  2
ROMAND
 70
     0
 40
1.25
 41
1.0
 50
0.0
 71
     0
 42
0.1
  3
romand
  4

  0
STYLE
  5
2D
100
AcDbSymbolTableRecord
100
AcDbTextStyleTableRecord
  2
ROMANC
 70
     0
 40
0.068773
 41
1.0
 50
0.0
 71
     0
 42
0.068773
  3
romanc
  4

  0
STYLE
  5
30
100
AcDbSymbolTableRecord
100
AcDbTextStyleTableRecord
  2
SCRIPTC
 70
     0
 40
1.25
 41
1.0
 50
0.0
 71
     0
 42
1.25
  3
scriptc
  4

  0
STYLE
  5
30D4
100
AcDbSymbolTableRecord
100
AcDbTextStyleTableRecord
  2
COUNTRYBLUEPRINT
 70
     0
 40
0.061059
 41
1.0
 50
0.0
 71
     0
 42
0.061059
  3
cobt____.pfb
  4

  0
ENDTAB
  0
TABLE
  2
VIEW
  5
6
100
AcDbSymbolTable
 70
     0
  0
ENDTAB
  0
TABLE
  2
UCS
  5
7
100
AcDbSymbolTable
 70
     0
  0
ENDTAB
  0
TABLE
  2
APPID
  5
9
100
AcDbSymbolTable
 70
     6
  0
APPID
  5
10
100
AcDbSymbolTableRecord
100
AcDbRegAppTableRecord
  2
ACAD
 70
     0
  0
APPID
  5
163B
100
AcDbSymbolTableRecord
100
AcDbRegAppTableRecord
  2
DRAWINGVARIABLESXDATA
 70
     0
  0
APPID
  5
2438
100
AcDbSymbolTableRecord
100
AcDbRegAppTableRecord
  2
CONTENTTABDATA
 70
     0
  0
APPID
  5
2439
100
AcDbSymbolTableRecord
100
AcDbRegAppTableRecord
  2
CONTENTCURRENTTAB
 70
     0
  0
APPID
  5
243A
100
AcDbSymbolTableRecord
100
AcDbRegAppTableRecord
  2
CONTENTBLOCKDESCRIPTION
 70
     0
  0
APPID
  5
243B
100
AcDbSymbolTableRecord
100
AcDbRegAppTableRecord
  2
CONTENTBLOCKICON
 70
     0
  0
ENDTAB
  0
TABLE
  2
DIMSTYLE
  5
A
100
AcDbSymbolTable
 70
     1
  0
DIMSTYLE
105
13C3
100
AcDbSymbolTableRecord
100
AcDbDimStyleTableRecord
  2
STANDARD
 70
     0
  3

  4

  5

  6

  7

 40
1.0
 41
0.18
 42
0.0625
 43
0.38
 44
0.18
 45
0.0
 46
0.0
 47
0.0
 48
0.0
140
0.18
141
0.09
142
0.0
143
25.4
144
1.0
145
0.0
146
1.0
147
0.09
 71
     0
 72
     0
 73
     1
 74
     1
 75
     0
 76
     0
 77
     0
 78
     0
170
     0
171
     2
172
     0
173
     0
174
     0
175
     0
176
     0
177
     0
178
     0
270
     2
271
     4
272
     4
273
     2
274
     2
340
F
275
     0
280
     0
281
     0
282
     0
283
     1
284
     0
285
     0
286
     0
287
     3
288
     0
  0
ENDTAB
  0
TABLE
  2
BLOCK_RECORD
  5
1
100
AcDbSymbolTable
 70
     5
  0
BLOCK_RECORD
  5
17
100
AcDbSymbolTableRecord
100
AcDbBlockTableRecord
  2
*MODEL_SPACE
  0
BLOCK_RECORD
  5
14
100
AcDbSymbolTableRecord
100
AcDbBlockTableRecord
  2
*PAPER_SPACE
  0
BLOCK_RECORD
  5
1D
100
AcDbSymbolTableRecord
100
AcDbBlockTableRecord
  2
*X0
  0
BLOCK_RECORD
  5
1E
100
AcDbSymbolTableRecord
100
AcDbBlockTableRecord
  2
*X1
  0
BLOCK_RECORD
  5
490B
100
AcDbSymbolTableRecord
100
AcDbBlockTableRecord
  2
*X2
  0
BLOCK_RECORD
  5
57CE
100
AcDbSymbolTableRecord
100
AcDbBlockTableRecord
  2
*D3
  0
BLOCK_RECORD
  5
57DC
100
AcDbSymbolTableRecord
100
AcDbBlockTableRecord
  2
*D4
  0
ENDTAB
  0
ENDSEC
  0
SECTION
  2
BLOCKS
  0
BLOCK
  5
43
100
AcDbEntity
  8
0
100
AcDbBlockBegin
  2
*MODEL_SPACE
 70
     0
 10
0.0
 20
0.0
 30
0.0
  3
*MODEL_SPACE
  1

  0
ENDBLK
  5
44
100
AcDbEntity
  8
0
100
AcDbBlockEnd
  0
BLOCK
  5
41
100
AcDbEntity
 67
     1
  8
0
100
AcDbBlockBegin
  2
*PAPER_SPACE
 70
     0
 10
0.0
 20
0.0
 30
0.0
  3
*PAPER_SPACE
  1

  0
ENDBLK
  5
42
100
AcDbEntity
 67
     1
  8
0
100
AcDbBlockEnd
  0
BLOCK
  5
8B
100
AcDbEntity
  8
0
100
AcDbBlockBegin
  2
*X0
 70
     1
 10
0.0
 20
0.0
 30
0.0
  3
*X0
  1

  0
LINE
  5
8C
100
AcDbEntity
  8
0
 62
     0
100
AcDbLine
 10
113.244857
 20
72.762994
 30
0.0
 11
115.254532
 21
74.772669
 31
0.0
  0
LINE
  5
8D
100
AcDbEntity
  8
0
 62
     0
100
AcDbLine
 10
113.244857
 20
72.939771
 30
0.0
 11
115.077756
 21
74.772669
 31
0.0
  0
LINE
  5
8E
100
AcDbEntity
  8
0
 62
     0
100
AcDbLine
 10
113.244857
 20
73.116547
 30
0.0
 11
114.900979
 21
74.772669
 31
0.0
  0
LINE
  5
8F
100
AcDbEntity
  8
0
 62
     0
100
AcDbLine
 10
113.244857
 20
73.293324
 30
0.0
 11
114.724202
 21
74.772669
 31
0.0
  0
LINE
  5
90
100
AcDbEntity
  8
0
 62
     0
100
AcDbLine
 10
113.244857
 20
73.470101
 30
0.0
 11
114.547426
 21
74.772669
 31
0.0
  0
LINE
  5
91
100
AcDbEntity
  8
0
 62
     0
100
AcDbLine
 10
113.244857
 20
73.646878
 30
0.0
 11
114.370649
 21
74.772669
 31
0.0
  0
LINE
  5
92
100
AcDbEntity
  8
0
 62
     0
100
AcDbLine
 10
113.244857
 20
73.823654
 30
0.0
 11
114.193872
 21
74.772669
 31
0.0
  0
LINE
  5
93
100
AcDbEntity
  8
0
 62
     0
100
AcDbLine
 10
113.244857
 20
74.000431
 30
0.0
 11
114.017096
 21
74.772669
 31
0.0
  0
LINE
  5
94
100
AcDbEntity
  8
0
 62
     0
100
AcDbLine
 10
113.244857
 20
74.177208
 30
0.0
 11
113.840319
 21
74.772669
 31
0.0
  0
LINE
  5
95
100
AcDbEntity
  8
0
 62
     0
100
AcDbLine
 10
113.244857
 20
74.353984
 30
0.0
 11
113.663542
 21
74.772669
 31
0.0
  0
LINE
  5
96
100
AcDbEntity
  8
0
 62
     0
100
AcDbLine
 10
113.244857
 20
74.530761
 30
0.0
 11
113.486765
 21
74.772669
 31
0.0
  0
LINE
  5
97
100
AcDbEntity
  8
0
 62
     0
100
AcDbLine
 10
113.244857
 20
74.707538
 30
0.0
 11
113.309989
 21
74.772669
 31
0.0
  0
LINE
  5
98
100
AcDbEntity
  8
0
 62
     0
100
AcDbLine
 10
113.375131
 20
72.716491
 30
0.0
 11
115.301035
 21
74.642395
 31
0.0
  0
LINE
  5
99
100
AcDbEntity
  8
0
 62
     0
100
AcDbLine
 10
113.574294
 20
72.738877
 30
0.0
 11
115.278649
 21
74.443233
 31
0.0
  0
LINE
  5
9A
100
AcDbEntity
  8
0
 62
     0
100
AcDbLine
 10
113.801058
 20
72.788865
 30
0.0
 11
115.228661
 21
74.216468
 31
0.0
  0
LINE
  5
9B
100
AcDbEntity
  8
0
 62
     0
100
AcDbLine
 10
114.076757
 20
72.887787
 30
0.0
 11
115.12974
 21
73.94077
 31
0.0
  0
LINE
  5
9C
100
AcDbEntity
  8
0
 62
     0
100
AcDbLine
 10
114.520614
 20
73.154867
 30
0.0
 11
114.862659
 21
73.496913
 31
0.0
  0
LINE
  5
9D
100
AcDbEntity
  8
0
 62
     0
100
AcDbLine
 10
114.648834
 20
73.264794
 30
0.0
 11
113.244857
 21
74.66877
 31
0.0
  0
LINE
  5
9E
100
AcDbEntity
  8
0
 62
     0
100
AcDbLine
 10
114.554597
 20
73.182254
 30
0.0
 11
113.244857
 21
74.491993
 31
0.0
  0
LINE
  5
9F
100
AcDbEntity
  8
0
 62
     0
100
AcDbLine
 10
114.454916
 20
73.105157
 30
0.0
 11
113.244857
 21
74.315216
 31
0.0
  0
LINE
  5
A0
100
AcDbEntity
  8
0
 62
     0
100
AcDbLine
 10
114.349663
 20
73.033634
 30
0.0
 11
113.244857
 21
74.13844
 31
0.0
  0
LINE
  5
A1
100
AcDbEntity
  8
0
 62
     0
100
AcDbLine
 10
114.238635
 20
72.967885
 30
0.0
 11
113.244857
 21
73.961663
 31
0.0
  0
LINE
  5
A2
100
AcDbEntity
  8
0
 62
     0
100
AcDbLine
 10
114.121546
 20
72.908197
 30
0.0
 11
113.244857
 21
73.784886
 31
0.0
  0
LINE
  5
A3
100
AcDbEntity
  8
0
 62
     0
100
AcDbLine
 10
113.998006
 20
72.854961
 30
0.0
 11
113.244857
 21
73.60811
 31
0.0
  0
LINE
  5
A4
100
AcDbEntity
  8
0
 62
     0
100
AcDbLine
 10
113.867489
 20
72.808702
 30
0.0
 11
113.244857
 21
73.431333
 31
0.0
  0
LINE
  5
A5
100
AcDbEntity
  8
0
 62
     0
100
AcDbLine
 10
113.729285
 20
72.770129
 30
0.0
 11
113.244857
 21
73.254556
 31
0.0
  0
LINE
  5
A6
100
AcDbEntity
  8
0
 62
     0
100
AcDbLine
 10
113.582426
 20
72.740211
 30
0.0
 11
113.244857
 21
73.07778
 31
0.0
  0
LINE
  5
A7
100
AcDbEntity
  8
0
 62
     0
100
AcDbLine
 10
113.425552
 20
72.720308
 30
0.0
 11
113.244857
 21
72.901003
 31
0.0
  0
LINE
  5
A8
100
AcDbEntity
  8
0
 62
     0
100
AcDbLine
 10
113.256681
 20
72.712403
 30
0.0
 11
113.244857
 21
72.724226
 31
0.0
  0
LINE
  5
A9
100
AcDbEntity
  8
0
 62
     0
100
AcDbLine
 10
114.737693
 20
73.352711
 30
0.0
 11
113.317735
 21
74.772669
 31
0.0
  0
LINE
  5
AA
100
AcDbEntity
  8
0
 62
     0
100
AcDbLine
 10
114.821179
 20
73.446001
 30
0.0
 11
113.494511
 21
74.772669
 31
0.0
  0
LINE
  5
AB
100
AcDbEntity
  8
0
 62
     0
100
AcDbLine
 10
114.899238
 20
73.544719
 30
0.0
 11
113.671288
 21
74.772669
 31
0.0
  0
LINE
  5
AC
100
AcDbEntity
  8
0
 62
     0
100
AcDbLine
 10
114.971752
 20
73.648982
 30
0.0
 11
113.848065
 21
74.772669
 31
0.0
  0
LINE
  5
AD
100
AcDbEntity
  8
0
 62
     0
100
AcDbLine
 10
115.038532
 20
73.758978
 30
0.0
 11
114.024841
 21
74.772669
 31
0.0
  0
LINE
  5
AE
100
AcDbEntity
  8
0
 62
     0
100
AcDbLine
 10
115.099309
 20
73.874979
 30
0.0
 11
114.201618
 21
74.772669
 31
0.0
  0
LINE
  5
AF
100
AcDbEntity
  8
0
 62
     0
100
AcDbLine
 10
115.153711
 20
73.997353
 30
0.0
 11
114.378395
 21
74.772669
 31
0.0
  0
LINE
  5
B0
100
AcDbEntity
  8
0
 62
     0
100
AcDbLine
 10
115.20124
 20
74.126601
 30
0.0
 11
114.555172
 21
74.772669
 31
0.0
  0
LINE
  5
B1
100
AcDbEntity
  8
0
 62
     0
100
AcDbLine
 10
115.241223
 20
74.263394
 30
0.0
 11
114.731948
 21
74.772669
 31
0.0
  0
LINE
  5
B2
100
AcDbEntity
  8
0
 62
     0
100
AcDbLine
 10
115.272745
 20
74.408649
 30
0.0
 11
114.908725
 21
74.772669
 31
0.0
  0
LINE
  5
B3
100
AcDbEntity
  8
0
 62
     0
100
AcDbLine
 10
115.294527
 20
74.563644
 30
0.0
 11
115.085502
 21
74.772669
 31
0.0
  0
LINE
  5
B4
100
AcDbEntity
  8
0
 62
     0
100
AcDbLine
 10
115.304721
 20
74.730227
 30
0.0
 11
115.262278
 21
74.772669
 31
0.0
  0
ENDBLK
  5
B5
100
AcDbEntity
  8
0
100
AcDbBlockEnd
  0
BLOCK
  5
B6
100
AcDbEntity
  8
0
100
AcDbBlockBegin
  2
*X1
 70
     1
 10
0.0
 20
0.0
 30
0.0
  3
*X1
  1

  0
LINE
  5
B7
100
AcDbEntity
  8
0
 62
     0
100
AcDbLine
 10
111.192487
 20
74.953265
 30
0.0
 11
113.064262
 21
76.825039
 31
0.0
  0
LINE
  5
B8
100
AcDbEntity
  8
0
 62
     0
100
AcDbLine
 10
111.221021
 20
75.158575
 30
0.0
 11
112.858952
 21
76.796506
 31
0.0
  0
LINE
  5
B9
100
AcDbEntity
  8
0
 62
     0
100
AcDbLine
 10
111.280853
 20
75.395184
 30
0.0
 11
112.622343
 21
76.736674
 31
0.0
  0
LINE
  5
BA
100
AcDbEntity
  8
0
 62
     0
100
AcDbLine
 10
111.401183
 20
75.692291
 30
0.0
 11
112.325236
 21
76.616343
 31
0.0
  0
LINE
  5
BB
100
AcDbEntity
  8
0
 62
     0
100
AcDbLine
 10
111.188668
 20
74.772669
 30
0.0
 11
113.244857
 21
76.828858
 31
0.0
  0
LINE
  5
BC
100
AcDbEntity
  8
0
 62
     0
100
AcDbLine
 10
111.365445
 20
74.772669
 30
0.0
 11
113.244857
 21
76.652081
 31
0.0
  0
LINE
  5
BD
100
AcDbEntity
  8
0
 62
     0
100
AcDbLine
 10
111.542222
 20
74.772669
 30
0.0
 11
113.244857
 21
76.475305
 31
0.0
  0
LINE
  5
BE
100
AcDbEntity
  8
0
 62
     0
100
AcDbLine
 10
111.718998
 20
74.772669
 30
0.0
 11
113.244857
 21
76.298528
 31
0.0
  0
LINE
  5
BF
100
AcDbEntity
  8
0
 62
     0
100
AcDbLine
 10
111.895775
 20
74.772669
 30
0.0
 11
113.244857
 21
76.121751
 31
0.0
  0
LINE
  5
C0
100
AcDbEntity
  8
0
 62
     0
100
AcDbLine
 10
112.072552
 20
74.772669
 30
0.0
 11
113.244857
 21
75.944975
 31
0.0
  0
LINE
  5
C1
100
AcDbEntity
  8
0
 62
     0
100
AcDbLine
 10
112.249329
 20
74.772669
 30
0.0
 11
113.244857
 21
75.768198
 31
0.0
  0
LINE
  5
C2
100
AcDbEntity
  8
0
 62
     0
100
AcDbLine
 10
112.426105
 20
74.772669
 30
0.0
 11
113.244857
 21
75.591421
 31
0.0
  0
LINE
  5
C3
100
AcDbEntity
  8
0
 62
     0
100
AcDbLine
 10
112.602882
 20
74.772669
 30
0.0
 11
113.244857
 21
75.414644
 31
0.0
  0
LINE
  5
C4
100
AcDbEntity
  8
0
 62
     0
100
AcDbLine
 10
112.779659
 20
74.772669
 30
0.0
 11
113.244857
 21
75.237868
 31
0.0
  0
LINE
  5
C5
100
AcDbEntity
  8
0
 62
     0
100
AcDbLine
 10
112.956435
 20
74.772669
 30
0.0
 11
113.244857
 21
75.061091
 31
0.0
  0
LINE
  5
C6
100
AcDbEntity
  8
0
 62
     0
100
AcDbLine
 10
113.133212
 20
74.772669
 30
0.0
 11
113.244857
 21
74.884314
 31
0.0
  0
LINE
  5
C7
100
AcDbEntity
  8
0
 62
     0
100
AcDbLine
 10
113.140958
 20
74.772669
 30
0.0
 11
111.736982
 21
76.176645
 31
0.0
  0
LINE
  5
C8
100
AcDbEntity
  8
0
 62
     0
100
AcDbLine
 10
112.964181
 20
74.772669
 30
0.0
 11
111.654442
 21
76.082409
 31
0.0
  0
LINE
  5
C9
100
AcDbEntity
  8
0
 62
     0
100
AcDbLine
 10
112.787405
 20
74.772669
 30
0.0
 11
111.577346
 21
75.982728
 31
0.0
  0
LINE
  5
CA
100
AcDbEntity
  8
0
 62
     0
100
AcDbLine
 10
112.610628
 20
74.772669
 30
0.0
 11
111.505822
 21
75.877475
 31
0.0
  0
LINE
  5
CB
100
AcDbEntity
  8
0
 62
     0
100
AcDbLine
 10
112.433851
 20
74.772669
 30
0.0
 11
111.440074
 21
75.766447
 31
0.0
  0
LINE
  5
CC
100
AcDbEntity
  8
0
 62
     0
100
AcDbLine
 10
112.257074
 20
74.772669
 30
0.0
 11
111.380386
 21
75.649358
 31
0.0
  0
LINE
  5
CD
100
AcDbEntity
  8
0
 62
     0
100
AcDbLine
 10
112.080298
 20
74.772669
 30
0.0
 11
111.327149
 21
75.525818
 31
0.0
  0
LINE
  5
CE
100
AcDbEntity
  8
0
 62
     0
100
AcDbLine
 10
111.903521
 20
74.772669
 30
0.0
 11
111.28089
 21
75.3953
 31
0.0
  0
LINE
  5
CF
100
AcDbEntity
  8
0
 62
     0
100
AcDbLine
 10
111.726744
 20
74.772669
 30
0.0
 11
111.242317
 21
75.257097
 31
0.0
  0
LINE
  5
D0
100
AcDbEntity
  8
0
 62
     0
100
AcDbLine
 10
111.549968
 20
74.772669
 30
0.0
 11
111.212399
 21
75.110238
 31
0.0
  0
LINE
  5
D1
100
AcDbEntity
  8
0
 62
     0
100
AcDbLine
 10
111.373191
 20
74.772669
 30
0.0
 11
111.192496
 21
74.953364
 31
0.0
  0
LINE
  5
D2
100
AcDbEntity
  8
0
 62
     0
100
AcDbLine
 10
111.196414
 20
74.772669
 30
0.0
 11
111.184591
 21
74.784493
 31
0.0
  0
LINE
  5
D3
100
AcDbEntity
  8
0
 62
     0
100
AcDbLine
 10
113.244857
 20
74.845547
 30
0.0
 11
111.824899
 21
76.265505
 31
0.0
  0
LINE
  5
D4
100
AcDbEntity
  8
0
 62
     0
100
AcDbLine
 10
113.244857
 20
75.022323
 30
0.0
 11
111.918189
 21
76.348991
 31
0.0
  0
LINE
  5
D5
100
AcDbEntity
  8
0
 62
     0
100
AcDbLine
 10
113.244857
 20
75.1991
 30
0.0
 11
112.016907
 21
76.42705
 31
0.0
  0
LINE
  5
D6
100
AcDbEntity
  8
0
 62
     0
100
AcDbLine
 10
113.244857
 20
75.375877
 30
0.0
 11
112.12117
 21
76.499564
 31
0.0
  0
LINE
  5
D7
100
AcDbEntity
  8
0
 62
     0
100
AcDbLine
 10
113.244857
 20
75.552653
 30
0.0
 11
112.231167
 21
76.566344
 31
0.0
  0
LINE
  5
D8
100
AcDbEntity
  8
0
 62
     0
100
AcDbLine
 10
113.244857
 20
75.72943
 30
0.0
 11
112.347167
 21
76.627121
 31
0.0
  0
LINE
  5
D9
100
AcDbEntity
  8
0
 62
     0
100
AcDbLine
 10
113.244857
 20
75.906207
 30
0.0
 11
112.469541
 21
76.681523
 31
0.0
  0
LINE
  5
DA
100
AcDbEntity
  8
0
 62
     0
100
AcDbLine
 10
113.244857
 20
76.082983
 30
0.0
 11
112.598789
 21
76.729052
 31
0.0
  0
LINE
  5
DB
100
AcDbEntity
  8
0
 62
     0
100
AcDbLine
 10
113.244857
 20
76.25976
 30
0.0
 11
112.735582
 21
76.769035
 31
0.0
  0
LINE
  5
DC
100
AcDbEntity
  8
0
 62
     0
100
AcDbLine
 10
113.244857
 20
76.436537
 30
0.0
 11
112.880837
 21
76.800557
 31
0.0
  0
LINE
  5
DD
100
AcDbEntity
  8
0
 62
     0
100
AcDbLine
 10
113.244857
 20
76.613313
 30
0.0
 11
113.035832
 21
76.822339
 31
0.0
  0
LINE
  5
DE
100
AcDbEntity
  8
0
 62
     0
100
AcDbLine
 10
113.244857
 20
76.79009
 30
0.0
 11
113.202415
 21
76.832532
 31
0.0
  0
ENDBLK
  5
DF
100
AcDbEntity
  8
0
100
AcDbBlockEnd
  0
BLOCK
  5
494E
100
AcDbEntity
  8
0
100
AcDbBlockBegin
  2
*X2
 70
     1
 10
0.0
 20
0.0
 30
0.0
  3
*X2
  1

  0
LINE
  5
490C
100
AcDbEntity
  8
0
 62
     0
100
AcDbLine
 10
164.634173
 20
97.193864
 30
0.0
 11
165.570452
 21
98.130143
 31
0.0
  0
LINE
  5
490D
100
AcDbEntity
  8
0
 62
     0
100
AcDbLine
 10
164.545785
 20
97.193864
 30
0.0
 11
165.482064
 21
98.130143
 31
0.0
  0
LINE
  5
490E
100
AcDbEntity
  8
0
 62
     0
100
AcDbLine
 10
164.457396
 20
97.193864
 30
0.0
 11
165.393676
 21
98.130143
 31
0.0
  0
LINE
  5
490F
100
AcDbEntity
  8
0
 62
     0
100
AcDbLine
 10
164.369008
 20
97.193864
 30
0.0
 11
165.305287
 21
98.130143
 31
0.0
  0
LINE
  5
4910
100
AcDbEntity
  8
0
 62
     0
100
AcDbLine
 10
164.28062
 20
97.193864
 30
0.0
 11
165.216899
 21
98.130143
 31
0.0
  0
LINE
  5
4911
100
AcDbEntity
  8
0
 62
     0
100
AcDbLine
 10
164.192231
 20
97.193864
 30
0.0
 11
165.128511
 21
98.130143
 31
0.0
  0
LINE
  5
4912
100
AcDbEntity
  8
0
 62
     0
100
AcDbLine
 10
164.177907
 20
97.267928
 30
0.0
 11
165.040122
 21
98.130143
 31
0.0
  0
LINE
  5
4913
100
AcDbEntity
  8
0
 62
     0
100
AcDbLine
 10
164.177907
 20
97.356316
 30
0.0
 11
164.951734
 21
98.130143
 31
0.0
  0
LINE
  5
4914
100
AcDbEntity
  8
0
 62
     0
100
AcDbLine
 10
164.177907
 20
97.444705
 30
0.0
 11
164.863346
 21
98.130143
 31
0.0
  0
LINE
  5
4915
100
AcDbEntity
  8
0
 62
     0
100
AcDbLine
 10
164.177907
 20
97.533093
 30
0.0
 11
164.774957
 21
98.130143
 31
0.0
  0
LINE
  5
4916
100
AcDbEntity
  8
0
 62
     0
100
AcDbLine
 10
164.177907
 20
97.621481
 30
0.0
 11
164.686569
 21
98.130143
 31
0.0
  0
LINE
  5
4917
100
AcDbEntity
  8
0
 62
     0
100
AcDbLine
 10
164.177907
 20
97.70987
 30
0.0
 11
164.598181
 21
98.130143
 31
0.0
  0
LINE
  5
4918
100
AcDbEntity
  8
0
 62
     0
100
AcDbLine
 10
164.177907
 20
97.798258
 30
0.0
 11
164.509792
 21
98.130143
 31
0.0
  0
LINE
  5
4919
100
AcDbEntity
  8
0
 62
     0
100
AcDbLine
 10
164.177907
 20
97.886646
 30
0.0
 11
164.421404
 21
98.130143
 31
0.0
  0
LINE
  5
491A
100
AcDbEntity
  8
0
 62
     0
100
AcDbLine
 10
164.177907
 20
97.975035
 30
0.0
 11
164.333016
 21
98.130143
 31
0.0
  0
LINE
  5
491B
100
AcDbEntity
  8
0
 62
     0
100
AcDbLine
 10
164.177907
 20
98.063423
 30
0.0
 11
164.244627
 21
98.130143
 31
0.0
  0
LINE
  5
491C
100
AcDbEntity
  8
0
 62
     0
100
AcDbLine
 10
164.722561
 20
97.193864
 30
0.0
 11
165.658841
 21
98.130143
 31
0.0
  0
LINE
  5
491D
100
AcDbEntity
  8
0
 62
     0
100
AcDbLine
 10
164.81095
 20
97.193864
 30
0.0
 11
165.747229
 21
98.130143
 31
0.0
  0
LINE
  5
491E
100
AcDbEntity
  8
0
 62
     0
100
AcDbLine
 10
164.899338
 20
97.193864
 30
0.0
 11
165.835617
 21
98.130143
 31
0.0
  0
LINE
  5
491F
100
AcDbEntity
  8
0
 62
     0
100
AcDbLine
 10
164.987727
 20
97.193864
 30
0.0
 11
165.924006
 21
98.130143
 31
0.0
  0
LINE
  5
4920
100
AcDbEntity
  8
0
 62
     0
100
AcDbLine
 10
165.076115
 20
97.193864
 30
0.0
 11
166.012394
 21
98.130143
 31
0.0
  0
LINE
  5
4921
100
AcDbEntity
  8
0
 62
     0
100
AcDbLine
 10
165.164503
 20
97.193864
 30
0.0
 11
166.100783
 21
98.130143
 31
0.0
  0
LINE
  5
4922
100
AcDbEntity
  8
0
 62
     0
100
AcDbLine
 10
165.252892
 20
97.193864
 30
0.0
 11
166.177907
 21
98.118879
 31
0.0
  0
LINE
  5
4923
100
AcDbEntity
  8
0
 62
     0
100
AcDbLine
 10
165.34128
 20
97.193864
 30
0.0
 11
166.177907
 21
98.030491
 31
0.0
  0
LINE
  5
4924
100
AcDbEntity
  8
0
 62
     0
100
AcDbLine
 10
165.429668
 20
97.193864
 30
0.0
 11
166.177907
 21
97.942103
 31
0.0
  0
LINE
  5
4925
100
AcDbEntity
  8
0
 62
     0
100
AcDbLine
 10
165.518057
 20
97.193864
 30
0.0
 11
166.177907
 21
97.853714
 31
0.0
  0
LINE
  5
4926
100
AcDbEntity
  8
0
 62
     0
100
AcDbLine
 10
165.606445
 20
97.193864
 30
0.0
 11
166.177907
 21
97.765326
 31
0.0
  0
LINE
  5
4927
100
AcDbEntity
  8
0
 62
     0
100
AcDbLine
 10
165.694833
 20
97.193864
 30
0.0
 11
166.177907
 21
97.676938
 31
0.0
  0
LINE
  5
4928
100
AcDbEntity
  8
0
 62
     0
100
AcDbLine
 10
165.783222
 20
97.193864
 30
0.0
 11
166.177907
 21
97.588549
 31
0.0
  0
LINE
  5
4929
100
AcDbEntity
  8
0
 62
     0
100
AcDbLine
 10
165.87161
 20
97.193864
 30
0.0
 11
166.177907
 21
97.500161
 31
0.0
  0
LINE
  5
492A
100
AcDbEntity
  8
0
 62
     0
100
AcDbLine
 10
165.959998
 20
97.193864
 30
0.0
 11
166.177907
 21
97.411773
 31
0.0
  0
LINE
  5
492B
100
AcDbEntity
  8
0
 62
     0
100
AcDbLine
 10
166.048387
 20
97.193864
 30
0.0
 11
166.177907
 21
97.323384
 31
0.0
  0
LINE
  5
492C
100
AcDbEntity
  8
0
 62
     0
100
AcDbLine
 10
166.136775
 20
97.193864
 30
0.0
 11
166.177907
 21
97.234996
 31
0.0
  0
LINE
  5
492D
100
AcDbEntity
  8
0
 62
     0
100
AcDbLine
 10
165.584694
 20
97.193864
 30
0.0
 11
164.648414
 21
98.130143
 31
0.0
  0
LINE
  5
492E
100
AcDbEntity
  8
0
 62
     0
100
AcDbLine
 10
165.496305
 20
97.193864
 30
0.0
 11
164.560026
 21
98.130143
 31
0.0
  0
LINE
  5
492F
100
AcDbEntity
  8
0
 62
     0
100
AcDbLine
 10
165.407917
 20
97.193864
 30
0.0
 11
164.471638
 21
98.130143
 31
0.0
  0
LINE
  5
4930
100
AcDbEntity
  8
0
 62
     0
100
AcDbLine
 10
165.319529
 20
97.193864
 30
0.0
 11
164.383249
 21
98.130143
 31
0.0
  0
LINE
  5
4931
100
AcDbEntity
  8
0
 62
     0
100
AcDbLine
 10
165.23114
 20
97.193864
 30
0.0
 11
164.294861
 21
98.130143
 31
0.0
  0
LINE
  5
4932
100
AcDbEntity
  8
0
 62
     0
100
AcDbLine
 10
165.142752
 20
97.193864
 30
0.0
 11
164.206473
 21
98.130143
 31
0.0
  0
LINE
  5
4933
100
AcDbEntity
  8
0
 62
     0
100
AcDbLine
 10
165.054364
 20
97.193864
 30
0.0
 11
164.177907
 21
98.07032
 31
0.0
  0
LINE
  5
4934
100
AcDbEntity
  8
0
 62
     0
100
AcDbLine
 10
164.965975
 20
97.193864
 30
0.0
 11
164.177907
 21
97.981932
 31
0.0
  0
LINE
  5
4935
100
AcDbEntity
  8
0
 62
     0
100
AcDbLine
 10
164.877587
 20
97.193864
 30
0.0
 11
164.177907
 21
97.893544
 31
0.0
  0
LINE
  5
4936
100
AcDbEntity
  8
0
 62
     0
100
AcDbLine
 10
164.789199
 20
97.193864
 30
0.0
 11
164.177907
 21
97.805155
 31
0.0
  0
LINE
  5
4937
100
AcDbEntity
  8
0
 62
     0
100
AcDbLine
 10
164.70081
 20
97.193864
 30
0.0
 11
164.177907
 21
97.716767
 31
0.0
  0
LINE
  5
4938
100
AcDbEntity
  8
0
 62
     0
100
AcDbLine
 10
164.612422
 20
97.193864
 30
0.0
 11
164.177907
 21
97.628379
 31
0.0
  0
LINE
  5
4939
100
AcDbEntity
  8
0
 62
     0
100
AcDbLine
 10
164.524033
 20
97.193864
 30
0.0
 11
164.177907
 21
97.53999
 31
0.0
  0
LINE
  5
493A
100
AcDbEntity
  8
0
 62
     0
100
AcDbLine
 10
164.435645
 20
97.193864
 30
0.0
 11
164.177907
 21
97.451602
 31
0.0
  0
LINE
  5
493B
100
AcDbEntity
  8
0
 62
     0
100
AcDbLine
 10
164.347257
 20
97.193864
 30
0.0
 11
164.177907
 21
97.363214
 31
0.0
  0
LINE
  5
493C
100
AcDbEntity
  8
0
 62
     0
100
AcDbLine
 10
164.258868
 20
97.193864
 30
0.0
 11
164.177907
 21
97.274825
 31
0.0
  0
LINE
  5
493D
100
AcDbEntity
  8
0
 62
     0
100
AcDbLine
 10
165.673082
 20
97.193864
 30
0.0
 11
164.736803
 21
98.130143
 31
0.0
  0
LINE
  5
493E
100
AcDbEntity
  8
0
 62
     0
100
AcDbLine
 10
165.76147
 20
97.193864
 30
0.0
 11
164.825191
 21
98.130143
 31
0.0
  0
LINE
  5
493F
100
AcDbEntity
  8
0
 62
     0
100
AcDbLine
 10
165.849859
 20
97.193864
 30
0.0
 11
164.913579
 21
98.130143
 31
0.0
  0
LINE
  5
4940
100
AcDbEntity
  8
0
 62
     0
100
AcDbLine
 10
165.938247
 20
97.193864
 30
0.0
 11
165.001968
 21
98.130143
 31
0.0
  0
LINE
  5
4941
100
AcDbEntity
  8
0
 62
     0
100
AcDbLine
 10
166.026635
 20
97.193864
 30
0.0
 11
165.090356
 21
98.130143
 31
0.0
  0
LINE
  5
4942
100
AcDbEntity
  8
0
 62
     0
100
AcDbLine
 10
166.115024
 20
97.193864
 30
0.0
 11
165.178744
 21
98.130143
 31
0.0
  0
LINE
  5
4943
100
AcDbEntity
  8
0
 62
     0
100
AcDbLine
 10
166.177907
 20
97.219369
 30
0.0
 11
165.267133
 21
98.130143
 31
0.0
  0
LINE
  5
4944
100
AcDbEntity
  8
0
 62
     0
100
AcDbLine
 10
166.177907
 20
97.307757
 30
0.0
 11
165.355521
 21
98.130143
 31
0.0
  0
LINE
  5
4945
100
AcDbEntity
  8
0
 62
     0
100
AcDbLine
 10
166.177907
 20
97.396146
 30
0.0
 11
165.443909
 21
98.130143
 31
0.0
  0
LINE
  5
4946
100
AcDbEntity
  8
0
 62
     0
100
AcDbLine
 10
166.177907
 20
97.484534
 30
0.0
 11
165.532298
 21
98.130143
 31
0.0
  0
LINE
  5
4947
100
AcDbEntity
  8
0
 62
     0
100
AcDbLine
 10
166.177907
 20
97.572922
 30
0.0
 11
165.620686
 21
98.130143
 31
0.0
  0
LINE
  5
4948
100
AcDbEntity
  8
0
 62
     0
100
AcDbLine
 10
166.177907
 20
97.661311
 30
0.0
 11
165.709075
 21
98.130143
 31
0.0
  0
LINE
  5
4949
100
AcDbEntity
  8
0
 62
     0
100
AcDbLine
 10
166.177907
 20
97.749699
 30
0.0
 11
165.797463
 21
98.130143
 31
0.0
  0
LINE
  5
494A
100
AcDbEntity
  8
0
 62
     0
100
AcDbLine
 10
166.177907
 20
97.838087
 30
0.0
 11
165.885851
 21
98.130143
 31
0.0
  0
LINE
  5
494B
100
AcDbEntity
  8
0
 62
     0
100
AcDbLine
 10
166.177907
 20
97.926476
 30
0.0
 11
165.97424
 21
98.130143
 31
0.0
  0
LINE
  5
494C
100
AcDbEntity
  8
0
 62
     0
100
AcDbLine
 10
166.177907
 20
98.014864
 30
0.0
 11
166.062628
 21
98.130143
 31
0.0
  0
LINE
  5
494D
100
AcDbEntity
  8
0
 62
     0
100
AcDbLine
 10
166.177907
 20
98.103252
 30
0.0
 11
166.151016
 21
98.130143
 31
0.0
  0
ENDBLK
  5
494F
100
AcDbEntity
  8
0
100
AcDbBlockEnd
  0
BLOCK
  5
57EA
100
AcDbEntity
  8
0
100
AcDbBlockBegin
  2
*D3
 70
     1
 10
0.0
 20
0.0
 30
0.0
  3
*D3
  1

  0
LINE
  5
57EB
100
AcDbEntity
  8
0
  6
BYBLOCK
 62
     0
100
AcDbLine
 10
429.131441
 20
281.795876
 30
0.0
 11
429.131441
 21
274.05441
 31
0.0
  0
LINE
  5
57EC
100
AcDbEntity
  8
0
  6
BYBLOCK
 62
     0
100
AcDbLine
 10
426.131441
 20
280.295876
 30
0.0
 11
426.131441
 21
274.05441
 31
0.0
  0
LINE
  5
57ED
100
AcDbEntity
  8
0
  6
BYBLOCK
 62
     0
100
AcDbLine
 10
430.231441
 20
275.30441
 30
0.0
 11
431.331441
 21
275.30441
 31
0.0
  0
LINE
  5
57EE
100
AcDbEntity
  8
0
  6
BYBLOCK
 62
     0
100
AcDbLine
 10
425.031441
 20
275.30441
 30
0.0
 11
423.931441
 21
275.30441
 31
0.0
  0
MTEXT
  5
57EF
100
AcDbEntity
  8
0
  6
BYBLOCK
 62
     0
100
AcDbMText
 10
422.531021
 20
275.30441
 30
0.0
 40
1.25
 41
0.0
 71
     5
 72
     1
  1
\A1;3"
  7
ROMAND
  0
LINE
  5
57F0
100
AcDbEntity
  8
0
  6
BYBLOCK
 62
     0
100
AcDbLine
 10
429.131441
 20
275.30441
 30
0.0
 11
426.131441
 21
275.30441
 31
0.0
  0
SOLID
  5
57F1
100
AcDbEntity
  8
0
  6
BYBLOCK
 62
     0
100
AcDbTrace
 10
430.231441
 20
275.487744
 30
0.0
 11
430.231441
 21
275.121077
 31
0.0
 12
429.131441
 22
275.30441
 32
0.0
 13
429.131441
 23
275.30441
 33
0.0
  0
SOLID
  5
57F2
100
AcDbEntity
  8
0
  6
BYBLOCK
 62
     0
100
AcDbTrace
 10
425.031441
 20
275.487744
 30
0.0
 11
425.031441
 21
275.121077
 31
0.0
 12
426.131441
 22
275.30441
 32
0.0
 13
426.131441
 23
275.30441
 33
0.0
  0
POINT
  5
57F3
100
AcDbEntity
  8
DEFPOINTS
  6
BYBLOCK
 62
     0
100
AcDbPoint
 10
429.131441
 20
281.858376
 30
0.0
  0
POINT
  5
57F4
100
AcDbEntity
  8
DEFPOINTS
  6
BYBLOCK
 62
     0
100
AcDbPoint
 10
426.131441
 20
280.358376
 30
0.0
  0
POINT
  5
57F5
100
AcDbEntity
  8
DEFPOINTS
  6
BYBLOCK
 62
     0
100
AcDbPoint
 10
426.131441
 20
275.30441
 30
0.0
  0
ENDBLK
  5
57F6
100
AcDbEntity
  8
0
100
AcDbBlockEnd
  0
BLOCK
  5
57F7
100
AcDbEntity
  8
0
100
AcDbBlockBegin
  2
*D4
 70
     1
 10
0.0
 20
0.0
 30
0.0
  3
*D4
  1

  0
LINE
  5
57F8
100
AcDbEntity
  8
0
  6
BYBLOCK
 62
     0
100
AcDbLine
 10
465.131441
 20
281.795876
 30
0.0
 11
465.131441
 21
274.05441
 31
0.0
  0
LINE
  5
57F9
100
AcDbEntity
  8
0
  6
BYBLOCK
 62
     0
100
AcDbLine
 10
468.131441
 20
280.295876
 30
0.0
 11
468.131441
 21
274.05441
 31
0.0
  0
LINE
  5
57FA
100
AcDbEntity
  8
0
  6
BYBLOCK
 62
     0
100
AcDbLine
 10
464.031441
 20
275.30441
 30
0.0
 11
462.931441
 21
275.30441
 31
0.0
  0
LINE
  5
57FB
100
AcDbEntity
  8
0
  6
BYBLOCK
 62
     0
100
AcDbLine
 10
469.231441
 20
275.30441
 30
0.0
 11
470.331441
 21
275.30441
 31
0.0
  0
MTEXT
  5
57FC
100
AcDbEntity
  8
0
  6
BYBLOCK
 62
     0
100
AcDbMText
 10
471.574464
 20
275.30441
 30
0.0
 40
1.25
 41
0.0
 71
     5
 72
     1
  1
\A1;3"
  7
ROMAND
  0
LINE
  5
57FD
100
AcDbEntity
  8
0
  6
BYBLOCK
 62
     0
100
AcDbLine
 10
465.131441
 20
275.30441
 30
0.0
 11
468.131441
 21
275.30441
 31
0.0
  0
SOLID
  5
57FE
100
AcDbEntity
  8
0
  6
BYBLOCK
 62
     0
100
AcDbTrace
 10
464.031441
 20
275.487744
 30
0.0
 11
464.031441
 21
275.121077
 31
0.0
 12
465.131441
 22
275.30441
 32
0.0
 13
465.131441
 23
275.30441
 33
0.0
  0
SOLID
  5
57FF
100
AcDbEntity
  8
0
  6
BYBLOCK
 62
     0
100
AcDbTrace
 10
469.231441
 20
275.487744
 30
0.0
 11
469.231441
 21
275.121077
 31
0.0
 12
468.131441
 22
275.30441
 32
0.0
 13
468.131441
 23
275.30441
 33
0.0
  0
POINT
  5
5800
100
AcDbEntity
  8
DEFPOINTS
  6
BYBLOCK
 62
     0
100
AcDbPoint
 10
465.131441
 20
281.858376
 30
0.0
  0
POINT
  5
5801
100
AcDbEntity
  8
DEFPOINTS
  6
BYBLOCK
 62
     0
100
AcDbPoint
 10
468.131441
 20
280.358376
 30
0.0
  0
POINT
  5
5802
100
AcDbEntity
  8
DEFPOINTS
  6
BYBLOCK
 62
     0
100
AcDbPoint
 10
468.131441
 20
275.30441
 30
0.0
  0
ENDBLK
  5
5803
100
AcDbEntity
  8
0
100
AcDbBlockEnd
  0
ENDSEC
  0
SECTION
  2
ENTITIES
  0
TEXT
  5
C09
100
AcDbEntity
  8
0
  6
BYBLOCK
 62
     0
100
AcDbText
 10
562.069217
 20
444.361941
 30
0.0
 40
3.515625
  1
   
  7
ROMANS
 72
     1
 11
567.342655
 21
446.119753
 31
0.0
100
AcDbText
 73
     2
  0
TEXT
  5
C0A
100
AcDbEntity
  8
0
  6
BYBLOCK
 62
     0
100
AcDbText
 10
485.581667
 20
565.732302
 30
0.0
 40
3.515625
  1
  
  7
ROMANS
 72
     1
 11
489.097292
 21
567.490115
 31
0.0
100
AcDbText
 73
     2
  0
TEXT
  5
C0B
100
AcDbEntity
  8
0
  6
BYBLOCK
 62
     0
100
AcDbText
 10
485.537989
 20
544.638552
 30
0.0
 40
3.515625
  1
  
  7
ROMANS
 72
     1
 11
489.053614
 21
546.396365
 31
0.0
100
AcDbText
 73
     2
  0
TEXT
  5
C0C
100
AcDbEntity
  8
0
  6
BYBLOCK
 62
     0
100
AcDbText
 10
390.024816
 20
477.879861
 30
0.0
 40
3.515625
  1
  
  7
ROMANS
 72
     1
 11
393.540441
 21
479.637674
 31
0.0
100
AcDbText
 73
     2
  0
TEXT
  5
F19
100
AcDbEntity
  8
0
  6
BYBLOCK
 62
     0
100
AcDbText
 10
2963.238488
 20
2832.212172
 30
0.0
 40
27.0
  1
   
  7
ROMANS
 72
     1
 11
3003.738488
 21
2845.712172
 31
0.0
100
AcDbText
 73
     2
  0
TEXT
  5
F1A
100
AcDbEntity
  8
0
  6
BYBLOCK
 62
     0
100
AcDbText
 10
2375.814103
 20
3764.336547
 30
0.0
 40
27.0
  1
  
  7
ROMANS
 72
     1
 11
2402.814103
 21
3777.836547
 31
0.0
100
AcDbText
 73
     2
  0
TEXT
  5
F1B
100
AcDbEntity
  8
0
  6
BYBLOCK
 62
     0
100
AcDbText
 10
2375.478655
 20
3602.336547
 30
0.0
 40
27.0
  1
  
  7
ROMANS
 72
     1
 11
2402.478655
 21
3615.836547
 31
0.0
100
AcDbText
 73
     2
  0
TEXT
  5
F1C
100
AcDbEntity
  8
0
  6
BYBLOCK
 62
     0
100
AcDbText
 10
1641.937487
 20
3089.629802
 30
0.0
 40
27.0
  1
  
  7
ROMANS
 72
     1
 11
1668.937487
 21
3103.129802
 31
0.0
100
AcDbText
 73
     2
  0
TEXT
  5
160E
100
AcDbEntity
  8
0
  6
BYBLOCK
 62
     0
100
AcDbText
 10
577.949395
 20
306.639915
 30
0.0
 40
1.25
  1
  
  7
SCRIPTC
 72
     1
 11
579.199395
 21
307.264915
 31
0.0
100
AcDbText
 73
     2
  0
TEXT
  5
1618
100
AcDbEntity
  8
0
  6
BYBLOCK
 62
     0
100
AcDbText
 10
573.321258
 20
328.534047
 30
0.0
 40
1.25
  1
  
  7
ROMANS
 72
     1
 11
574.571258
 21
329.159047
 31
0.0
100
AcDbText
 73
     2
  0
TEXT
  5
1622
100
AcDbEntity
  8
0
  6
BYBLOCK
 62
     0
100
AcDbText
 10
549.547011
 20
265.732423
 30
0.0
 40
1.25
  1
  
  7
ROMANS
 72
     1
 11
550.797011
 21
266.357423
 31
0.0
100
AcDbText
 73
     2
  0
TEXT
  5
162C
100
AcDbEntity
  8
0
  6
BYBLOCK
 62
     0
100
AcDbText
 10
519.576408
 20
323.753725
 30
0.0
 40
1.25
  1
  
  7
ROMANS
 72
     1
 11
520.826408
 21
324.378725
 31
0.0
100
AcDbText
 73
     2
  0
TEXT
  5
1636
100
AcDbEntity
  8
0
  6
BYBLOCK
 62
     0
100
AcDbText
 10
524.77393
 20
334.168385
 30
0.0
 40
1.25
  1
  
  7
ROMANS
 72
     1
 11
526.02393
 21
334.793385
 31
0.0
100
AcDbText
 73
     2
  0
TEXT
  5
3B3A
100
AcDbEntity
  8
0
  6
CONTINUOUS
 62
     4
100
AcDbText
 10
988.30459
 20
687.803117
 30
0.0
 40
2.0
  1
  
  7
ROMANS
100
AcDbText
  0
TEXT
  5
3B3B
100
AcDbEntity
  8
0
  6
CONTINUOUS
 62
     4
100
AcDbText
 10
838.785074
 20
657.8163
 30
0.0
 40
2.0
  1
  
  7
ROMANS
100
AcDbText
  0
TEXT
  5
3B3C
100
AcDbEntity
  8
0
  6
CONTINUOUS
 62
     4
100
AcDbText
 10
863.542215
 20
588.931474
 30
0.0
 40
2.0
  1
 
  7
ROMANS
100
AcDbText
  0
TEXT
  5
3B3D
100
AcDbEntity
  8
0
  6
CONTINUOUS
 62
     4
100
AcDbText
 10
933.738611
 20
588.931474
 30
0.0
 40
2.0
  1
 
  7
ROMANS
100
AcDbText
  0
TEXT
  5
3B3E
100
AcDbEntity
  8
0
  6
CONTINUOUS
 62
     4
100
AcDbText
 10
891.728968
 20
588.241044
 30
0.0
 40
2.0
  1
  
  7
ROMANS
100
AcDbText
  0
TEXT
  5
3B3F
100
AcDbEntity
  8
0
  6
CONTINUOUS
 62
     4
100
AcDbText
 10
847.084726
 20
710.107316
 30
0.0
 40
2.0
  1
  
  7
ROMANS
100
AcDbText
  0
TEXT
  5
3B40
100
AcDbEntity
  8
0
  6
CONTINUOUS
 62
     4
100
AcDbText
 10
839.28451
 20
687.206437
 30
0.0
 40
2.0
  1
 
  7
ROMANS
100
AcDbText
  0
TEXT
  5
3B41
100
AcDbEntity
  8
0
  6
CONTINUOUS
 62
     4
100
AcDbText
 10
975.802912
 20
809.720475
 30
0.0
 40
2.0
  1
  
  7
ROMANS
100
AcDbText
  0
TEXT
  5
3B42
100
AcDbEntity
  8
0
  6
CONTINUOUS
 62
     4
100
AcDbText
 10
989.46145
 20
809.437516
 30
0.0
 40
2.0
  1
  
  7
ROMANS
100
AcDbText
  0
TEXT
  5
3B43
100
AcDbEntity
  8
0
  6
CONTINUOUS
 62
     4
100
AcDbText
 10
910.759729
 20
870.758195
 30
0.0
 40
2.0
  1
  
  7
ROMANS
100
AcDbText
  0
TEXT
  5
3B44
100
AcDbEntity
  8
0
  6
CONTINUOUS
 62
     4
100
AcDbText
 10
881.521585
 20
859.536271
 30
0.0
 40
2.0
  1
  
  7
ROMANS
100
AcDbText
  0
TEXT
  5
3B45
100
AcDbEntity
  8
0
  6
CONTINUOUS
 62
     4
100
AcDbText
 10
936.445337
 20
859.536271
 30
0.0
 40
2.0
  1
  
  7
ROMANS
100
AcDbText
  0
TEXT
  5
3B46
100
AcDbEntity
  8
0
  6
CONTINUOUS
 62
     4
100
AcDbText
 10
881.411554
 20
859.562455
 30
0.0
 40
2.0
  1
  
  7
ROMANS
100
AcDbText
  0
TEXT
  5
3B47
100
AcDbEntity
  8
0
  6
CONTINUOUS
 62
     4
100
AcDbText
 10
936.675928
 20
859.536271
 30
0.0
 40
2.0
  1
  
  7
ROMANS
100
AcDbText
  0
TEXT
  5
3B48
100
AcDbEntity
  8
0
  6
CONTINUOUS
 62
     4
100
AcDbText
 10
936.565882
 20
859.562455
 30
0.0
 40
2.0
  1
  
  7
ROMANS
100
AcDbText
  0
TEXT
  5
3B49
100
AcDbEntity
  8
0
  6
CONTINUOUS
 62
     4
100
AcDbText
 10
833.442667
 20
809.437516
 30
0.0
 40
2.0
  1
  
  7
ROMANS
100
AcDbText
  0
TEXT
  5
3B4A
100
AcDbEntity
  8
0
  6
CONTINUOUS
 62
     4
100
AcDbText
 10
844.380655
 20
809.437516
 30
0.0
 40
2.0
  1
  
  7
ROMANS
100
AcDbText
  0
TEXT
  5
3B4D
100
AcDbEntity
  8
0
  6
CONTINUOUS
 62
     4
100
AcDbText
 10
838.568125
 20
702.070085
 30
0.0
 40
2.0
  1
  
  7
ROMANS
100
AcDbText
  0
TEXT
  5
3B4E
100
AcDbEntity
  8
0
  6
CONTINUOUS
 62
     4
100
AcDbText
 10
932.948495
 20
602.782365
 30
0.0
 40
2.0
  1
 
 41
0.89
  7
ROMANS
 72
     5
 11
934.728495
 21
602.782365
 31
0.0
100
AcDbText
  0
TEXT
  5
3B4F
100
AcDbEntity
  8
0
  6
CONTINUOUS
 62
     4
100
AcDbText
 10
830.412606
 20
683.809404
 30
0.0
 40
2.0
  1
 
 41
0.89
  7
ROMANS
 72
     5
 11
832.192606
 21
683.809404
 31
0.0
100
AcDbText
  0
TEXT
  5
3B50
100
AcDbEntity
  8
0
  6
BYBLOCK
 62
     0
100
AcDbText
 10
5494.801803
 20
5140.394915
 30
0.0
 40
52.734375
  1
   
  7
ROMANS
 72
     1
 11
5573.903366
 21
5166.762102
 31
0.0
100
AcDbText
 73
     2
  0
TEXT
  5
3B51
100
AcDbEntity
  8
0
  6
BYBLOCK
 62
     0
100
AcDbText
 10
4347.488552
 20
6960.950334
 30
0.0
 40
52.734375
  1
  
  7
ROMANS
 72
     1
 11
4400.222927
 21
6987.317521
 31
0.0
100
AcDbText
 73
     2
  0
TEXT
  5
3B52
100
AcDbEntity
  8
0
  6
BYBLOCK
 62
     0
100
AcDbText
 10
4346.83338
 20
6644.544084
 30
0.0
 40
52.734375
  1
  
  7
ROMANS
 72
     1
 11
4399.567755
 21
6670.911271
 31
0.0
100
AcDbText
 73
     2
  0
TEXT
  5
3B53
100
AcDbEntity
  8
0
  6
BYBLOCK
 62
     0
100
AcDbText
 10
2914.135785
 20
5643.163724
 30
0.0
 40
52.734375
  1
  
  7
ROMANS
 72
     1
 11
2966.87016
 21
5669.530911
 31
0.0
100
AcDbText
 73
     2
  0
TEXT
  5
3B54
100
AcDbEntity
  8
BORDER
 62
     7
100
AcDbText
 10
834.454591
 20
104.470864
 30
0.0
 40
3.77781
  1

  7
ROMANC
100
AcDbText
  0
TEXT
  5
3B55
100
AcDbEntity
  8
BORDER
 62
     7
100
AcDbText
 10
834.454591
 20
91.462946
 30
0.0
 40
3.77781
  1

  7
ROMANC
100
AcDbText
  0
TEXT
  5
4093
100
AcDbEntity
  8
0
  6
BYBLOCK
 62
     0
100
AcDbText
 10
4584.47845
 20
4285.936459
 30
0.0
 40
42.1875
  1
   
  7
ROMANS
 72
     1
 11
4647.7597
 21
4307.030209
 31
0.0
100
AcDbText
 73
     2
  0
TEXT
  5
4094
100
AcDbEntity
  8
0
  6
BYBLOCK
 62
     0
100
AcDbText
 10
3666.627848
 20
5742.380794
 30
0.0
 40
42.1875
  1
  
  7
ROMANS
 72
     1
 11
3708.815348
 21
5763.474544
 31
0.0
100
AcDbText
 73
     2
  0
TEXT
  5
4095
100
AcDbEntity
  8
0
  6
BYBLOCK
 62
     0
100
AcDbText
 10
3666.103711
 20
5489.255794
 30
0.0
 40
42.1875
  1
  
  7
ROMANS
 72
     1
 11
3708.291211
 21
5510.349544
 31
0.0
100
AcDbText
 73
     2
  0
TEXT
  5
4096
100
AcDbEntity
  8
0
  6
BYBLOCK
 62
     0
100
AcDbText
 10
2519.945635
 20
4688.151507
 30
0.0
 40
42.1875
  1
  
  7
ROMANS
 72
     1
 11
2562.133135
 21
4709.245257
 31
0.0
100
AcDbText
 73
     2
  0
TEXT
  5
437B
100
AcDbEntity
  8
0
  6
BYBLOCK
 62
     0
100
AcDbText
 10
3831.293838
 20
-3075.596991
 30
0.0
 40
30.0
  1
   
 50
270.0
  7
ROMANS
 72
     1
 11
3846.293838
 21
-3120.596991
 31
0.0
100
AcDbText
 73
     2
  0
TEXT
  5
437C
100
AcDbEntity
  8
0
  6
BYBLOCK
 62
     0
100
AcDbText
 10
4866.987587
 20
-2422.90323
 30
0.0
 40
30.0
  1
  
 50
270.0
  7
ROMANS
 72
     1
 11
4881.987587
 21
-2452.90323
 31
0.0
100
AcDbText
 73
     2
  0
TEXT
  5
437D
100
AcDbEntity
  8
0
  6
BYBLOCK
 62
     0
100
AcDbText
 10
4686.987587
 20
-2422.53051
 30
0.0
 40
30.0
  1
  
 50
270.0
  7
ROMANS
 72
     1
 11
4701.987587
 21
-2452.53051
 31
0.0
100
AcDbText
 73
     2
  0
TEXT
  5
437E
100
AcDbEntity
  8
0
  6
BYBLOCK
 62
     0
100
AcDbText
 10
4117.313427
 20
-1607.484767
 30
0.0
 40
30.0
  1
  
 50
270.0
  7
ROMANS
 72
     1
 11
4132.313427
 21
-1637.484767
 31
0.0
100
AcDbText
 73
     2
  0
TEXT
  5
437F
100
AcDbEntity
  8
0
  6
BYBLOCK
 62
     0
100
AcDbText
 10
1311.422177
 20
-557.997801
 30
0.0
 40
1.5
  1
   
 50
270.0
  7
ROMANS
 72
     1
 11
1312.172177
 21
-560.247801
 31
0.0
100
AcDbText
 73
     2
  0
TEXT
  5
4380
100
AcDbEntity
  8
0
  6
BYBLOCK
 62
     0
100
AcDbText
 10
1363.206865
 20
-525.363112
 30
0.0
 40
1.5
  1
  
 50
270.0
  7
ROMANS
 72
     1
 11
1363.956865
 21
-526.863112
 31
0.0
100
AcDbText
 73
     2
  0
TEXT
  5
4381
100
AcDbEntity
  8
0
  6
BYBLOCK
 62
     0
100
AcDbText
 10
1354.206865
 20
-525.344476
 30
0.0
 40
1.5
  1
  
 50
270.0
  7
ROMANS
 72
     1
 11
1354.956865
 21
-526.844476
 31
0.0
100
AcDbText
 73
     2
  0
TEXT
  5
4382
100
AcDbEntity
  8
0
  6
BYBLOCK
 62
     0
100
AcDbText
 10
1325.723157
 20
-484.592189
 30
0.0
 40
1.5
  1
  
 50
270.0
  7
ROMANS
 72
     1
 11
1326.473157
 21
-486.092189
 31
0.0
100
AcDbText
 73
     2
  0
TEXT
  5
4383
100
AcDbEntity
  8
0
  6
BYBLOCK
 62
     0
100
AcDbText
 10
1764.623099
 20
-370.281749
 30
0.0
 40
1.5
  1
   
 50
270.0
  7
ROMANS
 72
     1
 11
1765.373099
 21
-372.531749
 31
0.0
100
AcDbText
 73
     2
  0
TEXT
  5
4384
100
AcDbEntity
  8
0
  6
BYBLOCK
 62
     0
100
AcDbText
 10
1816.407786
 20
-337.647061
 30
0.0
 40
1.5
  1
  
 50
270.0
  7
ROMANS
 72
     1
 11
1817.157786
 21
-339.147061
 31
0.0
100
AcDbText
 73
     2
  0
TEXT
  5
4385
100
AcDbEntity
  8
0
  6
BYBLOCK
 62
     0
100
AcDbText
 10
1807.407786
 20
-337.628425
 30
0.0
 40
1.5
  1
  
 50
270.0
  7
ROMANS
 72
     1
 11
1808.157786
 21
-339.128425
 31
0.0
100
AcDbText
 73
     2
  0
TEXT
  5
4386
100
AcDbEntity
  8
0
  6
BYBLOCK
 62
     0
100
AcDbText
 10
1778.924078
 20
-296.876138
 30
0.0
 40
1.5
  1
  
 50
270.0
  7
ROMANS
 72
     1
 11
1779.674078
 21
-298.376138
 31
0.0
100
AcDbText
 73
     2
  0
TEXT
  5
4387
100
AcDbEntity
  8
0
  6
BYBLOCK
 62
     0
100
AcDbText
 10
1241.905641
 20
64.436953
 30
0.0
 40
1.5
  1
   
 50
270.0
  7
ROMANS
 72
     1
 11
1242.655641
 21
62.186953
 31
0.0
100
AcDbText
 73
     2
  0
TEXT
  5
4388
100
AcDbEntity
  8
0
  6
BYBLOCK
 62
     0
100
AcDbText
 10
1293.690328
 20
97.071641
 30
0.0
 40
1.5
  1
  
 50
270.0
  7
ROMANS
 72
     1
 11
1294.440328
 21
95.571641
 31
0.0
100
AcDbText
 73
     2
  0
TEXT
  5
4389
100
AcDbEntity
  8
0
  6
BYBLOCK
 62
     0
100
AcDbText
 10
1284.690328
 20
97.090277
 30
0.0
 40
1.5
  1
  
 50
270.0
  7
ROMANS
 72
     1
 11
1285.440328
 21
95.590277
 31
0.0
100
AcDbText
 73
     2
  0
TEXT
  5
438A
100
AcDbEntity
  8
0
  6
BYBLOCK
 62
     0
100
AcDbText
 10
1256.20662
 20
137.842564
 30
0.0
 40
1.5
  1
  
 50
270.0
  7
ROMANS
 72
     1
 11
1256.95662
 21
136.342564
 31
0.0
100
AcDbText
 73
     2
  0
TEXT
  5
438B
100
AcDbEntity
  8
0
  6
BYBLOCK
 62
     0
100
AcDbText
 10
1238.432604
 20
5.565743
 30
0.0
 40
1.5
  1
   
 50
270.0
  7
ROMANS
 72
     1
 11
1239.182604
 21
3.315743
 31
0.0
100
AcDbText
 73
     2
  0
TEXT
  5
438C
100
AcDbEntity
  8
0
  6
BYBLOCK
 62
     0
100
AcDbText
 10
1290.217291
 20
38.200431
 30
0.0
 40
1.5
  1
  
 50
270.0
  7
ROMANS
 72
     1
 11
1290.967291
 21
36.700431
 31
0.0
100
AcDbText
 73
     2
  0
TEXT
  5
438D
100
AcDbEntity
  8
0
  6
BYBLOCK
 62
     0
100
AcDbText
 10
1281.217291
 20
38.219067
 30
0.0
 40
1.5
  1
  
 50
270.0
  7
ROMANS
 72
     1
 11
1281.967291
 21
36.719067
 31
0.0
100
AcDbText
 73
     2
  0
TEXT
  5
438E
100
AcDbEntity
  8
0
  6
BYBLOCK
 62
     0
100
AcDbText
 10
1252.733583
 20
78.971354
 30
0.0
 40
1.5
  1
  
 50
270.0
  7
ROMANS
 72
     1
 11
1253.483583
 21
77.471354
 31
0.0
100
AcDbText
 73
     2
  0
TEXT
  5
438F
100
AcDbEntity
  8
0
  6
BYBLOCK
 62
     0
100
AcDbText
 10
4132.35547
 20
-2413.401695
 30
0.0
 40
30.0
  1
   
 50
270.0
  7
ROMANS
 72
     1
 11
4147.35547
 21
-2458.401695
 31
0.0
100
AcDbText
 73
     2
  0
TEXT
  5
4390
100
AcDbEntity
  8
0
  6
BYBLOCK
 62
     0
100
AcDbText
 10
5168.049219
 20
-1760.707934
 30
0.0
 40
30.0
  1
  
 50
270.0
  7
ROMANS
 72
     1
 11
5183.049219
 21
-1790.707934
 31
0.0
100
AcDbText
 73
     2
  0
TEXT
  5
4391
100
AcDbEntity
  8
0
  6
BYBLOCK
 62
     0
100
AcDbText
 10
4988.049219
 20
-1760.335214
 30
0.0
 40
30.0
  1
  
 50
270.0
  7
ROMANS
 72
     1
 11
5003.049219
 21
-1790.335214
 31
0.0
100
AcDbText
 73
     2
  0
TEXT
  5
4392
100
AcDbEntity
  8
0
  6
BYBLOCK
 62
     0
100
AcDbText
 10
4418.375059
 20
-945.289471
 30
0.0
 40
30.0
  1
  
 50
270.0
  7
ROMANS
 72
     1
 11
4433.375059
 21
-975.289471
 31
0.0
100
AcDbText
 73
     2
  0
TEXT
  5
4393
100
AcDbEntity
  8
0
  6
BYBLOCK
 62
     0
100
AcDbText
 10
4350.041332
 20
-2380.50119
 30
0.0
 40
30.0
  1
   
 50
270.0
  7
ROMANS
 72
     1
 11
4365.041332
 21
-2425.50119
 31
0.0
100
AcDbText
 73
     2
  0
TEXT
  5
4394
100
AcDbEntity
  8
0
  6
BYBLOCK
 62
     0
100
AcDbText
 10
5385.735082
 20
-1727.807429
 30
0.0
 40
30.0
  1
  
 50
270.0
  7
ROMANS
 72
     1
 11
5400.735082
 21
-1757.807429
 31
0.0
100
AcDbText
 73
     2
  0
TEXT
  5
4395
100
AcDbEntity
  8
0
  6
BYBLOCK
 62
     0
100
AcDbText
 10
5205.735082
 20
-1727.434709
 30
0.0
 40
30.0
  1
  
 50
270.0
  7
ROMANS
 72
     1
 11
5220.735082
 21
-1757.434709
 31
0.0
100
AcDbText
 73
     2
  0
TEXT
  5
4396
100
AcDbEntity
  8
0
  6
BYBLOCK
 62
     0
100
AcDbText
 10
4636.060921
 20
-912.388966
 30
0.0
 40
30.0
  1
  
 50
270.0
  7
ROMANS
 72
     1
 11
4651.060921
 21
-942.388966
 31
0.0
100
AcDbText
 73
     2
  0
TEXT
  5
4397
100
AcDbEntity
  8
0
  6
BYBLOCK
 62
     0
100
AcDbText
 10
3932.239291
 20
-1842.525407
 30
0.0
 40
24.0
  1
   
 50
270.0
  7
ROMANS
 72
     1
 11
3944.239291
 21
-1878.525407
 31
0.0
100
AcDbText
 73
     2
  0
TEXT
  5
4398
100
AcDbEntity
  8
0
  6
BYBLOCK
 62
     0
100
AcDbText
 10
4760.794291
 20
-1320.370398
 30
0.0
 40
24.0
  1
  
 50
270.0
  7
ROMANS
 72
     1
 11
4772.794291
 21
-1344.370398
 31
0.0
100
AcDbText
 73
     2
  0
TEXT
  5
4399
100
AcDbEntity
  8
0
  6
BYBLOCK
 62
     0
100
AcDbText
 10
4616.794291
 20
-1320.072222
 30
0.0
 40
24.0
  1
  
 50
270.0
  7
ROMANS
 72
     1
 11
4628.794291
 21
-1344.072222
 31
0.0
100
AcDbText
 73
     2
  0
TEXT
  5
439A
100
AcDbEntity
  8
0
  6
BYBLOCK
 62
     0
100
AcDbText
 10
4161.054962
 20
-668.035628
 30
0.0
 40
24.0
  1
  
 50
270.0
  7
ROMANS
 72
     1
 11
4173.054962
 21
-692.035628
 31
0.0
100
AcDbText
 73
     2
  0
TEXT
  5
4F72
100
AcDbEntity
  8
BORDER
 62
     6
100
AcDbText
 10
404.27255
 20
252.494119
 30
0.0
 40
0.870285
  1
Reference:
  7
ROMANC
100
AcDbText
  0
TEXT
  5
4F73
100
AcDbEntity
  8
BORDER
 62
     6
100
AcDbText
 10
405.355127
 20
245.010289
 30
0.0
 40
0.739743
  1
Phone: 800/354-4534  Fax: 574/223-6106
  7
ROMANC
100
AcDbText
  0
LINE
  5
4F74
100
AcDbEntity
  8
BORDER
100
AcDbLine
 10
403.991497
 20
253.78633
 30
0.0
 11
433.556828
 21
253.78633
 31
0.0
  0
LWPOLYLINE
  5
4F75
100
AcDbEntity
  8
BORDER
 62
     5
100
AcDbPolyline
 90
        6
 70
     0
 43
0.6912
 10
371.017041
 20
260.945539
 10
371.017041
 20
424.293832
 42
-0.414214
 10
372.56878
 20
425.845571
 10
510.138346
 20
425.845571
 42
-0.414214
 10
511.690085
 20
424.293832
 10
511.690085
 20
260.945539
  0
LWPOLYLINE
  5
4F76
100
AcDbEntity
  8
BORDER
 62
     5
100
AcDbPolyline
 90
        2
 70
     0
 43
0.969837
 10
507.810737
 20
242.748397
 10
374.896389
 20
242.748397
  0
LWPOLYLINE
  5
4F77
100
AcDbEntity
  8
BORDER
 62
     5
100
AcDbPolyline
 90
        2
 70
     0
 43
0.969837
 10
405.93117
 20
260.205461
 10
476.775956
 20
260.205461
  0
LINE
  5
4F78
100
AcDbEntity
  8
LIMITS
 62
     7
100
AcDbLine
 10
514.793563
 20
428.949049
 30
0.0
 11
367.913563
 21
428.949049
 31
0.0
  0
LINE
  5
4F79
100
AcDbEntity
  8
LIMITS
 62
     7
100
AcDbLine
 10
367.913563
 20
238.869049
 30
0.0
 11
514.793563
 21
238.869049
 31
0.0
  0
LINE
  5
4F7A
100
AcDbEntity
  8
BORDER
100
AcDbLine
 10
403.991497
 20
249.113721
 30
0.0
 11
449.747588
 21
249.113721
 31
0.0
  0
LINE
  5
4F7B
100
AcDbEntity
  8
BORDER
100
AcDbLine
 10
403.991497
 20
250.507092
 30
0.0
 11
449.747588
 21
250.507092
 31
0.0
  0
LINE
  5
4F7C
100
AcDbEntity
  8
BORDER
100
AcDbLine
 10
405.93117
 20
258.265787
 30
0.0
 11
449.747588
 21
258.265787
 31
0.0
  0
LINE
  5
4F7D
100
AcDbEntity
  8
BORDER
100
AcDbLine
 10
403.991497
 20
244.68807
 30
0.0
 11
449.747588
 21
244.68807
 31
0.0
  0
LWPOLYLINE
  5
4F88
100
AcDbEntity
  8
BORDER
 62
     5
100
AcDbPolyline
 90
        2
 70
     0
 43
0.387935
 10
371.017041
 20
260.945539
 10
371.017041
 20
424.293832
  0
LINE
  5
4F89
100
AcDbEntity
  8
LIMITS
 62
     7
100
AcDbLine
 10
367.913563
 20
428.949049
 30
0.0
 11
367.913563
 21
238.869049
 31
0.0
  0
ARC
  5
4F8A
100
AcDbEntity
  8
BORDER
100
AcDbCircle
 10
374.896389
 20
256.326114
 30
0.0
 40
1.939674
100
AcDbArc
 50
90.0
 51
180.0
  0
ARC
  5
4F8B
100
AcDbEntity
  8
BORDER
100
AcDbCircle
 10
374.896389
 20
246.627744
 30
0.0
 40
1.939674
100
AcDbArc
 50
180.0
 51
270.0
  0
LWPOLYLINE
  5
4F8C
100
AcDbEntity
  8
BORDER
 62
     5
100
AcDbPolyline
 90
        2
 70
     0
 43
0.969837
 10
374.896389
 20
260.205461
 42
0.414214
 10
371.017041
 20
256.326114
 42
-0.560527
  0
LWPOLYLINE
  5
4F8D
100
AcDbEntity
  8
BORDER
 62
     5
100
AcDbPolyline
 90
        2
 70
     0
 43
0.969837
 10
374.896389
 20
242.748397
 42
-0.414214
 10
371.017041
 20
246.627744
 42
0.560527
  0
LWPOLYLINE
  5
4F8E
100
AcDbEntity
  8
BORDER
 62
     5
100
AcDbPolyline
 90
        2
 70
     0
 43
0.969837
 10
371.017041
 20
256.326114
 10
371.017041
 20
246.627744
  0
LINE
  5
4F8F
100
AcDbEntity
  8
BORDER
100
AcDbLine
 10
372.956715
 20
246.627744
 30
0.0
 11
372.956715
 21
256.326114
 31
0.0
  0
ARC
  5
4F90
100
AcDbEntity
  8
BORDER
100
AcDbCircle
 10
395.512865
 20
263.942744
 30
0.0
 40
10.366129
100
AcDbArc
 50
236.383068
 51
240.315223
  0
ARC
  5
4F91
100
AcDbEntity
  8
BORDER
100
AcDbCircle
 10
390.093681
 20
254.873652
 30
0.0
 40
0.392601
100
AcDbArc
 50
200.502447
 51
334.026213
  0
LWPOLYLINE
  5
4F92
102
{ACAD_REACTORS
330
4F94
102
}
100
AcDbEntity
  8
BORDER
100
AcDbPolyline
 90
        3
 70
     1
 43
0.0
 10
389.883004
 20
251.20986
 42
0.543923
 10
391.249913
 20
252.106545
 42
0.528743
 10
389.883004
 20
253.06579
  0
LWPOLYLINE
  5
4F93
102
{ACAD_REACTORS
330
4F94
102
}
100
AcDbEntity
  8
BORDER
100
AcDbPolyline
 90
       17
 70
     0
 43
0.0
 10
390.644717
 20
250.949196
 42
-0.060912
 10
389.883004
 20
251.043035
 10
389.883004
 20
249.517973
 42
0.414214
 10
390.318137
 20
249.08284
 10
390.519504
 20
249.08284
 10
390.519504
 20
248.968147
 10
388.630873
 20
248.968147
 10
388.630873
 20
249.08284
 10
388.83224
 20
249.08284
 42
0.414214
 10
389.267373
 20
249.517973
 10
389.267373
 20
252.836016
 42
0.414214
 10
388.83224
 20
253.271149
 10
388.634145
 20
253.271149
 10
388.634145
 20
253.392597
 10
390.65702
 20
253.392597
 42
-0.395102
 10
391.990758
 20
252.158678
 42
-0.42915
 10
390.644717
 20
250.949196
  0
HATCH
  5
4F94
100
AcDbEntity
  8
BORDER
100
AcDbHatch
 10
0.0
 20
0.0
 30
0.0
210
0.0
220
0.0
230
1.0
  2
ANSI37
 70
     0
 71
     1
 91
        2
 92
        7
 72
     1
 73
     1
 93
       16
 10
389.2673731465088
 20
249.5179731381406
 42
-0.4142135623731131
 10
388.832239706509
 20
249.0828396981409
 42
0.0
 10
388.6308730103367
 20
249.0828396981408
 42
0.0
 10
388.6308730103367
 20
248.9681471732409
 42
0.0
 10
390.5195041051607
 20
248.9681471732409
 42
0.0
 10
390.5195041051606
 20
249.0828396981409
 42
0.0
 10
390.3181374089884
 20
249.0828396981409
 42
-0.4142135623731526
 10
389.8830039689885
 20
249.5179731381406
 42
0.0
 10
389.8830039689885
 20
251.043034661986
 42
0.0609117558023535
 10
390.6447172010258
 20
250.9491957984875
 42
0.4291497434370769
 10
391.9907579815758
 20
252.1586781124757
 42
0.3951020987302483
 10
390.6570200654604
 20
253.3925971133816
 42
0.0
 10
388.634144811619
 20
253.3925971133816
 42
0.0
 10
388.6341448116189
 20
253.2711491831763
 42
0.0
 10
388.8322397065091
 20
253.2711491831763
 42
-0.4142135623730378
 10
389.2673731465088
 20
252.8360157431765
 42
0.0
 97
        1
330
4F93
 92
       22
 72
     1
 73
     1
 93
        3
 10
389.8830039689885
 20
253.0657895072251
 42
-0.5287425889469916
 10
391.2499133666588
 20
252.106545265375
 42
-0.5439228899214395
 10
389.8830039689885
 20
251.209860033985
 42
0.0
 97
        1
330
4F92
 75
     0
 76
     1
 52
0.0
 41
0.032
 77
     0
 78
     2
 53
45.0
 43
368.827244
 44
133.389533
 45
-0.0028284271247462
 46
0.0028284271247462
 79
     0
 53
135.0
 43
368.827244
 44
133.389533
 45
-0.0028284271247462
 46
-0.0028284271247462
 79
     0
 47
0.027301
 98
        2
 10
389.514458
 20
252.266165
 10
389.514458
 20
252.266165
  0
LINE
  5
4F95
100
AcDbEntity
  8
BORDER
100
AcDbLine
 10
390.468085
 20
246.384565
 30
0.0
 11
389.794371
 21
248.083299
 31
0.0
  0
ARC
  5
4F96
100
AcDbEntity
  8
BORDER
100
AcDbCircle
 10
390.043763
 20
255.337189
 30
0.0
 40
0.384627
100
AcDbArc
 50
25.379638
 51
143.047804
  0
LINE
  5
4F97
100
AcDbEntity
  8
BORDER
100
AcDbLine
 10
375.242122
 20
248.629787
 30
0.0
 11
396.003022
 21
248.629787
 31
0.0
  0
LINE
  5
4F98
100
AcDbEntity
  8
BORDER
100
AcDbLine
 10
384.930134
 20
253.909192
 30
0.0
 11
395.514541
 21
253.909192
 31
0.0
  0
LINE
  5
4F99
100
AcDbEntity
  8
BORDER
100
AcDbLine
 10
375.242122
 20
248.629787
 30
0.0
 11
396.003022
 21
248.629787
 31
0.0
  0
LWPOLYLINE
  5
4F9A
100
AcDbEntity
  8
BORDER
 62
     5
100
AcDbPolyline
 90
        2
 70
     0
 43
0.969837
 10
374.896389
 20
260.205461
 10
396.232801
 20
260.205461
  0
LINE
  5
4F9B
100
AcDbEntity
  8
BORDER
100
AcDbLine
 10
374.896389
 20
244.68807
 30
0.0
 11
398.172475
 21
244.68807
 31
0.0
  0
LINE
  5
4F9C
100
AcDbEntity
  8
BORDER
100
AcDbLine
 10
374.896389
 20
258.265787
 30
0.0
 11
396.232801
 21
258.265787
 31
0.0
  0
LINE
  5
4F9D
102
{ACAD_REACTORS
330
4FA2
102
}
100
AcDbEntity
  8
BORDER
100
AcDbLine
 10
382.323276
 20
255.991887
 30
0.0
 11
381.395451
 21
255.991887
 31
0.0
  0
LINE
  5
4F9E
102
{ACAD_REACTORS
330
4FA2
102
}
100
AcDbEntity
  8
BORDER
100
AcDbLine
 10
376.3219
 20
256.529365
 30
0.0
 11
384.647193
 21
256.529365
 31
0.0
  0
ARC
  5
4F9F
102
{ACAD_REACTORS
330
4FA2
102
}
100
AcDbEntity
  8
BORDER
100
AcDbCircle
 10
382.449577
 20
250.190378
 30
0.0
 40
1.054126
100
AcDbArc
 50
180.0
 51
270.0
  0
LINE
  5
4FA0
102
{ACAD_REACTORS
330
4FA2
102
}
100
AcDbEntity
  8
BORDER
100
AcDbLine
 10
378.180038
 20
248.916374
 30
0.0
 11
382.789055
 21
248.916374
 31
0.0
  0
SPLINE
  5
4FA1
100
AcDbEntity
  8
BORDER
100
AcDbSpline
210
0.0
220
0.0
230
1.0
 70
    11
 71
     3
 72
    24
 73
    20
 74
     0
 42
0.0000001
 43
0.0000001
 40
0.0
 40
0.0
 40
0.0
 40
0.0
 40
0.474866629778075
 40
0.474866629778075
 40
1.277791044886493
 40
1.277791044886493
 40
2.080715459994911
 40
2.080715459994911
 40
2.883639875103329
 40
2.883639875103329
 40
3.686564290211747
 40
3.686564290211747
 40
4.489488705320165
 40
4.489488705320165
 40
5.292413120428583
 40
5.292413120428583
 40
6.095337535537001
 40
6.095337535537001
 40
6.283185307179586
 40
6.283185307179586
 40
6.283185307179586
 40
6.283185307179586
 10
381.1451403726849
 20
248.1063388996374
 30
0.0
 10
381.00746126727
 20
248.1063388996374
 30
0.0
 10
380.8698981356546
 20
248.0729425204858
 30
0.0
 10
380.5404342570459
 20
247.9030271636169
 30
0.0
 10
380.379701040006
 20
247.7094174891185
 30
0.0
 10
380.2452561155075
 20
247.2623637425403
 30
0.0
 10
380.2724382143854
 20
247.0119148581456
 30
0.0
 10
380.4996508929382
 20
246.6043479944691
 30
0.0
 10
380.6981673692012
 20
246.4499671363881
 30
0.0
 10
381.1483428710291
 20
246.3308206174393
 30
0.0
 10
381.3969692114436
 20
246.366863919916
 30
0.0
 10
381.7950853703787
 20
246.6089699910789
 30
0.0
 10
381.9419018418241
 20
246.8133942662595
 30
0.0
 10
382.0447995318373
 20
247.2687933594849
 30
0.0
 10
382.0001970318426
 20
247.5167186845453
 30
0.0
 10
381.7450796216206
 20
247.9073243453192
 30
0.0
 10
381.5362663856289
 20
248.0473789527423
 30
0.0
 10
381.2540654572179
 20
248.1011922413121
 30
0.0
 10
381.199603481971
 20
248.1063388996374
 30
0.0
 10
381.1451403726849
 20
248.1063388996374
 30
0.0
  0
HATCH
  5
4FA2
100
AcDbEntity
  8
BORDER
100
AcDbHatch
 10
0.0
 20
0.0
 30
0.0
210
0.0
220
0.0
230
1.0
  2
ANSI37
 70
     0
 71
     1
 91
        1
 92
        7
 72
     1
 73
     1
 93
       18
 10
379.5736411888967
 20
250.1903775929047
 42
-0.4142135623730477
 10
378.5195151088967
 20
249.1362515129048
 42
0.0
 10
378.1800377378448
 20
249.1362515129048
 42
0.0
 10
378.1800377378448
 20
248.9163744576562
 42
0.0
 10
382.7890547549857
 20
248.9163744576561
 42
0.0
 10
382.7890547549857
 20
249.1362515129048
 42
0.0
 10
382.4495773839334
 20
249.1362515129048
 42
-0.4142135623730951
 10
381.3954513039334
 20
250.1903775929048
 42
0.0
 10
381.3954513039334
 20
255.9918872398195
 42
0.0
 10
382.3232757361886
 20
255.9918872398195
 42
-0.4138200196737638
 10
384.4271483965293
 20
253.890839919774
 42
0.0
 10
384.6471926897222
 20
253.890839919774
 42
0.0
 10
384.6471926897226
 20
256.5293645827525
 42
0.0
 10
376.3218998031079
 20
256.5293645827525
 42
0.0
 10
376.321899803108
 20
253.890839919774
 42
0.0
 10
376.5419440963014
 20
253.890839919774
 42
-0.4138200196737718
 10
378.6458167566422
 20
255.9918872398195
 42
0.0
 10
379.5736411888967
 20
255.9918872398195
 42
0.0
 97
       18
330
4F9D
330
4FCC
330
4FD0
330
4FD1
330
4F9E
330
4FB1
330
4FB0
330
4FAF
330
4FB4
330
4FB3
330
4FA3
330
4FAD
330
4FAC
330
4FA0
330
4FBA
330
4FB9
330
4F9F
330
4FB2
 75
     0
 76
     1
 52
0.0
 41
0.032
 77
     0
 78
     2
 53
45.0
 43
368.827244
 44
133.389533
 45
-0.0028284271247462
 46
0.0028284271247462
 79
     0
 53
135.0
 43
368.827244
 44
133.389533
 45
-0.0028284271247462
 46
-0.0028284271247462
 79
     0
 47
0.049862
 98
        1
 10
380.260971
 20
252.978587
  0
ARC
  5
4FA3
102
{ACAD_REACTORS
330
4FA2
102
}
100
AcDbEntity
  8
BORDER
100
AcDbCircle
 10
378.519515
 20
250.190378
 30
0.0
 40
1.054126
100
AcDbArc
 50
270.0
 51
0.0
  0
LINE
  5
4FA4
100
AcDbEntity
  8
BORDER
100
AcDbLine
 10
378.198359
 20
246.384565
 30
0.0
 11
376.896786
 21
248.083299
 31
0.0
  0
LINE
  5
4FA5
100
AcDbEntity
  8
BORDER
100
AcDbLine
 10
376.748709
 20
244.830819
 30
0.0
 11
376.748709
 21
244.830819
 31
0.0
  0
LINE
  5
4FA6
100
AcDbEntity
  8
BORDER
100
AcDbLine
 10
376.896786
 20
248.083299
 30
0.0
 11
376.896786
 21
246.384565
 31
0.0
  0
LINE
  5
4FA7
100
AcDbEntity
  8
BORDER
100
AcDbLine
 10
375.805189
 20
248.083299
 30
0.0
 11
376.500872
 21
248.083299
 31
0.0
  0
LINE
  5
4FA8
100
AcDbEntity
  8
BORDER
100
AcDbLine
 10
375.805189
 20
246.384565
 30
0.0
 11
376.500872
 21
246.384565
 31
0.0
  0
LINE
  5
4FA9
100
AcDbEntity
  8
BORDER
100
AcDbLine
 10
376.15303
 20
248.083299
 30
0.0
 11
376.15303
 21
246.384565
 31
0.0
  0
ARC
  5
4FAA
100
AcDbEntity
  8
BORDER
100
AcDbCircle
 10
379.372536
 20
247.162485
 30
0.0
 40
0.77902
100
AcDbArc
 50
174.737783
 51
327.723969
  0
ARC
  5
4FAB
100
AcDbEntity
  8
BORDER
100
AcDbCircle
 10
379.43292
 20
247.247287
 30
0.0
 40
0.836228
100
AcDbArc
 50
44.321228
 51
180.91508
  0
LINE
  5
4FAC
102
{ACAD_REACTORS
330
4FA2
102
}
100
AcDbEntity
  8
BORDER
100
AcDbLine
 10
378.180038
 20
249.136252
 30
0.0
 11
378.180038
 21
248.916374
 31
0.0
  0
LINE
  5
4FAD
102
{ACAD_REACTORS
330
4FA2
102
}
100
AcDbEntity
  8
BORDER
100
AcDbLine
 10
378.180038
 20
249.136252
 30
0.0
 11
378.519515
 21
249.136252
 31
0.0
  0
LINE
  5
4FAE
100
AcDbEntity
  8
BORDER
100
AcDbLine
 10
378.198359
 20
248.083299
 30
0.0
 11
378.198359
 21
246.384565
 31
0.0
  0
ARC
  5
4FAF
102
{ACAD_REACTORS
330
4FA2
102
}
100
AcDbEntity
  8
BORDER
100
AcDbCircle
 10
378.645817
 20
253.888013
 30
0.0
 40
2.103875
100
AcDbArc
 50
90.0
 51
179.923004
  0
LINE
  5
4FB0
102
{ACAD_REACTORS
330
4FA2
102
}
100
AcDbEntity
  8
BORDER
100
AcDbLine
 10
376.3219
 20
253.89084
 30
0.0
 11
376.541942
 21
253.89084
 31
0.0
  0
LINE
  5
4FB1
102
{ACAD_REACTORS
330
4FA2
102
}
100
AcDbEntity
  8
BORDER
100
AcDbLine
 10
376.3219
 20
253.89084
 30
0.0
 11
376.3219
 21
256.529365
 31
0.0
  0
LINE
  5
4FB2
102
{ACAD_REACTORS
330
4FA2
102
}
100
AcDbEntity
  8
BORDER
100
AcDbLine
 10
381.395451
 20
250.190378
 30
0.0
 11
381.395451
 21
255.991887
 31
0.0
  0
LINE
  5
4FB3
102
{ACAD_REACTORS
330
4FA2
102
}
100
AcDbEntity
  8
BORDER
100
AcDbLine
 10
379.573641
 20
250.190378
 30
0.0
 11
379.573641
 21
255.991887
 31
0.0
  0
LINE
  5
4FB4
102
{ACAD_REACTORS
330
4FA2
102
}
100
AcDbEntity
  8
BORDER
100
AcDbLine
 10
378.645817
 20
255.991887
 30
0.0
 11
379.573641
 21
255.991887
 31
0.0
  0
ELLIPSE
  5
4FB5
102
{ACAD_REACTORS
330
4FB7
102
}
100
AcDbEntity
  8
BORDER
100
AcDbEllipse
 10
386.105268
 20
251.18306
 30
0.0
 11
0.0000000000000156
 21
2.070400215233997
 31
0.0
210
0.0
220
0.0
230
1.0
 40
0.683214
 41
0.0
 42
6.283185307179586
  0
ELLIPSE
  5
4FB6
102
{ACAD_REACTORS
330
4FB7
102
}
100
AcDbEntity
  8
BORDER
100
AcDbEllipse
 10
386.105268
 20
251.169915
 30
0.0
 11
0.0000000000000156
 21
2.307017289374852
 31
0.0
210
0.0
220
0.0
230
1.0
 40
0.93822
 41
0.0
 42
6.283185307179586
  0
HATCH
  5
4FB7
100
AcDbEntity
  8
BORDER
100
AcDbHatch
 10
0.0
 20
0.0
 30
0.0
210
0.0
220
0.0
230
1.0
  2
ANSI37
 70
     0
 71
     1
 91
        2
 92
        5
 93
        1
 72
     3
 10
386.105268
 20
251.169915
 11
0.0
 21
2.307017
 40
0.93822
 50
0.0
 51
360.0
 73
     1
 97
        1
330
4FB6
 92
       20
 93
        1
 72
     3
 10
386.105268
 20
251.18306
 11
0.0
 21
2.0704
 40
0.683214
 50
0.0
 51
360.0
 73
     1
 97
        1
330
4FB5
 75
     0
 76
     1
 52
0.0
 41
0.032
 77
     0
 78
     2
 53
45.0
 43
368.827244
 44
133.389533
 45
-0.0028284271247462
 46
0.0028284271247462
 79
     0
 53
135.0
 43
368.827244
 44
133.389533
 45
-0.0028284271247462
 46
-0.0028284271247462
 79
     0
 47
0.027301
 98
        2
 10
384.548515
 20
252.108911
 10
384.548515
 20
252.108911
  0
SPLINE
  5
4FB8
100
AcDbEntity
  8
BORDER
100
AcDbSpline
210
0.0
220
0.0
230
1.0
 70
    11
 71
     3
 72
    24
 73
    20
 74
     0
 42
0.0000001
 43
0.0000001
 40
0.0
 40
0.0
 40
0.0
 40
0.0
 40
0.474866629778075
 40
0.474866629778075
 40
1.277791044886493
 40
1.277791044886493
 40
2.080715459994911
 40
2.080715459994911
 40
2.883639875103329
 40
2.883639875103329
 40
3.686564290211747
 40
3.686564290211747
 40
4.489488705320165
 40
4.489488705320165
 40
5.292413120428583
 40
5.292413120428583
 40
6.095337535537001
 40
6.095337535537001
 40
6.283185307179586
 40
6.283185307179586
 40
6.283185307179586
 40
6.283185307179586
 10
386.1996413804521
 20
248.1063388996374
 30
0.0
 10
386.0619622750368
 20
248.1063388996374
 30
0.0
 10
385.9243991434214
 20
248.0729425204858
 30
0.0
 10
385.5949352648126
 20
247.9030271636169
 30
0.0
 10
385.4342020477732
 20
247.7094174891185
 30
0.0
 10
385.2997571232748
 20
247.2623637425403
 30
0.0
 10
385.3269392221527
 20
247.0119148581456
 30
0.0
 10
385.554151900705
 20
246.6043479944691
 30
0.0
 10
385.752668376968
 20
246.4499671363881
 30
0.0
 10
386.2028438787959
 20
246.3308206174393
 30
0.0
 10
386.4514702192104
 20
246.366863919916
 30
0.0
 10
386.8495863781457
 20
246.6089699910789
 30
0.0
 10
386.996402849591
 20
246.8133942662595
 30
0.0
 10
387.0993005396046
 20
247.2687933594849
 30
0.0
 10
387.0546980396099
 20
247.5167186845453
 30
0.0
 10
386.7995806293879
 20
247.9073243453192
 30
0.0
 10
386.5907673933956
 20
248.0473789527423
 30
0.0
 10
386.3085664649847
 20
248.1011922413121
 30
0.0
 10
386.2541044897382
 20
248.1063388996374
 30
0.0
 10
386.1996413804521
 20
248.1063388996374
 30
0.0
  0
LINE
  5
4FB9
102
{ACAD_REACTORS
330
4FA2
102
}
100
AcDbEntity
  8
BORDER
100
AcDbLine
 10
382.789055
 20
249.136252
 30
0.0
 11
382.449577
 21
249.136252
 31
0.0
  0
LINE
  5
4FBA
102
{ACAD_REACTORS
330
4FA2
102
}
100
AcDbEntity
  8
BORDER
100
AcDbLine
 10
382.789055
 20
249.136252
 30
0.0
 11
382.789055
 21
248.916374
 31
0.0
  0
LINE
  5
4FBB
100
AcDbEntity
  8
BORDER
100
AcDbLine
 10
382.88106
 20
247.212277
 30
0.0
 11
383.555457
 21
246.384565
 31
0.0
  0
ARC
  5
4FBC
100
AcDbEntity
  8
BORDER
100
AcDbCircle
 10
383.003359
 20
247.647788
 30
0.0
 40
0.435511
100
AcDbArc
 50
270.0
 51
90.0
  0
LINE
  5
4FBD
100
AcDbEntity
  8
BORDER
100
AcDbLine
 10
383.003359
 20
248.083299
 30
0.0
 11
382.4161
 21
248.083299
 31
0.0
  0
LINE
  5
4FBE
100
AcDbEntity
  8
BORDER
100
AcDbLine
 10
382.4161
 20
248.083299
 30
0.0
 11
382.4161
 21
246.384565
 31
0.0
  0
LINE
  5
4FBF
100
AcDbEntity
  8
BORDER
100
AcDbLine
 10
382.4161
 20
247.212277
 30
0.0
 11
383.003359
 21
247.212277
 31
0.0
  0
LINE
  5
4FC0
100
AcDbEntity
  8
BORDER
100
AcDbLine
 10
384.651497
 20
248.083299
 30
0.0
 11
384.210599
 21
248.083299
 31
0.0
  0
LINE
  5
4FC1
100
AcDbEntity
  8
BORDER
100
AcDbLine
 10
384.210599
 20
248.083299
 30
0.0
 11
384.210599
 21
246.384565
 31
0.0
  0
LINE
  5
4FC2
100
AcDbEntity
  8
BORDER
100
AcDbLine
 10
384.210599
 20
247.212277
 30
0.0
 11
384.651497
 21
247.212277
 31
0.0
  0
ARC
  5
4FC3
100
AcDbEntity
  8
BORDER
100
AcDbCircle
 10
384.651497
 20
247.647788
 30
0.0
 40
0.435511
100
AcDbArc
 50
270.0
 51
90.0
  0
LINE
  5
4FC4
100
AcDbEntity
  8
BORDER
100
AcDbLine
 10
388.003094
 20
247.212277
 30
0.0
 11
388.677491
 21
246.384565
 31
0.0
  0
ARC
  5
4FC5
100
AcDbEntity
  8
BORDER
100
AcDbCircle
 10
388.125393
 20
247.647788
 30
0.0
 40
0.435511
100
AcDbArc
 50
270.0
 51
90.0
  0
LINE
  5
4FC6
100
AcDbEntity
  8
BORDER
100
AcDbLine
 10
387.538134
 20
248.083299
 30
0.0
 11
387.538134
 21
246.384565
 31
0.0
  0
LINE
  5
4FC7
100
AcDbEntity
  8
BORDER
100
AcDbLine
 10
387.538134
 20
247.212277
 30
0.0
 11
388.125393
 21
247.212277
 31
0.0
  0
LINE
  5
4FC8
100
AcDbEntity
  8
BORDER
100
AcDbLine
 10
388.125393
 20
248.083299
 30
0.0
 11
387.538134
 21
248.083299
 31
0.0
  0
LINE
  5
4FC9
100
AcDbEntity
  8
BORDER
100
AcDbLine
 10
389.794371
 20
248.083299
 30
0.0
 11
389.14373
 21
246.384565
 31
0.0
  0
LINE
  5
4FCA
100
AcDbEntity
  8
BORDER
100
AcDbLine
 10
389.38097
 20
247.003965
 30
0.0
 11
390.222432
 21
247.003965
 31
0.0
  0
LINE
  5
4FCB
100
AcDbEntity
  8
BORDER
100
AcDbLine
 10
386.63444
 20
254.480431
 30
0.0
 11
385.784479
 21
255.746365
 31
0.0
  0
ARC
  5
4FCC
102
{ACAD_REACTORS
330
4FA2
102
}
100
AcDbEntity
  8
BORDER
100
AcDbCircle
 10
382.323276
 20
253.888013
 30
0.0
 40
2.103875
100
AcDbArc
 50
0.076996
 51
90.0
  0
LINE
  5
4FCD
100
AcDbEntity
  8
BORDER
100
AcDbLine
 10
385.223505
 20
255.720441
 30
0.0
 11
385.414397
 21
255.720441
 31
0.0
  0
LINE
  5
4FCE
100
AcDbEntity
  8
BORDER
100
AcDbLine
 10
385.784479
 20
255.746365
 30
0.0
 11
385.784479
 21
254.480431
 31
0.0
  0
LINE
  5
4FCF
100
AcDbEntity
  8
BORDER
100
AcDbLine
 10
385.223505
 20
255.720441
 30
0.0
 11
385.223505
 21
254.480431
 31
0.0
  0
LINE
  5
4FD0
102
{ACAD_REACTORS
330
4FA2
102
}
100
AcDbEntity
  8
BORDER
100
AcDbLine
 10
384.647193
 20
253.89084
 30
0.0
 11
384.42715
 21
253.89084
 31
0.0
  0
LINE
  5
4FD1
102
{ACAD_REACTORS
330
4FA2
102
}
100
AcDbEntity
  8
BORDER
100
AcDbLine
 10
384.647193
 20
253.89084
 30
0.0
 11
384.647193
 21
256.529365
 31
0.0
  0
LINE
  5
4FD2
100
AcDbEntity
  8
BORDER
100
AcDbLine
 10
385.032612
 20
255.720441
 30
0.0
 11
385.223505
 21
255.720441
 31
0.0
  0
LINE
  5
4FD3
100
AcDbEntity
  8
BORDER
100
AcDbLine
 10
385.032612
 20
254.480431
 30
0.0
 11
385.414397
 21
254.480431
 31
0.0
  0
LINE
  5
4FD4
100
AcDbEntity
  8
BORDER
100
AcDbLine
 10
387.425371
 20
255.720441
 30
0.0
 11
387.161416
 21
255.720441
 31
0.0
  0
LINE
  5
4FD5
100
AcDbEntity
  8
BORDER
100
AcDbLine
 10
387.161416
 20
254.480431
 30
0.0
 11
387.425371
 21
254.480431
 31
0.0
  0
LINE
  5
4FD6
100
AcDbEntity
  8
BORDER
100
AcDbLine
 10
386.63444
 20
255.720441
 30
0.0
 11
386.63444
 21
254.480431
 31
0.0
  0
ARC
  5
4FD7
100
AcDbEntity
  8
BORDER
100
AcDbCircle
 10
387.425371
 20
255.100436
 30
0.0
 40
0.620005
100
AcDbArc
 50
270.0
 51
90.0
  0
LINE
  5
4FD8
100
AcDbEntity
  8
BORDER
100
AcDbLine
 10
387.161416
 20
255.720441
 30
0.0
 11
387.161416
 21
254.480431
 31
0.0
  0
ARC
  5
4FD9
100
AcDbEntity
  8
BORDER
100
AcDbCircle
 10
388.903837
 20
254.896912
 30
0.0
 40
0.416481
100
AcDbArc
 50
180.0
 51
0.0
  0
ARC
  5
4FDA
100
AcDbEntity
  8
BORDER
100
AcDbCircle
 10
389.87073
 20
255.45609
 30
0.0
 40
0.175104
100
AcDbArc
 50
140.101426
 51
236.383068
  0
LINE
  5
4FDB
100
AcDbEntity
  8
BORDER
100
AcDbLine
 10
389.320318
 20
255.720441
 30
0.0
 11
389.320318
 21
254.896912
 31
0.0
  0
LINE
  5
4FDC
100
AcDbEntity
  8
BORDER
100
AcDbLine
 10
388.487356
 20
254.896912
 30
0.0
 11
388.487356
 21
255.720441
 31
0.0
  0
ARC
  5
4FDD
100
AcDbEntity
  8
BORDER
100
AcDbCircle
 10
396.232801
 20
256.326114
 30
0.0
 40
1.939674
100
AcDbArc
 50
0.0
 51
90.0
  0
LWPOLYLINE
  5
4FDE
100
AcDbEntity
  8
BORDER
 62
     5
100
AcDbPolyline
 90
        2
 70
     0
 43
0.969837
 10
396.232801
 20
260.205461
 42
-0.414214
 10
400.112149
 20
256.326114
 42
0.560527
  0
LWPOLYLINE
  5
4FDF
100
AcDbEntity
  8
BORDER
 62
     5
100
AcDbPolyline
 90
        2
 70
     0
 43
0.969837
 10
405.93117
 20
260.205461
 42
0.414214
 10
402.051823
 20
256.326114
 42
-0.560527
  0
ARC
  5
4FE0
100
AcDbEntity
  8
BORDER
100
AcDbCircle
 10
405.93117
 20
256.326114
 30
0.0
 40
1.939674
100
AcDbArc
 50
90.0
 51
180.0
  0
LINE
  5
4FE1
102
{ACAD_REACTORS
330
4FE3
102
}
100
AcDbEntity
  8
BORDER
100
AcDbLine
 10
393.598046
 20
251.026273
 30
0.0
 11
393.598046
 21
249.501212
 31
0.0
  0
LINE
  5
4FE2
102
{ACAD_REACTORS
330
4FE3
102
}
100
AcDbEntity
  8
BORDER
100
AcDbLine
 10
392.982415
 20
249.501212
 30
0.0
 11
392.982415
 21
252.819254
 31
0.0
  0
HATCH
  5
4FE3
100
AcDbEntity
  8
BORDER
100
AcDbHatch
 10
0.0
 20
0.0
 30
0.0
210
0.0
220
0.0
230
1.0
  2
ANSI37
 70
     0
 71
     1
 91
        2
 92
        7
 72
     1
 73
     1
 93
       16
 10
392.982414689418
 20
249.5012115636129
 42
-0.414213562372941
 10
392.5472812494179
 20
249.0660781236131
 42
0.0
 10
392.3459145532457
 20
249.0660781236131
 42
0.0
 10
392.3459145532459
 20
248.951385598714
 42
0.0
 10
394.2345456480693
 20
248.951385598714
 42
0.0
 10
394.2345456480693
 20
249.0660781236131
 42
0.0
 10
394.033178951898
 20
249.0660781236131
 42
-0.4142135623735925
 10
393.5980455118972
 20
249.5012115636131
 42
0.0
 10
393.5980455118972
 20
251.026273087459
 42
0.0609117558027462
 10
394.3597587439393
 20
250.9324342239604
 42
0.4291497434354129
 10
395.7057995244851
 20
252.1419165379459
 42
0.3916311771490601
 10
394.3880423499834
 20
253.3758355388547
 42
0.0
 10
392.3491863545281
 20
253.3758355388548
 42
0.0
 10
392.3491863545281
 20
253.2543876086485
 42
0.0
 10
392.5472812494181
 20
253.2543876086485
 42
-0.414213562372942
 10
392.982414689418
 20
252.8192541686485
 42
0.0
 97
       16
330
4FF9
330
4FFF
330
4FFE
330
4FFD
330
4FFC
330
4FE2
330
4FEE
330
4FED
330
4FEC
330
4FEF
330
4FEB
330
4FEA
330
4FE9
330
4FE1
330
5000
330
4FFB
 92
       22
 72
     1
 73
     1
 93
        3
 10
393.5980455118972
 20
253.0490279326985
 42
-0.528742588939585
 10
394.9649549095678
 20
252.0897836908716
 42
-0.5439228899296608
 10
393.5980455118972
 20
251.1930984594574
 42
0.0
 97
        3
330
4FF8
330
4FFA
330
5001
 75
     0
 76
     1
 52
0.0
 41
0.032
 77
     0
 78
     2
 53
45.0
 43
368.827244
 44
133.389533
 45
-0.0028284271247462
 46
0.0028284271247462
 79
     0
 53
135.0
 43
368.827244
 44
133.389533
 45
-0.0028284271247462
 46
-0.0028284271247462
 79
     0
 47
0.027301
 98
        2
 10
393.238916
 20
251.881765
 10
393.238916
 20
251.881765
  0
LINE
  5
4FE4
100
AcDbEntity
  8
BORDER
100
AcDbLine
 10
398.172475
 20
244.68807
 30
0.0
 11
398.172475
 21
256.326114
 31
0.0
  0
LINE
  5
4FE5
100
AcDbEntity
  8
BORDER
100
AcDbLine
 10
394.197877
 20
246.384565
 30
0.0
 11
394.839004
 21
246.384565
 31
0.0
  0
LINE
  5
4FE6
100
AcDbEntity
  8
BORDER
100
AcDbLine
 10
394.839004
 20
248.083299
 30
0.0
 11
394.197877
 21
248.083299
 31
0.0
  0
LINE
  5
4FE7
100
AcDbEntity
  8
BORDER
100
AcDbLine
 10
390.813556
 20
248.083299
 30
0.0
 11
392.252985
 21
248.083299
 31
0.0
  0
LINE
  5
4FE8
100
AcDbEntity
  8
BORDER
100
AcDbLine
 10
391.53327
 20
248.083299
 30
0.0
 11
391.53327
 21
246.384565
 31
0.0
  0
ARC
  5
4FE9
102
{ACAD_REACTORS
330
4FE3
102
}
100
AcDbEntity
  8
BORDER
100
AcDbCircle
 10
394.033179
 20
249.501212
 30
0.0
 40
0.435133
100
AcDbArc
 50
180.0
 51
270.0
  0
LINE
  5
4FEA
102
{ACAD_REACTORS
330
4FE3
102
}
100
AcDbEntity
  8
BORDER
100
AcDbLine
 10
394.033179
 20
249.066078
 30
0.0
 11
394.234546
 21
249.066078
 31
0.0
  0
LINE
  5
4FEB
102
{ACAD_REACTORS
330
4FE3
102
}
100
AcDbEntity
  8
BORDER
100
AcDbLine
 10
394.234546
 20
249.066078
 30
0.0
 11
394.234546
 21
248.951386
 31
0.0
  0
LINE
  5
4FEC
102
{ACAD_REACTORS
330
4FE3
102
}
100
AcDbEntity
  8
BORDER
100
AcDbLine
 10
392.345915
 20
249.066078
 30
0.0
 11
392.345915
 21
248.951386
 31
0.0
  0
LINE
  5
4FED
102
{ACAD_REACTORS
330
4FE3
102
}
100
AcDbEntity
  8
BORDER
100
AcDbLine
 10
392.345915
 20
249.066078
 30
0.0
 11
392.547281
 21
249.066078
 31
0.0
  0
ARC
  5
4FEE
102
{ACAD_REACTORS
330
4FE3
102
}
100
AcDbEntity
  8
BORDER
100
AcDbCircle
 10
392.547281
 20
249.501212
 30
0.0
 40
0.435133
100
AcDbArc
 50
270.0
 51
360.0
  0
LINE
  5
4FEF
102
{ACAD_REACTORS
330
4FE3
102
}
100
AcDbEntity
  8
BORDER
100
AcDbLine
 10
392.345915
 20
248.951386
 30
0.0
 11
394.234546
 21
248.951386
 31
0.0
  0
LINE
  5
4FF0
100
AcDbEntity
  8
BORDER
100
AcDbLine
 10
394.197877
 20
248.083299
 30
0.0
 11
394.197877
 21
246.384565
 31
0.0
  0
LINE
  5
4FF1
100
AcDbEntity
  8
BORDER
100
AcDbLine
 10
392.628487
 20
247.233932
 30
0.0
 11
393.357322
 21
247.233932
 31
0.0
  0
LINE
  5
4FF2
100
AcDbEntity
  8
BORDER
100
AcDbLine
 10
392.628487
 20
246.384565
 30
0.0
 11
392.628487
 21
248.083299
 31
0.0
  0
LINE
  5
4FF3
100
AcDbEntity
  8
BORDER
100
AcDbLine
 10
393.724461
 20
246.384565
 30
0.0
 11
392.628487
 21
246.384565
 31
0.0
  0
LINE
  5
4FF4
100
AcDbEntity
  8
BORDER
100
AcDbLine
 10
392.628487
 20
248.083299
 30
0.0
 11
393.724461
 21
248.083299
 31
0.0
  0
ARC
  5
4FF5
100
AcDbEntity
  8
BORDER
100
AcDbCircle
 10
394.839004
 20
247.233932
 30
0.0
 40
0.849367
100
AcDbArc
 50
270.0
 51
90.0
  0
LINE
  5
4FF6
100
AcDbEntity
  8
BORDER
100
AcDbLine
 10
393.860017
 20
255.720441
 30
0.0
 11
394.60643
 21
255.720441
 31
0.0
  0
LINE
  5
4FF7
100
AcDbEntity
  8
BORDER
100
AcDbLine
 10
394.60643
 20
254.480431
 30
0.0
 11
393.860017
 21
254.480431
 31
0.0
  0
ARC
  5
4FF8
102
{ACAD_REACTORS
330
4FE3
102
}
100
AcDbEntity
  8
BORDER
100
AcDbCircle
 10
393.954749
 20
252.10379
 30
0.0
 40
1.010303
100
AcDbArc
 50
359.205673
 51
110.674935
  0
ARC
  5
4FF9
102
{ACAD_REACTORS
330
4FE3
102
}
100
AcDbEntity
  8
BORDER
100
AcDbCircle
 10
394.380052
 20
252.046697
 30
0.0
 40
1.329163
100
AcDbArc
 50
4.10812
 51
90.34444
  0
ARC
  5
4FFA
102
{ACAD_REACTORS
330
4FE3
102
}
100
AcDbEntity
  8
BORDER
100
AcDbCircle
 10
393.991294
 20
252.083832
 30
0.0
 40
0.973679
100
AcDbArc
 50
246.179097
 51
0.350223
  0
ARC
  5
4FFB
102
{ACAD_REACTORS
330
4FE3
102
}
100
AcDbEntity
  8
BORDER
100
AcDbCircle
 10
394.457961
 20
252.176894
 30
0.0
 40
1.248329
100
AcDbArc
 50
265.488062
 51
358.394374
  0
ARC
  5
4FFC
102
{ACAD_REACTORS
330
4FE3
102
}
100
AcDbEntity
  8
BORDER
100
AcDbCircle
 10
392.547281
 20
252.819254
 30
0.0
 40
0.435133
100
AcDbArc
 50
0.0
 51
90.0
  0
LINE
  5
4FFD
102
{ACAD_REACTORS
330
4FE3
102
}
100
AcDbEntity
  8
BORDER
100
AcDbLine
 10
392.349186
 20
253.254388
 30
0.0
 11
392.547281
 21
253.254388
 31
0.0
  0
LINE
  5
4FFE
102
{ACAD_REACTORS
330
4FE3
102
}
100
AcDbEntity
  8
BORDER
100
AcDbLine
 10
392.349186
 20
253.375836
 30
0.0
 11
392.349186
 21
253.254388
 31
0.0
  0
LINE
  5
4FFF
102
{ACAD_REACTORS
330
4FE3
102
}
100
AcDbEntity
  8
BORDER
100
AcDbLine
 10
392.349186
 20
253.375836
 30
0.0
 11
394.388042
 21
253.375836
 31
0.0
  0
ARC
  5
5000
102
{ACAD_REACTORS
330
4FE3
102
}
100
AcDbEntity
  8
BORDER
100
AcDbCircle
 10
394.362616
 20
254.094052
 30
0.0
 40
3.16162
100
AcDbArc
 50
256.005504
 51
269.948223
  0
LINE
  5
5001
102
{ACAD_REACTORS
330
4FE3
102
}
100
AcDbEntity
  8
BORDER
100
AcDbLine
 10
393.598046
 20
253.049028
 30
0.0
 11
393.598046
 21
251.193098
 31
0.0
  0
LINE
  5
5002
100
AcDbEntity
  8
BORDER
100
AcDbLine
 10
392.400128
 20
255.720441
 30
0.0
 11
391.949087
 21
255.720441
 31
0.0
  0
LINE
  5
5003
100
AcDbEntity
  8
BORDER
100
AcDbLine
 10
392.313668
 20
255.094461
 30
0.0
 11
392.706943
 21
254.480431
 31
0.0
  0
LINE
  5
5004
100
AcDbEntity
  8
BORDER
100
AcDbLine
 10
391.949087
 20
255.094461
 30
0.0
 11
392.400128
 21
255.094461
 31
0.0
  0
LINE
  5
5005
100
AcDbEntity
  8
BORDER
100
AcDbLine
 10
390.667012
 20
255.720441
 30
0.0
 11
391.685881
 21
255.720441
 31
0.0
  0
ARC
  5
5006
100
AcDbEntity
  8
BORDER
100
AcDbCircle
 10
390.292553
 20
254.78491
 30
0.0
 40
0.175104
100
AcDbArc
 50
331.630608
 51
60.315223
  0
LINE
  5
5007
100
AcDbEntity
  8
BORDER
100
AcDbLine
 10
391.176447
 20
255.720441
 30
0.0
 11
391.176447
 21
254.480431
 31
0.0
  0
LINE
  5
5008
100
AcDbEntity
  8
BORDER
100
AcDbLine
 10
391.949087
 20
255.720441
 30
0.0
 11
391.949087
 21
254.480431
 31
0.0
  0
LINE
  5
5009
100
AcDbEntity
  8
BORDER
100
AcDbLine
 10
393.094423
 20
255.720441
 30
0.0
 11
393.476207
 21
255.720441
 31
0.0
  0
LINE
  5
500A
100
AcDbEntity
  8
BORDER
100
AcDbLine
 10
393.860017
 20
255.100436
 30
0.0
 11
394.443678
 21
255.100436
 31
0.0
  0
LINE
  5
500B
100
AcDbEntity
  8
BORDER
100
AcDbLine
 10
393.094423
 20
254.480431
 30
0.0
 11
393.476207
 21
254.480431
 31
0.0
  0
LINE
  5
500C
100
AcDbEntity
  8
BORDER
100
AcDbLine
 10
393.285315
 20
255.720441
 30
0.0
 11
393.285315
 21
254.480431
 31
0.0
  0
LINE
  5
500D
100
AcDbEntity
  8
BORDER
100
AcDbLine
 10
393.860017
 20
254.480431
 30
0.0
 11
393.860017
 21
255.720441
 31
0.0
  0
ARC
  5
500E
100
AcDbEntity
  8
BORDER
100
AcDbCircle
 10
392.400128
 20
255.407451
 30
0.0
 40
0.31299
100
AcDbArc
 50
270.0
 51
90.0
  0
ARC
  5
500F
100
AcDbEntity
  8
BORDER
100
AcDbCircle
 10
395.028702
 20
255.45609
 30
0.0
 40
0.175104
100
AcDbArc
 50
140.101426
 51
236.383068
  0
ARC
  5
5010
100
AcDbEntity
  8
BORDER
100
AcDbCircle
 10
400.670837
 20
263.942744
 30
0.0
 40
10.366129
100
AcDbArc
 50
236.383068
 51
240.315223
  0
ARC
  5
5011
100
AcDbEntity
  8
BORDER
100
AcDbCircle
 10
395.450525
 20
254.78491
 30
0.0
 40
0.175104
100
AcDbArc
 50
331.630608
 51
60.315223
  0
ARC
  5
5012
100
AcDbEntity
  8
BORDER
100
AcDbCircle
 10
395.251653
 20
254.873652
 30
0.0
 40
0.392601
100
AcDbArc
 50
200.502447
 51
334.026213
  0
ARC
  5
5013
100
AcDbEntity
  8
BORDER
100
AcDbCircle
 10
395.201735
 20
255.337189
 30
0.0
 40
0.384627
100
AcDbArc
 50
25.379638
 51
143.047804
  0
LWPOLYLINE
  5
5014
100
AcDbEntity
  8
BORDER
 62
     5
100
AcDbPolyline
 90
        2
 70
     0
 43
0.969837
 10
400.112149
 20
244.68807
 10
400.112149
 20
256.326114
  0
LWPOLYLINE
  5
5015
100
AcDbEntity
  8
BORDER
 62
     5
100
AcDbPolyline
 90
        2
 70
     0
 43
0.969837
 10
402.051823
 20
256.326114
 10
402.051823
 20
244.68807
  0
LINE
  5
5016
100
AcDbEntity
  8
BORDER
100
AcDbLine
 10
403.991497
 20
244.68807
 30
0.0
 11
403.991497
 21
249.113721
 31
0.0
  0
LINE
  5
5017
100
AcDbEntity
  8
BORDER
100
AcDbLine
 10
403.991497
 20
250.507092
 30
0.0
 11
403.991497
 21
256.326114
 31
0.0
  0
LWPOLYLINE
  5
504D
100
AcDbEntity
  8
BORDER
 62
     5
100
AcDbPolyline
 90
        2
 70
     0
 43
0.387935
 10
511.690085
 20
260.945539
 10
511.690085
 20
424.293832
  0
LINE
  5
504E
100
AcDbEntity
  8
LIMITS
 62
     7
100
AcDbLine
 10
514.793563
 20
238.869049
 30
0.0
 11
514.793563
 21
428.949049
 31
0.0
  0
LINE
  5
504F
100
AcDbEntity
  8
LIMITS
100
AcDbLine
 10
514.793563
 20
425.077738
 30
0.0
 11
514.793563
 21
238.869049
 31
0.0
  0
LINE
  5
5050
100
AcDbEntity
  8
LIMITS
100
AcDbLine
 10
514.793563
 20
238.869049
 30
0.0
 11
514.793563
 21
425.077738
 31
0.0
  0
TEXT
  5
50D0
100
AcDbEntity
  8
BORDER
 62
     6
100
AcDbText
 10
464.734553
 20
245.677434
 30
0.0
 40
2.610856
  1
10148
  7
ROMANC
100
AcDbText
  0
TEXT
  5
50D1
100
AcDbEntity
  8
BORDER
 62
     6
100
AcDbText
 10
448.194383
 20
251.039192
 30
0.0
 40
0.72802
  1
in this print by any other source than TOPP INDUSTRIES, INC.
 41
0.839168
  7
ROMANS
 72
     5
 11
478.188166
 21
251.039192
 31
0.0
100
AcDbText
  0
TEXT
  5
50D2
100
AcDbEntity
  8
BORDER
 62
     6
100
AcDbText
 10
448.194383
 20
252.217891
 30
0.0
 40
0.72802
  1
and will not be used to manufacture or procure the manufacture of the items shown
 41
0.600404
  7
ROMANS
 72
     5
 11
478.188166
 21
252.217891
 31
0.0
100
AcDbText
  0
TEXT
  5
50D3
100
AcDbEntity
  8
BORDER
 62
     6
100
AcDbText
 10
448.194383
 20
253.396589
 30
0.0
 40
0.72802
  1
be used as a record or to identify or inspect parts or for other information purposes
 41
0.596266
  7
ROMANS
 72
     5
 11
478.188166
 21
253.396589
 31
0.0
100
AcDbText
  0
TEXT
  5
50D4
100
AcDbEntity
  8
BORDER
 62
     6
100
AcDbText
 10
448.194383
 20
254.575288
 30
0.0
 40
0.72802
  1
restriction includes, but is not limited to the condition that this print will not only
 41
0.626489
  7
ROMANS
 72
     5
 11
478.188166
 21
254.575288
 31
0.0
100
AcDbText
  0
TEXT
  5
50D5
100
AcDbEntity
  8
BORDER
 62
     6
100
AcDbText
 10
448.194383
 20
255.753986
 30
0.0
 40
0.72802
  1
by TOPP INDUSTRIES, INC. It is furnished on a strictly confidential basis.  This
 41
0.659437
  7
ROMANS
 72
     5
 11
478.188166
 21
255.753986
 31
0.0
100
AcDbText
  0
TEXT
  5
50D6
100
AcDbEntity
  8
BORDER
 62
     6
100
AcDbText
 10
448.194383
 20
256.932685
 30
0.0
 40
0.72802
  1
This print is and contains confidential proprietary information owned exclusively
 41
0.656934
  7
ROMANS
 72
     5
 11
478.188166
 21
256.932685
 31
0.0
100
AcDbText
  0
LINE
  5
50D7
100
AcDbEntity
  8
BORDER
100
AcDbLine
 10
456.832914
 20
244.68807
 30
0.0
 11
478.71563
 21
244.68807
 31
0.0
  0
LINE
  5
50D8
100
AcDbEntity
  8
BORDER
100
AcDbLine
 10
456.832914
 20
249.113721
 30
0.0
 11
478.71563
 21
249.113721
 31
0.0
  0
LINE
  5
50D9
100
AcDbEntity
  8
BORDER
100
AcDbLine
 10
433.556828
 20
250.507092
 30
0.0
 11
478.71563
 21
250.507092
 31
0.0
  0
LINE
  5
50DA
100
AcDbEntity
  8
BORDER
100
AcDbLine
 10
433.556828
 20
258.265787
 30
0.0
 11
476.775956
 21
258.265787
 31
0.0
  0
TEXT
  5
50E5
100
AcDbEntity
  8
BORDER
 62
     6
100
AcDbText
 10
434.003999
 20
247.599381
 30
0.0
 40
0.870285
  1
Supersedes Prints
  7
ROMANC
100
AcDbText
  0
TEXT
  5
50E6
100
AcDbEntity
  8
BORDER
 62
     6
100
AcDbText
 10
433.95439
 20
250.761083
 30
0.0
 40
0.870285
  1
Date: 05/16/03
  7
ROMANC
100
AcDbText
  0
TEXT
  5
50E7
100
AcDbEntity
  8
BORDER
 62
     6
100
AcDbText
 10
433.95439
 20
252.834683
 30
0.0
 40
0.870285
  1
Appv'd By: .
  7
ROMANC
100
AcDbText
  0
TEXT
  5
50E8
100
AcDbEntity
  8
BORDER
 62
     6
100
AcDbText
 10
433.95439
 20
254.908283
 30
0.0
 40
0.870285
  1
Drawn By:
  7
ROMANC
100
AcDbText
  0
TEXT
  5
50E9
100
AcDbEntity
  8
BORDER
 62
     6
100
AcDbText
 10
433.95439
 20
256.981883
 30
0.0
 40
0.870285
  1
Scale: None
  7
ROMANC
100
AcDbText
  0
LINE
  5
50EA
100
AcDbEntity
  8
BORDER
100
AcDbLine
 10
433.556828
 20
244.68807
 30
0.0
 11
455.439543
 21
244.68807
 31
0.0
  0
LINE
  5
50EB
100
AcDbEntity
  8
BORDER
100
AcDbLine
 10
433.556828
 20
249.113721
 30
0.0
 11
455.439543
 21
249.113721
 31
0.0
  0
TEXT
  5
50EC
100
AcDbEntity
  8
BORDER
 62
     6
100
AcDbText
 10
410.920643
 20
254.577775
 30
0.0
 40
0.870285
  1
Simplex Lift Station
  7
ROMANC
100
AcDbText
  0
TEXT
  5
50ED
100
AcDbEntity
  8
BORDER
 62
     6
100
AcDbText
 10
404.679337
 20
256.275291
 30
0.0
 40
0.870285
  1
Non-Guiderail Prefabricated Fiberglass
  7
ROMANC
100
AcDbText
  0
TEXT
  5
50EE
100
AcDbEntity
  8
BORDER
 62
     6
100
AcDbText
 10
412.034017
 20
246.498062
 30
0.0
 40
0.739743
  1
Rochester, IN  46975
  7
ROMANC
100
AcDbText
  0
TEXT
  5
50EF
100
AcDbEntity
  8
BORDER
 62
     6
100
AcDbText
 10
408.848477
 20
247.811778
 30
0.0
 40
0.739743
  1
Highway 25 North P.O. Box 420
  7
ROMANC
100
AcDbText
  0
TEXT
  5
50F0
100
AcDbEntity
  8
BORDER
 62
     6
100
AcDbText
 10
413.276897
 20
251.877101
 30
0.0
 40
0.870285
  1
Non-Guiderail Simplex
  7
ROMANC
100
AcDbText
  0
LINE
  5
50F1
100
AcDbEntity
  8
BORDER
100
AcDbLine
 10
433.556828
 20
250.507092
 30
0.0
 11
433.556828
 21
258.265787
 31
0.0
  0
TEXT
  5
50F2
100
AcDbEntity
  8
BORDER
 62
     6
100
AcDbText
 10
434.003999
 20
246.190348
 30
0.0
 40
0.870285
  1
Prior To:
  7
ROMANC
100
AcDbText
  0
LINE
  5
50F3
100
AcDbEntity
  8
BORDER
100
AcDbLine
 10
433.556828
 20
244.68807
 30
0.0
 11
433.556828
 21
249.113721
 31
0.0
  0
TEXT
  5
50F4
100
AcDbEntity
  8
BORDER
 62
     6
100
AcDbText
 10
457.290927
 20
246.286787
 30
0.0
 40
0.870285
  1
No:
  7
ROMANC
100
AcDbText
  0
TEXT
  5
50F5
100
AcDbEntity
  8
BORDER
 62
     6
100
AcDbText
 10
457.290927
 20
247.69582
 30
0.0
 40
0.870285
  1
Reference
  7
ROMANC
100
AcDbText
  0
TEXT
  5
50F6
100
AcDbEntity
  8
BORDER
 62
     6
100
AcDbText
 10
443.363357
 20
245.467384
 30
0.0
 40
1.115312
  1
05/16/03
  7
ROMAND
100
AcDbText
  0
TEXT
  5
50F7
100
AcDbEntity
  8
BORDER
 62
     6
100
AcDbText
 10
441.941203
 20
254.815598
 30
0.0
 40
1.18699
  1
RM
  7
COUNTRYBLUEPRINT
100
AcDbText
  0
LINE
  5
50F8
100
AcDbEntity
  8
BORDER
100
AcDbLine
 10
456.832914
 20
249.113721
 30
0.0
 11
456.832914
 21
244.68807
 31
0.0
  0
LINE
  5
50F9
100
AcDbEntity
  8
BORDER
100
AcDbLine
 10
455.439543
 20
249.113721
 30
0.0
 11
455.439543
 21
244.68807
 31
0.0
  0
LWPOLYLINE
  5
531F
100
AcDbEntity
  8
BORDER
 62
     5
100
AcDbPolyline
 90
        2
 70
     0
 43
0.969837
 10
507.810737
 20
260.205461
 42
-0.414214
 10
511.690085
 20
256.326114
 42
0.560527
  0
ARC
  5
5320
100
AcDbEntity
  8
BORDER
100
AcDbCircle
 10
507.810737
 20
256.326114
 30
0.0
 40
1.939674
100
AcDbArc
 50
0.0
 51
90.0
  0
LWPOLYLINE
  5
5321
100
AcDbEntity
  8
BORDER
 62
     5
100
AcDbPolyline
 90
        2
 70
     0
 43
0.969837
 10
507.810737
 20
242.748397
 42
0.414214
 10
511.690085
 20
246.627744
 42
-0.560527
  0
ARC
  5
5322
100
AcDbEntity
  8
BORDER
100
AcDbCircle
 10
507.810737
 20
246.627744
 30
0.0
 40
1.939674
100
AcDbArc
 50
270.0
 51
0.0
  0
TEXT
  5
5325
100
AcDbEntity
  8
BORDER
 62
     6
100
AcDbText
 10
490.053926
 20
253.351114
 30
0.0
 40
0.969837
  1
First Released.
  7
ROMAND
100
AcDbText
  0
LINE
  5
5326
100
AcDbEntity
  8
BORDER
100
AcDbLine
 10
507.810737
 20
247.04552
 30
0.0
 11
486.474325
 21
247.04552
 31
0.0
  0
LINE
  5
5327
100
AcDbEntity
  8
BORDER
100
AcDbLine
 10
507.810737
 20
248.985193
 30
0.0
 11
486.474325
 21
248.985193
 31
0.0
  0
LINE
  5
5328
100
AcDbEntity
  8
BORDER
100
AcDbLine
 10
507.810737
 20
250.924867
 30
0.0
 11
486.474325
 21
250.924867
 31
0.0
  0
LINE
  5
5329
100
AcDbEntity
  8
BORDER
100
AcDbLine
 10
507.810737
 20
252.864541
 30
0.0
 11
486.474325
 21
252.864541
 31
0.0
  0
LINE
  5
532A
100
AcDbEntity
  8
BORDER
100
AcDbLine
 10
507.810737
 20
254.804215
 30
0.0
 11
486.474325
 21
254.804215
 31
0.0
  0
LINE
  5
532B
100
AcDbEntity
  8
BORDER
100
AcDbLine
 10
507.810737
 20
258.265787
 30
0.0
 11
486.474325
 21
258.265787
 31
0.0
  0
LWPOLYLINE
  5
532C
100
AcDbEntity
  8
BORDER
 62
     5
100
AcDbPolyline
 90
        2
 70
     0
 43
0.969837
 10
507.810737
 20
260.205461
 10
486.474325
 20
260.205461
  0
LINE
  5
532D
100
AcDbEntity
  8
BORDER
100
AcDbLine
 10
507.810737
 20
244.68807
 30
0.0
 11
484.534651
 21
244.68807
 31
0.0
  0
LWPOLYLINE
  5
532E
100
AcDbEntity
  8
BORDER
 62
     5
100
AcDbPolyline
 90
        2
 70
     0
 43
0.969837
 10
486.474325
 20
260.205461
 42
0.414214
 10
482.594977
 20
256.326114
 42
-0.560527
  0
ARC
  5
532F
100
AcDbEntity
  8
BORDER
100
AcDbCircle
 10
486.474325
 20
256.326114
 30
0.0
 40
1.939674
100
AcDbArc
 50
90.0
 51
180.0
  0
ARC
  5
5330
100
AcDbEntity
  8
BORDER
100
AcDbCircle
 10
476.775956
 20
256.326114
 30
0.0
 40
1.939674
100
AcDbArc
 50
0.0
 51
90.0
  0
LWPOLYLINE
  5
5331
100
AcDbEntity
  8
BORDER
 62
     5
100
AcDbPolyline
 90
        2
 70
     0
 43
0.969837
 10
476.775956
 20
260.205461
 42
-0.414214
 10
480.655303
 20
256.326114
 42
0.560527
  0
LWPOLYLINE
  5
5332
100
AcDbEntity
  8
BORDER
 62
     5
100
AcDbPolyline
 90
        2
 70
     0
 43
0.969837
 10
482.594977
 20
244.68807
 10
482.594977
 20
256.326114
  0
LWPOLYLINE
  5
5333
100
AcDbEntity
  8
BORDER
 62
     5
100
AcDbPolyline
 90
        2
 70
     0
 43
0.969837
 10
480.655303
 20
244.68807
 10
480.655303
 20
256.326114
  0
LINE
  5
5334
100
AcDbEntity
  8
BORDER
100
AcDbLine
 10
478.71563
 20
249.113721
 30
0.0
 11
478.71563
 21
244.68807
 31
0.0
  0
LINE
  5
5335
100
AcDbEntity
  8
BORDER
100
AcDbLine
 10
478.71563
 20
256.326114
 30
0.0
 11
478.71563
 21
250.507092
 31
0.0
  0
LINE
  5
5338
100
AcDbEntity
  8
BORDER
100
AcDbLine
 10
488.413999
 20
254.804215
 30
0.0
 11
488.413999
 21
247.04552
 31
0.0
  0
LINE
  5
5339
100
AcDbEntity
  8
BORDER
100
AcDbLine
 10
486.474325
 20
254.804215
 30
0.0
 11
486.474325
 21
247.04552
 31
0.0
  0
LINE
  5
533A
100
AcDbEntity
  8
BORDER
100
AcDbLine
 10
484.534651
 20
244.68807
 30
0.0
 11
484.534651
 21
256.326114
 31
0.0
  0
LWPOLYLINE
  5
533C
100
AcDbEntity
  8
BORDER
100
AcDbPolyline
 90
        6
 70
     1
 43
0.0
 10
487.857115
 20
253.115147
 10
488.270363
 20
253.830914
 10
487.857115
 20
254.546681
 10
487.030618
 20
254.546681
 10
486.61737
 20
253.830914
 10
487.030618
 20
253.115147
  0
TEXT
  5
533D
100
AcDbEntity
  8
BORDER
 62
     6
100
AcDbText
 10
486.983268
 20
253.351114
 30
0.0
 40
0.969837
  1
A
  7
ROMAND
100
AcDbText
  0
TEXT
  5
533F
100
AcDbEntity
  8
BORDER
 62
     6
100
AcDbText
 10
491.969267
 20
255.672922
 30
0.0
 40
1.305428
  1
Revisions
  7
ROMANC
100
AcDbText
  0
LINE
  5
5340
100
AcDbEntity
  8
BORDER
100
AcDbLine
 10
507.810737
 20
254.804215
 30
0.0
 11
507.810737
 21
247.04552
 31
0.0
  0
LWPOLYLINE
  5
5341
100
AcDbEntity
  8
BORDER
 62
     5
100
AcDbPolyline
 90
        2
 70
     0
 43
0.969837
 10
511.690085
 20
256.326114
 10
511.690085
 20
246.627744
  0
LINE
  5
5342
100
AcDbEntity
  8
BORDER
100
AcDbLine
 10
509.750411
 20
246.627744
 30
0.0
 11
509.750411
 21
256.326114
 31
0.0
  0
TEXT
  5
543A
100
AcDbEntity
  8
DIM
100
AcDbText
 10
387.989475
 20
355.278595
 30
0.0
 40
1.5
  1
None
  7
ROMAND
 72
     2
 11
393.418046
 21
356.028595
 31
0.0
100
AcDbText
 73
     2
  0
TEXT
  5
543B
100
AcDbEntity
  8
DIM
100
AcDbText
 10
384.865634
 20
364.82067
 30
0.0
 40
1.5
  1
Anti-Floatation Flange
  7
ROMAND
 72
     2
 11
410.865634
 21
365.57067
 31
0.0
100
AcDbText
 73
     2
  0
TEXT
  5
543C
100
AcDbEntity
  8
DIM
100
AcDbText
 10
387.303459
 20
362.429747
 30
0.0
 40
1.5
  1
Fiberglass Encapsulated
  7
ROMAND
 72
     2
 11
415.23203
 21
363.179747
 31
0.0
100
AcDbText
 73
     2
  0
TEXT
  5
543D
100
AcDbEntity
  8
DIM
100
AcDbText
 10
385.73203
 20
360.456885
 30
0.0
 40
1.5
  1
ASTM A-36 Square Steel
  7
ROMAND
 72
     2
 11
415.23203
 21
361.206885
 31
0.0
100
AcDbText
 73
     2
  0
TEXT
  5
543E
100
AcDbEntity
  8
DIM
100
AcDbText
 10
387.333862
 20
358.180522
 30
0.0
 40
1.5
  1
Round Fiberglass
  7
ROMAND
 72
     2
 11
407.262434
 21
358.930522
 31
0.0
100
AcDbText
 73
     2
  0
TEXT
  5
543F
100
AcDbEntity
  8
DIM
100
AcDbText
 10
385.238609
 20
308.601593
 30
0.0
 40
1.5
  1
Types Available)
  7
ROMAND
 72
     2
 11
403.881466
 21
309.351593
 31
0.0
100
AcDbText
 73
     2
  0
TEXT
  5
5440
100
AcDbEntity
  8
DIM
100
AcDbText
 10
380.095752
 20
310.574441
 30
0.0
 40
1.5
  1
(Different Sizes and
  7
ROMAND
 72
     2
 11
403.881466
 21
311.324441
 31
0.0
100
AcDbText
 73
     2
  0
LINE
  5
5442
100
AcDbEntity
  8
DIM
100
AcDbLine
 10
382.271016
 20
312.571085
 30
0.0
 11
387.271016
 21
312.571085
 31
0.0
  0
LWPOLYLINE
  5
5443
100
AcDbEntity
  8
DIM
100
AcDbPolyline
 90
        4
 70
     1
 43
0.0
 10
386.552803
 20
329.461934
 10
386.552803
 20
330.915612
 10
385.099124
 20
330.915612
 10
385.099124
 20
329.461934
  0
LWPOLYLINE
  5
5444
100
AcDbEntity
  8
DIM
100
AcDbPolyline
 90
        4
 70
     1
 43
0.0
 10
385.92917
 20
331.434782
 10
385.92917
 20
332.88846
 10
384.475491
 20
332.88846
 10
384.475491
 20
331.434782
  0
LWPOLYLINE
  5
5445
100
AcDbEntity
  8
DIM
100
AcDbPolyline
 90
        4
 70
     1
 43
0.0
 10
387.147719
 20
355.3182
 10
387.147719
 20
356.771879
 10
385.69404
 20
356.771879
 10
385.69404
 20
355.3182
  0
LWPOLYLINE
  5
5446
100
AcDbEntity
  8
DIM
100
AcDbPolyline
 90
        4
 70
     1
 43
0.0
 10
387.147719
 20
358.220127
 10
387.147719
 20
359.673805
 10
385.69404
 20
359.673805
 10
385.69404
 20
358.220127
  0
LWPOLYLINE
  5
5447
100
AcDbEntity
  8
DIM
100
AcDbPolyline
 90
        4
 70
     1
 43
0.0
 10
387.147719
 20
362.469351
 10
387.147719
 20
363.92303
 10
385.69404
 20
363.92303
 10
385.69404
 20
362.469351
  0
LEADER
  5
5448
100
AcDbEntity
  8
DIM
100
AcDbLeader
  3
STANDARD
 76
     2
 10
446.506028
 20
325.349205
 30
0.0
 10
475.802803
 20
351.318815
 30
0.0
 77
   256
1001
ACAD
1000
DSTYLE
1002
{
1070
   340
1005
2C
1070
   272
1070
     2
1070
   147
1040
1.25
1070
   287
1070
     5
1070
    44
1040
1.25
1070
   271
1070
     2
1070
    41
1040
1.1
1002
}
  0
LINE
  5
5449
100
AcDbEntity
  8
DIM
100
AcDbLine
 10
411.057874
 20
337.505157
 30
0.0
 11
411.057874
 21
322.178685
 31
0.0
  0
LINE
  5
544A
100
AcDbEntity
  8
DIM
100
AcDbLine
 10
464.802724
 20
337.505157
 30
0.0
 11
464.802724
 21
329.650819
 31
0.0
  0
LINE
  5
544B
100
AcDbEntity
  8
DIM
100
AcDbLine
 10
469.430861
 20
337.505157
 30
0.0
 11
469.430861
 21
307.756687
 31
0.0
  0
LINE
  5
544C
100
AcDbEntity
  8
DIM
100
AcDbLine
 10
451.290075
 20
324.392622
 30
0.0
 11
475.873583
 21
338.639293
 31
0.0
  0
LINE
  5
544D
100
AcDbEntity
  8
OBJECT
100
AcDbLine
 10
459.528477
 20
270.47316
 30
0.0
 11
459.528477
 21
337.855157
 31
0.0
  0
LINE
  5
544E
100
AcDbEntity
  8
OBJECT
100
AcDbLine
 10
459.028477
 20
270.72316
 30
0.0
 11
459.028477
 21
314.386482
 31
0.0
  0
LINE
  5
544F
100
AcDbEntity
  8
OBJECT
100
AcDbLine
 10
422.528477
 20
270.47316
 30
0.0
 11
422.528477
 21
337.855157
 31
0.0
  0
LINE
  5
5450
100
AcDbEntity
  8
OBJECT
100
AcDbLine
 10
423.028477
 20
270.72316
 30
0.0
 11
423.028477
 21
338.355157
 31
0.0
  0
LINE
  5
5451
100
AcDbEntity
  8
OBJECT
  6
CONTINUOUS
 62
     2
100
AcDbLine
 39
50.0
 10
432.522668
 20
328.488193
 30
0.0
 11
432.272668
 21
328.488193
 31
0.0
  0
LINE
  5
5452
100
AcDbEntity
  8
OBJECT
  6
CONTINUOUS
 62
     2
100
AcDbLine
 39
50.0
 10
432.272668
 20
328.488193
 30
0.0
 11
432.147669
 21
328.704744
 31
0.0
  0
LINE
  5
5453
100
AcDbEntity
  8
OBJECT
  6
CONTINUOUS
 62
     2
100
AcDbLine
 39
50.0
 10
436.064308
 20
327.105157
 30
0.0
 11
435.214308
 21
327.105157
 31
0.0
  0
LINE
  5
5454
100
AcDbEntity
  8
OBJECT
  6
CONTINUOUS
 62
     2
100
AcDbLine
 39
50.0
 10
432.814308
 20
327.105157
 30
0.0
 11
431.964308
 21
327.105157
 31
0.0
  0
LINE
  5
5455
100
AcDbEntity
  8
OBJECT
  6
CONTINUOUS
 62
     2
100
AcDbLine
 39
50.0
 10
429.564308
 20
327.105157
 30
0.0
 11
428.714308
 21
327.105157
 31
0.0
  0
LINE
  5
5456
100
AcDbEntity
  8
OBJECT
  6
CONTINUOUS
 62
     2
100
AcDbLine
 39
50.0
 10
432.639308
 20
327.495782
 30
0.0
 11
432.514308
 21
327.279229
 31
0.0
  0
LINE
  5
5457
100
AcDbEntity
  8
OBJECT
  6
CONTINUOUS
 62
     2
100
AcDbLine
 39
50.0
 10
432.514308
 20
327.279229
 30
0.0
 11
432.264308
 21
327.279229
 31
0.0
  0
LINE
  5
5458
100
AcDbEntity
  8
OBJECT
  6
CONTINUOUS
 62
     2
100
AcDbLine
 39
50.0
 10
432.264308
 20
327.279229
 30
0.0
 11
432.139308
 21
327.495782
 31
0.0
  0
LINE
  5
5459
100
AcDbEntity
  8
OBJECT
  6
CONTINUOUS
 62
     2
100
AcDbLine
 39
50.0
 10
432.139308
 20
327.495782
 30
0.0
 11
432.264308
 21
327.712273
 31
0.0
  0
LINE
  5
545A
100
AcDbEntity
  8
OBJECT
  6
CONTINUOUS
 62
     2
100
AcDbLine
 39
50.0
 10
432.264308
 20
327.712273
 30
0.0
 11
432.514308
 21
327.712273
 31
0.0
  0
LINE
  5
545B
100
AcDbEntity
  8
OBJECT
  6
CONTINUOUS
 62
     2
100
AcDbLine
 39
50.0
 10
432.514308
 20
327.712273
 30
0.0
 11
432.639308
 21
327.495782
 31
0.0
  0
LINE
  5
545C
100
AcDbEntity
  8
OBJECT
  6
CONTINUOUS
 62
     2
100
AcDbLine
 39
50.0
 10
432.514308
 20
328.906755
 30
0.0
 11
432.639308
 21
328.690263
 31
0.0
  0
LINE
  5
545D
100
AcDbEntity
  8
OBJECT
  6
CONTINUOUS
 62
     2
100
AcDbLine
 39
50.0
 10
432.264308
 20
328.906755
 30
0.0
 11
432.514308
 21
328.906755
 31
0.0
  0
LINE
  5
545E
100
AcDbEntity
  8
OBJECT
  6
CONTINUOUS
 62
     2
100
AcDbLine
 39
50.0
 10
432.147669
 20
328.704744
 30
0.0
 11
432.264308
 21
328.906755
 31
0.0
  0
LINE
  5
545F
100
AcDbEntity
  8
OBJECT
  6
CONTINUOUS
 62
     2
100
AcDbLine
 39
50.0
 10
432.639308
 20
328.690263
 30
0.0
 11
432.522668
 21
328.488193
 31
0.0
  0
LINE
  5
5460
100
AcDbEntity
  8
OBJECT
  6
CONTINUOUS
 62
     2
100
AcDbLine
 39
50.0
 10
436.064308
 20
326.293119
 30
0.0
 11
435.214308
 21
326.293119
 31
0.0
  0
LINE
  5
5461
100
AcDbEntity
  8
OBJECT
  6
CONTINUOUS
 62
     2
100
AcDbLine
 39
50.0
 10
436.064308
 20
326.210341
 30
0.0
 11
435.214308
 21
326.210341
 31
0.0
  0
LINE
  5
5462
100
AcDbEntity
  8
OBJECT
  6
CONTINUOUS
 62
     2
100
AcDbLine
 39
50.0
 10
435.414308
 20
325.770157
 30
0.0
 11
435.314308
 21
325.770157
 31
0.0
  0
LINE
  5
5463
100
AcDbEntity
  8
OBJECT
  6
CONTINUOUS
 62
     2
100
AcDbLine
 39
50.0
 10
435.964308
 20
325.770157
 30
0.0
 11
435.864308
 21
325.770157
 31
0.0
  0
ARC
  5
5464
100
AcDbEntity
  8
OBJECT
 62
     2
100
AcDbCircle
 39
50.0
 10
435.951808
 20
325.703157
 30
0.0
 40
0.15
100
AcDbArc
 50
270.0
 51
0.0
  0
LINE
  5
5465
100
AcDbEntity
  8
OBJECT
  6
CONTINUOUS
 62
     2
100
AcDbLine
 39
50.0
 10
435.951808
 20
325.553157
 30
0.0
 11
435.326808
 21
325.553157
 31
0.0
  0
ARC
  5
5466
100
AcDbEntity
  8
OBJECT
 62
     2
100
AcDbCircle
 39
50.0
 10
435.326808
 20
325.703157
 30
0.0
 40
0.15
100
AcDbArc
 50
180.0
 51
270.0
  0
LINE
  5
5467
100
AcDbEntity
  8
OBJECT
  6
CONTINUOUS
 62
     2
100
AcDbLine
 39
50.0
 10
436.314308
 20
326.155157
 30
0.0
 11
434.964308
 21
326.155157
 31
0.0
  0
LINE
  5
5468
100
AcDbEntity
  8
OBJECT
  6
CONTINUOUS
 62
     2
100
AcDbLine
 39
50.0
 10
436.289308
 20
326.605157
 30
0.0
 11
434.989308
 21
326.605157
 31
0.0
  0
LINE
  5
5469
100
AcDbEntity
  8
OBJECT
  6
CONTINUOUS
 62
     2
100
AcDbLine
 39
50.0
 10
435.819308
 20
326.842657
 30
0.0
 11
435.459308
 21
326.842657
 31
0.0
  0
LINE
  5
546A
100
AcDbEntity
  8
OBJECT
  6
CONTINUOUS
 62
     2
100
AcDbLine
 39
50.0
 10
436.054308
 20
327.012657
 30
0.0
 11
435.819308
 21
327.012657
 31
0.0
  0
LINE
  5
546B
100
AcDbEntity
  8
OBJECT
  6
CONTINUOUS
 62
     2
100
AcDbLine
 39
50.0
 10
435.459308
 20
327.012657
 30
0.0
 11
435.224308
 21
327.012657
 31
0.0
  0
LINE
  5
546C
100
AcDbEntity
  8
OBJECT
  6
CONTINUOUS
 62
     2
100
AcDbLine
 39
50.0
 10
436.064308
 20
327.08278
 30
0.0
 11
435.214308
 21
327.08278
 31
0.0
  0
LINE
  5
546D
100
AcDbEntity
  8
OBJECT
  6
CONTINUOUS
 62
     2
100
AcDbLine
 39
50.0
 10
435.224308
 20
326.842657
 30
0.0
 11
435.079308
 21
326.842657
 31
0.0
  0
LINE
  5
546E
100
AcDbEntity
  8
OBJECT
  6
CONTINUOUS
 62
     2
100
AcDbLine
 39
50.0
 10
436.199308
 20
326.842657
 30
0.0
 11
436.054308
 21
326.842657
 31
0.0
  0
LINE
  5
546F
100
AcDbEntity
  8
OBJECT
 62
     2
100
AcDbLine
 39
50.0
 10
435.079308
 20
327.012657
 30
0.0
 11
435.129308
 21
327.062657
 31
0.0
  0
LINE
  5
5470
100
AcDbEntity
  8
OBJECT
  6
CONTINUOUS
 62
     2
100
AcDbLine
 39
50.0
 10
436.149308
 20
327.062657
 30
0.0
 11
435.129308
 21
327.062657
 31
0.0
  0
LINE
  5
5471
100
AcDbEntity
  8
OBJECT
 62
     2
100
AcDbLine
 39
50.0
 10
434.964308
 20
325.770157
 30
0.0
 11
435.014308
 21
325.720157
 31
0.0
  0
LINE
  5
5472
100
AcDbEntity
  8
OBJECT
  6
CONTINUOUS
 62
     2
100
AcDbLine
 39
50.0
 10
436.264308
 20
325.720157
 30
0.0
 11
435.014308
 21
325.720157
 31
0.0
  0
LINE
  5
5473
100
AcDbEntity
  8
OBJECT
 62
     2
100
AcDbLine
 39
50.0
 10
436.314308
 20
325.770157
 30
0.0
 11
436.264308
 21
325.720157
 31
0.0
  0
LINE
  5
5474
100
AcDbEntity
  8
OBJECT
 62
     2
100
AcDbLine
 39
50.0
 10
434.989308
 20
326.380157
 30
0.0
 11
435.014308
 21
326.355157
 31
0.0
  0
LINE
  5
5475
100
AcDbEntity
  8
OBJECT
  6
CONTINUOUS
 62
     2
100
AcDbLine
 39
50.0
 10
436.264308
 20
326.355157
 30
0.0
 11
435.014308
 21
326.355157
 31
0.0
  0
LINE
  5
5476
100
AcDbEntity
  8
OBJECT
 62
     2
100
AcDbLine
 39
50.0
 10
436.289308
 20
326.380157
 30
0.0
 11
436.264308
 21
326.355157
 31
0.0
  0
LINE
  5
5477
100
AcDbEntity
  8
OBJECT
  6
CONTINUOUS
 62
     2
100
AcDbLine
 39
50.0
 10
432.814308
 20
326.293119
 30
0.0
 11
431.964308
 21
326.293119
 31
0.0
  0
LINE
  5
5478
100
AcDbEntity
  8
OBJECT
  6
CONTINUOUS
 62
     2
100
AcDbLine
 39
50.0
 10
432.814308
 20
326.210341
 30
0.0
 11
431.964308
 21
326.210341
 31
0.0
  0
LINE
  5
5479
100
AcDbEntity
  8
OBJECT
  6
CONTINUOUS
 62
     2
100
AcDbLine
 39
50.0
 10
432.164308
 20
325.770157
 30
0.0
 11
432.064308
 21
325.770157
 31
0.0
  0
LINE
  5
547A
100
AcDbEntity
  8
OBJECT
  6
CONTINUOUS
 62
     2
100
AcDbLine
 39
50.0
 10
432.714308
 20
325.770157
 30
0.0
 11
432.614308
 21
325.770157
 31
0.0
  0
ARC
  5
547B
100
AcDbEntity
  8
OBJECT
 62
     2
100
AcDbCircle
 39
50.0
 10
432.701808
 20
325.703157
 30
0.0
 40
0.15
100
AcDbArc
 50
270.0
 51
0.0
  0
LINE
  5
547C
100
AcDbEntity
  8
OBJECT
  6
CONTINUOUS
 62
     2
100
AcDbLine
 39
50.0
 10
432.701808
 20
325.553157
 30
0.0
 11
432.076808
 21
325.553157
 31
0.0
  0
ARC
  5
547D
100
AcDbEntity
  8
OBJECT
 62
     2
100
AcDbCircle
 39
50.0
 10
432.076808
 20
325.703157
 30
0.0
 40
0.15
100
AcDbArc
 50
180.0
 51
270.0
  0
LINE
  5
547E
100
AcDbEntity
  8
OBJECT
  6
CONTINUOUS
 62
     2
100
AcDbLine
 39
50.0
 10
433.064308
 20
326.155157
 30
0.0
 11
431.714308
 21
326.155157
 31
0.0
  0
LINE
  5
547F
100
AcDbEntity
  8
OBJECT
  6
CONTINUOUS
 62
     2
100
AcDbLine
 39
50.0
 10
433.039308
 20
326.605157
 30
0.0
 11
431.739308
 21
326.605157
 31
0.0
  0
LINE
  5
5480
100
AcDbEntity
  8
OBJECT
  6
CONTINUOUS
 62
     2
100
AcDbLine
 39
50.0
 10
432.569308
 20
326.842657
 30
0.0
 11
432.209308
 21
326.842657
 31
0.0
  0
LINE
  5
5481
100
AcDbEntity
  8
OBJECT
  6
CONTINUOUS
 62
     2
100
AcDbLine
 39
50.0
 10
432.804308
 20
327.012657
 30
0.0
 11
432.569308
 21
327.012657
 31
0.0
  0
LINE
  5
5482
100
AcDbEntity
  8
OBJECT
  6
CONTINUOUS
 62
     2
100
AcDbLine
 39
50.0
 10
432.209308
 20
327.012657
 30
0.0
 11
431.974308
 21
327.012657
 31
0.0
  0
LINE
  5
5483
100
AcDbEntity
  8
OBJECT
  6
CONTINUOUS
 62
     2
100
AcDbLine
 39
50.0
 10
432.814308
 20
327.08278
 30
0.0
 11
431.964308
 21
327.08278
 31
0.0
  0
LINE
  5
5484
100
AcDbEntity
  8
OBJECT
  6
CONTINUOUS
 62
     2
100
AcDbLine
 39
50.0
 10
431.974308
 20
326.842657
 30
0.0
 11
431.829308
 21
326.842657
 31
0.0
  0
LINE
  5
5485
100
AcDbEntity
  8
OBJECT
  6
CONTINUOUS
 62
     2
100
AcDbLine
 39
50.0
 10
432.949308
 20
326.842657
 30
0.0
 11
432.804308
 21
326.842657
 31
0.0
  0
LINE
  5
5486
100
AcDbEntity
  8
OBJECT
 62
     2
100
AcDbLine
 39
50.0
 10
431.829308
 20
327.012657
 30
0.0
 11
431.879308
 21
327.062657
 31
0.0
  0
LINE
  5
5487
100
AcDbEntity
  8
OBJECT
  6
CONTINUOUS
 62
     2
100
AcDbLine
 39
50.0
 10
432.899308
 20
327.062657
 30
0.0
 11
431.879308
 21
327.062657
 31
0.0
  0
LINE
  5
5488
100
AcDbEntity
  8
OBJECT
 62
     2
100
AcDbLine
 39
50.0
 10
431.714308
 20
325.770157
 30
0.0
 11
431.764308
 21
325.720157
 31
0.0
  0
LINE
  5
5489
100
AcDbEntity
  8
OBJECT
  6
CONTINUOUS
 62
     2
100
AcDbLine
 39
50.0
 10
433.014308
 20
325.720157
 30
0.0
 11
431.764308
 21
325.720157
 31
0.0
  0
LINE
  5
548A
100
AcDbEntity
  8
OBJECT
 62
     2
100
AcDbLine
 39
50.0
 10
433.064308
 20
325.770157
 30
0.0
 11
433.014308
 21
325.720157
 31
0.0
  0
LINE
  5
548B
100
AcDbEntity
  8
OBJECT
 62
     2
100
AcDbLine
 39
50.0
 10
431.739308
 20
326.380157
 30
0.0
 11
431.764308
 21
326.355157
 31
0.0
  0
LINE
  5
548C
100
AcDbEntity
  8
OBJECT
  6
CONTINUOUS
 62
     2
100
AcDbLine
 39
50.0
 10
433.014308
 20
326.355157
 30
0.0
 11
431.764308
 21
326.355157
 31
0.0
  0
LINE
  5
548D
100
AcDbEntity
  8
OBJECT
 62
     2
100
AcDbLine
 39
50.0
 10
433.039308
 20
326.380157
 30
0.0
 11
433.014308
 21
326.355157
 31
0.0
  0
LINE
  5
548E
100
AcDbEntity
  8
OBJECT
 62
     2
100
AcDbLine
 39
50.0
 10
429.789308
 20
326.380157
 30
0.0
 11
429.764308
 21
326.355157
 31
0.0
  0
LINE
  5
548F
100
AcDbEntity
  8
OBJECT
  6
CONTINUOUS
 62
     2
100
AcDbLine
 39
50.0
 10
429.764308
 20
326.355157
 30
0.0
 11
428.514308
 21
326.355157
 31
0.0
  0
LINE
  5
5490
100
AcDbEntity
  8
OBJECT
 62
     2
100
AcDbLine
 39
50.0
 10
428.489308
 20
326.380157
 30
0.0
 11
428.514308
 21
326.355157
 31
0.0
  0
LINE
  5
5491
100
AcDbEntity
  8
OBJECT
 62
     2
100
AcDbLine
 39
50.0
 10
429.814308
 20
325.770157
 30
0.0
 11
429.764308
 21
325.720157
 31
0.0
  0
LINE
  5
5492
100
AcDbEntity
  8
OBJECT
  6
CONTINUOUS
 62
     2
100
AcDbLine
 39
50.0
 10
429.764308
 20
325.720157
 30
0.0
 11
428.514308
 21
325.720157
 31
0.0
  0
LINE
  5
5493
100
AcDbEntity
  8
OBJECT
 62
     2
100
AcDbLine
 39
50.0
 10
428.464308
 20
325.770157
 30
0.0
 11
428.514308
 21
325.720157
 31
0.0
  0
LINE
  5
5494
100
AcDbEntity
  8
OBJECT
  6
CONTINUOUS
 62
     2
100
AcDbLine
 39
50.0
 10
429.649308
 20
327.062657
 30
0.0
 11
428.629308
 21
327.062657
 31
0.0
  0
LINE
  5
5495
100
AcDbEntity
  8
OBJECT
 62
     2
100
AcDbLine
 39
50.0
 10
428.579308
 20
327.012657
 30
0.0
 11
428.629308
 21
327.062657
 31
0.0
  0
LINE
  5
5496
100
AcDbEntity
  8
OBJECT
  6
CONTINUOUS
 62
     2
100
AcDbLine
 39
50.0
 10
429.699308
 20
326.842657
 30
0.0
 11
429.554308
 21
326.842657
 31
0.0
  0
LINE
  5
5497
100
AcDbEntity
  8
OBJECT
  6
CONTINUOUS
 62
     2
100
AcDbLine
 39
50.0
 10
428.724308
 20
326.842657
 30
0.0
 11
428.579308
 21
326.842657
 31
0.0
  0
LINE
  5
5498
100
AcDbEntity
  8
OBJECT
  6
CONTINUOUS
 62
     2
100
AcDbLine
 39
50.0
 10
429.564308
 20
327.08278
 30
0.0
 11
428.714308
 21
327.08278
 31
0.0
  0
LINE
  5
5499
100
AcDbEntity
  8
OBJECT
  6
CONTINUOUS
 62
     2
100
AcDbLine
 39
50.0
 10
428.959308
 20
327.012657
 30
0.0
 11
428.724308
 21
327.012657
 31
0.0
  0
LINE
  5
549A
100
AcDbEntity
  8
OBJECT
  6
CONTINUOUS
 62
     2
100
AcDbLine
 39
50.0
 10
429.554308
 20
327.012657
 30
0.0
 11
429.319308
 21
327.012657
 31
0.0
  0
LINE
  5
549B
100
AcDbEntity
  8
OBJECT
  6
CONTINUOUS
 62
     2
100
AcDbLine
 39
50.0
 10
429.319308
 20
326.842657
 30
0.0
 11
428.959308
 21
326.842657
 31
0.0
  0
LINE
  5
549C
100
AcDbEntity
  8
OBJECT
  6
CONTINUOUS
 62
     2
100
AcDbLine
 39
50.0
 10
429.789308
 20
326.605157
 30
0.0
 11
428.489308
 21
326.605157
 31
0.0
  0
LINE
  5
549D
100
AcDbEntity
  8
OBJECT
  6
CONTINUOUS
 62
     2
100
AcDbLine
 39
50.0
 10
429.814308
 20
326.155157
 30
0.0
 11
428.464308
 21
326.155157
 31
0.0
  0
ARC
  5
549E
100
AcDbEntity
  8
OBJECT
 62
     2
100
AcDbCircle
 39
50.0
 10
428.826808
 20
325.703157
 30
0.0
 40
0.15
100
AcDbArc
 50
180.0
 51
270.0
  0
LINE
  5
549F
100
AcDbEntity
  8
OBJECT
  6
CONTINUOUS
 62
     2
100
AcDbLine
 39
50.0
 10
429.451808
 20
325.553157
 30
0.0
 11
428.826808
 21
325.553157
 31
0.0
  0
ARC
  5
54A0
100
AcDbEntity
  8
OBJECT
 62
     2
100
AcDbCircle
 39
50.0
 10
429.451808
 20
325.703157
 30
0.0
 40
0.15
100
AcDbArc
 50
270.0
 51
0.0
  0
LINE
  5
54A1
100
AcDbEntity
  8
OBJECT
  6
CONTINUOUS
 62
     2
100
AcDbLine
 39
50.0
 10
429.464308
 20
325.770157
 30
0.0
 11
429.364308
 21
325.770157
 31
0.0
  0
LINE
  5
54A2
100
AcDbEntity
  8
OBJECT
  6
CONTINUOUS
 62
     2
100
AcDbLine
 39
50.0
 10
428.914308
 20
325.770157
 30
0.0
 11
428.814308
 21
325.770157
 31
0.0
  0
LINE
  5
54A3
100
AcDbEntity
  8
OBJECT
  6
CONTINUOUS
 62
     2
100
AcDbLine
 39
50.0
 10
429.564308
 20
326.210341
 30
0.0
 11
428.714308
 21
326.210341
 31
0.0
  0
LINE
  5
54A4
100
AcDbEntity
  8
OBJECT
  6
CONTINUOUS
 62
     2
100
AcDbLine
 39
50.0
 10
429.564308
 20
326.293119
 30
0.0
 11
428.714308
 21
326.293119
 31
0.0
  0
LINE
  5
54A5
100
AcDbEntity
  8
OBJECT
  6
CONTINUOUS
 62
     2
100
AcDbLine
 39
50.0
 10
435.518472
 20
303.534445
 30
0.0
 11
434.143581
 21
300.600304
 31
0.0
  0
LINE
  5
54A6
100
AcDbEntity
  8
OBJECT
  6
CONTINUOUS
 62
     2
100
AcDbLine
 39
50.0
 10
435.858409
 20
303.324737
 30
0.0
 11
437.124477
 21
300.622825
 31
0.0
  0
LINE
  5
54A7
100
AcDbEntity
  8
OBJECT
  6
CONTINUOUS
 62
     2
100
AcDbLine
 39
50.0
 10
436.639308
 20
305.205345
 30
0.0
 11
434.639308
 21
305.205345
 31
0.0
  0
LINE
  5
54A8
100
AcDbEntity
  8
OBJECT
  6
CONTINUOUS
 62
     2
100
AcDbLine
 39
50.0
 10
434.639308
 20
304.269066
 30
0.0
 11
436.639308
 21
304.269066
 31
0.0
  0
LINE
  5
54A9
100
AcDbEntity
  8
OBJECT
  6
CONTINUOUS
 62
     2
100
AcDbLine
 39
50.0
 10
434.639308
 20
305.205345
 30
0.0
 11
434.639308
 21
304.269066
 31
0.0
  0
LINE
  5
54AA
100
AcDbEntity
  8
OBJECT
  6
CONTINUOUS
 62
     2
100
AcDbLine
 39
50.0
 10
436.639308
 20
304.269066
 30
0.0
 11
436.639308
 21
305.205345
 31
0.0
  0
LINE
  5
54AB
100
AcDbEntity
  8
OBJECT
  6
CONTINUOUS
 62
     2
100
AcDbLine
 39
50.0
 10
430.139308
 20
284.373968
 30
0.0
 11
428.139308
 21
284.373968
 31
0.0
  0
LINE
  5
54AC
100
AcDbEntity
  8
OBJECT
  6
CONTINUOUS
 62
     2
100
AcDbLine
 39
50.0
 10
429.139308
 20
282.960943
 30
0.0
 11
430.624477
 21
279.791448
 31
0.0
  0
LINE
  5
54AD
100
AcDbEntity
  8
OBJECT
  6
CONTINUOUS
 62
     2
100
AcDbLine
 39
50.0
 10
429.139308
 20
282.960943
 30
0.0
 11
427.643581
 21
279.768926
 31
0.0
  0
ARC
  5
54AE
100
AcDbEntity
  8
OBJECT
  6
CONTINUOUS
 62
     2
100
AcDbCircle
 39
50.0
 10
429.139308
 20
279.791509
 30
0.0
 40
1.485168
100
AcDbArc
 50
180.002355
 51
359.997645
  0
LINE
  5
54AF
100
AcDbEntity
  8
OBJECT
  6
CONTINUOUS
 62
     2
100
AcDbLine
 39
50.0
 10
430.624477
 20
279.791448
 30
0.0
 11
427.65414
 21
279.791448
 31
0.0
  0
LINE
  5
54B0
100
AcDbEntity
  8
OBJECT
  6
CONTINUOUS
 62
     2
100
AcDbLine
 39
50.0
 10
428.139308
 20
283.437689
 30
0.0
 11
430.139308
 21
283.437689
 31
0.0
  0
LINE
  5
54B1
100
AcDbEntity
  8
OBJECT
  6
CONTINUOUS
 62
     2
100
AcDbLine
 39
50.0
 10
428.139308
 20
284.373968
 30
0.0
 11
428.139308
 21
283.437689
 31
0.0
  0
LINE
  5
54B2
100
AcDbEntity
  8
OBJECT
  6
CONTINUOUS
 62
     2
100
AcDbLine
 39
50.0
 10
430.139308
 20
283.437689
 30
0.0
 11
430.139308
 21
284.373968
 31
0.0
  0
LINE
  5
54B3
100
AcDbEntity
  8
OBJECT
  6
CONTINUOUS
 62
     2
100
AcDbLine
 39
50.0
 10
433.874477
 20
290.147863
 30
0.0
 11
430.90414
 21
290.147863
 31
0.0
  0
LINE
  5
54B4
100
AcDbEntity
  8
OBJECT
  6
CONTINUOUS
 62
     2
100
AcDbLine
 39
50.0
 10
432.389308
 20
293.317358
 30
0.0
 11
430.893581
 21
290.125341
 31
0.0
  0
LINE
  5
54B5
100
AcDbEntity
  8
OBJECT
  6
CONTINUOUS
 62
     2
100
AcDbLine
 39
50.0
 10
432.389308
 20
293.317358
 30
0.0
 11
433.874477
 21
290.147863
 31
0.0
  0
ARC
  5
54B6
100
AcDbEntity
  8
OBJECT
  6
CONTINUOUS
 62
     2
100
AcDbCircle
 39
50.0
 10
432.389308
 20
290.147924
 30
0.0
 40
1.485168
100
AcDbArc
 50
180.002355
 51
359.997645
  0
LINE
  5
54B7
100
AcDbEntity
  8
OBJECT
  6
CONTINUOUS
 62
     2
100
AcDbLine
 39
50.0
 10
433.389308
 20
294.730383
 30
0.0
 11
431.389308
 21
294.730383
 31
0.0
  0
LINE
  5
54B8
100
AcDbEntity
  8
OBJECT
  6
CONTINUOUS
 62
     2
100
AcDbLine
 39
50.0
 10
431.389308
 20
293.794103
 30
0.0
 11
433.389308
 21
293.794103
 31
0.0
  0
LINE
  5
54B9
100
AcDbEntity
  8
OBJECT
  6
CONTINUOUS
 62
     2
100
AcDbLine
 39
50.0
 10
431.389308
 20
294.730383
 30
0.0
 11
431.389308
 21
293.794103
 31
0.0
  0
LINE
  5
54BA
100
AcDbEntity
  8
OBJECT
  6
CONTINUOUS
 62
     2
100
AcDbLine
 39
50.0
 10
433.389308
 20
293.794103
 30
0.0
 11
433.389308
 21
294.730383
 31
0.0
  0
LINE
  5
54BB
100
AcDbEntity
  8
OBJECT
  6
CONTINUOUS
 62
     2
100
AcDbLine
 39
50.0
 10
437.124477
 20
300.622825
 30
0.0
 11
436.766072
 21
300.622825
 31
0.0
  0
ARC
  5
54BC
100
AcDbEntity
  8
OBJECT
  6
CONTINUOUS
 62
     2
100
AcDbCircle
 39
50.0
 10
435.639308
 20
300.622887
 30
0.0
 40
1.485168
100
AcDbArc
 50
180.002355
 51
321.131048
  0
LINE
  5
54BD
100
AcDbEntity
  8
PUMP
 62
     4
100
AcDbLine
 39
50.0
 10
438.461799
 20
273.04076
 30
0.0
 11
441.70224
 21
273.04076
 31
0.0
  0
LINE
  5
54BE
100
AcDbEntity
  8
PUMP
 62
     4
100
AcDbLine
 39
50.0
 10
443.174899
 20
273.04076
 30
0.0
 11
445.667092
 21
273.04076
 31
0.0
  0
LINE
  5
54BF
100
AcDbEntity
  8
PUMP
 62
     4
100
AcDbLine
 39
50.0
 10
436.473008
 20
273.04076
 30
0.0
 11
436.98914
 21
273.04076
 31
0.0
  0
LINE
  5
54C0
100
AcDbEntity
  8
PUMP
 62
     4
100
AcDbLine
 39
50.0
 10
436.473008
 20
279.825223
 30
0.0
 11
436.473008
 21
279.432226
 31
0.0
  0
LINE
  5
54C1
100
AcDbEntity
  8
PUMP
 62
     4
100
AcDbLine
 39
50.0
 10
436.473008
 20
282.654805
 30
0.0
 11
436.473008
 21
281.31858
 31
0.0
  0
LINE
  5
54C2
100
AcDbEntity
  8
PUMP
 62
     4
100
AcDbLine
 39
50.0
 10
436.473008
 20
280.7684
 30
0.0
 11
436.473008
 21
280.375403
 31
0.0
  0
LINE
  5
54C3
100
AcDbEntity
  8
PUMP
 62
     4
100
AcDbLine
 39
50.0
 10
436.473008
 20
278.882046
 30
0.0
 11
436.473008
 21
275.479422
 31
0.0
  0
LINE
  5
54C4
100
AcDbEntity
  8
PUMP
 62
     4
100
AcDbLine
 39
50.0
 10
443.691031
 20
280.7684
 30
0.0
 11
443.691031
 21
280.375403
 31
0.0
  0
LINE
  5
54C5
100
AcDbEntity
  8
PUMP
 62
     4
100
AcDbLine
 39
50.0
 10
443.691031
 20
282.654805
 30
0.0
 11
443.691031
 21
281.31858
 31
0.0
  0
LINE
  5
54C6
100
AcDbEntity
  8
PUMP
 62
     4
100
AcDbLine
 39
50.0
 10
443.691031
 20
279.825223
 30
0.0
 11
443.691031
 21
279.432226
 31
0.0
  0
LINE
  5
54C7
100
AcDbEntity
  8
PUMP
 62
     4
100
AcDbLine
 39
50.0
 10
443.691031
 20
278.882046
 30
0.0
 11
443.691031
 21
275.479422
 31
0.0
  0
LINE
  5
54C8
100
AcDbEntity
  8
DIM
100
AcDbLine
 10
461.596829
 20
316.551587
 30
0.0
 11
475.357257
 21
323.80676
 31
0.0
  0
LINE
  5
54CA
100
AcDbEntity
  8
DIM
100
AcDbLine
 10
452.566128
 20
313.730747
 30
0.0
 11
476.231466
 21
306.428352
 31
0.0
  0
LINE
  5
54CB
100
AcDbEntity
  8
DIM
100
AcDbLine
 10
448.96013
 20
313.535015
 30
0.0
 11
476.231466
 21
297.494443
 31
0.0
  0
LINE
  5
54CC
100
AcDbEntity
  8
DIM
100
AcDbLine
 10
448.801112
 20
307.052478
 30
0.0
 11
476.231466
 21
290.794019
 31
0.0
  0
LINE
  5
54CD
100
AcDbEntity
  8
DIM
100
AcDbLine
 10
448.767975
 20
291.0657
 30
0.0
 11
476.231466
 21
282.469239
 31
0.0
  0
LINE
  5
54CF
100
AcDbEntity
  8
ELEV
100
AcDbLine
 10
460.597327
 20
314.651357
 30
0.0
 11
484.975059
 21
314.651357
 31
0.0
  0
LINE
  5
54D0
100
AcDbEntity
  8
ELEV
 62
     3
100
AcDbLine
 10
481.078578
 20
314.651357
 30
0.0
 11
461.106755
 21
314.651357
 31
0.0
  0
TEXT
  5
54D1
100
AcDbEntity
  8
ELEV
 62
     3
100
AcDbText
 10
470.065813
 20
315.231842
 30
0.0
 40
1.5
  1
INV ELEV 
  7
ROMANS
100
AcDbText
  0
LINE
  5
54D2
100
AcDbEntity
  8
OBJECT
 62
     2
100
AcDbLine
 39
20.0
 10
431.389308
 20
329.605157
 30
0.0
 11
433.389308
 21
329.605157
 31
0.0
  0
LINE
  5
54D3
100
AcDbEntity
  8
OBJECT
 62
     2
100
AcDbLine
 39
20.0
 10
435.314308
 20
326.605157
 30
0.0
 11
435.314308
 21
326.355157
 31
0.0
  0
LINE
  5
54D4
100
AcDbEntity
  8
OBJECT
 62
     2
100
AcDbLine
 39
20.0
 10
435.414308
 20
326.605157
 30
0.0
 11
435.414308
 21
326.355157
 31
0.0
  0
LINE
  5
54D5
100
AcDbEntity
  8
OBJECT
 62
     2
100
AcDbLine
 39
20.0
 10
435.864308
 20
326.605157
 30
0.0
 11
435.864308
 21
326.355157
 31
0.0
  0
LINE
  5
54D6
100
AcDbEntity
  8
OBJECT
 62
     2
100
AcDbLine
 39
20.0
 10
435.964308
 20
326.605157
 30
0.0
 11
435.964308
 21
326.355157
 31
0.0
  0
LINE
  5
54D7
100
AcDbEntity
  8
OBJECT
 62
     2
100
AcDbLine
 39
20.0
 10
435.964308
 20
326.155157
 30
0.0
 11
435.964308
 21
325.770157
 31
0.0
  0
LINE
  5
54D8
100
AcDbEntity
  8
OBJECT
 62
     2
100
AcDbLine
 39
20.0
 10
435.864308
 20
326.155157
 30
0.0
 11
435.864308
 21
325.770157
 31
0.0
  0
LINE
  5
54D9
100
AcDbEntity
  8
OBJECT
 62
     2
100
AcDbLine
 39
20.0
 10
435.414308
 20
326.155157
 30
0.0
 11
435.414308
 21
325.770157
 31
0.0
  0
LINE
  5
54DA
100
AcDbEntity
  8
OBJECT
 62
     2
100
AcDbLine
 39
20.0
 10
435.314308
 20
326.155157
 30
0.0
 11
435.314308
 21
325.770157
 31
0.0
  0
ARC
  5
54DB
100
AcDbEntity
  8
OBJECT
 62
     2
100
AcDbCircle
 39
20.0
 10
435.639308
 20
326.4269
 30
0.0
 40
0.694216
100
AcDbArc
 50
251.088553
 51
288.911447
  0
LINE
  5
54DC
100
AcDbEntity
  8
OBJECT
 62
     2
100
AcDbLine
 39
20.0
 10
436.101808
 20
325.720157
 30
0.0
 11
436.101808
 21
325.703157
 31
0.0
  0
LINE
  5
54DD
100
AcDbEntity
  8
OBJECT
 62
     2
100
AcDbLine
 39
20.0
 10
435.176808
 20
325.720157
 30
0.0
 11
435.176808
 21
325.703157
 31
0.0
  0
LINE
  5
54DE
100
AcDbEntity
  8
OBJECT
 62
     2
100
AcDbLine
 39
20.0
 10
436.064308
 20
326.355157
 30
0.0
 11
436.064308
 21
326.155157
 31
0.0
  0
LINE
  5
54DF
100
AcDbEntity
  8
OBJECT
 62
     2
100
AcDbLine
 39
20.0
 10
435.214308
 20
326.355157
 30
0.0
 11
435.214308
 21
326.155157
 31
0.0
  0
ARC
  5
54E0
100
AcDbEntity
  8
OBJECT
 62
     2
100
AcDbCircle
 39
20.0
 10
435.639308
 20
326.669523
 30
0.0
 40
0.38748
100
AcDbArc
 50
62.319552
 51
117.680448
  0
LINE
  5
54E1
100
AcDbEntity
  8
OBJECT
 62
     2
100
AcDbLine
 39
20.0
 10
435.459308
 20
327.012657
 30
0.0
 11
435.459308
 21
326.842657
 31
0.0
  0
LINE
  5
54E2
100
AcDbEntity
  8
OBJECT
 62
     2
100
AcDbLine
 39
20.0
 10
435.224308
 20
327.012657
 30
0.0
 11
435.224308
 21
326.842657
 31
0.0
  0
LINE
  5
54E3
100
AcDbEntity
  8
OBJECT
 62
     2
100
AcDbLine
 39
20.0
 10
435.819308
 20
327.012657
 30
0.0
 11
435.819308
 21
326.842657
 31
0.0
  0
LINE
  5
54E4
100
AcDbEntity
  8
OBJECT
 62
     2
100
AcDbLine
 39
20.0
 10
436.054308
 20
327.012657
 30
0.0
 11
436.054308
 21
326.842657
 31
0.0
  0
LINE
  5
54E5
100
AcDbEntity
  8
OBJECT
 62
     2
100
AcDbLine
 39
20.0
 10
435.079308
 20
327.012657
 30
0.0
 11
435.079308
 21
326.792657
 31
0.0
  0
LINE
  5
54E6
100
AcDbEntity
  8
OBJECT
 62
     2
100
AcDbLine
 39
20.0
 10
436.199308
 20
327.012657
 30
0.0
 11
436.199308
 21
326.792657
 31
0.0
  0
LINE
  5
54E7
100
AcDbEntity
  8
OBJECT
 62
     2
100
AcDbLine
 39
20.0
 10
436.149308
 20
327.062657
 30
0.0
 11
436.199308
 21
327.012657
 31
0.0
  0
ARC
  5
54E8
100
AcDbEntity
  8
OBJECT
 62
     2
100
AcDbCircle
 39
20.0
 10
436.234308
 20
326.669523
 30
0.0
 40
0.38748
100
AcDbArc
 50
100.784369
 51
117.680448
  0
ARC
  5
54E9
100
AcDbEntity
  8
OBJECT
 62
     2
100
AcDbCircle
 39
20.0
 10
435.044308
 20
326.669523
 30
0.0
 40
0.38748
100
AcDbArc
 50
62.319552
 51
79.215631
  0
LINE
  5
54EA
100
AcDbEntity
  8
OBJECT
 62
     2
100
AcDbLine
 39
20.0
 10
434.964308
 20
326.155157
 30
0.0
 11
434.964308
 21
325.770157
 31
0.0
  0
LINE
  5
54EB
100
AcDbEntity
  8
OBJECT
 62
     2
100
AcDbLine
 39
20.0
 10
436.314308
 20
326.155157
 30
0.0
 11
436.314308
 21
325.770157
 31
0.0
  0
ARC
  5
54EC
100
AcDbEntity
  8
OBJECT
 62
     2
100
AcDbCircle
 39
20.0
 10
436.189308
 20
326.4269
 30
0.0
 40
0.694216
100
AcDbArc
 50
251.088553
 51
277.774298
  0
ARC
  5
54ED
100
AcDbEntity
  8
OBJECT
 62
     2
100
AcDbCircle
 39
20.0
 10
435.089308
 20
326.4269
 30
0.0
 40
0.694216
100
AcDbArc
 50
262.225702
 51
288.911447
  0
LINE
  5
54EE
100
AcDbEntity
  8
OBJECT
 62
     2
100
AcDbLine
 39
20.0
 10
434.989308
 20
326.605157
 30
0.0
 11
434.989308
 21
326.380157
 31
0.0
  0
LINE
  5
54EF
100
AcDbEntity
  8
OBJECT
 62
     2
100
AcDbLine
 39
20.0
 10
436.289308
 20
326.605157
 30
0.0
 11
436.289308
 21
326.380157
 31
0.0
  0
LINE
  5
54F0
100
AcDbEntity
  8
OBJECT
 62
     2
100
AcDbLine
 39
20.0
 10
432.064308
 20
326.605157
 30
0.0
 11
432.064308
 21
326.355157
 31
0.0
  0
LINE
  5
54F1
100
AcDbEntity
  8
OBJECT
 62
     2
100
AcDbLine
 39
20.0
 10
432.164308
 20
326.605157
 30
0.0
 11
432.164308
 21
326.355157
 31
0.0
  0
LINE
  5
54F2
100
AcDbEntity
  8
OBJECT
 62
     2
100
AcDbLine
 39
20.0
 10
432.614308
 20
326.605157
 30
0.0
 11
432.614308
 21
326.355157
 31
0.0
  0
LINE
  5
54F3
100
AcDbEntity
  8
OBJECT
 62
     2
100
AcDbLine
 39
20.0
 10
432.714308
 20
326.605157
 30
0.0
 11
432.714308
 21
326.355157
 31
0.0
  0
LINE
  5
54F4
100
AcDbEntity
  8
OBJECT
 62
     2
100
AcDbLine
 39
20.0
 10
432.714308
 20
326.155157
 30
0.0
 11
432.714308
 21
325.770157
 31
0.0
  0
LINE
  5
54F5
100
AcDbEntity
  8
OBJECT
 62
     2
100
AcDbLine
 39
20.0
 10
432.614308
 20
326.155157
 30
0.0
 11
432.614308
 21
325.770157
 31
0.0
  0
LINE
  5
54F6
100
AcDbEntity
  8
OBJECT
 62
     2
100
AcDbLine
 39
20.0
 10
432.164308
 20
326.155157
 30
0.0
 11
432.164308
 21
325.770157
 31
0.0
  0
LINE
  5
54F7
100
AcDbEntity
  8
OBJECT
 62
     2
100
AcDbLine
 39
20.0
 10
432.064308
 20
326.155157
 30
0.0
 11
432.064308
 21
325.770157
 31
0.0
  0
ARC
  5
54F8
100
AcDbEntity
  8
OBJECT
 62
     2
100
AcDbCircle
 39
20.0
 10
432.389308
 20
326.4269
 30
0.0
 40
0.694216
100
AcDbArc
 50
251.088553
 51
288.911447
  0
LINE
  5
54F9
100
AcDbEntity
  8
OBJECT
 62
     2
100
AcDbLine
 39
20.0
 10
432.851808
 20
325.720157
 30
0.0
 11
432.851808
 21
325.703157
 31
0.0
  0
LINE
  5
54FA
100
AcDbEntity
  8
OBJECT
 62
     2
100
AcDbLine
 39
20.0
 10
431.926808
 20
325.720157
 30
0.0
 11
431.926808
 21
325.703157
 31
0.0
  0
LINE
  5
54FB
100
AcDbEntity
  8
OBJECT
 62
     2
100
AcDbLine
 39
20.0
 10
432.814308
 20
326.355157
 30
0.0
 11
432.814308
 21
326.155157
 31
0.0
  0
LINE
  5
54FC
100
AcDbEntity
  8
OBJECT
 62
     2
100
AcDbLine
 39
20.0
 10
431.964308
 20
326.355157
 30
0.0
 11
431.964308
 21
326.155157
 31
0.0
  0
ARC
  5
54FD
100
AcDbEntity
  8
OBJECT
 62
     2
100
AcDbCircle
 39
20.0
 10
432.389308
 20
326.669523
 30
0.0
 40
0.38748
100
AcDbArc
 50
62.319552
 51
117.680448
  0
LINE
  5
54FE
100
AcDbEntity
  8
OBJECT
 62
     2
100
AcDbLine
 39
20.0
 10
432.209308
 20
327.012657
 30
0.0
 11
432.209308
 21
326.842657
 31
0.0
  0
LINE
  5
54FF
100
AcDbEntity
  8
OBJECT
 62
     2
100
AcDbLine
 39
20.0
 10
431.974308
 20
327.012657
 30
0.0
 11
431.974308
 21
326.842657
 31
0.0
  0
LINE
  5
5500
100
AcDbEntity
  8
OBJECT
 62
     2
100
AcDbLine
 39
20.0
 10
432.569308
 20
327.012657
 30
0.0
 11
432.569308
 21
326.842657
 31
0.0
  0
LINE
  5
5501
100
AcDbEntity
  8
OBJECT
 62
     2
100
AcDbLine
 39
20.0
 10
432.804308
 20
327.012657
 30
0.0
 11
432.804308
 21
326.842657
 31
0.0
  0
LINE
  5
5502
100
AcDbEntity
  8
OBJECT
 62
     2
100
AcDbLine
 39
20.0
 10
431.829308
 20
327.012657
 30
0.0
 11
431.829308
 21
326.792657
 31
0.0
  0
LINE
  5
5503
100
AcDbEntity
  8
OBJECT
 62
     2
100
AcDbLine
 39
20.0
 10
432.949308
 20
327.012657
 30
0.0
 11
432.949308
 21
326.792657
 31
0.0
  0
LINE
  5
5504
100
AcDbEntity
  8
OBJECT
 62
     2
100
AcDbLine
 39
20.0
 10
432.899308
 20
327.062657
 30
0.0
 11
432.949308
 21
327.012657
 31
0.0
  0
ARC
  5
5505
100
AcDbEntity
  8
OBJECT
 62
     2
100
AcDbCircle
 39
20.0
 10
432.984308
 20
326.669523
 30
0.0
 40
0.38748
100
AcDbArc
 50
100.784369
 51
117.680448
  0
ARC
  5
5506
100
AcDbEntity
  8
OBJECT
 62
     2
100
AcDbCircle
 39
20.0
 10
431.794308
 20
326.669523
 30
0.0
 40
0.38748
100
AcDbArc
 50
62.319552
 51
79.215631
  0
LINE
  5
5507
100
AcDbEntity
  8
OBJECT
 62
     2
100
AcDbLine
 39
20.0
 10
431.714308
 20
326.155157
 30
0.0
 11
431.714308
 21
325.770157
 31
0.0
  0
LINE
  5
5508
100
AcDbEntity
  8
OBJECT
 62
     2
100
AcDbLine
 39
20.0
 10
433.064308
 20
326.155157
 30
0.0
 11
433.064308
 21
325.770157
 31
0.0
  0
ARC
  5
5509
100
AcDbEntity
  8
OBJECT
 62
     2
100
AcDbCircle
 39
20.0
 10
432.939308
 20
326.4269
 30
0.0
 40
0.694216
100
AcDbArc
 50
251.088553
 51
277.774298
  0
ARC
  5
550A
100
AcDbEntity
  8
OBJECT
 62
     2
100
AcDbCircle
 39
20.0
 10
431.839308
 20
326.4269
 30
0.0
 40
0.694216
100
AcDbArc
 50
262.225702
 51
288.911447
  0
LINE
  5
550B
100
AcDbEntity
  8
OBJECT
 62
     2
100
AcDbLine
 39
20.0
 10
431.739308
 20
326.605157
 30
0.0
 11
431.739308
 21
326.380157
 31
0.0
  0
LINE
  5
550C
100
AcDbEntity
  8
OBJECT
 62
     2
100
AcDbLine
 39
20.0
 10
433.039308
 20
326.605157
 30
0.0
 11
433.039308
 21
326.380157
 31
0.0
  0
LINE
  5
550D
100
AcDbEntity
  8
OBJECT
 62
     2
100
AcDbLine
 39
20.0
 10
432.264308
 20
325.553157
 30
0.0
 11
432.514308
 21
325.553157
 31
0.0
  0
LINE
  5
550E
100
AcDbEntity
  8
OBJECT
 62
     2
100
AcDbLine
 39
20.0
 10
435.514308
 20
325.553157
 30
0.0
 11
435.764308
 21
325.553157
 31
0.0
  0
LINE
  5
550F
100
AcDbEntity
  8
OBJECT
 62
     2
100
AcDbLine
 39
20.0
 10
429.789308
 20
326.605157
 30
0.0
 11
429.789308
 21
326.380157
 31
0.0
  0
LINE
  5
5510
100
AcDbEntity
  8
OBJECT
 62
     2
100
AcDbLine
 39
20.0
 10
428.489308
 20
326.605157
 30
0.0
 11
428.489308
 21
326.380157
 31
0.0
  0
ARC
  5
5511
100
AcDbEntity
  8
OBJECT
 62
     2
100
AcDbCircle
 39
20.0
 10
428.589308
 20
326.4269
 30
0.0
 40
0.694216
100
AcDbArc
 50
262.225702
 51
288.911447
  0
ARC
  5
5512
100
AcDbEntity
  8
OBJECT
 62
     2
100
AcDbCircle
 39
20.0
 10
429.689308
 20
326.4269
 30
0.0
 40
0.694216
100
AcDbArc
 50
251.088553
 51
277.774298
  0
LINE
  5
5513
100
AcDbEntity
  8
OBJECT
 62
     2
100
AcDbLine
 39
20.0
 10
429.814308
 20
326.155157
 30
0.0
 11
429.814308
 21
325.770157
 31
0.0
  0
LINE
  5
5514
100
AcDbEntity
  8
OBJECT
 62
     2
100
AcDbLine
 39
20.0
 10
428.464308
 20
326.155157
 30
0.0
 11
428.464308
 21
325.770157
 31
0.0
  0
ARC
  5
5515
100
AcDbEntity
  8
OBJECT
 62
     2
100
AcDbCircle
 39
20.0
 10
428.544308
 20
326.669523
 30
0.0
 40
0.38748
100
AcDbArc
 50
62.319552
 51
79.215631
  0
ARC
  5
5516
100
AcDbEntity
  8
OBJECT
 62
     2
100
AcDbCircle
 39
20.0
 10
429.734308
 20
326.669523
 30
0.0
 40
0.38748
100
AcDbArc
 50
100.784369
 51
117.680448
  0
LINE
  5
5517
100
AcDbEntity
  8
OBJECT
 62
     2
100
AcDbLine
 39
20.0
 10
429.649308
 20
327.062657
 30
0.0
 11
429.699308
 21
327.012657
 31
0.0
  0
LINE
  5
5518
100
AcDbEntity
  8
OBJECT
 62
     2
100
AcDbLine
 39
20.0
 10
429.699308
 20
327.012657
 30
0.0
 11
429.699308
 21
326.792657
 31
0.0
  0
LINE
  5
5519
100
AcDbEntity
  8
OBJECT
 62
     2
100
AcDbLine
 39
20.0
 10
428.579308
 20
327.012657
 30
0.0
 11
428.579308
 21
326.792657
 31
0.0
  0
LINE
  5
551A
100
AcDbEntity
  8
OBJECT
 62
     2
100
AcDbLine
 39
20.0
 10
429.554308
 20
327.012657
 30
0.0
 11
429.554308
 21
326.842657
 31
0.0
  0
LINE
  5
551B
100
AcDbEntity
  8
OBJECT
 62
     2
100
AcDbLine
 39
20.0
 10
429.319308
 20
327.012657
 30
0.0
 11
429.319308
 21
326.842657
 31
0.0
  0
LINE
  5
551C
100
AcDbEntity
  8
OBJECT
 62
     2
100
AcDbLine
 39
20.0
 10
428.724308
 20
327.012657
 30
0.0
 11
428.724308
 21
326.842657
 31
0.0
  0
LINE
  5
551D
100
AcDbEntity
  8
OBJECT
 62
     2
100
AcDbLine
 39
20.0
 10
428.959308
 20
327.012657
 30
0.0
 11
428.959308
 21
326.842657
 31
0.0
  0
ARC
  5
551E
100
AcDbEntity
  8
OBJECT
 62
     2
100
AcDbCircle
 39
20.0
 10
429.139308
 20
326.669523
 30
0.0
 40
0.38748
100
AcDbArc
 50
62.319552
 51
117.680448
  0
LINE
  5
551F
100
AcDbEntity
  8
OBJECT
 62
     2
100
AcDbLine
 39
20.0
 10
428.714308
 20
326.355157
 30
0.0
 11
428.714308
 21
326.155157
 31
0.0
  0
LINE
  5
5520
100
AcDbEntity
  8
OBJECT
 62
     2
100
AcDbLine
 39
20.0
 10
429.564308
 20
326.355157
 30
0.0
 11
429.564308
 21
326.155157
 31
0.0
  0
LINE
  5
5521
100
AcDbEntity
  8
OBJECT
 62
     2
100
AcDbLine
 39
20.0
 10
428.676808
 20
325.720157
 30
0.0
 11
428.676808
 21
325.703157
 31
0.0
  0
LINE
  5
5522
100
AcDbEntity
  8
OBJECT
 62
     2
100
AcDbLine
 39
20.0
 10
429.601808
 20
325.720157
 30
0.0
 11
429.601808
 21
325.703157
 31
0.0
  0
ARC
  5
5523
100
AcDbEntity
  8
OBJECT
 62
     2
100
AcDbCircle
 39
20.0
 10
429.139308
 20
326.4269
 30
0.0
 40
0.694216
100
AcDbArc
 50
251.088553
 51
288.911447
  0
LINE
  5
5524
100
AcDbEntity
  8
OBJECT
 62
     2
100
AcDbLine
 39
20.0
 10
428.814308
 20
326.155157
 30
0.0
 11
428.814308
 21
325.770157
 31
0.0
  0
LINE
  5
5525
100
AcDbEntity
  8
OBJECT
 62
     2
100
AcDbLine
 39
20.0
 10
428.914308
 20
326.155157
 30
0.0
 11
428.914308
 21
325.770157
 31
0.0
  0
LINE
  5
5526
100
AcDbEntity
  8
OBJECT
 62
     2
100
AcDbLine
 39
20.0
 10
429.364308
 20
326.155157
 30
0.0
 11
429.364308
 21
325.770157
 31
0.0
  0
LINE
  5
5527
100
AcDbEntity
  8
OBJECT
 62
     2
100
AcDbLine
 39
20.0
 10
429.464308
 20
326.155157
 30
0.0
 11
429.464308
 21
325.770157
 31
0.0
  0
LINE
  5
5528
100
AcDbEntity
  8
OBJECT
 62
     2
100
AcDbLine
 39
20.0
 10
429.464308
 20
326.605157
 30
0.0
 11
429.464308
 21
326.355157
 31
0.0
  0
LINE
  5
5529
100
AcDbEntity
  8
OBJECT
 62
     2
100
AcDbLine
 39
20.0
 10
429.364308
 20
326.605157
 30
0.0
 11
429.364308
 21
326.355157
 31
0.0
  0
LINE
  5
552A
100
AcDbEntity
  8
OBJECT
 62
     2
100
AcDbLine
 39
20.0
 10
428.914308
 20
326.605157
 30
0.0
 11
428.914308
 21
326.355157
 31
0.0
  0
LINE
  5
552B
100
AcDbEntity
  8
OBJECT
 62
     2
100
AcDbLine
 39
20.0
 10
428.814308
 20
326.605157
 30
0.0
 11
428.814308
 21
326.355157
 31
0.0
  0
LINE
  5
552C
100
AcDbEntity
  8
OBJECT
 62
     2
100
AcDbLine
 39
20.0
 10
436.064308
 20
327.062657
 30
0.0
 11
436.064308
 21
327.105157
 31
0.0
  0
LINE
  5
552D
100
AcDbEntity
  8
OBJECT
 62
     2
100
AcDbLine
 39
20.0
 10
435.214308
 20
327.062657
 30
0.0
 11
435.214308
 21
327.105157
 31
0.0
  0
LINE
  5
552E
100
AcDbEntity
  8
OBJECT
 62
     2
100
AcDbLine
 39
20.0
 10
432.814308
 20
327.062657
 30
0.0
 11
432.814308
 21
327.105157
 31
0.0
  0
LINE
  5
552F
100
AcDbEntity
  8
OBJECT
 62
     2
100
AcDbLine
 39
20.0
 10
431.964308
 20
327.062657
 30
0.0
 11
431.964308
 21
327.105157
 31
0.0
  0
LINE
  5
5530
100
AcDbEntity
  8
OBJECT
 62
     2
100
AcDbLine
 39
20.0
 10
428.714308
 20
327.062657
 30
0.0
 11
428.714308
 21
327.105157
 31
0.0
  0
LINE
  5
5531
100
AcDbEntity
  8
OBJECT
 62
     2
100
AcDbLine
 39
20.0
 10
429.564308
 20
327.062657
 30
0.0
 11
429.564308
 21
327.105157
 31
0.0
  0
ARC
  5
5532
100
AcDbEntity
  8
ELEV
 62
     3
100
AcDbCircle
 39
12.0
 10
397.038687
 20
299.137718
 30
0.0
 40
1.64824
100
AcDbArc
 50
270.0
 51
0.0
  0
ARC
  5
5533
100
AcDbEntity
  8
ELEV
 62
     3
100
AcDbCircle
 39
12.0
 10
397.038687
 20
299.137718
 30
0.0
 40
1.64824
100
AcDbArc
 50
0.0
 51
90.0
  0
ARC
  5
5534
100
AcDbEntity
  8
ELEV
 62
     3
100
AcDbCircle
 39
12.0
 10
397.038687
 20
299.137718
 30
0.0
 40
1.64824
100
AcDbArc
 50
90.0
 51
180.0
  0
ARC
  5
5535
100
AcDbEntity
  8
ELEV
 62
     3
100
AcDbCircle
 39
12.0
 10
397.038687
 20
299.137718
 30
0.0
 40
1.64824
100
AcDbArc
 50
180.0
 51
270.0
  0
ARC
  5
5536
100
AcDbEntity
  8
ELEV
 62
     3
100
AcDbCircle
 39
12.0
 10
397.038687
 20
288.662756
 30
0.0
 40
1.64824
100
AcDbArc
 50
180.0
 51
270.0
  0
ARC
  5
5537
100
AcDbEntity
  8
ELEV
 62
     3
100
AcDbCircle
 39
12.0
 10
397.038687
 20
288.662756
 30
0.0
 40
1.64824
100
AcDbArc
 50
90.0
 51
180.0
  0
ARC
  5
5538
100
AcDbEntity
  8
ELEV
 62
     3
100
AcDbCircle
 39
12.0
 10
397.038687
 20
288.662756
 30
0.0
 40
1.64824
100
AcDbArc
 50
0.0
 51
90.0
  0
ARC
  5
5539
100
AcDbEntity
  8
ELEV
 62
     3
100
AcDbCircle
 39
12.0
 10
397.038687
 20
288.662756
 30
0.0
 40
1.64824
100
AcDbArc
 50
270.0
 51
0.0
  0
ARC
  5
553A
100
AcDbEntity
  8
ELEV
 62
     3
100
AcDbCircle
 39
12.0
 10
397.038687
 20
278.306341
 30
0.0
 40
1.64824
100
AcDbArc
 50
270.0
 51
0.0
  0
ARC
  5
553B
100
AcDbEntity
  8
ELEV
 62
     3
100
AcDbCircle
 39
12.0
 10
397.038687
 20
278.306341
 30
0.0
 40
1.64824
100
AcDbArc
 50
0.0
 51
90.0
  0
ARC
  5
553C
100
AcDbEntity
  8
ELEV
 62
     3
100
AcDbCircle
 39
12.0
 10
397.038687
 20
278.306341
 30
0.0
 40
1.64824
100
AcDbArc
 50
90.0
 51
180.0
  0
ARC
  5
553D
100
AcDbEntity
  8
ELEV
 62
     3
100
AcDbCircle
 39
12.0
 10
397.038687
 20
278.306341
 30
0.0
 40
1.64824
100
AcDbArc
 50
180.0
 51
270.0
  0
ARC
  5
553E
100
AcDbEntity
  8
ELEV
 62
     3
100
AcDbCircle
 39
12.0
 10
392.122328
 20
303.90934
 30
0.0
 40
1.64824
100
AcDbArc
 50
90.0
 51
180.0
  0
ARC
  5
553F
100
AcDbEntity
  8
ELEV
 62
     3
100
AcDbCircle
 39
12.0
 10
392.122328
 20
303.90934
 30
0.0
 40
1.64824
100
AcDbArc
 50
180.0
 51
270.0
  0
ARC
  5
5540
100
AcDbEntity
  8
ELEV
 62
     3
100
AcDbCircle
 39
12.0
 10
392.122328
 20
303.90934
 30
0.0
 40
1.64824
100
AcDbArc
 50
270.0
 51
0.0
  0
ARC
  5
5541
100
AcDbEntity
  8
ELEV
 62
     3
100
AcDbCircle
 39
12.0
 10
392.122328
 20
303.90934
 30
0.0
 40
1.64824
100
AcDbArc
 50
0.0
 51
90.0
  0
ARC
  5
5542
100
AcDbEntity
  8
ELEV
 62
     3
100
AcDbCircle
 39
12.0
 10
392.122328
 20
270.22316
 30
0.0
 40
1.64824
100
AcDbArc
 50
0.0
 51
90.0
  0
ARC
  5
5543
100
AcDbEntity
  8
ELEV
 62
     3
100
AcDbCircle
 39
12.0
 10
392.122328
 20
270.22316
 30
0.0
 40
1.64824
100
AcDbArc
 50
270.0
 51
0.0
  0
ARC
  5
5544
100
AcDbEntity
  8
ELEV
 62
     3
100
AcDbCircle
 39
12.0
 10
392.122328
 20
270.22316
 30
0.0
 40
1.64824
100
AcDbArc
 50
180.0
 51
270.0
  0
ARC
  5
5545
100
AcDbEntity
  8
ELEV
 62
     3
100
AcDbCircle
 39
12.0
 10
392.122328
 20
270.22316
 30
0.0
 40
1.64824
100
AcDbArc
 50
90.0
 51
180.0
  0
LINE
  5
5546
100
AcDbEntity
  8
PUMP
 62
     4
100
AcDbLine
 39
20.0
 10
445.129008
 20
276.572591
 30
0.0
 11
445.129008
 21
275.922401
 31
0.0
  0
LINE
  5
5547
100
AcDbEntity
  8
DIM
 62
     2
100
AcDbLine
 39
20.0
 10
423.028477
 20
325.005157
 30
0.0
 11
423.028477
 21
328.205157
 31
0.0
  0
LINE
  5
5548
100
AcDbEntity
  8
DIM
 62
     2
100
AcDbLine
 39
20.0
 10
422.528477
 20
302.850836
 30
0.0
 11
422.528477
 21
308.700836
 31
0.0
  0
LINE
  5
5549
100
AcDbEntity
  8
DIM
 62
     2
100
AcDbLine
 39
20.0
 10
422.278477
 20
303.250836
 30
0.0
 11
422.428477
 21
302.850836
 31
0.0
  0
LINE
  5
554A
100
AcDbEntity
  8
DIM
 62
     2
100
AcDbLine
 39
20.0
 10
422.428477
 20
302.850836
 30
0.0
 11
422.428477
 21
308.700836
 31
0.0
  0
LINE
  5
554B
100
AcDbEntity
  8
DIM
 62
     2
100
AcDbLine
 39
20.0
 10
422.528477
 20
302.850836
 30
0.0
 11
422.428477
 21
302.850836
 31
0.0
  0
LINE
  5
554C
100
AcDbEntity
  8
DIM
 62
     2
100
AcDbLine
 39
20.0
 10
422.278477
 20
308.300836
 30
0.0
 11
422.428477
 21
308.700836
 31
0.0
  0
LINE
  5
554D
100
AcDbEntity
  8
DIM
 62
     2
100
AcDbLine
 39
20.0
 10
422.278477
 20
303.250836
 30
0.0
 11
422.278477
 21
308.300836
 31
0.0
  0
LINE
  5
554E
100
AcDbEntity
  8
DIM
 62
     2
100
AcDbLine
 39
20.0
 10
422.528477
 20
308.700836
 30
0.0
 11
422.428477
 21
308.700836
 31
0.0
  0
LINE
  5
554F
100
AcDbEntity
  8
DIM
 62
     2
100
AcDbLine
 39
20.0
 10
423.128477
 20
303.175836
 30
0.0
 11
423.028477
 21
303.175836
 31
0.0
  0
LINE
  5
5550
100
AcDbEntity
  8
DIM
 62
     2
100
AcDbLine
 39
20.0
 10
423.028477
 20
303.175836
 30
0.0
 11
423.028477
 21
308.375836
 31
0.0
  0
LINE
  5
5551
100
AcDbEntity
  8
DIM
 62
     2
100
AcDbLine
 39
20.0
 10
423.128477
 20
308.375836
 30
0.0
 11
423.028477
 21
308.375836
 31
0.0
  0
LINE
  5
5552
100
AcDbEntity
  8
DIM
 62
     2
100
AcDbLine
 39
20.0
 10
423.128477
 20
303.175836
 30
0.0
 11
423.128477
 21
308.375836
 31
0.0
  0
ARC
  5
5553
100
AcDbEntity
  8
OBJECT
100
AcDbCircle
 10
351.431922
 20
273.45965
 30
0.0
 40
89.553086
100
AcDbArc
 50
12.073273
 51
36.324568
  0
LWPOLYLINE
  5
5555
100
AcDbEntity
  8
OBJECT
100
AcDbPolyline
 90
        9
 70
     0
 43
0.0
 10
432.558178
 20
327.105157
 10
431.822572
 20
327.914987
 10
430.715088
 20
328.383118
 10
429.744759
 20
328.551709
 10
427.829518
 20
328.551709
 10
426.662693
 20
328.301911
 10
425.705029
 20
328.052307
 10
424.748459
 20
327.636787
 10
423.779173
 20
327.173644
  0
LWPOLYLINE
  5
5556
100
AcDbEntity
  8
OBJECT
100
AcDbPolyline
 90
       13
 70
     0
 43
0.0
 10
435.809546
 20
327.105157
 10
434.951746
 20
328.032965
 10
433.6908
 20
328.746849
 10
432.564653
 20
329.121891
 10
431.399217
 20
329.412988
 10
430.435738
 20
329.496695
 10
429.433674
 20
329.454973
 10
428.387801
 20
329.287796
 10
427.310002
 20
328.915047
 10
426.403986
 20
328.627029
 10
425.411858
 20
328.255319
 10
424.313099
 20
327.790889
 10
423.773091
 20
327.154085
  0
LINE
  5
5557
100
AcDbEntity
  8
OBJECT
100
AcDbLine
 10
428.014308
 20
326.792657
 30
0.0
 11
436.764308
 21
326.792657
 31
0.0
  0
LINE
  5
5558
100
AcDbEntity
  8
OBJECT
100
AcDbLine
 10
428.014308
 20
326.605157
 30
0.0
 11
436.764308
 21
326.605157
 31
0.0
  0
INSERT
  5
5559
100
AcDbEntity
  8
HATCH
100
AcDbBlockReference
  2
*X2
 10
267.211401
 20
196.60024
 30
0.0
1001
ACAD
1000
HATCH
1002
{
1070
    16
1000
ANSI37
1040
0.5
1040
0.0
1002
}
  0
LWPOLYLINE
  5
555A
100
AcDbEntity
  8
OBJECT
100
AcDbPolyline
 90
       10
 70
     0
 43
0.0
 10
432.296781
 20
327.02111
 10
431.674531
 20
327.706147
 10
430.644105
 20
328.141705
 10
429.723202
 20
328.301709
 10
427.855979
 20
328.301709
 10
426.720415
 20
328.058603
 10
425.786847
 20
327.81528
 10
424.852186
 20
327.409277
 10
423.933634
 20
326.970376
 10
423.568044
 20
326.525766
  0
LWPOLYLINE
  5
555B
100
AcDbEntity
  8
OBJECT
100
AcDbPolyline
 90
       13
 70
     0
 43
0.0
 10
435.547525
 20
327.020299
 10
434.794649
 20
327.834621
 10
433.588766
 20
328.51733
 10
432.494763
 20
328.881667
 10
431.357849
 20
329.16564
 10
430.430096
 20
329.246243
 10
429.458689
 20
329.205798
 10
428.448851
 20
329.044381
 10
427.38874
 20
328.67775
 10
426.485764
 20
328.390698
 10
425.50442
 20
328.023028
 10
424.465269
 20
327.583793
 10
424.347909
 20
327.445397
  0
LINE
  5
555C
100
AcDbEntity
  8
DIM
100
AcDbLine
 10
424.128477
 20
264.169194
 30
0.0
 11
436.028477
 21
264.169194
 31
0.0
  0
LINE
  5
555D
100
AcDbEntity
  8
ELEV
 62
     3
100
AcDbLine
 10
398.686927
 20
299.137718
 30
0.0
 11
436.269086
 21
299.137718
 31
0.0
  0
LINE
  5
555E
100
AcDbEntity
  8
ELEV
100
AcDbLine
 10
433.425232
 20
288.662756
 30
0.0
 11
394.790446
 21
288.662756
 31
0.0
  0
LINE
  5
555F
100
AcDbEntity
  8
OBJECT
100
AcDbLine
 10
420.028477
 20
269.22316
 30
0.0
 11
462.028477
 21
269.22316
 31
0.0
  0
LINE
  5
5560
100
AcDbEntity
  8
OBJECT
100
AcDbLine
 10
423.528477
 20
270.22316
 30
0.0
 11
458.528477
 21
270.22316
 31
0.0
  0
LINE
  5
5561
100
AcDbEntity
  8
OBJECT
100
AcDbLine
 10
429.014308
 20
317.686503
 30
0.0
 11
429.014308
 21
282.694182
 31
0.0
  0
LINE
  5
5562
100
AcDbEntity
  8
OBJECT
100
AcDbLine
 10
429.264308
 20
317.245045
 30
0.0
 11
429.264308
 21
282.694181
 31
0.0
  0
LINE
  5
5563
100
AcDbEntity
  8
ELEV
100
AcDbLine
 10
397.038687
 20
301.385958
 30
0.0
 11
397.038687
 21
296.889478
 31
0.0
  0
LINE
  5
5564
100
AcDbEntity
  8
ELEV
 62
     3
100
AcDbLine
 10
398.686927
 20
288.662756
 30
0.0
 11
418.65875
 21
288.662756
 31
0.0
  0
LINE
  5
5565
100
AcDbEntity
  8
ELEV
 62
     3
100
AcDbLine
 10
398.686927
 20
278.306341
 30
0.0
 11
430.201134
 21
278.306341
 31
0.0
  0
LINE
  5
5566
100
AcDbEntity
  8
ELEV
100
AcDbLine
 10
418.65875
 20
278.306341
 30
0.0
 11
394.790446
 21
278.306341
 31
0.0
  0
LINE
  5
5567
100
AcDbEntity
  8
ELEV
100
AcDbLine
 10
423.528477
 20
270.22316
 30
0.0
 11
389.874088
 21
270.22316
 31
0.0
  0
LINE
  5
5568
100
AcDbEntity
  8
ELEV
 62
     3
100
AcDbLine
 10
393.770569
 20
270.22316
 30
0.0
 11
413.742392
 21
270.22316
 31
0.0
  0
LINE
  5
5569
100
AcDbEntity
  8
ELEV
 62
     3
100
AcDbLine
 10
397.038687
 20
278.306341
 30
0.0
 11
397.038687
 21
279.954581
 31
0.0
  0
INSERT
  5
556A
100
AcDbEntity
  8
ELEV
100
AcDbBlockReference
  2
*X1
 10
306.442801
 20
218.488206
 30
0.0
 41
0.8
 42
0.8
 43
0.8
1001
ACAD
1000
HATCH
1002
{
1070
    16
1000
ANSI37
1040
1.0
1040
0.0
1002
}
  0
LINE
  5
556B
100
AcDbEntity
  8
ELEV
100
AcDbLine
 10
397.038687
 20
280.554581
 30
0.0
 11
397.038687
 21
276.058101
 31
0.0
  0
TEXT
  5
556C
100
AcDbEntity
  8
ELEV
 62
     3
100
AcDbText
 10
399.314822
 20
276.31267
 30
0.0
 40
1.5
  1
PUMP OFF
  7
ROMANS
100
AcDbText
  0
LINE
  5
556D
100
AcDbEntity
  8
ELEV
100
AcDbLine
 10
392.122328
 20
272.471401
 30
0.0
 11
392.122328
 21
267.97492
 31
0.0
  0
INSERT
  5
556E
100
AcDbEntity
  8
ELEV
100
AcDbBlockReference
  2
*X0
 10
301.526443
 20
210.405025
 30
0.0
 41
0.8
 42
0.8
 43
0.8
1001
ACAD
1000
HATCH
1002
{
1070
    16
1000
ANSI37
1040
1.0
1040
0.0
1002
}
  0
LINE
  5
556F
100
AcDbEntity
  8
ELEV
 62
     3
100
AcDbLine
 10
392.122328
 20
270.22316
 30
0.0
 11
392.122328
 21
268.57492
 31
0.0
  0
INSERT
  5
5570
100
AcDbEntity
  8
ELEV
100
AcDbBlockReference
  2
*X1
 10
301.526443
 20
210.405025
 30
0.0
 41
0.8
 42
0.8
 43
0.8
1001
ACAD
1000
HATCH
1002
{
1070
    16
1000
ANSI37
1040
1.0
1040
0.0
1002
}
  0
LINE
  5
5571
100
AcDbEntity
  8
ELEV
 62
     3
100
AcDbLine
 10
392.122328
 20
270.22316
 30
0.0
 11
392.122328
 21
271.871401
 31
0.0
  0
TEXT
  5
5572
100
AcDbEntity
  8
ELEV
 62
     3
100
AcDbText
 10
394.398464
 20
270.652731
 30
0.0
 40
1.5
  1
ELEV 
  7
ROMANS
100
AcDbText
  0
INSERT
  5
5573
100
AcDbEntity
  8
ELEV
100
AcDbBlockReference
  2
*X0
 10
306.442801
 20
218.488206
 30
0.0
 41
0.8
 42
0.8
 43
0.8
1001
ACAD
1000
HATCH
1002
{
1070
    16
1000
ANSI37
1040
1.0
1040
0.0
1002
}
  0
LINE
  5
5574
100
AcDbEntity
  8
ELEV
 62
     3
100
AcDbLine
 10
397.038687
 20
278.306341
 30
0.0
 11
397.038687
 21
276.658101
 31
0.0
  0
TEXT
  5
5575
100
AcDbEntity
  8
ELEV
 62
     3
100
AcDbText
 10
399.314822
 20
286.669085
 30
0.0
 40
1.5
  1
PUMP ON
  7
ROMANS
100
AcDbText
  0
TEXT
  5
5576
100
AcDbEntity
  8
ELEV
 62
     3
100
AcDbText
 10
399.314822
 20
289.092326
 30
0.0
 40
1.5
  1
ELEV 
  7
ROMANS
100
AcDbText
  0
TEXT
  5
5577
100
AcDbEntity
  8
ELEV
 62
     3
100
AcDbText
 10
399.314822
 20
278.735911
 30
0.0
 40
1.5
  1
ELEV 
  7
ROMANS
100
AcDbText
  0
INSERT
  5
5578
100
AcDbEntity
  8
ELEV
100
AcDbBlockReference
  2
*X0
 10
306.442801
 20
228.84462
 30
0.0
 41
0.8
 42
0.8
 43
0.8
1001
ACAD
1000
HATCH
1002
{
1070
    16
1000
ANSI37
1040
1.0
1040
0.0
1002
}
  0
LINE
  5
5579
100
AcDbEntity
  8
ELEV
100
AcDbLine
 10
397.038687
 20
290.910996
 30
0.0
 11
397.038687
 21
286.414515
 31
0.0
  0
LINE
  5
557A
100
AcDbEntity
  8
ELEV
 62
     3
100
AcDbLine
 10
397.038687
 20
288.662756
 30
0.0
 11
397.038687
 21
287.014515
 31
0.0
  0
INSERT
  5
557B
100
AcDbEntity
  8
ELEV
100
AcDbBlockReference
  2
*X1
 10
306.442801
 20
228.84462
 30
0.0
 41
0.8
 42
0.8
 43
0.8
1001
ACAD
1000
HATCH
1002
{
1070
    16
1000
ANSI37
1040
1.0
1040
0.0
1002
}
  0
LINE
  5
557C
100
AcDbEntity
  8
ELEV
 62
     3
100
AcDbLine
 10
397.038687
 20
288.662756
 30
0.0
 11
397.038687
 21
290.310996
 31
0.0
  0
DIMENSION
  5
557D
100
AcDbEntity
  8
DIM
100
AcDbDimension
  2
*D3
 10
420.028477
 20
264.169194
 30
0.0
 11
416.428057
 21
264.169194
 31
0.0
 12
-6.102964
 22
-11.135216
 32
0.0
 70
   160
  1
3"
  3
STANDARD
100
AcDbAlignedDimension
 13
423.028477
 23
270.72316
 33
0.0
 14
420.028477
 24
269.22316
 34
0.0
100
AcDbRotatedDimension
1001
ACAD
1000
DSTYLE
1002
{
1070
   340
1005
2C
1070
   272
1070
     2
1070
   147
1040
1.25
1070
   287
1070
     5
1070
    44
1040
1.25
1070
   271
1070
     2
1070
    41
1040
1.1
1002
}
  0
LINE
  5
557E
100
AcDbEntity
  8
OBJECT
100
AcDbLine
 10
420.028477
 20
269.97316
 30
0.0
 11
422.028477
 21
269.97316
 31
0.0
  0
LINE
  5
557F
100
AcDbEntity
  8
OBJECT
100
AcDbLine
 10
420.028477
 20
269.22316
 30
0.0
 11
420.028477
 21
269.97316
 31
0.0
  0
ARC
  5
5580
100
AcDbEntity
  8
OBJECT
100
AcDbCircle
 10
423.528477
 20
270.72316
 30
0.0
 40
0.5
100
AcDbArc
 50
180.0
 51
270.0
  0
POINT
  5
5581
100
AcDbEntity
  8
DEFPOINTS
  6
BYBLOCK
 62
     0
100
AcDbPoint
 10
423.028477
 20
270.72316
 30
0.0
  0
ARC
  5
5582
100
AcDbEntity
  8
OBJECT
100
AcDbCircle
 10
422.028477
 20
270.47316
 30
0.0
 40
0.5
100
AcDbArc
 50
270.0
 51
0.0
  0
INSERT
  5
5583
100
AcDbEntity
  8
HATCH
100
AcDbBlockReference
  2
*X2
 10
263.961401
 20
186.243825
 30
0.0
1001
ACAD
1000
HATCH
1002
{
1070
    16
1000
ANSI37
1040
0.5
1040
0.0
1002
}
  0
LINE
  5
5585
100
AcDbEntity
  8
DIM
100
AcDbLine
 10
421.316742
 20
305.775836
 30
0.0
 11
409.807874
 21
305.775836
 31
0.0
  0
LINE
  5
5586
100
AcDbEntity
  8
DIM
100
AcDbLine
 10
421.249727
 20
307.611839
 30
0.0
 11
406.231466
 21
313.297289
 31
0.0
  0
LINE
  5
5587
100
AcDbEntity
  8
DIM
100
AcDbLine
 10
420.41841
 20
327.897762
 30
0.0
 11
406.231466
 21
334.01049
 31
0.0
  0
TEXT
  5
5588
100
AcDbEntity
  8
ELEV
 62
     3
100
AcDbText
 10
399.314822
 20
297.144047
 30
0.0
 40
1.5
  1
HIGH LEVEL ALARM
  7
ROMANS
100
AcDbText
  0
LINE
  5
5589
100
AcDbEntity
  8
ELEV
100
AcDbLine
 10
418.65875
 20
299.137718
 30
0.0
 11
394.790446
 21
299.137718
 31
0.0
  0
LINE
  5
558A
100
AcDbEntity
  8
ELEV
 62
     3
100
AcDbLine
 10
393.770569
 20
303.90934
 30
0.0
 11
413.742392
 21
303.90934
 31
0.0
  0
LINE
  5
558B
100
AcDbEntity
  8
ELEV
100
AcDbLine
 10
422.278477
 20
303.90934
 30
0.0
 11
389.874088
 21
303.90934
 31
0.0
  0
TEXT
  5
558C
100
AcDbEntity
  8
DIM
100
AcDbText
 10
387.381466
 20
312.547289
 30
0.0
 40
1.5
  1
Inlet Grommet
  7
ROMAND
 72
     2
 11
403.881466
 21
313.297289
 31
0.0
100
AcDbText
 73
     2
  0
TEXT
  5
558D
100
AcDbEntity
  8
ELEV
 62
     3
100
AcDbText
 10
399.314822
 20
299.567288
 30
0.0
 40
1.5
  1
ELEV 
  7
ROMANS
100
AcDbText
  0
TEXT
  5
558E
100
AcDbEntity
  8
ELEV
 62
     3
100
AcDbText
 10
394.398464
 20
304.33891
 30
0.0
 40
1.5
  1
INV ELEV 
  7
ROMANS
100
AcDbText
  0
LINE
  5
558F
100
AcDbEntity
  8
ELEV
100
AcDbLine
 10
392.122328
 20
306.15758
 30
0.0
 11
392.122328
 21
301.661099
 31
0.0
  0
INSERT
  5
5590
100
AcDbEntity
  8
ELEV
100
AcDbBlockReference
  2
*X1
 10
301.526443
 20
244.091204
 30
0.0
 41
0.8
 42
0.8
 43
0.8
1001
ACAD
1000
HATCH
1002
{
1070
    16
1000
ANSI37
1040
1.0
1040
0.0
1002
}
  0
LINE
  5
5591
100
AcDbEntity
  8
ELEV
 62
     3
100
AcDbLine
 10
392.122328
 20
303.90934
 30
0.0
 11
392.122328
 21
302.261099
 31
0.0
  0
INSERT
  5
5592
100
AcDbEntity
  8
ELEV
100
AcDbBlockReference
  2
*X0
 10
301.526443
 20
244.091204
 30
0.0
 41
0.8
 42
0.8
 43
0.8
1001
ACAD
1000
HATCH
1002
{
1070
    16
1000
ANSI37
1040
1.0
1040
0.0
1002
}
  0
LINE
  5
5593
100
AcDbEntity
  8
ELEV
 62
     3
100
AcDbLine
 10
392.122328
 20
303.90934
 30
0.0
 11
392.122328
 21
305.55758
 31
0.0
  0
INSERT
  5
5594
100
AcDbEntity
  8
ELEV
100
AcDbBlockReference
  2
*X0
 10
306.442801
 20
239.319583
 30
0.0
 41
0.8
 42
0.8
 43
0.8
1001
ACAD
1000
HATCH
1002
{
1070
    16
1000
ANSI37
1040
1.0
1040
0.0
1002
}
  0
LINE
  5
5595
100
AcDbEntity
  8
ELEV
 62
     3
100
AcDbLine
 10
397.038687
 20
299.137718
 30
0.0
 11
397.038687
 21
297.489478
 31
0.0
  0
LINE
  5
5596
100
AcDbEntity
  8
ELEV
 62
     3
100
AcDbLine
 10
397.038687
 20
299.137718
 30
0.0
 11
397.038687
 21
300.785958
 31
0.0
  0
INSERT
  5
5597
100
AcDbEntity
  8
ELEV
100
AcDbBlockReference
  2
*X1
 10
306.442801
 20
239.319583
 30
0.0
 41
0.8
 42
0.8
 43
0.8
1001
ACAD
1000
HATCH
1002
{
1070
    16
1000
ANSI37
1040
1.0
1040
0.0
1002
}
  0
LINE
  5
5598
100
AcDbEntity
  8
DIM
100
AcDbLine
 10
406.231466
 20
313.297289
 30
0.0
 11
405.131466
 21
313.297289
 31
0.0
  0
TEXT
  5
559A
100
AcDbEntity
  8
DIM
100
AcDbText
 10
387.16718
 20
329.418609
 30
0.0
 40
1.5
  1
Stainless Steel
  7
ROMAND
 72
     2
 11
403.881466
 21
330.168609
 31
0.0
100
AcDbText
 73
     2
  0
TEXT
  5
559B
100
AcDbEntity
  8
DIM
100
AcDbText
 10
386.16718
 20
331.39147
 30
0.0
 40
1.5
  1
Enameled Steel
  7
ROMAND
 72
     2
 11
403.881466
 21
332.14147
 31
0.0
100
AcDbText
 73
     2
  0
LINE
  5
55A0
100
AcDbEntity
  8
DIM
100
AcDbLine
 10
406.231466
 20
334.01049
 30
0.0
 11
405.131466
 21
334.01049
 31
0.0
  0
LINE
  5
55A1
100
AcDbEntity
  8
DIM
100
AcDbLine
 10
411.057874
 20
306.875836
 30
0.0
 11
411.057874
 21
316.292627
 31
0.0
  0
SOLID
  5
55A2
100
AcDbEntity
  8
DIM
100
AcDbTrace
 10
410.87454
 20
306.875836
 30
0.0
 11
411.241207
 21
306.875836
 31
0.0
 12
411.057874
 22
305.775836
 32
0.0
 13
411.057874
 23
305.775836
 33
0.0
  0
LINE
  5
55A3
100
AcDbEntity
  8
CENTER
 62
     3
100
AcDbLine
 39
20.0
 10
424.287473
 20
305.775836
 30
0.0
 11
421.379242
 21
305.775836
 31
0.0
  0
SOLID
  5
55A4
100
AcDbEntity
  8
DIM
100
AcDbTrace
 10
421.314636
 20
307.783298
 30
0.0
 11
421.184818
 21
307.440381
 31
0.0
 12
422.278477
 22
307.222386
 32
0.0
 13
422.278477
 23
307.222386
 33
0.0
  0
SOLID
  5
55A5
100
AcDbEntity
  8
DIM
100
AcDbTrace
 10
420.490955
 20
328.066131
 30
0.0
 11
420.345865
 21
327.729392
 31
0.0
 12
421.428627
 22
327.46249
 32
0.0
 13
421.428627
 23
327.46249
 33
0.0
  0
LINE
  5
55A6
100
AcDbEntity
  8
CENTER
100
AcDbLine
 10
420.678627
 20
326.605157
 30
0.0
 11
424.303627
 21
326.605157
 31
0.0
  0
LINE
  5
55A7
100
AcDbEntity
  8
DIM
100
AcDbLine
 10
420.616127
 20
326.605157
 30
0.0
 11
415.005396
 21
326.605157
 31
0.0
  0
LINE
  5
55A8
100
AcDbEntity
  8
DIM
100
AcDbLine
 10
416.255396
 20
327.705157
 30
0.0
 11
416.255396
 21
331.157587
 31
0.0
  0
SOLID
  5
55A9
100
AcDbEntity
  8
DIM
100
AcDbTrace
 10
416.072063
 20
327.705157
 30
0.0
 11
416.43873
 21
327.705157
 31
0.0
 12
416.255396
 22
326.605157
 32
0.0
 13
416.255396
 23
326.605157
 33
0.0
  0
LINE
  5
55AA
100
AcDbEntity
  8
OBJECT
100
AcDbLine
 10
429.264308
 20
325.553157
 30
0.0
 11
429.264308
 21
317.752706
 31
0.0
  0
LINE
  5
55AB
100
AcDbEntity
  8
OBJECT
100
AcDbLine
 10
429.014308
 20
325.553157
 30
0.0
 11
429.014308
 21
318.189154
 31
0.0
  0
LINE
  5
55AC
100
AcDbEntity
  8
OBJECT
100
AcDbLine
 10
422.452477
 20
330.605157
 30
0.0
 11
422.452477
 21
322.605157
 31
0.0
  0
LINE
  5
55AD
100
AcDbEntity
  8
OBJECT
100
AcDbLine
 10
423.553627
 20
325.230157
 30
0.0
 11
423.553627
 21
327.980157
 31
0.0
  0
LINE
  5
55AE
100
AcDbEntity
  8
OBJECT
100
AcDbLine
 10
421.428627
 20
325.230157
 30
0.0
 11
421.428627
 21
327.980157
 31
0.0
  0
LINE
  5
55AF
100
AcDbEntity
  8
OBJECT
100
AcDbLine
 10
423.028477
 20
325.230157
 30
0.0
 11
423.553627
 21
325.230157
 31
0.0
  0
LINE
  5
55B0
100
AcDbEntity
  8
OBJECT
100
AcDbLine
 10
422.452477
 20
322.605157
 30
0.0
 11
422.528477
 21
322.605157
 31
0.0
  0
LINE
  5
55B1
100
AcDbEntity
  8
OBJECT
100
AcDbLine
 10
421.428627
 20
325.230157
 30
0.0
 11
422.499005
 21
325.230157
 31
0.0
  0
LWPOLYLINE
  5
55B2
100
AcDbEntity
  8
OBJECT
100
AcDbPolyline
 90
        6
 70
     0
 43
0.0
 10
429.079942
 20
326.995153
 10
428.189357
 20
327.475779
 10
427.040885
 20
327.317509
 10
425.772003
 20
327.07215
 10
424.544134
 20
326.785908
 10
423.553627
 20
326.498818
  0
LWPOLYLINE
  5
55B3
100
AcDbEntity
  8
OBJECT
100
AcDbPolyline
 90
        6
 70
     0
 43
0.0
 10
429.402507
 20
327.105157
 10
428.236177
 20
327.734594
 10
427.000059
 20
327.564246
 10
425.719873
 20
327.316701
 10
424.480913
 20
327.027873
 10
423.824461
 20
326.837606
  0
LINE
  5
55B4
100
AcDbEntity
  8
OBJECT
100
AcDbLine
 10
423.028477
 20
327.980157
 30
0.0
 11
423.553627
 21
327.980157
 31
0.0
  0
LINE
  5
55B5
100
AcDbEntity
  8
CENTER
 62
     3
100
AcDbLine
 39
20.0
 10
424.21154
 20
326.605157
 30
0.0
 11
421.30331
 21
326.605157
 31
0.0
  0
LINE
  5
55B6
100
AcDbEntity
  8
OBJECT
100
AcDbLine
 10
421.428627
 20
327.980157
 30
0.0
 11
422.499005
 21
327.980157
 31
0.0
  0
LINE
  5
55B7
100
AcDbEntity
  8
OBJECT
100
AcDbLine
 10
422.452477
 20
330.605157
 30
0.0
 11
422.528477
 21
330.605157
 31
0.0
  0
LINE
  5
55B8
100
AcDbEntity
  8
OBJECT
100
AcDbLine
 10
428.014308
 20
326.605157
 30
0.0
 11
428.014308
 21
326.792657
 31
0.0
  0
LINE
  5
55B9
100
AcDbEntity
  8
OBJECT
 62
     2
100
AcDbLine
 10
431.389308
 20
328.098126
 30
0.0
 11
431.389308
 21
329.157783
 31
0.0
  0
LINE
  5
55BA
100
AcDbEntity
  8
OBJECT
 62
     2
100
AcDbLine
 10
431.389308
 20
329.413849
 30
0.0
 11
431.389308
 21
329.605157
 31
0.0
  0
LINE
  5
55BB
100
AcDbEntity
  8
OBJECT
 62
     2
100
AcDbLine
 10
431.389308
 20
326.792657
 30
0.0
 11
431.389308
 21
327.82671
 31
0.0
  0
LINE
  5
55BC
100
AcDbEntity
  8
OBJECT
100
AcDbLine
 10
432.264308
 20
311.422349
 30
0.0
 11
432.264308
 21
293.050597
 31
0.0
  0
LINE
  5
55BD
100
AcDbEntity
  8
OBJECT
100
AcDbLine
 10
432.514308
 20
310.885414
 30
0.0
 11
432.514308
 21
293.050596
 31
0.0
  0
ARC
  5
55BE
100
AcDbEntity
  8
OBJECT
100
AcDbCircle
 10
600.432667
 20
293.446002
 30
0.0
 40
159.676912
100
AcDbArc
 50
178.615724
 51
180.215196
  0
ARC
  5
55BF
100
AcDbEntity
  8
OBJECT
100
AcDbCircle
 10
600.432667
 20
293.446002
 30
0.0
 40
159.426912
100
AcDbArc
 50
178.615724
 51
180.215196
  0
ARC
  5
55C0
100
AcDbEntity
  8
OBJECT
100
AcDbCircle
 10
600.432667
 20
293.446002
 30
0.0
 40
159.176912
100
AcDbArc
 50
178.615724
 51
178.815947
  0
LINE
  5
55C1
100
AcDbEntity
  8
DIM
100
AcDbLine
 10
469.430861
 20
271.32316
 30
0.0
 11
469.430861
 21
302.396687
 31
0.0
  0
LINE
  5
55C6
100
AcDbEntity
  8
DIM
100
AcDbLine
 10
457.928477
 20
264.169194
 30
0.0
 11
446.028477
 21
264.169194
 31
0.0
  0
LINE
  5
55C9
100
AcDbEntity
  8
PUMP
 62
     4
100
AcDbLine
 10
441.70224
 20
273.04076
 30
0.0
 11
442.098725
 21
270.22316
 31
0.0
  0
ARC
  5
55CA
100
AcDbEntity
  8
PUMP
 62
     4
100
AcDbCircle
 10
437.229687
 20
274.260091
 30
0.0
 40
1.435037
100
AcDbArc
 50
121.822467
 51
238.177533
  0
LINE
  5
55CB
100
AcDbEntity
  8
PUMP
 62
     4
100
AcDbLine
 10
438.461799
 20
273.04076
 30
0.0
 11
438.065314
 21
270.22316
 31
0.0
  0
LINE
  5
55CC
100
AcDbEntity
  8
PUMP
 62
     4
100
AcDbLine
 10
436.98914
 20
273.04076
 30
0.0
 11
437.385625
 21
270.22316
 31
0.0
  0
ARC
  5
55CD
100
AcDbEntity
  8
PUMP
 62
     4
100
AcDbCircle
 10
447.139154
 20
274.04076
 30
0.0
 40
1.0
100
AcDbArc
 50
270.0
 51
0.0
  0
LINE
  5
55CE
100
AcDbEntity
  8
PUMP
100
AcDbLine
 10
445.255874
 20
277.930287
 30
0.0
 11
448.280528
 21
277.930287
 31
0.0
  0
LINE
  5
55D0
100
AcDbEntity
  8
PUMP
 62
     4
100
AcDbLine
 10
443.174899
 20
273.04076
 30
0.0
 11
442.778414
 21
270.22316
 31
0.0
  0
LINE
  5
55D1
100
AcDbEntity
  8
PUMP
 62
     4
100
AcDbLine
 10
447.139751
 20
273.04076
 30
0.0
 11
446.743266
 21
270.22316
 31
0.0
  0
LINE
  5
55D2
100
AcDbEntity
  8
PUMP
 62
     4
100
AcDbLine
 10
445.667092
 20
273.04076
 30
0.0
 11
446.063577
 21
270.22316
 31
0.0
  0
LINE
  5
55D3
100
AcDbEntity
  8
PUMP
 62
     4
100
AcDbLine
 10
445.129008
 20
275.922401
 30
0.0
 11
443.846037
 21
275.504055
 31
0.0
  0
ARC
  5
55D4
100
AcDbEntity
  8
PUMP
 62
     4
100
AcDbCircle
 10
443.691031
 20
275.979422
 30
0.0
 40
0.5
100
AcDbArc
 50
270.0
 51
288.059913
  0
ARC
  5
55D5
100
AcDbEntity
  8
PUMP
100
AcDbCircle
 10
445.255874
 20
277.680287
 30
0.0
 40
0.25
100
AcDbArc
 50
90.0
 51
180.0
  0
ARC
  5
55D6
100
AcDbEntity
  8
PUMP
 62
     4
100
AcDbCircle
 10
445.255874
 20
276.765127
 30
0.0
 40
0.25
100
AcDbArc
 50
180.0
 51
239.50498
  0
LINE
  5
55D7
100
AcDbEntity
  8
PUMP
 62
     4
100
AcDbLine
 10
445.005874
 20
277.680287
 30
0.0
 11
445.005874
 21
276.765127
 31
0.0
  0
LINE
  5
55D8
100
AcDbEntity
  8
PUMP
 62
     4
100
AcDbLine
 10
448.280528
 20
276.515127
 30
0.0
 11
448.139154
 21
276.515127
 31
0.0
  0
ARC
  5
55D9
100
AcDbEntity
  8
PUMP
 62
     4
100
AcDbCircle
 10
448.280528
 20
276.765127
 30
0.0
 40
0.25
100
AcDbArc
 50
270.0
 51
0.0
  0
LINE
  5
55DA
100
AcDbEntity
  8
PUMP
 62
     4
100
AcDbLine
 10
448.530528
 20
277.680287
 30
0.0
 11
448.530528
 21
276.765127
 31
0.0
  0
ARC
  5
55DB
100
AcDbEntity
  8
PUMP
100
AcDbCircle
 10
448.280528
 20
277.680287
 30
0.0
 40
0.25
100
AcDbArc
 50
0.0
 51
90.0
  0
LINE
  5
55DC
100
AcDbEntity
  8
PUMP
 62
     4
100
AcDbLine
 10
448.139154
 20
276.515127
 30
0.0
 11
448.139154
 21
274.04076
 31
0.0
  0
ARC
  5
55DD
100
AcDbEntity
  8
OBJECT
100
AcDbCircle
 10
439.203801
 20
294.755839
 30
0.0
 40
2.875631
100
AcDbArc
 50
314.41248
 51
43.49904
  0
TEXT
  5
55DE
100
AcDbEntity
  8
PUMP
100
AcDbText
 10
436.62566
 20
279.515193
 30
0.0
 40
1.74429
  1
Pump
  7
SCRIPTC
100
AcDbText
  0
TEXT
  5
55DF
100
AcDbEntity
  8
PUMP
100
AcDbText
 10
437.434374
 20
282.083983
 30
0.0
 40
1.74429
  1
Your
  7
SCRIPTC
100
AcDbText
  0
LINE
  5
55E0
100
AcDbEntity
  8
PUMP
100
AcDbLine
 10
441.008883
 20
291.121877
 30
0.0
 11
442.148789
 21
291.121877
 31
0.0
  0
LINE
  5
55E1
100
AcDbEntity
  8
PUMP
100
AcDbLine
 10
436.473008
 20
282.654805
 30
0.0
 11
437.473008
 21
289.670629
 31
0.0
  0
LINE
  5
55E2
100
AcDbEntity
  8
PUMP
 62
     4
100
AcDbLine
 10
435.848477
 20
280.7684
 30
0.0
 11
435.848477
 21
281.31858
 31
0.0
  0
LINE
  5
55E3
100
AcDbEntity
  8
PUMP
 62
     4
100
AcDbLine
 10
435.848477
 20
279.825223
 30
0.0
 11
435.848477
 21
280.375403
 31
0.0
  0
LINE
  5
55E4
100
AcDbEntity
  8
PUMP
 62
     4
100
AcDbLine
 10
435.848477
 20
278.882046
 30
0.0
 11
435.848477
 21
279.432226
 31
0.0
  0
LINE
  5
55E5
100
AcDbEntity
  8
PUMP
 62
     4
100
AcDbLine
 10
435.848477
 20
278.882046
 30
0.0
 11
436.473008
 21
278.882046
 31
0.0
  0
LINE
  5
55E6
100
AcDbEntity
  8
PUMP
 62
     4
100
AcDbLine
 10
435.848477
 20
279.432226
 30
0.0
 11
436.473008
 21
279.432226
 31
0.0
  0
LINE
  5
55E7
100
AcDbEntity
  8
PUMP
 62
     4
100
AcDbLine
 10
435.848477
 20
280.375403
 30
0.0
 11
436.473008
 21
280.375403
 31
0.0
  0
LINE
  5
55E8
100
AcDbEntity
  8
PUMP
 62
     4
100
AcDbLine
 10
435.848477
 20
279.825223
 30
0.0
 11
436.473008
 21
279.825223
 31
0.0
  0
LINE
  5
55E9
100
AcDbEntity
  8
PUMP
 62
     4
100
AcDbLine
 10
435.848477
 20
280.7684
 30
0.0
 11
436.473008
 21
280.7684
 31
0.0
  0
LINE
  5
55EA
100
AcDbEntity
  8
PUMP
 62
     4
100
AcDbLine
 10
435.848477
 20
281.31858
 30
0.0
 11
436.473008
 21
281.31858
 31
0.0
  0
ARC
  5
55EB
100
AcDbEntity
  8
OBJECT
100
AcDbCircle
 10
440.883883
 20
292.446895
 30
0.0
 40
0.418788
100
AcDbArc
 50
107.653344
 51
72.920666
  0
ARC
  5
55EC
100
AcDbEntity
  8
PUMP
100
AcDbCircle
 10
440.883883
 20
292.446895
 30
0.0
 40
0.659756
100
AcDbArc
 50
87.052773
 51
245.657002
  0
ARC
  5
55ED
100
AcDbEntity
  8
PUMP
100
AcDbCircle
 10
440.883883
 20
292.446895
 30
0.0
 40
0.409756
100
AcDbArc
 50
92.460333
 51
64.209245
  0
ARC
  5
55EE
100
AcDbEntity
  8
PUMP
100
AcDbCircle
 10
440.883883
 20
292.446895
 30
0.0
 40
0.659756
100
AcDbArc
 50
294.342998
 51
69.616806
  0
LINE
  5
55EF
100
AcDbEntity
  8
PUMP
100
AcDbLine
 10
439.378239
 20
291.704195
 30
0.0
 11
439.17314
 21
292.190791
 31
0.0
  0
LINE
  5
55F0
100
AcDbEntity
  8
PUMP
100
AcDbLine
 10
438.26847
 20
291.121877
 30
0.0
 11
438.26847
 21
291.704195
 31
0.0
  0
LINE
  5
55F1
100
AcDbEntity
  8
PUMP
100
AcDbLine
 10
438.01525
 20
291.121877
 30
0.0
 11
438.26847
 21
291.121877
 31
0.0
  0
LINE
  5
55F2
100
AcDbEntity
  8
PUMP
100
AcDbLine
 10
438.26847
 20
291.704195
 30
0.0
 11
438.473569
 21
292.190791
 31
0.0
  0
LINE
  5
55F3
100
AcDbEntity
  8
PUMP
100
AcDbLine
 10
438.473569
 20
292.190791
 30
0.0
 11
439.17314
 21
292.190791
 31
0.0
  0
LINE
  5
55F4
100
AcDbEntity
  8
PUMP
100
AcDbLine
 10
437.473008
 20
289.670629
 30
0.0
 11
438.01525
 21
289.670629
 31
0.0
  0
LINE
  5
55F5
100
AcDbEntity
  8
PUMP
100
AcDbLine
 10
438.01525
 20
289.670629
 30
0.0
 11
438.01525
 21
291.121877
 31
0.0
  0
LINE
  5
55F6
100
AcDbEntity
  8
PUMP
100
AcDbLine
 10
441.008883
 20
291.618021
 30
0.0
 11
441.008883
 21
291.121877
 31
0.0
  0
LINE
  5
55F7
100
AcDbEntity
  8
PUMP
100
AcDbLine
 10
440.758883
 20
291.618021
 30
0.0
 11
440.758883
 21
291.121877
 31
0.0
  0
ARC
  5
55F8
100
AcDbEntity
  8
PUMP
100
AcDbCircle
 10
440.508883
 20
291.618021
 30
0.0
 40
0.25
100
AcDbArc
 50
0.0
 51
65.657002
  0
ARC
  5
55F9
100
AcDbEntity
  8
PUMP
100
AcDbCircle
 10
441.258883
 20
291.618021
 30
0.0
 40
0.25
100
AcDbArc
 50
114.342998
 51
180.0
  0
LINE
  5
55FA
100
AcDbEntity
  8
PUMP
100
AcDbLine
 10
439.378239
 20
291.121877
 30
0.0
 11
439.378239
 21
291.704195
 31
0.0
  0
LINE
  5
55FB
100
AcDbEntity
  8
PUMP
100
AcDbLine
 10
439.378239
 20
291.121877
 30
0.0
 11
440.758883
 21
291.121877
 31
0.0
  0
ARC
  5
55FC
100
AcDbEntity
  8
OBJECT
100
AcDbCircle
 10
441.00688
 20
292.847214
 30
0.0
 40
0.25
100
AcDbArc
 50
180.215196
 51
313.371173
  0
ARC
  5
55FD
100
AcDbEntity
  8
OBJECT
100
AcDbCircle
 10
439.203801
 20
294.755839
 30
0.0
 40
2.875631
100
AcDbArc
 50
313.371173
 51
314.41248
  0
ARC
  5
55FE
100
AcDbEntity
  8
OBJECT
100
AcDbCircle
 10
439.203801
 20
294.755839
 30
0.0
 40
2.625631
100
AcDbArc
 50
313.371173
 51
45.697896
  0
LINE
  5
55FF
100
AcDbEntity
  8
PUMP
100
AcDbLine
 10
443.691031
 20
282.654805
 30
0.0
 11
442.691031
 21
289.670629
 31
0.0
  0
LINE
  5
5604
100
AcDbEntity
  8
PUMP
 62
     4
100
AcDbLine
 10
444.315562
 20
280.7684
 30
0.0
 11
444.315562
 21
281.31858
 31
0.0
  0
LINE
  5
5605
100
AcDbEntity
  8
PUMP
 62
     4
100
AcDbLine
 10
444.315562
 20
280.7684
 30
0.0
 11
443.691031
 21
280.7684
 31
0.0
  0
LINE
  5
5606
100
AcDbEntity
  8
PUMP
 62
     4
100
AcDbLine
 10
444.315562
 20
279.825223
 30
0.0
 11
443.691031
 21
279.825223
 31
0.0
  0
LINE
  5
5607
100
AcDbEntity
  8
PUMP
 62
     4
100
AcDbLine
 10
444.315562
 20
280.375403
 30
0.0
 11
443.691031
 21
280.375403
 31
0.0
  0
LINE
  5
5608
100
AcDbEntity
  8
PUMP
 62
     4
100
AcDbLine
 10
444.315562
 20
279.825223
 30
0.0
 11
444.315562
 21
280.375403
 31
0.0
  0
LINE
  5
5609
100
AcDbEntity
  8
PUMP
 62
     4
100
AcDbLine
 10
444.315562
 20
281.31858
 30
0.0
 11
443.691031
 21
281.31858
 31
0.0
  0
LINE
  5
560A
100
AcDbEntity
  8
PUMP
 62
     4
100
AcDbLine
 10
444.315562
 20
279.432226
 30
0.0
 11
443.691031
 21
279.432226
 31
0.0
  0
LINE
  5
560B
100
AcDbEntity
  8
PUMP
 62
     4
100
AcDbLine
 10
444.315562
 20
278.882046
 30
0.0
 11
443.691031
 21
278.882046
 31
0.0
  0
LINE
  5
560C
100
AcDbEntity
  8
PUMP
 62
     4
100
AcDbLine
 10
444.315562
 20
278.882046
 30
0.0
 11
444.315562
 21
279.432226
 31
0.0
  0
LINE
  5
5614
100
AcDbEntity
  8
PUMP
100
AcDbLine
 10
442.691031
 20
289.670629
 30
0.0
 11
442.148789
 21
289.670629
 31
0.0
  0
LINE
  5
5615
100
AcDbEntity
  8
PUMP
100
AcDbLine
 10
442.148789
 20
289.670629
 30
0.0
 11
442.148789
 21
291.121877
 31
0.0
  0
SOLID
  5
5616
100
AcDbEntity
  8
DIM
100
AcDbTrace
 10
448.713209
 20
290.890738
 30
0.0
 11
448.822741
 21
291.240662
 31
0.0
 12
447.718201
 22
291.394294
 32
0.0
 13
447.718201
 23
291.394294
 33
0.0
  0
LINE
  5
5617
100
AcDbEntity
  8
DIM
100
AcDbLine
 10
458.590977
 20
270.22316
 30
0.0
 11
470.680861
 21
270.22316
 31
0.0
  0
DIMENSION
  5
5618
100
AcDbEntity
  8
DIM
100
AcDbDimension
  2
*D4
 10
462.028477
 20
264.169194
 30
0.0
 11
465.4715
 21
264.169194
 31
0.0
 12
-6.102964
 22
-11.135216
 32
0.0
 70
   160
  1
3"
  3
STANDARD
100
AcDbAlignedDimension
 13
459.028477
 23
270.72316
 33
0.0
 14
462.028477
 24
269.22316
 34
0.0
100
AcDbRotatedDimension
1001
ACAD
1000
DSTYLE
1002
{
1070
   340
1005
2C
1070
   272
1070
     2
1070
   147
1040
1.25
1070
   287
1070
     5
1070
    44
1040
1.25
1070
   271
1070
     2
1070
    41
1040
1.1
1002
}
  0
LINE
  5
5619
100
AcDbEntity
  8
OBJECT
100
AcDbLine
 10
462.028477
 20
269.97316
 30
0.0
 11
460.028477
 21
269.97316
 31
0.0
  0
POINT
  5
561A
100
AcDbEntity
  8
DEFPOINTS
  6
BYBLOCK
 62
     0
100
AcDbPoint
 10
459.028477
 20
270.72316
 30
0.0
  0
ARC
  5
561B
100
AcDbEntity
  8
OBJECT
100
AcDbCircle
 10
458.528477
 20
270.72316
 30
0.0
 40
0.5
100
AcDbArc
 50
270.0
 51
0.0
  0
ARC
  5
561C
100
AcDbEntity
  8
OBJECT
100
AcDbCircle
 10
460.028477
 20
270.47316
 30
0.0
 40
0.5
100
AcDbArc
 50
180.0
 51
270.0
  0
LINE
  5
561D
100
AcDbEntity
  8
OBJECT
100
AcDbLine
 10
462.028477
 20
269.22316
 30
0.0
 11
462.028477
 21
269.97316
 31
0.0
  0
SOLID
  5
561E
100
AcDbEntity
  8
DIM
100
AcDbTrace
 10
469.247528
 20
271.32316
 30
0.0
 11
469.614194
 21
271.32316
 31
0.0
 12
469.430861
 22
270.22316
 32
0.0
 13
469.430861
 23
270.22316
 33
0.0
  0
SOLID
  5
561F
100
AcDbEntity
  8
DIM
100
AcDbTrace
 10
452.512072
 20
313.555564
 30
0.0
 11
452.620184
 21
313.90593
 31
0.0
 12
451.515031
 22
314.055083
 32
0.0
 13
451.515031
 23
314.055083
 33
0.0
  0
LINE
  5
5622
100
AcDbEntity
  8
OBJECT
100
AcDbLine
 10
432.514308
 20
325.553157
 30
0.0
 11
432.514308
 21
311.478091
 31
0.0
  0
LINE
  5
5623
100
AcDbEntity
  8
OBJECT
100
AcDbLine
 10
432.264308
 20
325.553157
 30
0.0
 11
432.264308
 21
312.006771
 31
0.0
  0
LINE
  5
5624
100
AcDbEntity
  8
OBJECT
100
AcDbLine
 10
435.764308
 20
325.553157
 30
0.0
 11
435.764308
 21
303.589433
 31
0.0
  0
LINE
  5
5625
100
AcDbEntity
  8
OBJECT
100
AcDbLine
 10
435.514308
 20
325.553157
 30
0.0
 11
435.514308
 21
304.28022
 31
0.0
  0
LINE
  5
5626
100
AcDbEntity
  8
OBJECT
100
AcDbLine
 10
441.692416
 20
305.346091
 30
0.0
 11
446.247554
 21
323.968254
 31
0.0
  0
LWPOLYLINE
  5
5627
100
AcDbEntity
  8
OBJECT
100
AcDbPolyline
 90
        4
 70
     0
 43
0.0
 10
441.23871
 20
302.869387
 10
441.373143
 20
304.999388
 42
-0.044165
 10
441.399718
 20
305.173688
 10
446.001822
 20
324.014248
  0
LINE
  5
5629
100
AcDbEntity
  8
OBJECT
100
AcDbLine
 10
449.712744
 20
316.598482
 30
0.0
 11
449.712744
 21
314.074482
 31
0.0
  0
LINE
  5
562A
100
AcDbEntity
  8
OBJECT
100
AcDbLine
 10
450.225189
 20
317.274362
 30
0.0
 11
450.225189
 21
313.398601
 31
0.0
  0
LINE
  5
562B
100
AcDbEntity
  8
OBJECT
100
AcDbLine
 10
450.962745
 20
317.280676
 30
0.0
 11
450.962745
 21
313.398601
 31
0.0
  0
LINE
  5
562C
100
AcDbEntity
  8
OBJECT
100
AcDbLine
 10
451.712745
 20
316.598482
 30
0.0
 11
451.712745
 21
314.074482
 31
0.0
  0
INSERT
  5
5630
100
AcDbEntity
  8
HATCH
100
AcDbBlockReference
  2
*X2
 10
270.461401
 20
207.075202
 30
0.0
1001
ACAD
1000
HATCH
1002
{
1070
    16
1000
ANSI37
1040
0.5
1040
0.0
1002
}
  0
LINE
  5
5631
100
AcDbEntity
  8
OBJECT
100
AcDbLine
 10
440.856992
 20
299.115849
 30
0.0
 11
441.239495
 21
302.878921
 31
0.0
  0
LINE
  5
5632
100
AcDbEntity
  8
OBJECT
100
AcDbLine
 10
441.10571
 20
299.090567
 30
0.0
 11
441.488213
 21
302.85364
 31
0.0
  0
ARC
  5
5633
100
AcDbEntity
  8
OBJECT
100
AcDbCircle
 10
600.432667
 20
293.446002
 30
0.0
 40
159.176912
100
AcDbArc
 50
178.434143
 51
178.525779
  0
ARC
  5
5634
100
AcDbEntity
  8
OBJECT
100
AcDbCircle
 10
600.432667
 20
293.446002
 30
0.0
 40
159.426912
100
AcDbArc
 50
178.43755
 51
178.525877
  0
ARC
  5
5635
100
AcDbEntity
  8
OBJECT
100
AcDbCircle
 10
600.432667
 20
293.446002
 30
0.0
 40
159.676912
100
AcDbArc
 50
178.437829
 51
178.526018
  0
LINE
  5
5636
100
AcDbEntity
  8
OBJECT
100
AcDbLine
 10
441.30221
 20
297.787286
 30
0.0
 11
440.802356
 21
297.799365
 31
0.0
  0
ARC
  5
5637
100
AcDbEntity
  8
OBJECT
100
AcDbCircle
 10
441.229606
 20
297.418161
 30
0.0
 40
0.146107
100
AcDbArc
 50
299.79668
 51
57.434767
  0
ARC
  5
5638
100
AcDbEntity
  8
OBJECT
100
AcDbCircle
 10
440.937456
 20
297.425221
 30
0.0
 40
0.18188
100
AcDbArc
 50
135.201748
 51
222.0297
  0
LINE
  5
5639
100
AcDbEntity
  8
OBJECT
100
AcDbLine
 10
441.308249
 20
297.541298
 30
0.0
 11
440.808395
 21
297.553376
 31
0.0
  0
LINE
  5
563A
100
AcDbEntity
  8
OBJECT
100
AcDbLine
 10
441.30221
 20
297.291371
 30
0.0
 11
440.802356
 21
297.303449
 31
0.0
  0
LINE
  5
563B
100
AcDbEntity
  8
OBJECT
100
AcDbLine
 10
440.856992
 20
299.115849
 30
0.0
 11
440.808395
 21
298.049292
 31
0.0
  0
LINE
  5
563C
100
AcDbEntity
  8
OBJECT
100
AcDbLine
 10
441.10571
 20
299.090567
 30
0.0
 11
441.058322
 21
298.043253
 31
0.0
  0
LINE
  5
563D
100
AcDbEntity
  8
OBJECT
100
AcDbLine
 10
441.308249
 20
298.037213
 30
0.0
 11
440.808395
 21
298.049292
 31
0.0
  0
ARC
  5
563E
100
AcDbEntity
  8
OBJECT
100
AcDbCircle
 10
440.937456
 20
297.921137
 30
0.0
 40
0.18188
100
AcDbArc
 50
135.201748
 51
222.0297
  0
ARC
  5
563F
100
AcDbEntity
  8
OBJECT
100
AcDbCircle
 10
441.229606
 20
297.914077
 30
0.0
 40
0.146107
100
AcDbArc
 50
299.79668
 51
57.434767
  0
LINE
  5
5640
100
AcDbEntity
  8
OBJECT
100
AcDbLine
 10
441.10571
 20
299.090567
 30
0.0
 11
441.355554
 21
299.081716
 31
0.0
  0
ARC
  5
5641
100
AcDbEntity
  8
OBJECT
100
AcDbCircle
 10
600.432667
 20
293.446002
 30
0.0
 40
159.176912
100
AcDbArc
 50
177.970999
 51
178.350659
  0
ARC
  5
5642
100
AcDbEntity
  8
OBJECT
100
AcDbCircle
 10
444.606503
 20
304.633281
 30
0.0
 40
3.0
100
AcDbArc
 50
166.254866
 51
176.388619
  0
LINE
  5
5643
100
AcDbEntity
  8
OBJECT
100
AcDbLine
 10
441.488213
 20
302.85364
 30
0.0
 11
441.61246
 21
304.822247
 31
0.0
  0
LINE
  5
5676
100
AcDbEntity
  8
OBJECT
100
AcDbLine
 10
449.712744
 20
314.074482
 30
0.0
 11
450.225189
 21
314.024204
 31
0.0
  0
SOLID
  5
5677
100
AcDbEntity
  8
DIM
100
AcDbTrace
 10
448.867182
 20
313.37699
 30
0.0
 11
449.053078
 21
313.69304
 31
0.0
 12
448.011981
 22
314.092701
 32
0.0
 13
448.011981
 23
314.092701
 33
0.0
  0
LINE
  5
567D
100
AcDbEntity
  8
OBJECT
100
AcDbLine
 10
450.396592
 20
313.601864
 30
0.0
 11
450.225189
 21
313.742573
 31
0.0
  0
LINE
  5
567E
100
AcDbEntity
  8
OBJECT
100
AcDbLine
 10
450.396592
 20
313.601864
 30
0.0
 11
450.396592
 21
314.073902
 31
0.0
  0
LINE
  5
567F
100
AcDbEntity
  8
OBJECT
100
AcDbLine
 10
450.688847
 20
313.601864
 30
0.0
 11
450.396592
 21
313.601864
 31
0.0
  0
LINE
  5
5680
100
AcDbEntity
  8
OBJECT
100
AcDbLine
 10
451.712745
 20
314.074482
 30
0.0
 11
450.962745
 21
314.000896
 31
0.0
  0
LINE
  5
5681
100
AcDbEntity
  8
OBJECT
100
AcDbLine
 10
450.688847
 20
314.073902
 30
0.0
 11
450.688847
 21
313.398601
 31
0.0
  0
LINE
  5
5682
100
AcDbEntity
  8
OBJECT
100
AcDbLine
 10
450.962745
 20
314.073902
 30
0.0
 11
450.225189
 21
314.073902
 31
0.0
  0
LINE
  5
5683
100
AcDbEntity
  8
OBJECT
100
AcDbLine
 10
450.962745
 20
313.398601
 30
0.0
 11
450.225189
 21
313.398601
 31
0.0
  0
LINE
  5
5684
100
AcDbEntity
  8
OBJECT
 62
     2
100
AcDbLine
 10
433.389308
 20
328.847255
 30
0.0
 11
433.389308
 21
329.605157
 31
0.0
  0
LINE
  5
5685
100
AcDbEntity
  8
OBJECT
 62
     2
100
AcDbLine
 10
433.389308
 20
326.792657
 30
0.0
 11
433.389308
 21
328.583756
 31
0.0
  0
LINE
  5
5686
100
AcDbEntity
  8
OBJECT
100
AcDbLine
 10
436.764308
 20
326.605157
 30
0.0
 11
436.764308
 21
326.792657
 31
0.0
  0
LINE
  5
5687
100
AcDbEntity
  8
OBJECT
100
AcDbLine
 10
446.51877
 20
326.776151
 30
0.0
 11
446.001822
 21
324.014248
 31
0.0
  0
LINE
  5
5688
100
AcDbEntity
  8
OBJECT
100
AcDbLine
 10
446.764502
 20
326.730157
 30
0.0
 11
446.247554
 21
323.968254
 31
0.0
  0
LINE
  5
5689
100
AcDbEntity
  8
OBJECT
100
AcDbLine
 10
450.352698
 20
317.760676
 30
0.0
 11
450.352698
 21
332.605157
 31
0.0
  0
LINE
  5
568A
100
AcDbEntity
  8
OBJECT
100
AcDbLine
 10
449.977698
 20
317.760676
 30
0.0
 11
449.977698
 21
332.230157
 31
0.0
  0
LINE
  5
568E
100
AcDbEntity
  8
OBJECT
100
AcDbLine
 10
449.795278
 20
316.136509
 30
0.0
 11
450.225189
 21
316.136509
 31
0.0
  0
LINE
  5
568F
100
AcDbEntity
  8
OBJECT
100
AcDbLine
 10
449.795278
 20
316.001306
 30
0.0
 11
450.225189
 21
316.001306
 31
0.0
  0
LINE
  5
5690
100
AcDbEntity
  8
OBJECT
100
AcDbLine
 10
449.712744
 20
316.598482
 30
0.0
 11
450.225189
 21
316.64876
 31
0.0
  0
ARC
  5
5692
100
AcDbEntity
  8
OBJECT
100
AcDbCircle
 10
449.819634
 20
316.068907
 30
0.0
 40
0.071856
100
AcDbArc
 50
109.813891
 51
250.186109
  0
ARC
  5
5693
100
AcDbEntity
  8
OBJECT
100
AcDbCircle
 10
451.615531
 20
316.068907
 30
0.0
 40
0.071856
100
AcDbArc
 50
289.813891
 51
70.186109
  0
LINE
  5
5694
100
AcDbEntity
  8
OBJECT
100
AcDbLine
 10
451.639888
 20
316.001306
 30
0.0
 11
450.962745
 21
316.001306
 31
0.0
  0
LINE
  5
5695
100
AcDbEntity
  8
OBJECT
100
AcDbLine
 10
451.639888
 20
316.136509
 30
0.0
 11
450.962745
 21
316.136509
 31
0.0
  0
LINE
  5
5696
100
AcDbEntity
  8
OBJECT
100
AcDbLine
 10
449.884948
 20
316.615377
 30
0.0
 11
449.884948
 21
317.760676
 31
0.0
  0
LINE
  5
5697
100
AcDbEntity
  8
OBJECT
100
AcDbLine
 10
451.712745
 20
316.598482
 30
0.0
 11
450.962745
 21
316.672067
 31
0.0
  0
ARC
  5
5698
100
AcDbEntity
  8
OBJECT
100
AcDbCircle
 10
450.482745
 20
317.280676
 30
0.0
 40
0.48
100
AcDbArc
 50
0.0
 51
90.0
  0
LINE
  5
5699
100
AcDbEntity
  8
OBJECT
100
AcDbLine
 10
450.962745
 20
317.274362
 30
0.0
 11
450.225189
 21
317.274362
 31
0.0
  0
LINE
  5
569A
100
AcDbEntity
  8
OBJECT
100
AcDbLine
 10
450.597274
 20
317.760676
 30
0.0
 11
450.597274
 21
317.274362
 31
0.0
  0
LINE
  5
569B
100
AcDbEntity
  8
OBJECT
100
AcDbLine
 10
450.482745
 20
317.760676
 30
0.0
 11
449.884948
 21
317.760676
 31
0.0
  0
SOLID
  5
569C
100
AcDbEntity
  8
DIM
100
AcDbTrace
 10
451.38601
 20
324.236393
 30
0.0
 11
451.19414
 21
324.548852
 31
0.0
 12
450.352698
 22
323.817014
 32
0.0
 13
450.352698
 23
323.817014
 33
0.0
  0
ARC
  5
569D
100
AcDbEntity
  8
OBJECT
100
AcDbCircle
 10
601.193786
 20
287.125402
 30
0.0
 40
159.426912
100
AcDbArc
 50
164.62771
 51
165.615994
  0
ARC
  5
569E
100
AcDbEntity
  8
OBJECT
100
AcDbCircle
 10
601.193786
 20
287.125402
 30
0.0
 40
159.676912
100
AcDbArc
 50
164.62771
 51
165.638998
  0
ARC
  5
569F
100
AcDbEntity
  8
OBJECT
100
AcDbCircle
 10
447.382582
 20
329.541682
 30
0.0
 40
0.176336
100
AcDbArc
 50
119.484369
 51
209.771051
  0
ARC
  5
56A0
100
AcDbEntity
  8
OBJECT
100
AcDbCircle
 10
447.509183
 20
330.009702
 30
0.0
 40
0.176336
100
AcDbArc
 50
119.484369
 51
209.771051
  0
ARC
  5
56A1
100
AcDbEntity
  8
OBJECT
100
AcDbCircle
 10
447.719195
 20
329.951964
 30
0.0
 40
0.201326
100
AcDbArc
 50
306.246914
 51
23.008507
  0
ARC
  5
56A2
100
AcDbEntity
  8
OBJECT
100
AcDbCircle
 10
601.193786
 20
287.125402
 30
0.0
 40
159.176912
100
AcDbArc
 50
164.451916
 51
164.537812
  0
ARC
  5
56A3
100
AcDbEntity
  8
OBJECT
100
AcDbCircle
 10
601.193786
 20
287.125402
 30
0.0
 40
159.426912
100
AcDbArc
 50
164.453467
 51
164.537864
  0
ARC
  5
56A4
100
AcDbEntity
  8
OBJECT
100
AcDbCircle
 10
601.193786
 20
287.125402
 30
0.0
 40
159.676912
100
AcDbArc
 50
164.453739
 51
164.538004
  0
ARC
  5
56A5
100
AcDbEntity
  8
OBJECT
100
AcDbCircle
 10
601.193786
 20
287.125402
 30
0.0
 40
159.176912
100
AcDbArc
 50
164.62771
 51
164.802225
  0
LINE
  5
56A6
100
AcDbEntity
  8
OBJECT
100
AcDbLine
 10
447.838232
 20
329.7896
 30
0.0
 11
447.35612
 21
329.922145
 31
0.0
  0
ARC
  5
56A7
100
AcDbEntity
  8
OBJECT
100
AcDbCircle
 10
447.592594
 20
329.483944
 30
0.0
 40
0.201326
100
AcDbArc
 50
306.246914
 51
23.008507
  0
LINE
  5
56A8
100
AcDbEntity
  8
OBJECT
100
AcDbLine
 10
447.777904
 20
329.562636
 30
0.0
 11
447.295792
 21
329.695181
 31
0.0
  0
LINE
  5
56A9
100
AcDbEntity
  8
OBJECT
100
AcDbLine
 10
447.711631
 20
329.32158
 30
0.0
 11
447.229519
 21
329.454125
 31
0.0
  0
LINE
  5
56AA
100
AcDbEntity
  8
OBJECT
100
AcDbLine
 10
447.58382
 20
328.8539
 30
0.0
 11
447.342563
 21
328.919438
 31
0.0
  0
LINE
  5
56AB
100
AcDbEntity
  8
OBJECT
100
AcDbLine
 10
448.280408
 20
332.230157
 30
0.0
 11
449.977698
 21
332.230157
 31
0.0
  0
LINE
  5
56AC
100
AcDbEntity
  8
OBJECT
100
AcDbLine
 10
448.391521
 20
332.605157
 30
0.0
 11
450.352698
 21
332.605157
 31
0.0
  0
ARC
  5
56AD
100
AcDbEntity
  8
OBJECT
100
AcDbCircle
 10
447.292979
 20
331.779051
 30
0.0
 40
1.624498
100
AcDbArc
 50
30.565937
 51
36.94322
  0
ARC
  5
56AE
100
AcDbEntity
  8
OBJECT
100
AcDbCircle
 10
448.391521
 20
332.605157
 30
0.0
 40
0.25
100
AcDbArc
 50
36.94322
 51
180.0
  0
LINE
  5
56AF
100
AcDbEntity
  8
OBJECT
100
AcDbLine
 10
447.904504
 20
330.030656
 30
0.0
 11
447.422392
 21
330.163201
 31
0.0
  0
ARC
  5
56B0
100
AcDbEntity
  8
OBJECT
100
AcDbCircle
 10
601.193786
 20
287.125402
 30
0.0
 40
159.176912
100
AcDbArc
 50
164.258323
 51
164.364925
  0
ARC
  5
56B1
100
AcDbEntity
  8
OBJECT
100
AcDbCircle
 10
601.193786
 20
287.125402
 30
0.0
 40
159.426912
100
AcDbArc
 50
163.424997
 51
164.363619
  0
ARC
  5
56B2
100
AcDbEntity
  8
OBJECT
100
AcDbCircle
 10
601.193786
 20
287.125402
 30
0.0
 40
159.676912
100
AcDbArc
 50
163.451695
 51
164.364033
  0
ARC
  5
56B3
100
AcDbEntity
  8
OBJECT
100
AcDbCircle
 10
447.292979
 20
331.779051
 30
0.0
 40
1.624498
100
AcDbArc
 50
295.285874
 51
16.122333
  0
ARC
  5
56B4
100
AcDbEntity
  8
OBJECT
100
AcDbCircle
 10
447.292979
 20
331.779051
 30
0.0
 40
1.374498
100
AcDbArc
 50
290.697067
 51
19.159346
  0
LINE
  5
56B5
100
AcDbEntity
  8
OBJECT
100
AcDbLine
 10
447.568446
 20
332.230157
 30
0.0
 11
448.019776
 21
332.230157
 31
0.0
  0
LINE
  5
56B6
100
AcDbEntity
  8
OBJECT
100
AcDbLine
 10
447.568446
 20
332.605157
 30
0.0
 11
448.130701
 21
332.605157
 31
0.0
  0
LINE
  5
56B7
100
AcDbEntity
  8
OBJECT
100
AcDbLine
 10
447.568446
 20
332.605157
 30
0.0
 11
447.568446
 21
332.230157
 31
0.0
  0
SOLID
  5
56B8
100
AcDbEntity
  8
DIM
100
AcDbTrace
 10
464.619391
 20
316.436482
 30
0.0
 11
464.986058
 21
316.436482
 31
0.0
 12
464.802724
 22
315.336482
 32
0.0
 13
464.802724
 23
315.336482
 33
0.0
  0
LINE
  5
56C4
100
AcDbEntity
  8
DIM
100
AcDbLine
 10
461.190827
 20
315.336482
 30
0.0
 11
466.052724
 21
315.336482
 31
0.0
  0
LINE
  5
56CE
100
AcDbEntity
  8
CENTER
100
AcDbLine
 10
461.128327
 20
315.336482
 30
0.0
 11
446.768201
 21
315.336482
 31
0.0
  0
LINE
  5
56F6
100
AcDbEntity
  8
DIM
100
AcDbLine
 10
464.802724
 20
316.436482
 30
0.0
 11
464.802724
 21
324.290819
 31
0.0
  0
ARC
  5
56F7
100
AcDbEntity
  8
ELEV
 62
     3
100
AcDbCircle
 39
12.0
 10
482.726819
 20
314.651357
 30
0.0
 40
1.64824
100
AcDbArc
 50
180.0
 51
270.0
  0
ARC
  5
56F8
100
AcDbEntity
  8
ELEV
 62
     3
100
AcDbCircle
 39
12.0
 10
482.726819
 20
314.651357
 30
0.0
 40
1.64824
100
AcDbArc
 50
270.0
 51
0.0
  0
ARC
  5
56F9
100
AcDbEntity
  8
ELEV
 62
     3
100
AcDbCircle
 39
12.0
 10
482.726819
 20
314.651357
 30
0.0
 40
1.64824
100
AcDbArc
 50
90.0
 51
180.0
  0
ARC
  5
56FA
100
AcDbEntity
  8
ELEV
 62
     3
100
AcDbCircle
 39
12.0
 10
482.726819
 20
314.651357
 30
0.0
 40
1.64824
100
AcDbArc
 50
0.0
 51
90.0
  0
TEXT
  5
56FB
100
AcDbEntity
  8
DIM
100
AcDbText
 10
478.581466
 20
296.744443
 30
0.0
 40
1.5
  1
   90%%d Elbow
  7
ROMAND
 11
478.581466
 21
297.494443
 31
0.0
100
AcDbText
 73
     2
  0
TEXT
  5
56FD
100
AcDbEntity
  8
DIM
100
AcDbText
 10
478.581466
 20
281.719239
 30
0.0
 40
1.5
  1
   Discharge Pipe
  7
ROMAND
 11
478.581466
 21
282.469239
 31
0.0
100
AcDbText
 73
     2
  0
TEXT
  5
56FE
100
AcDbEntity
  8
DIM
100
AcDbText
 10
478.581466
 20
290.044019
 30
0.0
 40
1.5
  1
   Ball Check Valve 
  7
ROMAND
 11
478.581466
 21
290.794019
 31
0.0
100
AcDbText
 73
     2
  0
LINE
  5
5701
100
AcDbEntity
  8
DIM
100
AcDbLine
 10
477.302724
 20
281.743035
 30
0.0
 11
482.302724
 21
281.743035
 31
0.0
  0
LINE
  5
5702
100
AcDbEntity
  8
DIM
100
AcDbLine
 10
476.231466
 20
282.469239
 30
0.0
 11
477.331466
 21
282.469239
 31
0.0
  0
LINE
  5
5703
100
AcDbEntity
  8
DIM
100
AcDbLine
 10
477.302724
 20
290.067815
 30
0.0
 11
482.302724
 21
290.067815
 31
0.0
  0
LINE
  5
5704
100
AcDbEntity
  8
DIM
100
AcDbLine
 10
477.302724
 20
296.768239
 30
0.0
 11
482.302724
 21
296.768239
 31
0.0
  0
LINE
  5
5705
100
AcDbEntity
  8
DIM
100
AcDbLine
 10
476.231466
 20
290.794019
 30
0.0
 11
477.331466
 21
290.794019
 31
0.0
  0
TEXT
  5
5706
100
AcDbEntity
  8
DIM
100
AcDbText
 10
477.707257
 20
319.128776
 30
0.0
 40
1.5
  1
   Stainless Steel
  7
ROMAND
 11
477.707257
 21
319.878776
 31
0.0
100
AcDbText
 73
     2
  0
TEXT
  5
5707
100
AcDbEntity
  8
DIM
100
AcDbText
 10
477.707257
 20
321.092761
 30
0.0
 40
1.5
  1
   Enameled Steel
  7
ROMAND
 11
477.707257
 21
321.842761
 31
0.0
100
AcDbText
 73
     2
  0
TEXT
  5
5708
100
AcDbEntity
  8
DIM
100
AcDbText
 10
478.581466
 20
303.444881
 30
0.0
 40
1.5
  1
   Quick Disconnect
  7
ROMAND
 11
478.581466
 21
304.194881
 31
0.0
100
AcDbText
 73
     2
  0
LINE
  5
5709
100
AcDbEntity
  8
ELEV
100
AcDbLine
 10
482.726819
 20
316.899597
 30
0.0
 11
482.726819
 21
312.403116
 31
0.0
  0
INSERT
  5
570A
100
AcDbEntity
  8
ELEV
100
AcDbBlockReference
  2
*X1
 10
573.322704
 20
254.833221
 30
0.0
 41
-0.8
 42
0.8
 43
0.8
1001
ACAD
1000
HATCH
1002
{
1070
    16
1000
ANSI37
1040
1.0
1040
0.0
1002
}
  0
LINE
  5
570B
100
AcDbEntity
  8
ELEV
 62
     3
100
AcDbLine
 10
482.726819
 20
314.651357
 30
0.0
 11
482.726819
 21
316.299597
 31
0.0
  0
TEXT
  5
570C
100
AcDbEntity
  8
DIM
100
AcDbText
 10
478.581466
 20
305.678352
 30
0.0
 40
1.5
  1
   NPT Brass 
  7
ROMAND
 11
478.581466
 21
306.428352
 31
0.0
100
AcDbText
 73
     2
  0
LINE
  5
570D
100
AcDbEntity
  8
DIM
100
AcDbLine
 10
477.302724
 20
305.702147
 30
0.0
 11
482.302724
 21
305.702147
 31
0.0
  0
LINE
  5
570E
100
AcDbEntity
  8
DIM
100
AcDbLine
 10
476.231466
 20
297.494443
 30
0.0
 11
477.331466
 21
297.494443
 31
0.0
  0
LINE
  5
570F
100
AcDbEntity
  8
DIM
100
AcDbLine
 10
476.231466
 20
306.428352
 30
0.0
 11
477.331466
 21
306.428352
 31
0.0
  0
INSERT
  5
5710
100
AcDbEntity
  8
ELEV
100
AcDbBlockReference
  2
*X0
 10
573.322704
 20
254.833221
 30
0.0
 41
-0.8
 42
0.8
 43
0.8
1001
ACAD
1000
HATCH
1002
{
1070
    16
1000
ANSI37
1040
1.0
1040
0.0
1002
}
  0
LINE
  5
5711
100
AcDbEntity
  8
ELEV
 62
     3
100
AcDbLine
 10
482.726819
 20
314.651357
 30
0.0
 11
482.726819
 21
313.003116
 31
0.0
  0
TEXT
  5
5712
100
AcDbEntity
  8
DIM
100
AcDbText
 10
478.581466
 20
330.525278
 30
0.0
 40
1.5
  1
   Gate Valve
  7
ROMAND
 11
478.581466
 21
331.275278
 31
0.0
100
AcDbText
 73
     2
  0
LINE
  5
5713
100
AcDbEntity
  8
DIM
100
AcDbLine
 10
476.428515
 20
323.080556
 30
0.0
 11
481.428515
 21
323.080556
 31
0.0
  0
LINE
  5
5714
100
AcDbEntity
  8
DIM
100
AcDbLine
 10
475.357257
 20
323.80676
 30
0.0
 11
476.457257
 21
323.80676
 31
0.0
  0
LWPOLYLINE
  5
5715
100
AcDbEntity
  8
DIM
100
AcDbPolyline
 90
        4
 70
     1
 43
0.0
 10
481.073681
 20
319.088848
 10
481.073681
 20
320.542527
 10
479.620002
 20
320.542527
 10
479.620002
 20
319.088848
  0
LWPOLYLINE
  5
5716
100
AcDbEntity
  8
DIM
100
AcDbPolyline
 90
        4
 70
     1
 43
0.0
 10
481.073681
 20
321.163005
 10
481.073681
 20
322.616683
 10
479.620002
 20
322.616683
 10
479.620002
 20
321.163005
  0
LINE
  5
5717
100
AcDbEntity
  8
DIM
100
AcDbLine
 10
477.302724
 20
330.549074
 30
0.0
 11
482.302724
 21
330.549074
 31
0.0
  0
LINE
  5
5718
100
AcDbEntity
  8
DIM
100
AcDbLine
 10
476.231466
 20
331.275278
 30
0.0
 11
477.331466
 21
331.275278
 31
0.0
  0
LINE
  5
5719
100
AcDbEntity
  8
OBJECT
 62
     2
100
AcDbLine
 39
50.0
 10
420.028477
 20
338.980157
 30
0.0
 11
420.028477
 21
338.605157
 31
0.0
  0
ARC
  5
571A
100
AcDbEntity
  8
OBJECT
 62
     2
100
AcDbCircle
 39
50.0
 10
422.778477
 20
338.355157
 30
0.0
 40
0.25
100
AcDbArc
 50
0.0
 51
90.0
  0
ARC
  5
571B
100
AcDbEntity
  8
OBJECT
 62
     2
100
AcDbCircle
 39
50.0
 10
422.278477
 20
337.855157
 30
0.0
 40
0.25
100
AcDbArc
 50
0.0
 51
90.0
  0
LINE
  5
571C
100
AcDbEntity
  8
OBJECT
 62
     2
100
AcDbLine
 39
50.0
 10
422.278477
 20
338.105157
 30
0.0
 11
420.085204
 21
338.105157
 31
0.0
  0
ARC
  5
571D
100
AcDbEntity
  8
OBJECT
 62
     2
100
AcDbCircle
 39
50.0
 10
420.085204
 20
338.355157
 30
0.0
 40
0.25
100
AcDbArc
 50
244.431316
 51
270.0
  0
ARC
  5
571E
100
AcDbEntity
  8
OBJECT
 62
     2
100
AcDbCircle
 39
50.0
 10
419.335979
 20
338.648472
 30
0.0
 40
0.193233
100
AcDbArc
 50
107.312204
 51
252.687796
  0
LINE
  5
571F
100
AcDbEntity
  8
OBJECT
 62
     2
100
AcDbLine
 39
50.0
 10
420.028477
 20
338.605157
 30
0.0
 11
419.278477
 21
338.832951
 31
0.0
  0
LINE
  5
5720
100
AcDbEntity
  8
OBJECT
 62
     2
100
AcDbLine
 39
50.0
 10
419.977305
 20
338.12964
 30
0.0
 11
419.278477
 21
338.463993
 31
0.0
  0
LINE
  5
5721
100
AcDbEntity
  8
OBJECT
 62
     2
100
AcDbLine
 39
50.0
 10
462.028477
 20
338.980157
 30
0.0
 11
462.028477
 21
338.605157
 31
0.0
  0
LINE
  5
5722
100
AcDbEntity
  8
OBJECT
 62
     2
100
AcDbLine
 39
50.0
 10
462.079648
 20
338.12964
 30
0.0
 11
462.778477
 21
338.463993
 31
0.0
  0
LINE
  5
5723
100
AcDbEntity
  8
OBJECT
 62
     2
100
AcDbLine
 39
50.0
 10
462.028477
 20
338.605157
 30
0.0
 11
462.778477
 21
338.832951
 31
0.0
  0
ARC
  5
5724
100
AcDbEntity
  8
OBJECT
 62
     2
100
AcDbCircle
 39
50.0
 10
462.720975
 20
338.648472
 30
0.0
 40
0.193233
100
AcDbArc
 50
287.312204
 51
72.687796
  0
ARC
  5
5725
100
AcDbEntity
  8
OBJECT
 62
     2
100
AcDbCircle
 39
50.0
 10
461.97175
 20
338.355157
 30
0.0
 40
0.25
100
AcDbArc
 50
270.0
 51
295.568684
  0
LINE
  5
5726
100
AcDbEntity
  8
OBJECT
 62
     2
100
AcDbLine
 39
50.0
 10
459.778477
 20
338.105157
 30
0.0
 11
461.97175
 21
338.105157
 31
0.0
  0
ARC
  5
5727
100
AcDbEntity
  8
OBJECT
 62
     2
100
AcDbCircle
 39
50.0
 10
459.778477
 20
337.855157
 30
0.0
 40
0.25
100
AcDbArc
 50
90.0
 51
180.0
  0
ARC
  5
5728
100
AcDbEntity
  8
OBJECT
 62
     2
100
AcDbCircle
 39
50.0
 10
459.278477
 20
338.355157
 30
0.0
 40
0.25
100
AcDbArc
 50
90.0
 51
180.0
  0
ARC
  5
5729
100
AcDbEntity
  8
ELEV
 62
     3
100
AcDbCircle
 39
12.0
 10
392.122328
 20
338.605157
 30
0.0
 40
1.64824
100
AcDbArc
 50
90.0
 51
180.0
  0
ARC
  5
572A
100
AcDbEntity
  8
ELEV
 62
     3
100
AcDbCircle
 39
12.0
 10
392.122328
 20
338.605157
 30
0.0
 40
1.64824
100
AcDbArc
 50
180.0
 51
270.0
  0
ARC
  5
572B
100
AcDbEntity
  8
ELEV
 62
     3
100
AcDbCircle
 39
12.0
 10
392.122328
 20
338.605157
 30
0.0
 40
1.64824
100
AcDbArc
 50
270.0
 51
0.0
  0
ARC
  5
572C
100
AcDbEntity
  8
ELEV
 62
     3
100
AcDbCircle
 39
12.0
 10
392.122328
 20
338.605157
 30
0.0
 40
1.64824
100
AcDbArc
 50
0.0
 51
90.0
  0
LINE
  5
572D
100
AcDbEntity
  8
OBJECT
100
AcDbLine
 10
420.028477
 20
403.442463
 30
0.0
 11
462.028477
 21
403.442463
 31
0.0
  0
LINE
  5
572E
100
AcDbEntity
  8
CENTER
100
AcDbLine
 10
418.028477
 20
382.442463
 30
0.0
 11
464.028477
 21
382.442463
 31
0.0
  0
LINE
  5
572F
100
AcDbEntity
  8
OBJECT
100
AcDbLine
 10
420.028477
 20
361.442463
 30
0.0
 11
462.028477
 21
361.442463
 31
0.0
  0
LINE
  5
5730
100
AcDbEntity
  8
OBJECT
100
AcDbLine
 10
427.578037
 20
389.705719
 30
0.0
 11
428.164943
 21
390.292625
 31
0.0
  0
LINE
  5
5731
100
AcDbEntity
  8
OBJECT
100
AcDbLine
 10
426.517376
 20
390.766379
 30
0.0
 11
432.704561
 21
396.953563
 31
0.0
  0
LINE
  5
5732
100
AcDbEntity
  8
CENTER
100
AcDbLine
 10
424.765021
 20
398.705919
 30
0.0
 11
441.028477
 21
382.442463
 31
0.0
  0
CIRCLE
  5
5733
100
AcDbEntity
  8
OBJECT
100
AcDbCircle
 10
441.028477
 20
382.442463
 30
0.0
 40
18.0
  0
CIRCLE
  5
5734
100
AcDbEntity
  8
OBJECT
100
AcDbCircle
 10
441.028477
 20
382.442463
 30
0.0
 40
21.0
  0
LINE
  5
5735
100
AcDbEntity
  8
OBJECT
100
AcDbLine
 10
462.028477
 20
338.605157
 30
0.0
 11
420.028477
 21
338.605157
 31
0.0
  0
LINE
  5
5736
100
AcDbEntity
  8
OBJECT
100
AcDbLine
 10
462.028477
 20
338.980157
 30
0.0
 11
420.028477
 21
338.980157
 31
0.0
  0
LINE
  5
5737
100
AcDbEntity
  8
OBJECT
100
AcDbLine
 10
420.028477
 20
403.442463
 30
0.0
 11
420.028477
 21
361.442463
 31
0.0
  0
LINE
  5
5738
100
AcDbEntity
  8
ELEV
 62
     3
100
AcDbLine
 10
393.770569
 20
338.605157
 30
0.0
 11
419.147663
 21
338.605157
 31
0.0
  0
LINE
  5
5739
100
AcDbEntity
  8
ELEV
100
AcDbLine
 10
413.742392
 20
338.605157
 30
0.0
 11
389.874088
 21
338.605157
 31
0.0
  0
LINE
  5
573A
100
AcDbEntity
  8
ELEV
 62
     3
100
AcDbLine
 10
392.122328
 20
338.605157
 30
0.0
 11
392.122328
 21
340.253397
 31
0.0
  0
INSERT
  5
573B
100
AcDbEntity
  8
ELEV
100
AcDbBlockReference
  2
*X1
 10
301.526443
 20
278.787021
 30
0.0
 41
0.8
 42
0.8
 43
0.8
1001
ACAD
1000
HATCH
1002
{
1070
    16
1000
ANSI37
1040
1.0
1040
0.0
1002
}
  0
LINE
  5
573C
100
AcDbEntity
  8
ELEV
100
AcDbLine
 10
392.122328
 20
340.853397
 30
0.0
 11
392.122328
 21
336.356916
 31
0.0
  0
LINE
  5
573D
100
AcDbEntity
  8
ELEV
 62
     3
100
AcDbLine
 10
392.122328
 20
338.605157
 30
0.0
 11
392.122328
 21
336.956916
 31
0.0
  0
INSERT
  5
573E
100
AcDbEntity
  8
ELEV
100
AcDbBlockReference
  2
*X0
 10
301.526443
 20
278.787021
 30
0.0
 41
0.8
 42
0.8
 43
0.8
1001
ACAD
1000
HATCH
1002
{
1070
    16
1000
ANSI37
1040
1.0
1040
0.0
1002
}
  0
TEXT
  5
573F
100
AcDbEntity
  8
ELEV
 62
     3
100
AcDbText
 10
394.398464
 20
339.034727
 30
0.0
 40
1.2
  1
ELEV 
  7
ROMANS
100
AcDbText
  0
SOLID
  5
5740
100
AcDbEntity
  8
DIM
100
AcDbTrace
 10
410.87454
 20
337.505157
 30
0.0
 11
411.241207
 21
337.505157
 31
0.0
 12
411.057874
 22
338.605157
 32
0.0
 13
411.057874
 23
338.605157
 33
0.0
  0
SOLID
  5
5741
100
AcDbEntity
  8
DIM
100
AcDbTrace
 10
416.072063
 20
337.505157
 30
0.0
 11
416.43873
 21
337.505157
 31
0.0
 12
416.255396
 22
338.605157
 32
0.0
 13
416.255396
 23
338.605157
 33
0.0
  0
LINE
  5
5742
100
AcDbEntity
  8
DIM
100
AcDbLine
 10
416.255396
 20
337.505157
 30
0.0
 11
416.255396
 21
335.285157
 31
0.0
  0
LINE
  5
5743
100
AcDbEntity
  8
DIM
100
AcDbLine
 10
419.285792
 20
372.202698
 30
0.0
 11
413.215634
 21
365.57067
 31
0.0
  0
LINE
  5
5744
100
AcDbEntity
  8
DIM
100
AcDbLine
 10
413.215634
 20
365.57067
 30
0.0
 11
412.115634
 21
365.57067
 31
0.0
  0
SOLID
  5
5745
100
AcDbEntity
  8
DIM
100
AcDbTrace
 10
419.150553
 20
372.326479
 30
0.0
 11
419.42103
 21
372.078917
 31
0.0
 12
420.028477
 22
373.014128
 32
0.0
 13
420.028477
 23
373.014128
 33
0.0
  0
CIRCLE
  5
5746
100
AcDbEntity
  8
OBJECT
100
AcDbCircle
 10
424.140981
 20
372.692463
 30
0.0
 40
0.3125
  0
LINE
  5
5747
100
AcDbEntity
  8
OBJECT
100
AcDbLine
 10
427.578037
 20
389.705719
 30
0.0
 11
426.517376
 21
390.766379
 31
0.0
  0
LINE
  5
5748
100
AcDbEntity
  8
OBJECT
100
AcDbLine
 10
423.081071
 20
383.817463
 30
0.0
 11
423.553627
 21
383.817463
 31
0.0
  0
LINE
  5
5749
100
AcDbEntity
  8
OBJECT
100
AcDbLine
 10
423.081071
 20
381.067463
 30
0.0
 11
423.553627
 21
381.067463
 31
0.0
  0
LINE
  5
574A
100
AcDbEntity
  8
OBJECT
100
AcDbLine
 10
423.553627
 20
381.067463
 30
0.0
 11
423.553627
 21
383.817463
 31
0.0
  0
CIRCLE
  5
574B
100
AcDbEntity
  8
OBJECT
100
AcDbCircle
 10
424.140981
 20
392.192463
 30
0.0
 40
0.3125
  0
LINE
  5
574C
100
AcDbEntity
  8
OBJECT
100
AcDbLine
 10
430.318075
 20
394.567078
 30
0.0
 11
429.027319
 21
395.857835
 31
0.0
  0
LINE
  5
574D
100
AcDbEntity
  8
OBJECT
100
AcDbLine
 10
429.184438
 20
395.700715
 30
0.0
 11
427.770225
 21
394.286501
 31
0.0
  0
LINE
  5
574E
100
AcDbEntity
  8
OBJECT
100
AcDbLine
 10
428.903862
 20
393.152864
 30
0.0
 11
427.613105
 21
394.443621
 31
0.0
  0
CIRCLE
  5
574F
100
AcDbEntity
  8
OBJECT
100
AcDbCircle
 10
427.843202
 20
391.031544
 30
0.0
 40
0.125
  0
ARC
  5
5750
100
AcDbEntity
  8
OBJECT
100
AcDbCircle
 10
427.843202
 20
391.031544
 30
0.0
 40
0.425
100
AcDbArc
 50
321.800789
 51
287.562683
  0
ARC
  5
5751
100
AcDbEntity
  8
OBJECT
100
AcDbCircle
 10
427.843202
 20
391.031544
 30
0.0
 40
0.56
100
AcDbArc
 50
316.806174
 51
290.972382
  0
CIRCLE
  5
5752
100
AcDbEntity
  8
OBJECT
100
AcDbCircle
 10
430.141299
 20
393.329641
 30
0.0
 40
0.125
  0
ARC
  5
5753
100
AcDbEntity
  8
OBJECT
100
AcDbCircle
 10
430.141299
 20
393.329641
 30
0.0
 40
0.56
100
AcDbArc
 50
316.556987
 51
290.832214
  0
ARC
  5
5754
100
AcDbEntity
  8
OBJECT
100
AcDbCircle
 10
430.141299
 20
393.329641
 30
0.0
 40
0.425
100
AcDbArc
 50
321.330795
 51
287.227419
  0
CIRCLE
  5
5755
100
AcDbEntity
  8
PUMP
100
AcDbCircle
 10
440.08202
 20
382.442463
 30
0.0
 40
4.233542
  0
LINE
  5
5756
100
AcDbEntity
  8
CENTER
100
AcDbLine
 10
441.028477
 20
405.442463
 30
0.0
 11
441.028477
 21
359.442463
 31
0.0
  0
LINE
  5
5757
100
AcDbEntity
  8
OBJECT
100
AcDbLine
 10
462.028477
 20
403.442463
 30
0.0
 11
462.028477
 21
361.442463
 31
0.0
  0
TEXT
  5
5758
100
AcDbEntity
  8
DIM
100
AcDbText
 10
440.738147
 20
356.288743
 30
0.0
 40
1.5
  1
L
  7
ROMANS
100
AcDbText
  0
TEXT
  5
5759
100
AcDbEntity
  8
DIM
100
AcDbText
 10
440.263521
 20
357.176653
 30
0.0
 40
1.5
  1
C
  7
ROMANS
100
AcDbText
  0
CIRCLE
  5
575A
100
AcDbEntity
  8
OBJECT
100
AcDbCircle
 10
441.028477
 20
362.942463
 30
0.0
 40
0.3125
  0
LINE
  5
575B
100
AcDbEntity
  8
DIM
100
AcDbLine
 10
462.028477
 20
338.605157
 30
0.0
 11
470.680861
 21
338.605157
 31
0.0
  0
SOLID
  5
575C
100
AcDbEntity
  8
DIM
100
AcDbTrace
 10
464.619391
 20
337.505157
 30
0.0
 11
464.986058
 21
337.505157
 31
0.0
 12
464.802724
 22
338.605157
 32
0.0
 13
464.802724
 23
338.605157
 33
0.0
  0
SOLID
  5
575D
100
AcDbEntity
  8
DIM
100
AcDbTrace
 10
469.247528
 20
337.505157
 30
0.0
 11
469.614194
 21
337.505157
 31
0.0
 12
469.430861
 22
338.605157
 32
0.0
 13
469.430861
 23
338.605157
 33
0.0
  0
CIRCLE
  5
575E
100
AcDbEntity
  8
OBJECT
100
AcDbCircle
 10
457.915972
 20
372.692463
 30
0.0
 40
0.3125
  0
ARC
  5
5761
100
AcDbEntity
  8
PUMP
100
AcDbCircle
 10
439.843815
 20
376.33606
 30
0.0
 40
10.250958
100
AcDbArc
 50
49.866657
 51
81.352922
  0
CIRCLE
  5
5762
100
AcDbEntity
  8
OBJECT
100
AcDbCircle
 10
432.439396
 20
395.627738
 30
0.0
 40
0.125
  0
ARC
  5
5763
100
AcDbEntity
  8
OBJECT
100
AcDbCircle
 10
432.439396
 20
395.627738
 30
0.0
 40
0.56
100
AcDbArc
 50
315.091989
 51
289.283557
  0
ARC
  5
5764
100
AcDbEntity
  8
OBJECT
100
AcDbCircle
 10
432.439396
 20
395.627738
 30
0.0
 40
0.425
100
AcDbArc
 50
319.755781
 51
285.536772
  0
LINE
  5
5765
100
AcDbEntity
  8
OBJECT
100
AcDbLine
 10
450.165198
 20
382.254963
 30
0.0
 11
446.352698
 21
382.254963
 31
0.0
  0
LINE
  5
5766
100
AcDbEntity
  8
OBJECT
100
AcDbLine
 10
450.165198
 20
382.629963
 30
0.0
 11
446.352698
 21
382.629963
 31
0.0
  0
ARC
  5
576B
100
AcDbEntity
  8
OBJECT
100
AcDbCircle
 10
446.768201
 20
382.442463
 30
0.0
 40
1.759708
100
AcDbArc
 50
36.802883
 51
323.197117
  0
ARC
  5
576C
100
AcDbEntity
  8
PUMP
100
AcDbCircle
 10
439.843815
 20
373.022503
 30
0.0
 40
10.250958
100
AcDbArc
 50
58.975322
 51
64.164107
  0
LINE
  5
576D
100
AcDbEntity
  8
OBJECT
100
AcDbLine
 10
446.352698
 20
382.629963
 30
0.0
 11
446.352698
 21
382.254963
 31
0.0
  0
LINE
  5
5775
100
AcDbEntity
  8
OBJECT
100
AcDbLine
 10
449.693188
 20
381.180463
 30
0.0
 11
450.205633
 21
381.130185
 31
0.0
  0
LINE
  5
5776
100
AcDbEntity
  8
OBJECT
100
AcDbLine
 10
449.693188
 20
383.704463
 30
0.0
 11
450.205633
 21
383.754741
 31
0.0
  0
LINE
  5
5779
100
AcDbEntity
  8
OBJECT
100
AcDbLine
 10
449.693188
 20
383.704463
 30
0.0
 11
449.693188
 21
382.629963
 31
0.0
  0
LINE
  5
577A
100
AcDbEntity
  8
OBJECT
100
AcDbLine
 10
449.693188
 20
382.254963
 30
0.0
 11
449.693188
 21
381.180463
 31
0.0
  0
LINE
  5
577F
100
AcDbEntity
  8
OBJECT
100
AcDbLine
 10
451.69319
 20
383.704463
 30
0.0
 11
451.69319
 21
381.180463
 31
0.0
  0
LINE
  5
5780
100
AcDbEntity
  8
OBJECT
100
AcDbLine
 10
451.69319
 20
381.180463
 30
0.0
 11
450.94319
 21
381.106877
 31
0.0
  0
LINE
  5
5781
100
AcDbEntity
  8
OBJECT
100
AcDbLine
 10
451.69319
 20
383.704463
 30
0.0
 11
450.94319
 21
383.778048
 31
0.0
  0
LINE
  5
5782
100
AcDbEntity
  8
OBJECT
100
AcDbLine
 10
450.205633
 20
380.66343
 30
0.0
 11
450.205633
 21
381.31866
 31
0.0
  0
LINE
  5
5783
100
AcDbEntity
  8
OBJECT
100
AcDbLine
 10
450.205633
 20
384.221495
 30
0.0
 11
450.94319
 21
384.221495
 31
0.0
  0
LINE
  5
5784
100
AcDbEntity
  8
OBJECT
100
AcDbLine
 10
450.94319
 20
380.66343
 30
0.0
 11
450.94319
 21
384.221495
 31
0.0
  0
LINE
  5
5785
100
AcDbEntity
  8
OBJECT
100
AcDbLine
 10
450.205633
 20
380.66343
 30
0.0
 11
450.94319
 21
380.66343
 31
0.0
  0
LINE
  5
5786
100
AcDbEntity
  8
OBJECT
100
AcDbLine
 10
450.69319
 20
380.91343
 30
0.0
 11
450.69319
 21
383.971495
 31
0.0
  0
LINE
  5
5787
100
AcDbEntity
  8
OBJECT
100
AcDbLine
 10
450.44319
 20
380.91343
 30
0.0
 11
450.69319
 21
380.91343
 31
0.0
  0
LINE
  5
5788
100
AcDbEntity
  8
OBJECT
100
AcDbLine
 10
450.44319
 20
383.971495
 30
0.0
 11
450.69319
 21
383.971495
 31
0.0
  0
LINE
  5
5789
100
AcDbEntity
  8
OBJECT
100
AcDbLine
 10
450.44319
 20
380.91343
 30
0.0
 11
450.44319
 21
382.129963
 31
0.0
  0
LINE
  5
578A
100
AcDbEntity
  8
OBJECT
100
AcDbLine
 10
450.205633
 20
381.31866
 30
0.0
 11
450.44319
 21
381.31866
 31
0.0
  0
LINE
  5
578B
100
AcDbEntity
  8
OBJECT
100
AcDbLine
 10
450.205633
 20
384.221495
 30
0.0
 11
450.205633
 21
383.566266
 31
0.0
  0
LINE
  5
578C
100
AcDbEntity
  8
OBJECT
100
AcDbLine
 10
450.205633
 20
383.566266
 30
0.0
 11
450.44319
 21
383.566266
 31
0.0
  0
LINE
  5
578D
100
AcDbEntity
  8
OBJECT
100
AcDbLine
 10
451.620332
 20
382.499349
 30
0.0
 11
450.94319
 21
382.499349
 31
0.0
  0
LINE
  5
578E
100
AcDbEntity
  8
OBJECT
100
AcDbLine
 10
451.620332
 20
382.364145
 30
0.0
 11
450.94319
 21
382.364145
 31
0.0
  0
ARC
  5
578F
100
AcDbEntity
  8
OBJECT
100
AcDbCircle
 10
451.595976
 20
382.431747
 30
0.0
 40
0.071856
100
AcDbArc
 50
289.813891
 51
70.186109
  0
ARC
  5
5790
100
AcDbEntity
  8
OBJECT
100
AcDbCircle
 10
450.165198
 20
382.442463
 30
0.0
 40
0.3125
100
AcDbArc
 50
90.0
 51
143.130102
  0
LINE
  5
5791
100
AcDbEntity
  8
OBJECT
100
AcDbLine
 10
450.165198
 20
382.129963
 30
0.0
 11
450.44319
 21
382.129963
 31
0.0
  0
LINE
  5
5792
100
AcDbEntity
  8
OBJECT
100
AcDbLine
 10
450.165198
 20
382.754963
 30
0.0
 11
450.44319
 21
382.754963
 31
0.0
  0
LINE
  5
5793
100
AcDbEntity
  8
OBJECT
100
AcDbLine
 10
450.44319
 20
382.754963
 30
0.0
 11
450.44319
 21
383.971495
 31
0.0
  0
ARC
  5
5794
100
AcDbEntity
  8
OBJECT
100
AcDbCircle
 10
450.165198
 20
382.442463
 30
0.0
 40
0.1875
100
AcDbArc
 50
270.0
 51
90.0
  0
ARC
  5
5795
100
AcDbEntity
  8
OBJECT
100
AcDbCircle
 10
450.165198
 20
382.442463
 30
0.0
 40
0.3125
100
AcDbArc
 50
216.869898
 51
270.0
  0
CIRCLE
  5
5796
100
AcDbEntity
  8
OBJECT
100
AcDbCircle
 10
441.028477
 20
401.942463
 30
0.0
 40
0.3125
  0
CIRCLE
  5
57B0
100
AcDbEntity
  8
OBJECT
100
AcDbCircle
 10
457.915972
 20
392.192463
 30
0.0
 40
0.3125
  0
TEXT
  5
57B1
100
AcDbEntity
  8
DIM
100
AcDbText
 10
463.778391
 20
382.527882
 30
0.0
 40
1.5
  1
C
  7
ROMANS
100
AcDbText
  0
TEXT
  5
57B2
100
AcDbEntity
  8
DIM
100
AcDbText
 10
464.170109
 20
381.568671
 30
0.0
 40
1.5
  1
L
  7
ROMANS
100
AcDbText
  0
LINE
  5
57B3
100
AcDbEntity
  8
OBJECT
100
AcDbLine
 10
433.765221
 20
395.892903
 30
20.0
 11
432.704561
 21
396.953563
 31
20.0
  0
TEXT
  5
57B4
100
AcDbEntity
  8
DIM
100
AcDbText
 10
478.476799
 20
348.285996
 30
0.0
 40
1.5
  1
Lifting Cable
  7
ROMAND
 11
478.476799
 21
349.035996
 31
0.0
100
AcDbText
 73
     2
  0
TEXT
  5
57B5
100
AcDbEntity
  8
DIM
100
AcDbText
 10
478.476799
 20
343.408069
 30
0.0
 40
1.5
  1
is Available
  7
ROMAND
 11
478.476799
 21
344.158069
 31
0.0
100
AcDbText
 73
     2
  0
LINE
  5
57B6
100
AcDbEntity
  8
DIM
100
AcDbLine
 10
475.873583
 20
338.639293
 30
0.0
 11
476.973583
 21
338.639293
 31
0.0
  0
LINE
  5
57B7
100
AcDbEntity
  8
DIM
100
AcDbLine
 10
477.849995
 20
351.318815
 30
0.0
 11
475.802803
 21
351.318815
 31
0.0
  0
LWPOLYLINE
  5
57B8
100
AcDbEntity
  8
DIM
100
AcDbPolyline
 90
        4
 70
     1
 43
0.0
 10
477.689248
 20
395.833223
 10
477.689248
 20
397.123967
 10
476.398504
 20
397.123967
 10
476.398504
 20
395.833223
  0
LWPOLYLINE
  5
57B9
100
AcDbEntity
  8
DIM
100
AcDbPolyline
 90
        4
 70
     1
 43
0.0
 10
490.770985
 20
395.833223
 10
490.770985
 20
397.123967
 10
489.480241
 20
397.123967
 10
489.480241
 20
395.833223
  0
LWPOLYLINE
  5
57BA
100
AcDbEntity
  8
OBJECT
100
AcDbPolyline
 90
        6
 70
     1
 43
0.0
 10
482.874681
 20
408.270507
 10
482.586006
 20
408.270507
 10
482.441668
 20
408.020507
 10
482.586006
 20
407.770507
 10
482.874681
 20
407.770507
 10
483.019018
 20
408.020507
  0
LWPOLYLINE
  5
57BB
100
AcDbEntity
  8
OBJECT
100
AcDbPolyline
 90
        6
 70
     1
 43
0.0
 10
491.029753
 20
403.395507
 10
490.885416
 20
403.145507
 10
491.029753
 20
402.895507
 10
491.318428
 20
402.895507
 10
491.462766
 20
403.145507
 10
491.318428
 20
403.395507
  0
TEXT
  5
57BC
100
AcDbEntity
  8
DIM
100
AcDbText
 10
376.738609
 20
333.26049
 30
0.0
 40
1.5
  1
NPT Electrical Coupling
  7
ROMAND
 72
     2
 11
403.881466
 21
334.01049
 31
0.0
100
AcDbText
 73
     2
  0
LINE
  5
57BD
100
AcDbEntity
  8
DIM
100
AcDbLine
 10
371.834362
 20
333.060773
 30
0.0
 11
376.834362
 21
333.060773
 31
0.0
  0
TEXT
  5
57BE
100
AcDbEntity
  8
DIM
100
AcDbText
 10
477.707257
 20
323.05676
 30
0.0
 40
1.5
  1
   NPT Discharge Coupling
  7
ROMAND
 11
477.707257
 21
323.80676
 31
0.0
100
AcDbText
 73
     2
  0
LINE
  5
57BF
100
AcDbEntity
  8
CENTER
100
AcDbLine
 10
491.174091
 20
400.895507
 30
0.0
 11
491.174091
 21
424.895507
 31
0.0
  0
CIRCLE
  5
57C0
100
AcDbEntity
  8
OBJECT
100
AcDbCircle
 10
491.174091
 20
412.895507
 30
0.0
 40
10.5
  0
TEXT
  5
57C1
100
AcDbEntity
  8
DIM
100
AcDbText
 10
478.288399
 20
350.54435
 30
0.0
 40
1.5
  1
3/16" 304 Stainless Steel
  7
ROMAND
 11
478.288399
 21
351.29435
 31
0.0
100
AcDbText
 73
     2
  0
TEXT
  5
57C2
100
AcDbEntity
  8
DIM
100
AcDbText
 10
478.288399
 20
345.666423
 30
0.0
 40
1.5
  1
* Stainless Steel Chain 
  7
ROMAND
 11
478.288399
 21
346.416423
 31
0.0
100
AcDbText
 73
     2
  0
TEXT
  5
57C3
100
AcDbEntity
  8
DIM
100
AcDbText
 10
478.411983
 20
335.630939
 30
0.0
 40
1.5
  1
Valve Extension Handle
  7
ROMAND
 11
478.411983
 21
336.380939
 31
0.0
100
AcDbText
 73
     2
  0
TEXT
  5
57C4
100
AcDbEntity
  8
DIM
100
AcDbText
 10
478.223583
 20
337.889293
 30
0.0
 40
1.5
  1
3/8" 304 Stainless Steel
  7
ROMAND
 11
478.223583
 21
338.639293
 31
0.0
100
AcDbText
 73
     2
  0
TEXT
  5
57C5
100
AcDbEntity
  8
DIM
100
AcDbText
 10
483.538106
 20
398.266926
 30
0.0
 40
1.875
  1
Solid Cover
  7
ROMAND
100
AcDbText
  0
TEXT
  5
57C6
100
AcDbEntity
  8
DIM
100
AcDbText
 10
477.018354
 20
395.800672
 30
0.0
 40
1.25
  1
 Fiberglass   Aluminum   Steel
  7
ROMAND
100
AcDbText
  0
LINE
  5
57C7
100
AcDbEntity
  8
DIM
100
AcDbLine
 10
483.337152
 20
397.824481
 30
0.0
 11
500.524652
 21
397.824481
 31
0.0
  0
LWPOLYLINE
  5
57C8
100
AcDbEntity
  8
DIM
100
AcDbPolyline
 90
        4
 70
     1
 43
0.0
 10
503.529716
 20
395.833223
 10
503.529716
 20
397.123967
 10
502.238971
 20
397.123967
 10
502.238971
 20
395.833223
  0
LWPOLYLINE
  5
57C9
100
AcDbEntity
  8
OBJECT
100
AcDbPolyline
 90
        6
 70
     1
 43
0.0
 10
499.329163
 20
408.020507
 10
499.473501
 20
407.770507
 10
499.762176
 20
407.770507
 10
499.906514
 20
408.020507
 10
499.762176
 20
408.270507
 10
499.473501
 20
408.270507
  0
LINE
  5
57CA
100
AcDbEntity
  8
CENTER
100
AcDbLine
 10
479.174091
 20
412.895507
 30
0.0
 11
503.174091
 21
412.895507
 31
0.0
  0
LWPOLYLINE
  5
57CB
100
AcDbEntity
  8
OBJECT
100
AcDbPolyline
 90
        6
 70
     1
 43
0.0
 10
483.019018
 20
417.770507
 10
482.874681
 20
418.020507
 10
482.586006
 20
418.020507
 10
482.441668
 20
417.770507
 10
482.586006
 20
417.520507
 10
482.874681
 20
417.520507
  0
LWPOLYLINE
  5
57CC
100
AcDbEntity
  8
OBJECT
100
AcDbPolyline
 90
        6
 70
     1
 43
0.0
 10
499.473501
 20
417.520507
 10
499.762176
 20
417.520507
 10
499.906514
 20
417.770507
 10
499.762176
 20
418.020507
 10
499.473501
 20
418.020507
 10
499.329163
 20
417.770507
  0
LWPOLYLINE
  5
57CD
100
AcDbEntity
  8
OBJECT
100
AcDbPolyline
 90
        6
 70
     1
 43
0.0
 10
491.318428
 20
422.395507
 10
491.462766
 20
422.645507
 10
491.318428
 20
422.895507
 10
491.029753
 20
422.895507
 10
490.885416
 20
422.645507
 10
491.029753
 20
422.395507
  0
ARC
  5
5819
100
AcDbEntity
  8
OBJECT
100
AcDbCircle
 10
423.730666
 20
387.944568
 30
0.0
 40
5.017588
100
AcDbArc
 50
267.977974
 51
36.783999
  0
ARC
  5
581A
100
AcDbEntity
  8
OBJECT
100
AcDbCircle
 10
423.730666
 20
387.944568
 30
0.0
 40
5.267588
100
AcDbArc
 50
268.073977
 51
36.783999
  0
LINE
  5
581C
100
AcDbEntity
  8
OBJECT
100
AcDbLine
 10
428.34948
 20
390.477162
 30
0.0
 11
430.465316
 21
392.592999
 31
0.0
  0
ARC
  5
581D
100
AcDbEntity
  8
OBJECT
100
AcDbCircle
 10
424.486674
 20
389.235551
 30
0.0
 40
6.856867
100
AcDbArc
 50
262.179225
 51
36.016739
  0
ARC
  5
581E
100
AcDbEntity
  8
OBJECT
100
AcDbCircle
 10
424.485651
 20
389.235551
 30
0.0
 40
7.106867
100
AcDbArc
 50
262.464287
 51
35.942101
  0
LINE
  5
581F
100
AcDbEntity
  8
OBJECT
100
AcDbLine
 10
430.648025
 20
392.775707
 30
0.0
 11
432.749969
 21
394.877651
 31
0.0
  0
ARC
  5
5820
100
AcDbEntity
  8
OBJECT
100
AcDbCircle
 10
424.975862
 20
390.614591
 30
0.0
 40
8.866252
100
AcDbArc
 50
260.76931
 51
33.950252
  0
ARC
  5
5821
100
AcDbEntity
  8
OBJECT
100
AcDbCircle
 10
424.975862
 20
390.614591
 30
0.0
 40
9.116252
100
AcDbArc
 50
261.02457
 51
33.950252
  0
LINE
  5
5822
100
AcDbEntity
  8
OBJECT
100
AcDbLine
 10
432.933898
 20
395.06158
 30
0.0
 11
433.765221
 21
395.892903
 31
0.0
  0
ARC
  5
584C
100
AcDbEntity
  8
OBJECT
100
AcDbCircle
 10
351.431922
 20
273.45965
 30
0.0
 40
89.303086
100
AcDbArc
 50
12.107583
 51
36.137317
  0
ARC
  5
584D
100
AcDbEntity
  8
OBJECT
  6
CONTINUOUS
 62
     2
100
AcDbCircle
 39
50.0
 10
435.639308
 20
300.622887
 30
0.0
 40
1.485168
100
AcDbArc
 50
333.806411
 51
359.997645
  0
LINE
  5
584E
100
AcDbEntity
  8
OBJECT
  6
CONTINUOUS
 62
     2
100
AcDbLine
 39
50.0
 10
436.503674
 20
300.622825
 30
0.0
 11
434.15414
 21
300.622825
 31
0.0
  0
TEXT
  5
6CC4
100
AcDbEntity
  8
DIM
100
AcDbText
 10
478.581466
 20
326.597295
 30
0.0
 40
1.5
  1
   Brass
  7
ROMAND
 11
478.581466
 21
327.347295
 31
0.0
100
AcDbText
 73
     2
  0
TEXT
  5
6CC5
100
AcDbEntity
  8
DIM
100
AcDbText
 10
478.581466
 20
328.56128
 30
0.0
 40
1.5
  1
   Sch80 PVC
  7
ROMAND
 11
478.581466
 21
329.31128
 31
0.0
100
AcDbText
 73
     2
  0
LWPOLYLINE
  5
6CC6
100
AcDbEntity
  8
DIM
100
AcDbPolyline
 90
        4
 70
     1
 43
0.0
 10
481.94789
 20
328.631523
 10
481.94789
 20
330.085202
 10
480.494211
 20
330.085202
 10
480.494211
 20
328.631523
  0
LWPOLYLINE
  5
6CC7
100
AcDbEntity
  8
DIM
100
AcDbPolyline
 90
        4
 70
     1
 43
0.0
 10
481.94789
 20
326.557366
 10
481.94789
 20
328.011045
 10
480.494211
 20
328.011045
 10
480.494211
 20
326.557366
  0
TEXT
  5
6CC8
100
AcDbEntity
  8
DIM
100
AcDbText
 10
478.619456
 20
285.850312
 30
0.0
 40
1.5
  1
   Sch80 PVC
  7
ROMAND
 11
478.619456
 21
286.600312
 31
0.0
100
AcDbText
 73
     2
  0
TEXT
  5
6CC9
100
AcDbEntity
  8
DIM
100
AcDbText
 10
478.619456
 20
287.814297
 30
0.0
 40
1.5
  1
   Cast Iron
  7
ROMAND
 11
478.619456
 21
288.564297
 31
0.0
100
AcDbText
 73
     2
  0
LWPOLYLINE
  5
6CCA
100
AcDbEntity
  8
DIM
100
AcDbPolyline
 90
        4
 70
     1
 43
0.0
 10
481.98588
 20
287.88454
 10
481.98588
 20
289.338219
 10
480.532201
 20
289.338219
 10
480.532201
 20
287.88454
  0
LWPOLYLINE
  5
6CCB
100
AcDbEntity
  8
DIM
100
AcDbPolyline
 90
        4
 70
     1
 43
0.0
 10
481.98588
 20
285.810384
 10
481.98588
 20
287.264063
 10
480.532201
 20
287.264063
 10
480.532201
 20
285.810384
  0
TEXT
  5
767B
100
AcDbEntity
  8
DIM
100
AcDbText
 10
479.919517
 20
278.623602
 30
0.0
 40
1.5
  1
304 Stainless Steel
  7
ROMAND
100
AcDbText
  0
TEXT
  5
767C
100
AcDbEntity
  8
DIM
100
AcDbText
 10
479.919517
 20
275.992645
 30
0.0
 40
1.5
  1
Sch40 Galvanized Steel
  7
ROMAND
100
AcDbText
  0
LWPOLYLINE
  5
767D
100
AcDbEntity
  8
DIM
100
AcDbPolyline
 90
        4
 70
     1
 43
0.0
 10
479.027714
 20
277.680188
 10
477.302724
 20
277.680188
 10
477.302724
 20
275.955199
 10
479.027714
 20
275.955199
  0
TEXT
  5
767E
100
AcDbEntity
  8
DIM
100
AcDbText
 10
479.919517
 20
273.402124
 30
0.0
 40
1.5
  1
Sch80 PVC Pipe
  7
ROMAND
100
AcDbText
  0
LWPOLYLINE
  5
767F
100
AcDbEntity
  8
DIM
100
AcDbPolyline
 90
        4
 70
     1
 43
0.0
 10
479.027714
 20
275.089667
 10
477.302724
 20
275.089667
 10
477.302724
 20
273.364677
 10
479.027714
 20
273.364677
  0
LWPOLYLINE
  5
7680
100
AcDbEntity
  8
DIM
100
AcDbPolyline
 90
        4
 70
     1
 43
0.0
 10
479.027714
 20
278.54572
 10
477.302724
 20
278.54572
 10
477.302724
 20
280.27071
 10
479.027714
 20
280.27071
  0
LINE
  5
76D1
100
AcDbEntity
  8
OBJECT
 62
     2
100
AcDbLine
 10
445.518201
 20
306.021898
 30
0.0
 11
445.518201
 21
307.008846
 31
0.0
  0
LINE
  5
76D2
100
AcDbEntity
  8
OBJECT
 62
     2
100
AcDbLine
 10
446.108201
 20
306.801898
 30
0.0
 11
446.108201
 21
306.021898
 31
0.0
  0
LINE
  5
76D3
100
AcDbEntity
  8
OBJECT
 62
     2
100
AcDbLine
 10
447.428201
 20
306.801898
 30
0.0
 11
447.428201
 21
306.021898
 31
0.0
  0
LINE
  5
76D4
100
AcDbEntity
  8
OBJECT
 62
     2
100
AcDbLine
 10
448.018201
 20
306.021898
 30
0.0
 11
448.018201
 21
307.008846
 31
0.0
  0
LINE
  5
76D5
100
AcDbEntity
  8
OBJECT
 62
     2
100
AcDbLine
 10
445.518201
 20
306.021898
 30
0.0
 11
448.018201
 21
306.021898
 31
0.0
  0
LINE
  5
76D8
100
AcDbEntity
  8
OBJECT
 62
     2
100
AcDbLine
 10
445.518201
 20
311.177898
 30
0.0
 11
448.018201
 21
311.177898
 31
0.0
  0
ARC
  5
76D9
100
AcDbEntity
  8
OBJECT
 62
     2
100
AcDbCircle
 10
448.088201
 20
305.864768
 30
0.0
 40
1.146217
100
AcDbArc
 50
93.50126
 51
125.156195
  0
LINE
  5
76DA
100
AcDbEntity
  8
OBJECT
 62
     2
100
AcDbLine
 10
447.850701
 20
307.151898
 30
0.0
 11
445.611509
 21
307.151898
 31
0.0
  0
LINE
  5
76DB
100
AcDbEntity
  8
OBJECT
 62
     2
100
AcDbLine
 10
447.850701
 20
310.047898
 30
0.0
 11
445.71697
 21
310.047898
 31
0.0
  0
ARC
  5
76DC
100
AcDbEntity
  8
OBJECT
 62
     2
100
AcDbCircle
 10
448.124386
 20
311.098124
 30
0.0
 40
2.626523
100
AcDbArc
 50
187.134802
 51
264.01889
  0
ARC
  5
76DD
100
AcDbEntity
  8
OBJECT
 62
     2
100
AcDbCircle
 10
448.088201
 20
311.335028
 30
0.0
 40
1.146217
100
AcDbArc
 50
234.843805
 51
266.49874
  0
LINE
  5
76DF
100
AcDbEntity
  8
OBJECT
 62
     2
100
AcDbLine
 10
448.018201
 20
311.177898
 30
0.0
 11
448.018201
 21
310.190951
 31
0.0
  0
ARC
  5
76E0
100
AcDbEntity
  8
OBJECT
 62
     2
100
AcDbCircle
 10
447.192579
 20
307.818898
 30
0.0
 40
0.937024
100
AcDbArc
 50
314.616122
 51
45.383878
  0
LINE
  5
76E1
100
AcDbEntity
  8
OBJECT
 62
     2
100
AcDbLine
 10
448.018201
 20
307.008846
 30
0.0
 11
447.850701
 21
307.151898
 31
0.0
  0
LINE
  5
76E2
100
AcDbEntity
  8
OBJECT
 62
     2
100
AcDbLine
 10
447.850701
 20
310.047898
 30
0.0
 11
447.850701
 21
308.485898
 31
0.0
  0
LINE
  5
76E3
100
AcDbEntity
  8
OBJECT
 62
     2
100
AcDbLine
 10
448.018201
 20
310.190951
 30
0.0
 11
447.850701
 21
310.047898
 31
0.0
  0
LINE
  5
76E8
100
AcDbEntity
  8
OBJECT
 62
     2
100
AcDbLine
 10
443.750434
 20
309.004131
 30
0.0
 11
444.369152
 21
308.385413
 31
0.0
  0
LINE
  5
76E9
100
AcDbEntity
  8
OBJECT
 62
     2
100
AcDbLine
 10
444.213496
 20
310.727258
 30
0.0
 11
444.687513
 21
310.873559
 31
0.0
  0
LINE
  5
76EA
100
AcDbEntity
  8
OBJECT
 62
     2
100
AcDbLine
 10
445.10914
 20
310.739018
 30
0.0
 11
443.783314
 21
309.413193
 31
0.0
  0
LINE
  5
76EB
100
AcDbEntity
  8
OBJECT
 62
     2
100
AcDbLine
 10
444.655438
 20
310.285316
 30
0.0
 11
444.213496
 21
310.727258
 31
0.0
  0
LINE
  5
76EC
100
AcDbEntity
  8
OBJECT
 62
     2
100
AcDbLine
 10
445.518201
 20
310.771898
 30
0.0
 11
443.750434
 21
309.004131
 31
0.0
  0
LINE
  5
76ED
100
AcDbEntity
  8
OBJECT
 62
     2
100
AcDbLine
 10
445.250561
 20
310.597597
 30
0.0
 11
443.924736
 21
309.271771
 31
0.0
  0
LINE
  5
76EE
100
AcDbEntity
  8
OBJECT
 62
     2
100
AcDbLine
 10
445.17985
 20
310.668307
 30
0.0
 11
443.854025
 21
309.342482
 31
0.0
  0
ARC
  5
76F2
100
AcDbEntity
  8
OBJECT
 62
     2
100
AcDbCircle
 10
446.768201
 20
311.335028
 30
0.0
 40
1.146217
100
AcDbArc
 50
234.843805
 51
305.156195
  0
ARC
  5
76F3
100
AcDbEntity
  8
OBJECT
 62
     2
100
AcDbCircle
 10
445.448201
 20
311.335028
 30
0.0
 40
1.146217
100
AcDbArc
 50
280.319255
 51
305.156195
  0
ARC
  5
76F4
100
AcDbEntity
  8
OBJECT
 62
     2
100
AcDbCircle
 10
445.448201
 20
305.864768
 30
0.0
 40
1.146217
100
AcDbArc
 50
54.843805
 51
86.49874
  0
ARC
  5
76F5
100
AcDbEntity
  8
OBJECT
 62
     2
100
AcDbCircle
 10
446.768201
 20
305.864768
 30
0.0
 40
1.146217
100
AcDbArc
 50
54.843805
 51
125.156195
  0
LINE
  5
76F6
100
AcDbEntity
  8
OBJECT
 62
     2
100
AcDbLine
 10
446.96174
 20
309.663879
 30
0.0
 11
446.844004
 21
309.599737
 31
0.0
  0
LINE
  5
76F7
100
AcDbEntity
  8
OBJECT
 62
     2
100
AcDbLine
 10
446.811894
 20
309.899065
 30
0.0
 11
446.96174
 21
309.663879
 31
0.0
  0
LINE
  5
76F8
100
AcDbEntity
  8
OBJECT
 62
     2
100
AcDbLine
 10
446.844004
 20
309.599737
 30
0.0
 11
446.844004
 21
309.00108
 31
0.0
  0
LINE
  5
76F9
100
AcDbEntity
  8
OBJECT
 62
     2
100
AcDbLine
 10
446.779785
 20
309.599737
 30
0.0
 11
446.779785
 21
309.00108
 31
0.0
  0
LINE
  5
76FA
100
AcDbEntity
  8
OBJECT
 62
     2
100
AcDbLine
 10
446.779785
 20
309.00108
 30
0.0
 11
446.844004
 21
309.00108
 31
0.0
  0
LINE
  5
76FB
100
AcDbEntity
  8
OBJECT
 62
     2
100
AcDbLine
 10
446.811894
 20
309.899065
 30
0.0
 11
446.662048
 21
309.663879
 31
0.0
  0
LINE
  5
76FC
100
AcDbEntity
  8
OBJECT
 62
     2
100
AcDbLine
 10
446.662048
 20
309.663879
 30
0.0
 11
446.779785
 21
309.599737
 31
0.0
  0
LINE
  5
76FD
100
AcDbEntity
  8
OBJECT
 62
     2
100
AcDbLine
 10
444.369152
 20
308.385413
 30
0.0
 11
444.492896
 21
308.438446
 31
0.0
  0
LINE
  5
76FE
100
AcDbEntity
  8
OBJECT
 62
     2
100
AcDbLine
 10
445.820543
 20
309.836803
 30
0.0
 11
444.369152
 21
308.385413
 31
0.0
  0
LINE
  5
76FF
100
AcDbEntity
  8
OBJECT
 62
     2
100
AcDbLine
 10
444.492896
 20
308.438446
 30
0.0
 11
445.545022
 21
307.38632
 31
0.0
  0
ARC
  5
7700
100
AcDbEntity
  8
OBJECT
 62
     2
100
AcDbCircle
 10
445.368246
 20
307.209543
 30
0.0
 40
0.25
100
AcDbArc
 50
310.498867
 51
45.0
  0
LINE
  5
7701
100
AcDbEntity
  8
OBJECT
 62
     2
100
AcDbLine
 10
445.518201
 20
307.008846
 30
0.0
 11
445.530604
 21
307.019438
 31
0.0
  0
LINE
  5
7702
100
AcDbEntity
  8
OBJECT
 62
     2
100
AcDbLine
 10
445.845938
 20
309.791488
 30
0.0
 11
444.492896
 21
308.438446
 31
0.0
  0
LINE
  5
7704
100
AcDbEntity
  8
OBJECT
 62
     2
100
AcDbLine
 10
447.428201
 20
310.397898
 30
0.0
 11
447.428201
 21
311.177898
 31
0.0
  0
LINE
  5
7705
100
AcDbEntity
  8
OBJECT
 62
     2
100
AcDbLine
 10
446.108201
 20
310.397898
 30
0.0
 11
446.108201
 21
311.177898
 31
0.0
  0
LINE
  5
7706
100
AcDbEntity
  8
OBJECT
 62
     2
100
AcDbLine
 10
445.29723
 20
310.550927
 30
0.0
 11
445.10914
 21
310.739018
 31
0.0
  0
LINE
  5
7707
100
AcDbEntity
  8
OBJECT
 62
     2
100
AcDbLine
 10
445.518201
 20
311.177898
 30
0.0
 11
445.518201
 21
310.771898
 31
0.0
  0
LINE
  5
7708
100
AcDbEntity
  8
OBJECT
 62
     2
100
AcDbLine
 10
444.965597
 20
310.595475
 30
0.0
 11
444.687513
 21
310.873559
 31
0.0
  0
LINE
  5
770E
100
AcDbEntity
  8
OBJECT
 62
     2
100
AcDbLine
 10
444.213496
 20
310.727258
 30
0.0
 11
443.575392
 21
309.908201
 31
0.0
  0
LINE
  5
770F
100
AcDbEntity
  8
OBJECT
 62
     2
100
AcDbLine
 10
443.971405
 20
309.225102
 30
0.0
 11
443.783314
 21
309.413193
 31
0.0
  0
LINE
  5
7710
100
AcDbEntity
  8
OBJECT
 62
     2
100
AcDbLine
 10
443.926857
 20
309.556735
 30
0.0
 11
443.575392
 21
309.908201
 31
0.0
  0
LINE
  5
773E
100
AcDbEntity
  8
OBJECT
100
AcDbLine
 10
447.844701
 20
313.927482
 30
0.0
 11
447.844701
 21
313.586482
 31
0.0
  0
LINE
  5
773F
100
AcDbEntity
  8
OBJECT
100
AcDbLine
 10
445.691701
 20
313.927482
 30
0.0
 11
445.691701
 21
313.586482
 31
0.0
  0
LINE
  5
7741
100
AcDbEntity
  8
OBJECT
100
AcDbLine
 10
445.691701
 20
313.586482
 30
0.0
 11
447.844701
 21
313.586482
 31
0.0
  0
LINE
  5
7743
100
AcDbEntity
  8
OBJECT
100
AcDbLine
 10
448.177201
 20
383.518963
 30
0.0
 11
448.177201
 21
381.365963
 31
0.0
  0
LINE
  5
7744
100
AcDbEntity
  8
OBJECT
100
AcDbLine
 10
448.518201
 20
383.518963
 30
0.0
 11
448.518201
 21
381.365963
 31
0.0
  0
ARC
  5
7745
100
AcDbEntity
  8
OBJECT
100
AcDbCircle
 10
446.768201
 20
382.442463
 30
0.0
 40
1.0765
100
AcDbArc
 50
69.783199
 51
290.216801
  0
ARC
  5
7746
100
AcDbEntity
  8
OBJECT
100
AcDbCircle
 10
446.768201
 20
382.442463
 30
0.0
 40
1.010179
100
AcDbArc
 50
90.0
 51
270.0
  0
LINE
  5
7747
100
AcDbEntity
  8
OBJECT
100
AcDbLine
 10
445.691701
 20
313.927482
 30
0.0
 11
447.844701
 21
313.927482
 31
0.0
  0
ARC
  5
7748
100
AcDbEntity
  8
OBJECT
100
AcDbCircle
 10
448.158201
 20
313.946482
 30
0.0
 40
2.4
100
AcDbArc
 50
90.0
 51
180.0
  0
LINE
  5
7749
100
AcDbEntity
  8
OBJECT
100
AcDbLine
 10
445.758201
 20
313.946482
 30
0.0
 11
445.758201
 21
313.927482
 31
0.0
  0
LINE
  5
774A
100
AcDbEntity
  8
OBJECT
100
AcDbLine
 10
448.518201
 20
316.412982
 30
0.0
 11
448.518201
 21
314.259982
 31
0.0
  0
LINE
  5
774B
100
AcDbEntity
  8
OBJECT
100
AcDbLine
 10
448.177201
 20
316.412982
 30
0.0
 11
448.177201
 21
314.259982
 31
0.0
  0
LINE
  5
774D
100
AcDbEntity
  8
OBJECT
100
AcDbLine
 10
448.177201
 20
314.259982
 30
0.0
 11
448.518201
 21
314.259982
 31
0.0
  0
LINE
  5
774E
100
AcDbEntity
  8
OBJECT
100
AcDbLine
 10
447.778201
 20
313.936482
 30
0.0
 11
447.778201
 21
313.927482
 31
0.0
  0
ARC
  5
774F
100
AcDbEntity
  8
OBJECT
100
AcDbCircle
 10
448.168201
 20
313.936482
 30
0.0
 40
0.39
100
AcDbArc
 50
90.0
 51
180.0
  0
LINE
  5
7750
100
AcDbEntity
  8
OBJECT
100
AcDbLine
 10
446.768201
 20
381.432284
 30
0.0
 11
448.177201
 21
381.432284
 31
0.0
  0
LINE
  5
7751
100
AcDbEntity
  8
OBJECT
100
AcDbLine
 10
448.177201
 20
381.365963
 30
0.0
 11
448.518201
 21
381.365963
 31
0.0
  0
LINE
  5
7752
100
AcDbEntity
  8
OBJECT
100
AcDbLine
 10
448.158201
 20
316.346482
 30
0.0
 11
448.177201
 21
316.346482
 31
0.0
  0
LINE
  5
7753
100
AcDbEntity
  8
OBJECT
100
AcDbLine
 10
448.177201
 20
316.412982
 30
0.0
 11
448.518201
 21
316.412982
 31
0.0
  0
LINE
  5
7754
100
AcDbEntity
  8
OBJECT
100
AcDbLine
 10
446.768201
 20
383.452642
 30
0.0
 11
448.177201
 21
383.452642
 31
0.0
  0
LINE
  5
7755
100
AcDbEntity
  8
OBJECT
100
AcDbLine
 10
448.177201
 20
383.518963
 30
0.0
 11
448.518201
 21
383.518963
 31
0.0
  0
LINE
  5
7756
100
AcDbEntity
  8
OBJECT
100
AcDbLine
 10
448.158201
 20
383.452463
 30
0.0
 11
448.177201
 21
383.452463
 31
0.0
  0
LINE
  5
781A
100
AcDbEntity
  8
OBJECT
 62
     2
100
AcDbLine
 10
452.62376
 20
316.336482
 30
0.0
 11
452.62376
 21
314.336482
 31
0.0
  0
LINE
  5
781B
100
AcDbEntity
  8
OBJECT
 62
     2
100
AcDbLine
 10
455.12376
 20
316.336482
 30
0.0
 11
455.12376
 21
314.336482
 31
0.0
  0
ARC
  5
781C
100
AcDbEntity
  8
OBJECT
 62
     2
100
AcDbCircle
 10
455.91433
 20
315.469482
 30
0.0
 40
1.239859
100
AcDbArc
 50
156.217129
 51
203.782871
  0
ARC
  5
781D
100
AcDbEntity
  8
OBJECT
 62
     2
100
AcDbCircle
 10
451.83319
 20
315.469482
 30
0.0
 40
1.239859
100
AcDbArc
 50
336.217129
 51
23.782871
  0
ARC
  5
781E
100
AcDbEntity
  8
OBJECT
 62
     2
100
AcDbCircle
 10
453.87376
 20
315.633094
 30
0.0
 40
1.292187
100
AcDbArc
 50
242.784104
 51
297.215896
  0
LINE
  5
781F
100
AcDbEntity
  8
OBJECT
 62
     2
100
AcDbLine
 10
452.62376
 20
314.336482
 30
0.0
 11
453.064184
 21
314.336482
 31
0.0
  0
LINE
  5
7820
100
AcDbEntity
  8
OBJECT
 62
     2
100
AcDbLine
 10
452.96776
 20
314.688482
 30
0.0
 11
452.62376
 21
314.688482
 31
0.0
  0
LINE
  5
7821
100
AcDbEntity
  8
OBJECT
 62
     2
100
AcDbLine
 10
452.96776
 20
314.969482
 30
0.0
 11
452.62376
 21
314.969482
 31
0.0
  0
ARC
  5
7822
100
AcDbEntity
  8
OBJECT
 62
     2
100
AcDbCircle
 10
451.83319
 20
314.188482
 30
0.0
 40
1.239859
100
AcDbArc
 50
6.855655
 51
23.782871
  0
ARC
  5
7823
100
AcDbEntity
  8
OBJECT
 62
     2
100
AcDbCircle
 10
453.214184
 20
314.350572
 30
0.0
 40
0.15
100
AcDbArc
 50
62.784104
 51
180.0
  0
LINE
  5
7824
100
AcDbEntity
  8
OBJECT
 62
     2
100
AcDbLine
 10
453.064184
 20
314.336482
 30
0.0
 11
453.064184
 21
314.350572
 31
0.0
  0
LINE
  5
7825
100
AcDbEntity
  8
OBJECT
 62
     2
100
AcDbLine
 10
452.96776
 20
314.688482
 30
0.0
 11
452.96776
 21
314.969482
 31
0.0
  0
ARC
  5
7826
100
AcDbEntity
  8
OBJECT
 62
     2
100
AcDbCircle
 10
455.91433
 20
314.188482
 30
0.0
 40
1.239859
100
AcDbArc
 50
156.217129
 51
173.144345
  0
ARC
  5
7827
100
AcDbEntity
  8
OBJECT
 62
     2
100
AcDbCircle
 10
454.533337
 20
314.350572
 30
0.0
 40
0.15
100
AcDbArc
 50
0.0
 51
117.215896
  0
LINE
  5
7828
100
AcDbEntity
  8
OBJECT
 62
     2
100
AcDbLine
 10
454.683337
 20
314.336482
 30
0.0
 11
455.12376
 21
314.336482
 31
0.0
  0
LINE
  5
7829
100
AcDbEntity
  8
OBJECT
 62
     2
100
AcDbLine
 10
454.683337
 20
314.336482
 30
0.0
 11
454.683337
 21
314.350572
 31
0.0
  0
LINE
  5
782A
100
AcDbEntity
  8
OBJECT
 62
     2
100
AcDbLine
 10
454.77976
 20
314.969482
 30
0.0
 11
455.12376
 21
314.969482
 31
0.0
  0
LINE
  5
782B
100
AcDbEntity
  8
OBJECT
 62
     2
100
AcDbLine
 10
454.77976
 20
314.688482
 30
0.0
 11
455.12376
 21
314.688482
 31
0.0
  0
LINE
  5
782C
100
AcDbEntity
  8
OBJECT
 62
     2
100
AcDbLine
 10
454.77976
 20
314.688482
 30
0.0
 11
454.77976
 21
314.969482
 31
0.0
  0
ARC
  5
782D
100
AcDbEntity
  8
OBJECT
 62
     2
100
AcDbCircle
 10
453.87376
 20
381.036463
 30
0.0
 40
0.156
100
AcDbArc
 50
176.819796
 51
3.180204
  0
CIRCLE
  5
782E
100
AcDbEntity
  8
OBJECT
 62
     2
100
AcDbCircle
 10
453.87376
 20
382.442463
 30
0.0
 40
1.406
  0
LINE
  5
782F
100
AcDbEntity
  8
OBJECT
 62
     2
100
AcDbLine
 10
454.50676
 20
318.508067
 30
0.0
 11
454.50676
 21
319.008482
 31
0.0
  0
LINE
  5
7830
100
AcDbEntity
  8
OBJECT
 62
     2
100
AcDbLine
 10
454.17826
 20
318.56796
 30
0.0
 11
454.17826
 21
318.948621
 31
0.0
  0
LINE
  5
7831
100
AcDbEntity
  8
OBJECT
 62
     2
100
AcDbLine
 10
454.20946
 20
318.56796
 30
0.0
 11
454.20946
 21
318.948621
 31
0.0
  0
LINE
  5
7832
100
AcDbEntity
  8
OBJECT
 62
     2
100
AcDbLine
 10
453.24076
 20
318.508067
 30
0.0
 11
453.24076
 21
319.008482
 31
0.0
  0
LINE
  5
7833
100
AcDbEntity
  8
OBJECT
 62
     2
100
AcDbLine
 10
453.53806
 20
318.56796
 30
0.0
 11
453.53806
 21
318.948621
 31
0.0
  0
LINE
  5
7834
100
AcDbEntity
  8
OBJECT
 62
     2
100
AcDbLine
 10
453.56926
 20
318.56796
 30
0.0
 11
453.56926
 21
318.948621
 31
0.0
  0
ARC
  5
7835
100
AcDbEntity
  8
OBJECT
 62
     2
100
AcDbCircle
 10
453.399548
 20
316.976084
 30
0.0
 40
1.382224
100
AcDbArc
 50
72.670771
 51
91.069024
  0
LINE
  5
7836
100
AcDbEntity
  8
OBJECT
 62
     2
100
AcDbLine
 10
452.74876
 20
317.133482
 30
0.0
 11
454.99876
 21
317.133482
 31
0.0
  0
LINE
  5
7837
100
AcDbEntity
  8
OBJECT
 62
     2
100
AcDbLine
 10
452.824637
 20
317.069653
 30
0.0
 11
454.922883
 21
317.069653
 31
0.0
  0
LINE
  5
7838
100
AcDbEntity
  8
OBJECT
 62
     2
100
AcDbLine
 10
452.74876
 20
317.304482
 30
0.0
 11
454.99876
 21
317.304482
 31
0.0
  0
ARC
  5
7839
100
AcDbEntity
  8
OBJECT
 62
     2
100
AcDbCircle
 10
453.87376
 20
316.190869
 30
0.0
 40
1.861428
100
AcDbArc
 50
75.914975
 51
104.085025
  0
LINE
  5
783A
100
AcDbEntity
  8
OBJECT
 62
     2
100
AcDbLine
 10
453.37376
 20
318.108067
 30
0.0
 11
454.37376
 21
318.108067
 31
0.0
  0
LINE
  5
783B
100
AcDbEntity
  8
OBJECT
 62
     2
100
AcDbLine
 10
453.37376
 20
318.358067
 30
0.0
 11
454.37376
 21
318.358067
 31
0.0
  0
LINE
  5
783C
100
AcDbEntity
  8
OBJECT
 62
     2
100
AcDbLine
 10
453.42076
 20
318.471594
 30
0.0
 11
454.32676
 21
318.471594
 31
0.0
  0
LINE
  5
783D
100
AcDbEntity
  8
OBJECT
 62
     2
100
AcDbLine
 10
453.42076
 20
318.426001
 30
0.0
 11
454.32676
 21
318.426001
 31
0.0
  0
LINE
  5
783E
100
AcDbEntity
  8
OBJECT
 62
     2
100
AcDbLine
 10
453.24076
 20
318.508067
 30
0.0
 11
454.50676
 21
318.508067
 31
0.0
  0
ARC
  5
783F
100
AcDbEntity
  8
OBJECT
 62
     2
100
AcDbCircle
 10
453.87376
 20
319.312063
 30
0.0
 40
0.803995
100
AcDbArc
 50
247.744738
 51
292.255262
  0
LINE
  5
7840
100
AcDbEntity
  8
OBJECT
 62
     2
100
AcDbLine
 10
452.68626
 20
317.350522
 30
0.0
 11
455.06126
 21
317.350522
 31
0.0
  0
LINE
  5
7841
100
AcDbEntity
  8
OBJECT
 62
     2
100
AcDbLine
 10
452.641208
 20
317.445482
 30
0.0
 11
455.106312
 21
317.445482
 31
0.0
  0
LINE
  5
7842
100
AcDbEntity
  8
OBJECT
 62
     2
100
AcDbLine
 10
452.641208
 20
317.586482
 30
0.0
 11
455.106312
 21
317.586482
 31
0.0
  0
LINE
  5
7843
100
AcDbEntity
  8
OBJECT
 62
     2
100
AcDbLine
 10
452.74876
 20
317.304482
 30
0.0
 11
452.68626
 21
317.350522
 31
0.0
  0
LINE
  5
7844
100
AcDbEntity
  8
OBJECT
 62
     2
100
AcDbLine
 10
452.96776
 20
315.969482
 30
0.0
 11
452.62376
 21
315.969482
 31
0.0
  0
LINE
  5
7845
100
AcDbEntity
  8
OBJECT
 62
     2
100
AcDbLine
 10
452.96776
 20
316.250482
 30
0.0
 11
452.62376
 21
316.250482
 31
0.0
  0
ARC
  5
7846
100
AcDbEntity
  8
OBJECT
 62
     2
100
AcDbCircle
 10
452.864535
 20
316.79511
 30
0.0
 40
0.277426
100
AcDbArc
 50
316.025209
 51
98.268739
  0
LINE
  5
7847
100
AcDbEntity
  8
OBJECT
 62
     2
100
AcDbLine
 10
452.74876
 20
317.133482
 30
0.0
 11
452.824637
 21
317.069653
 31
0.0
  0
LINE
  5
7848
100
AcDbEntity
  8
OBJECT
 62
     2
100
AcDbLine
 10
452.74876
 20
317.133482
 30
0.0
 11
452.74876
 21
317.304482
 31
0.0
  0
ARC
  5
7849
100
AcDbEntity
  8
OBJECT
 62
     2
100
AcDbCircle
 10
451.83319
 20
316.750482
 30
0.0
 40
1.239859
100
AcDbArc
 50
336.217129
 51
353.144345
  0
LINE
  5
784A
100
AcDbEntity
  8
OBJECT
 62
     2
100
AcDbLine
 10
452.96776
 20
315.969482
 30
0.0
 11
452.96776
 21
316.250482
 31
0.0
  0
ARC
  5
784B
100
AcDbEntity
  8
OBJECT
 62
     2
100
AcDbCircle
 10
452.883881
 20
316.864385
 30
0.0
 40
0.317966
100
AcDbArc
 50
304.544725
 51
40.208069
  0
LINE
  5
784C
100
AcDbEntity
  8
OBJECT
 62
     2
100
AcDbLine
 10
452.68626
 20
317.350522
 30
0.0
 11
452.68626
 21
317.445482
 31
0.0
  0
LINE
  5
784D
100
AcDbEntity
  8
OBJECT
 62
     2
100
AcDbLine
 10
452.641208
 20
317.586482
 30
0.0
 11
452.641208
 21
317.445482
 31
0.0
  0
LINE
  5
784E
100
AcDbEntity
  8
OBJECT
 62
     2
100
AcDbLine
 10
453.366553
 20
317.996334
 30
0.0
 11
453.366553
 21
317.586482
 31
0.0
  0
LINE
  5
784F
100
AcDbEntity
  8
OBJECT
 62
     2
100
AcDbLine
 10
453.42076
 20
317.586482
 30
0.0
 11
453.42076
 21
317.996334
 31
0.0
  0
LINE
  5
7850
100
AcDbEntity
  8
OBJECT
 62
     2
100
AcDbLine
 10
453.278148
 20
317.586482
 30
0.0
 11
453.278148
 21
318.016241
 31
0.0
  0
LINE
  5
7851
100
AcDbEntity
  8
OBJECT
 62
     2
100
AcDbLine
 10
453.278148
 20
318.016241
 30
0.0
 11
453.37376
 21
318.108067
 31
0.0
  0
LINE
  5
7852
100
AcDbEntity
  8
OBJECT
 62
     2
100
AcDbLine
 10
453.366553
 20
317.996334
 30
0.0
 11
453.42076
 21
317.996334
 31
0.0
  0
ARC
  5
7853
100
AcDbEntity
  8
OBJECT
 62
     2
100
AcDbCircle
 10
453.23356
 20
319.312063
 30
0.0
 40
0.803995
100
AcDbArc
 50
270.513106
 51
292.255262
  0
ARC
  5
7854
100
AcDbEntity
  8
OBJECT
 62
     2
100
AcDbCircle
 10
452.913553
 20
316.190869
 30
0.0
 40
1.861428
100
AcDbArc
 50
75.914975
 51
78.704546
  0
LINE
  5
7855
100
AcDbEntity
  8
OBJECT
 62
     2
100
AcDbLine
 10
453.37376
 20
318.108067
 30
0.0
 11
453.37376
 21
318.358067
 31
0.0
  0
LINE
  5
7856
100
AcDbEntity
  8
OBJECT
 62
     2
100
AcDbLine
 10
453.42076
 20
318.358067
 30
0.0
 11
453.42076
 21
318.508067
 31
0.0
  0
LINE
  5
7857
100
AcDbEntity
  8
OBJECT
 62
     2
100
AcDbLine
 10
453.53806
 20
318.56796
 30
0.0
 11
453.56926
 21
318.56796
 31
0.0
  0
LINE
  5
7858
100
AcDbEntity
  8
OBJECT
 62
     2
100
AcDbLine
 10
454.99876
 20
317.304482
 30
0.0
 11
455.06126
 21
317.350522
 31
0.0
  0
ARC
  5
7859
100
AcDbEntity
  8
OBJECT
 62
     2
100
AcDbCircle
 10
455.91433
 20
316.750482
 30
0.0
 40
1.239859
100
AcDbArc
 50
186.855655
 51
203.782871
  0
ARC
  5
785A
100
AcDbEntity
  8
OBJECT
 62
     2
100
AcDbCircle
 10
454.882985
 20
316.79511
 30
0.0
 40
0.277426
100
AcDbArc
 50
81.731261
 51
223.974791
  0
ARC
  5
785B
100
AcDbEntity
  8
OBJECT
 62
     2
100
AcDbCircle
 10
454.863639
 20
316.864385
 30
0.0
 40
0.317966
100
AcDbArc
 50
139.791931
 51
235.455275
  0
LINE
  5
785C
100
AcDbEntity
  8
OBJECT
 62
     2
100
AcDbLine
 10
454.77976
 20
316.250482
 30
0.0
 11
455.12376
 21
316.250482
 31
0.0
  0
LINE
  5
785D
100
AcDbEntity
  8
OBJECT
 62
     2
100
AcDbLine
 10
454.77976
 20
315.969482
 30
0.0
 11
455.12376
 21
315.969482
 31
0.0
  0
LINE
  5
785E
100
AcDbEntity
  8
OBJECT
 62
     2
100
AcDbLine
 10
454.77976
 20
315.969482
 30
0.0
 11
454.77976
 21
316.250482
 31
0.0
  0
LINE
  5
785F
100
AcDbEntity
  8
OBJECT
 62
     2
100
AcDbLine
 10
454.99876
 20
317.133482
 30
0.0
 11
454.922883
 21
317.069653
 31
0.0
  0
LINE
  5
7860
100
AcDbEntity
  8
OBJECT
 62
     2
100
AcDbLine
 10
454.99876
 20
317.133482
 30
0.0
 11
454.99876
 21
317.304482
 31
0.0
  0
LINE
  5
7861
100
AcDbEntity
  8
OBJECT
 62
     2
100
AcDbLine
 10
454.380967
 20
317.996334
 30
0.0
 11
454.380967
 21
317.586482
 31
0.0
  0
LINE
  5
7862
100
AcDbEntity
  8
OBJECT
 62
     2
100
AcDbLine
 10
454.32676
 20
317.586482
 30
0.0
 11
454.32676
 21
317.996334
 31
0.0
  0
LINE
  5
7863
100
AcDbEntity
  8
OBJECT
 62
     2
100
AcDbLine
 10
454.469372
 20
317.586482
 30
0.0
 11
454.469372
 21
318.016241
 31
0.0
  0
ARC
  5
7864
100
AcDbEntity
  8
OBJECT
 62
     2
100
AcDbCircle
 10
454.51396
 20
319.312063
 30
0.0
 40
0.803995
100
AcDbArc
 50
247.744738
 51
269.486894
  0
ARC
  5
7865
100
AcDbEntity
  8
OBJECT
 62
     2
100
AcDbCircle
 10
454.347972
 20
316.976084
 30
0.0
 40
1.382224
100
AcDbArc
 50
88.930976
 51
107.329229
  0
LINE
  5
7866
100
AcDbEntity
  8
OBJECT
 62
     2
100
AcDbLine
 10
453.81126
 20
318.108067
 30
0.0
 11
453.81126
 21
318.295567
 31
0.0
  0
LINE
  5
7867
100
AcDbEntity
  8
OBJECT
 62
     2
100
AcDbLine
 10
453.93626
 20
318.108067
 30
0.0
 11
453.93626
 21
318.295567
 31
0.0
  0
LINE
  5
7868
100
AcDbEntity
  8
OBJECT
 62
     2
100
AcDbLine
 10
453.81126
 20
318.295567
 30
0.0
 11
453.93626
 21
318.295567
 31
0.0
  0
LINE
  5
7869
100
AcDbEntity
  8
OBJECT
 62
     2
100
AcDbLine
 10
454.17826
 20
318.56796
 30
0.0
 11
454.20946
 21
318.56796
 31
0.0
  0
LINE
  5
786A
100
AcDbEntity
  8
OBJECT
 62
     2
100
AcDbLine
 10
454.37376
 20
318.108067
 30
0.0
 11
454.37376
 21
318.358067
 31
0.0
  0
ARC
  5
786B
100
AcDbEntity
  8
OBJECT
 62
     2
100
AcDbCircle
 10
454.833967
 20
316.190869
 30
0.0
 40
1.861428
100
AcDbArc
 50
101.295454
 51
104.085025
  0
LINE
  5
786C
100
AcDbEntity
  8
OBJECT
 62
     2
100
AcDbLine
 10
454.469372
 20
318.016241
 30
0.0
 11
454.37376
 21
318.108067
 31
0.0
  0
LINE
  5
786D
100
AcDbEntity
  8
OBJECT
 62
     2
100
AcDbLine
 10
454.32676
 20
317.996334
 30
0.0
 11
454.380967
 21
317.996334
 31
0.0
  0
LINE
  5
786E
100
AcDbEntity
  8
OBJECT
 62
     2
100
AcDbLine
 10
454.32676
 20
318.358067
 30
0.0
 11
454.32676
 21
318.508067
 31
0.0
  0
LINE
  5
786F
100
AcDbEntity
  8
OBJECT
 62
     2
100
AcDbLine
 10
455.06126
 20
317.350522
 30
0.0
 11
455.06126
 21
317.445482
 31
0.0
  0
LINE
  5
7870
100
AcDbEntity
  8
OBJECT
 62
     2
100
AcDbLine
 10
455.106312
 20
317.586482
 30
0.0
 11
455.106312
 21
317.445482
 31
0.0
  0
LINE
  5
7871
100
AcDbEntity
  8
OBJECT
 62
     2
100
AcDbLine
 10
454.223207
 20
319.258482
 30
0.0
 11
453.524313
 21
319.258482
 31
0.0
  0
ARC
  5
7872
100
AcDbEntity
  8
OBJECT
 62
     2
100
AcDbCircle
 10
453.818
 20
319.564482
 30
0.0
 40
0.1
100
AcDbArc
 50
90.0
 51
180.0
  0
LINE
  5
7873
100
AcDbEntity
  8
OBJECT
 62
     2
100
AcDbLine
 10
455.27976
 20
319.836482
 30
0.0
 11
452.46776
 21
319.836482
 31
0.0
  0
LINE
  5
7874
100
AcDbEntity
  8
OBJECT
 62
     2
100
AcDbLine
 10
455.366946
 20
319.383482
 30
0.0
 11
452.380575
 21
319.383482
 31
0.0
  0
LINE
  5
7875
100
AcDbEntity
  8
OBJECT
 62
     2
100
AcDbLine
 10
453.24076
 20
319.008482
 30
0.0
 11
454.50676
 21
319.008482
 31
0.0
  0
ARC
  5
7876
100
AcDbEntity
  8
OBJECT
 62
     2
100
AcDbCircle
 10
453.87376
 20
318.204519
 30
0.0
 40
0.803995
100
AcDbArc
 50
67.744738
 51
112.255262
  0
LINE
  5
7877
100
AcDbEntity
  8
OBJECT
 62
     2
100
AcDbLine
 10
452.380575
 20
319.564482
 30
0.0
 11
452.380575
 21
319.383482
 31
0.0
  0
LINE
  5
7878
100
AcDbEntity
  8
OBJECT
 62
     2
100
AcDbLine
 10
452.46776
 20
319.383482
 30
0.0
 11
452.46776
 21
319.836482
 31
0.0
  0
ARC
  5
7879
100
AcDbEntity
  8
OBJECT
 62
     2
100
AcDbCircle
 10
452.480575
 20
319.564482
 30
0.0
 40
0.1
100
AcDbArc
 50
97.362434
 51
180.0
  0
LINE
  5
787A
100
AcDbEntity
  8
OBJECT
 62
     2
100
AcDbLine
 10
453.63926
 20
319.008482
 30
0.0
 11
453.63926
 21
319.258482
 31
0.0
  0
ARC
  5
787B
100
AcDbEntity
  8
OBJECT
 62
     2
100
AcDbCircle
 10
453.23356
 20
318.204519
 30
0.0
 40
0.803995
100
AcDbArc
 50
67.744738
 51
89.486894
  0
LINE
  5
787C
100
AcDbEntity
  8
OBJECT
 62
     2
100
AcDbLine
 10
453.53806
 20
318.948621
 30
0.0
 11
453.56926
 21
318.948621
 31
0.0
  0
LINE
  5
787D
100
AcDbEntity
  8
OBJECT
 62
     2
100
AcDbLine
 10
453.718
 20
319.564482
 30
0.0
 11
453.718
 21
319.383482
 31
0.0
  0
LINE
  5
787E
100
AcDbEntity
  8
OBJECT
 62
     2
100
AcDbLine
 10
453.424313
 20
319.358482
 30
0.0
 11
453.424313
 21
319.383482
 31
0.0
  0
ARC
  5
787F
100
AcDbEntity
  8
OBJECT
 62
     2
100
AcDbCircle
 10
453.524313
 20
319.358482
 30
0.0
 40
0.1
100
AcDbArc
 50
180.0
 51
270.0
  0
LINE
  5
7880
100
AcDbEntity
  8
OBJECT
 62
     2
100
AcDbLine
 10
454.10826
 20
319.008482
 30
0.0
 11
454.10826
 21
319.258482
 31
0.0
  0
ARC
  5
7881
100
AcDbEntity
  8
OBJECT
 62
     2
100
AcDbCircle
 10
454.51396
 20
318.204519
 30
0.0
 40
0.803995
100
AcDbArc
 50
90.513106
 51
112.255262
  0
LINE
  5
7882
100
AcDbEntity
  8
OBJECT
 62
     2
100
AcDbLine
 10
454.17826
 20
318.948621
 30
0.0
 11
454.20946
 21
318.948621
 31
0.0
  0
ARC
  5
7883
100
AcDbEntity
  8
OBJECT
 62
     2
100
AcDbCircle
 10
454.223207
 20
319.358482
 30
0.0
 40
0.1
100
AcDbArc
 50
270.0
 51
0.0
  0
LINE
  5
7884
100
AcDbEntity
  8
OBJECT
 62
     2
100
AcDbLine
 10
454.02952
 20
319.564482
 30
0.0
 11
454.02952
 21
319.383482
 31
0.0
  0
ARC
  5
7885
100
AcDbEntity
  8
OBJECT
 62
     2
100
AcDbCircle
 10
453.92952
 20
319.564482
 30
0.0
 40
0.1
100
AcDbArc
 50
0.0
 51
90.0
  0
LINE
  5
7886
100
AcDbEntity
  8
OBJECT
 62
     2
100
AcDbLine
 10
453.92952
 20
319.664482
 30
0.0
 11
453.818
 21
319.664482
 31
0.0
  0
LINE
  5
7887
100
AcDbEntity
  8
OBJECT
 62
     2
100
AcDbLine
 10
454.323207
 20
319.358482
 30
0.0
 11
454.323207
 21
319.383482
 31
0.0
  0
LINE
  5
7888
100
AcDbEntity
  8
OBJECT
 62
     2
100
AcDbLine
 10
455.366946
 20
319.564482
 30
0.0
 11
455.366946
 21
319.383482
 31
0.0
  0
LINE
  5
7889
100
AcDbEntity
  8
OBJECT
 62
     2
100
AcDbLine
 10
455.27976
 20
319.383482
 30
0.0
 11
455.27976
 21
319.836482
 31
0.0
  0
ARC
  5
788A
100
AcDbEntity
  8
OBJECT
 62
     2
100
AcDbCircle
 10
455.266946
 20
319.564482
 30
0.0
 40
0.1
100
AcDbArc
 50
0.0
 51
82.637566
  0
ARC
  5
788B
100
AcDbEntity
  8
OBJECT
 62
     2
100
AcDbCircle
 10
453.87376
 20
382.962644
 30
0.0
 40
0.1
100
AcDbArc
 50
212.190203
 51
327.809797
  0
LINE
  5
788C
100
AcDbEntity
  8
OBJECT
 62
     2
100
AcDbLine
 10
453.763995
 20
381.260549
 30
0.0
 11
453.815836
 21
381.705756
 31
0.0
  0
CIRCLE
  5
788D
100
AcDbEntity
  8
OBJECT
 62
     2
100
AcDbCircle
 10
453.87376
 20
382.442463
 30
0.0
 40
0.414
  0
CIRCLE
  5
788E
100
AcDbEntity
  8
OBJECT
 62
     2
100
AcDbCircle
 10
453.87376
 20
382.442463
 30
0.0
 40
0.1405
  0
LWPOLYLINE
  5
788F
100
AcDbEntity
  8
OBJECT
 62
     2
100
AcDbPolyline
 90
        6
 70
     1
 43
0.0
 10
454.018098
 20
382.192463
 10
454.162435
 20
382.442463
 10
454.018098
 20
382.692463
 10
453.729422
 20
382.692463
 10
453.585085
 20
382.442463
 10
453.729422
 20
382.192463
  0
ARC
  5
7890
100
AcDbEntity
  8
OBJECT
 62
     2
100
AcDbCircle
 10
453.87376
 20
382.442463
 30
0.0
 40
1.187
100
AcDbArc
 50
59.305852
 51
120.694148
  0
LINE
  5
7891
100
AcDbEntity
  8
OBJECT
 62
     2
100
AcDbLine
 10
453.458294
 20
383.434931
 30
0.0
 11
453.789132
 21
382.909371
 31
0.0
  0
LINE
  5
7892
100
AcDbEntity
  8
OBJECT
 62
     2
100
AcDbLine
 10
453.058252
 20
383.144284
 30
0.0
 11
453.455855
 21
382.667232
 31
0.0
  0
ARC
  5
7893
100
AcDbEntity
  8
OBJECT
 62
     2
100
AcDbCircle
 10
453.381628
 20
383.119824
 30
0.0
 40
0.116048
100
AcDbArc
 50
276.057089
 51
335.942911
  0
ARC
  5
7894
100
AcDbEntity
  8
OBJECT
 62
     2
100
AcDbCircle
 10
453.87376
 20
382.442463
 30
0.0
 40
1.187
100
AcDbArc
 50
131.305852
 51
192.694148
  0
ARC
  5
7895
100
AcDbEntity
  8
OBJECT
 62
     2
100
AcDbCircle
 10
451.83319
 20
383.082963
 30
0.0
 40
1.239859
100
AcDbArc
 50
336.217129
 51
2.058156
  0
LINE
  5
7896
100
AcDbEntity
  8
OBJECT
 62
     2
100
AcDbLine
 10
452.80148
 20
382.354021
 30
0.0
 11
453.403552
 21
382.506259
 31
0.0
  0
ARC
  5
7897
100
AcDbEntity
  8
OBJECT
 62
     2
100
AcDbCircle
 10
453.000256
 20
381.794938
 30
0.0
 40
0.1
100
AcDbArc
 50
117.369988
 51
218.619648
  0
LINE
  5
7898
100
AcDbEntity
  8
OBJECT
 62
     2
100
AcDbLine
 10
452.783612
 20
381.972839
 30
0.0
 11
453.19101
 21
382.159719
 31
0.0
  0
LINE
  5
7899
100
AcDbEntity
  8
OBJECT
 62
     2
100
AcDbLine
 10
452.715774
 20
382.181624
 30
0.0
 11
453.155211
 21
382.269897
 31
0.0
  0
ARC
  5
789A
100
AcDbEntity
  8
OBJECT
 62
     2
100
AcDbCircle
 10
453.87376
 20
382.442463
 30
0.0
 40
1.187
100
AcDbArc
 50
203.305852
 51
264.694148
  0
LINE
  5
789B
100
AcDbEntity
  8
OBJECT
 62
     2
100
AcDbLine
 10
452.96776
 20
382.582963
 30
0.0
 11
452.695105
 21
382.582963
 31
0.0
  0
ARC
  5
789C
100
AcDbEntity
  8
OBJECT
 62
     2
100
AcDbCircle
 10
452.536575
 20
382.007985
 30
0.0
 40
0.156
100
AcDbArc
 50
104.819796
 51
291.180204
  0
LINE
  5
789D
100
AcDbEntity
  8
OBJECT
 62
     2
100
AcDbLine
 10
452.62376
 20
381.411163
 30
0.0
 11
452.62376
 21
381.798773
 31
0.0
  0
LINE
  5
789E
100
AcDbEntity
  8
OBJECT
 62
     2
100
AcDbLine
 10
452.918116
 20
381.411163
 30
0.0
 11
452.62376
 21
381.411163
 31
0.0
  0
ARC
  5
789F
100
AcDbEntity
  8
OBJECT
 62
     2
100
AcDbCircle
 10
452.786475
 20
382.452889
 30
0.0
 40
0.1
100
AcDbArc
 50
177.380352
 51
278.630012
  0
LINE
  5
78A0
100
AcDbEntity
  8
OBJECT
 62
     2
100
AcDbLine
 10
452.954283
 20
381.883744
 30
0.0
 11
453.530852
 21
382.114469
 31
0.0
  0
ARC
  5
78A1
100
AcDbEntity
  8
OBJECT
 62
     2
100
AcDbCircle
 10
453.568005
 20
382.021627
 30
0.0
 40
0.1
100
AcDbArc
 50
356.190203
 51
111.809797
  0
LINE
  5
78A2
100
AcDbEntity
  8
OBJECT
 62
     2
100
AcDbLine
 10
453.064184
 20
381.949963
 30
0.0
 11
453.064184
 21
381.964053
 31
0.0
  0
ARC
  5
78A3
100
AcDbEntity
  8
OBJECT
 62
     2
100
AcDbCircle
 10
451.83319
 20
381.801963
 30
0.0
 40
1.239859
100
AcDbArc
 50
349.884867
 51
5.865682
  0
LINE
  5
78A4
100
AcDbEntity
  8
OBJECT
 62
     2
100
AcDbLine
 10
453.626521
 20
381.395334
 30
0.0
 11
453.667784
 21
382.014983
 31
0.0
  0
ARC
  5
78A5
100
AcDbEntity
  8
OBJECT
 62
     2
100
AcDbCircle
 10
453.527855
 20
381.411615
 30
0.0
 40
0.1
100
AcDbArc
 50
249.380352
 51
350.630012
  0
LINE
  5
78A6
100
AcDbEntity
  8
OBJECT
 62
     2
100
AcDbLine
 10
452.96776
 20
382.396066
 30
0.0
 11
452.96776
 21
382.582963
 31
0.0
  0
ARC
  5
78A7
100
AcDbEntity
  8
OBJECT
 62
     2
100
AcDbCircle
 10
453.077474
 20
382.183734
 30
0.0
 40
0.116048
100
AcDbArc
 50
348.057089
 51
47.942911
  0
ARC
  5
78A8
100
AcDbEntity
  8
OBJECT
 62
     2
100
AcDbCircle
 10
453.379038
 20
382.603208
 30
0.0
 40
0.1
100
AcDbArc
 50
284.190203
 51
39.809797
  0
ARC
  5
78A9
100
AcDbEntity
  8
OBJECT
 62
     2
100
AcDbCircle
 10
452.988
 20
383.073118
 30
0.0
 40
0.1
100
AcDbArc
 50
45.369988
 51
146.619648
  0
ARC
  5
78AA
100
AcDbEntity
  8
OBJECT
 62
     2
100
AcDbCircle
 10
453.047334
 20
383.579941
 30
0.0
 40
0.156
100
AcDbArc
 50
32.819796
 51
219.180204
  0
LINE
  5
78AB
100
AcDbEntity
  8
OBJECT
 62
     2
100
AcDbLine
 10
452.918116
 20
383.473763
 30
0.0
 11
452.62376
 21
383.473763
 31
0.0
  0
LINE
  5
78AC
100
AcDbEntity
  8
OBJECT
 62
     2
100
AcDbLine
 10
452.62376
 20
383.086152
 30
0.0
 11
452.62376
 21
383.473763
 31
0.0
  0
LINE
  5
78AD
100
AcDbEntity
  8
OBJECT
 62
     2
100
AcDbLine
 10
453.090247
 20
383.334133
 30
0.0
 11
453.393873
 21
383.004424
 31
0.0
  0
LINE
  5
78AE
100
AcDbEntity
  8
OBJECT
 62
     2
100
AcDbLine
 10
453.26785
 20
383.463169
 30
0.0
 11
453.487596
 21
383.072518
 31
0.0
  0
ARC
  5
78AF
100
AcDbEntity
  8
OBJECT
 62
     2
100
AcDbCircle
 10
453.547686
 20
383.479754
 30
0.0
 40
0.1
100
AcDbArc
 50
105.380352
 51
206.630012
  0
LINE
  5
78B0
100
AcDbEntity
  8
OBJECT
 62
     2
100
AcDbLine
 10
454.689268
 20
383.144284
 30
0.0
 11
454.291665
 21
382.667232
 31
0.0
  0
ARC
  5
78B1
100
AcDbEntity
  8
OBJECT
 62
     2
100
AcDbCircle
 10
454.365892
 20
383.119824
 30
0.0
 40
0.116048
100
AcDbArc
 50
204.057089
 51
263.942911
  0
ARC
  5
78B2
100
AcDbEntity
  8
OBJECT
 62
     2
100
AcDbCircle
 10
455.91433
 20
383.082963
 30
0.0
 40
1.239859
100
AcDbArc
 50
177.941844
 51
203.782871
  0
LINE
  5
78B3
100
AcDbEntity
  8
OBJECT
 62
     2
100
AcDbLine
 10
454.289226
 20
383.434931
 30
0.0
 11
453.958388
 21
382.909371
 31
0.0
  0
ARC
  5
78B4
100
AcDbEntity
  8
OBJECT
 62
     2
100
AcDbCircle
 10
453.87376
 20
382.442463
 30
0.0
 40
1.187
100
AcDbArc
 50
347.305852
 51
48.694148
  0
LINE
  5
78B5
100
AcDbEntity
  8
OBJECT
 62
     2
100
AcDbLine
 10
454.94604
 20
382.354021
 30
0.0
 11
454.343968
 21
382.506259
 31
0.0
  0
LINE
  5
78B6
100
AcDbEntity
  8
OBJECT
 62
     2
100
AcDbLine
 10
454.793237
 20
381.883744
 30
0.0
 11
454.216668
 21
382.114469
 31
0.0
  0
LINE
  5
78B7
100
AcDbEntity
  8
OBJECT
 62
     2
100
AcDbLine
 10
455.031746
 20
382.181624
 30
0.0
 11
454.592309
 21
382.269897
 31
0.0
  0
LINE
  5
78B8
100
AcDbEntity
  8
OBJECT
 62
     2
100
AcDbLine
 10
454.963908
 20
381.972839
 30
0.0
 11
454.55651
 21
382.159719
 31
0.0
  0
ARC
  5
78B9
100
AcDbEntity
  8
OBJECT
 62
     2
100
AcDbCircle
 10
455.91433
 20
381.801963
 30
0.0
 40
1.239859
100
AcDbArc
 50
174.134318
 51
190.115133
  0
ARC
  5
78BA
100
AcDbEntity
  8
OBJECT
 62
     2
100
AcDbCircle
 10
453.87376
 20
382.442463
 30
0.0
 40
1.187
100
AcDbArc
 50
275.305852
 51
336.694148
  0
ARC
  5
78BB
100
AcDbEntity
  8
OBJECT
 62
     2
100
AcDbCircle
 10
454.179515
 20
382.021627
 30
0.0
 40
0.1
100
AcDbArc
 50
68.190203
 51
183.809797
  0
ARC
  5
78BC
100
AcDbEntity
  8
OBJECT
 62
     2
100
AcDbCircle
 10
454.219665
 20
381.411615
 30
0.0
 40
0.1
100
AcDbArc
 50
189.369988
 51
290.619648
  0
LINE
  5
78BD
100
AcDbEntity
  8
OBJECT
 62
     2
100
AcDbLine
 10
454.120999
 20
381.395334
 30
0.0
 11
454.079736
 21
382.014983
 31
0.0
  0
LINE
  5
78BE
100
AcDbEntity
  8
OBJECT
 62
     2
100
AcDbLine
 10
453.983525
 20
381.260549
 30
0.0
 11
453.931684
 21
381.705756
 31
0.0
  0
ARC
  5
78BF
100
AcDbEntity
  8
OBJECT
 62
     2
100
AcDbCircle
 10
453.87376
 20
381.605198
 30
0.0
 40
0.116048
100
AcDbArc
 50
60.057089
 51
119.942911
  0
ARC
  5
78C0
100
AcDbEntity
  8
OBJECT
 62
     2
100
AcDbCircle
 10
454.368482
 20
382.603208
 30
0.0
 40
0.1
100
AcDbArc
 50
140.190203
 51
255.809797
  0
ARC
  5
78C1
100
AcDbEntity
  8
OBJECT
 62
     2
100
AcDbCircle
 10
454.670046
 20
382.183734
 30
0.0
 40
0.116048
100
AcDbArc
 50
132.057089
 51
191.942911
  0
ARC
  5
78C2
100
AcDbEntity
  8
OBJECT
 62
     2
100
AcDbCircle
 10
455.210946
 20
382.007985
 30
0.0
 40
0.156
100
AcDbArc
 50
248.819796
 51
75.180204
  0
LINE
  5
78C3
100
AcDbEntity
  8
OBJECT
 62
     2
100
AcDbLine
 10
454.829405
 20
381.411163
 30
0.0
 11
455.12376
 21
381.411163
 31
0.0
  0
ARC
  5
78C4
100
AcDbEntity
  8
OBJECT
 62
     2
100
AcDbCircle
 10
454.747264
 20
381.794938
 30
0.0
 40
0.1
100
AcDbArc
 50
321.380352
 51
62.630012
  0
LINE
  5
78C5
100
AcDbEntity
  8
OBJECT
 62
     2
100
AcDbLine
 10
455.12376
 20
381.411163
 30
0.0
 11
455.12376
 21
381.798773
 31
0.0
  0
LINE
  5
78C6
100
AcDbEntity
  8
OBJECT
 62
     2
100
AcDbLine
 10
454.77976
 20
382.396066
 30
0.0
 11
454.77976
 21
382.582963
 31
0.0
  0
ARC
  5
78C7
100
AcDbEntity
  8
OBJECT
 62
     2
100
AcDbCircle
 10
454.961045
 20
382.452889
 30
0.0
 40
0.1
100
AcDbArc
 50
261.369988
 51
2.619648
  0
LINE
  5
78C8
100
AcDbEntity
  8
OBJECT
 62
     2
100
AcDbLine
 10
454.77976
 20
382.582963
 30
0.0
 11
455.052416
 21
382.582963
 31
0.0
  0
ARC
  5
78C9
100
AcDbEntity
  8
OBJECT
 62
     2
100
AcDbCircle
 10
454.700186
 20
383.579941
 30
0.0
 40
0.156
100
AcDbArc
 50
320.819796
 51
147.180204
  0
ARC
  5
78CA
100
AcDbEntity
  8
OBJECT
 62
     2
100
AcDbCircle
 10
454.199834
 20
383.479754
 30
0.0
 40
0.1
100
AcDbArc
 50
333.369988
 51
74.619648
  0
LINE
  5
78CB
100
AcDbEntity
  8
OBJECT
 62
     2
100
AcDbLine
 10
454.47967
 20
383.463169
 30
0.0
 11
454.259924
 21
383.072518
 31
0.0
  0
LINE
  5
78CC
100
AcDbEntity
  8
OBJECT
 62
     2
100
AcDbLine
 10
454.657273
 20
383.334133
 30
0.0
 11
454.353647
 21
383.004424
 31
0.0
  0
LINE
  5
78CD
100
AcDbEntity
  8
OBJECT
 62
     2
100
AcDbLine
 10
454.829405
 20
383.473763
 30
0.0
 11
455.12376
 21
383.473763
 31
0.0
  0
ARC
  5
78CE
100
AcDbEntity
  8
OBJECT
 62
     2
100
AcDbCircle
 10
454.75952
 20
383.073118
 30
0.0
 40
0.1
100
AcDbArc
 50
33.380352
 51
134.630012
  0
LINE
  5
78CF
100
AcDbEntity
  8
OBJECT
 62
     2
100
AcDbLine
 10
455.12376
 20
383.086152
 30
0.0
 11
455.12376
 21
383.473763
 31
0.0
  0
LINE
  5
78D0
100
AcDbEntity
  8
OBJECT
 62
     2
100
AcDbLine
 10
452.62376
 20
316.336482
 30
0.0
 11
453.001887
 21
316.336482
 31
0.0
  0
LINE
  5
78D1
100
AcDbEntity
  8
OBJECT
 62
     2
100
AcDbLine
 10
454.745633
 20
316.336482
 30
0.0
 11
455.12376
 21
316.336482
 31
0.0
  0
LINE
  5
78D2
100
AcDbEntity
  8
CENTER
100
AcDbLine
 10
446.768201
 20
277.930287
 30
0.0
 11
446.768201
 21
315.336482
 31
0.0
  0
LINE
  5
78FB
100
AcDbEntity
  8
CENTER
100
AcDbLine
 10
458.003327
 20
315.336482
 30
0.0
 11
461.128327
 21
315.336482
 31
0.0
  0
LINE
  5
78FC
100
AcDbEntity
  8
OBJECT
100
AcDbLine
 10
458.534327
 20
316.286482
 30
0.0
 11
458.534327
 21
314.386482
 31
0.0
  0
LINE
  5
78FD
100
AcDbEntity
  8
OBJECT
100
AcDbLine
 10
460.597327
 20
316.286482
 30
0.0
 11
460.597327
 21
314.386482
 31
0.0
  0
LINE
  5
78FE
100
AcDbEntity
  8
OBJECT
100
AcDbLine
 10
459.501003
 20
314.386482
 30
0.0
 11
458.534327
 21
314.386482
 31
0.0
  0
LINE
  5
78FF
100
AcDbEntity
  8
OBJECT
100
AcDbLine
 10
460.597327
 20
314.386482
 30
0.0
 11
459.603177
 21
314.386482
 31
0.0
  0
LINE
  5
7900
100
AcDbEntity
  8
OBJECT
100
AcDbLine
 10
459.501003
 20
316.286482
 30
0.0
 11
458.534327
 21
316.286482
 31
0.0
  0
LINE
  5
7901
100
AcDbEntity
  8
OBJECT
100
AcDbLine
 10
460.597327
 20
316.286482
 30
0.0
 11
459.603177
 21
316.286482
 31
0.0
  0
LINE
  5
7902
100
AcDbEntity
  8
OBJECT
100
AcDbLine
 10
459.528477
 20
317.836482
 30
0.0
 11
459.528477
 21
312.836482
 31
0.0
  0
LINE
  5
7903
100
AcDbEntity
  8
OBJECT
100
AcDbLine
 10
459.603177
 20
317.836482
 30
0.0
 11
459.603177
 21
312.836482
 31
0.0
  0
LINE
  5
7904
100
AcDbEntity
  8
OBJECT
100
AcDbLine
 10
459.528477
 20
317.836482
 30
0.0
 11
459.603177
 21
317.836482
 31
0.0
  0
LINE
  5
7905
100
AcDbEntity
  8
OBJECT
100
AcDbLine
 10
459.528477
 20
312.836482
 30
0.0
 11
459.603177
 21
312.836482
 31
0.0
  0
LINE
  5
790A
100
AcDbEntity
  8
OBJECT
100
AcDbLine
 10
445.918201
 20
277.930287
 30
0.0
 11
445.918201
 21
306.021898
 31
0.0
  0
LINE
  5
790B
100
AcDbEntity
  8
OBJECT
100
AcDbLine
 10
447.618201
 20
277.930287
 30
0.0
 11
447.618201
 21
306.021898
 31
0.0
  0
LINE
  5
790E
100
AcDbEntity
  8
OBJECT
 62
     2
100
AcDbLine
 10
445.918201
 20
311.177898
 30
0.0
 11
445.918201
 21
313.586482
 31
0.0
  0
LINE
  5
790F
100
AcDbEntity
  8
OBJECT
 62
     2
100
AcDbLine
 10
447.618201
 20
311.177898
 30
0.0
 11
447.618201
 21
313.586482
 31
0.0
  0
LINE
  5
7910
100
AcDbEntity
  8
OBJECT
100
AcDbLine
 10
458.534327
 20
316.186482
 30
0.0
 11
455.12376
 21
316.186482
 31
0.0
  0
LINE
  5
7911
100
AcDbEntity
  8
OBJECT
100
AcDbLine
 10
458.534327
 20
314.486482
 30
0.0
 11
455.12376
 21
314.486482
 31
0.0
  0
LINE
  5
7912
100
AcDbEntity
  8
OBJECT
100
AcDbLine
 10
452.62376
 20
316.186482
 30
0.0
 11
451.712745
 21
316.186482
 31
0.0
  0
LINE
  5
7913
100
AcDbEntity
  8
OBJECT
100
AcDbLine
 10
452.62376
 20
314.486482
 30
0.0
 11
451.712745
 21
314.486482
 31
0.0
  0
LINE
  5
7914
100
AcDbEntity
  8
OBJECT
100
AcDbLine
 10
449.712744
 20
316.186482
 30
0.0
 11
448.518201
 21
316.186482
 31
0.0
  0
LINE
  5
7915
100
AcDbEntity
  8
OBJECT
100
AcDbLine
 10
449.712744
 20
314.486482
 30
0.0
 11
448.518201
 21
314.486482
 31
0.0
  0
LINE
  5
7916
100
AcDbEntity
  8
OBJECT
100
AcDbLine
 10
459.028477
 20
316.286482
 30
0.0
 11
459.028477
 21
338.355157
 31
0.0
  0
LEADER
  5
7917
100
AcDbEntity
  8
DIM
100
AcDbLeader
  3
STANDARD
 76
     2
 10
455.106312
 20
317.586482
 30
0.0
 10
476.231466
 20
331.275278
 30
0.0
 77
   256
1001
ACAD
1000
DSTYLE
1002
{
1070
   340
1005
2C
1070
   272
1070
     2
1070
   147
1040
1.25
1070
   287
1070
     5
1070
    44
1040
1.25
1070
   271
1070
     2
1070
    41
1040
1.1
1002
}
  0
LINE
  5
7918
100
AcDbEntity
  8
OBJECT
100
AcDbLine
 10
448.518201
 20
383.292463
 30
0.0
 11
449.693188
 21
383.292463
 31
0.0
  0
LINE
  5
7919
100
AcDbEntity
  8
OBJECT
100
AcDbLine
 10
448.518201
 20
381.592463
 30
0.0
 11
449.693188
 21
381.592463
 31
0.0
  0
LINE
  5
7927
100
AcDbEntity
  8
OBJECT
100
AcDbLine
 10
459.00339
 20
383.392463
 30
0.0
 11
458.534327
 21
383.392463
 31
0.0
  0
LINE
  5
7928
100
AcDbEntity
  8
OBJECT
100
AcDbLine
 10
458.534327
 20
383.392463
 30
0.0
 11
458.534327
 21
381.492463
 31
0.0
  0
LINE
  5
7929
100
AcDbEntity
  8
OBJECT
100
AcDbLine
 10
459.00339
 20
381.492463
 30
0.0
 11
458.534327
 21
381.492463
 31
0.0
  0
LINE
  5
792A
100
AcDbEntity
  8
OBJECT
100
AcDbLine
 10
451.69319
 20
383.292463
 30
0.0
 11
452.62376
 21
383.292463
 31
0.0
  0
LINE
  5
792B
100
AcDbEntity
  8
OBJECT
100
AcDbLine
 10
451.69319
 20
381.592463
 30
0.0
 11
452.62376
 21
381.592463
 31
0.0
  0
LINE
  5
792C
100
AcDbEntity
  8
OBJECT
100
AcDbLine
 10
455.12376
 20
381.592463
 30
0.0
 11
458.534327
 21
381.592463
 31
0.0
  0
LINE
  5
792D
100
AcDbEntity
  8
OBJECT
100
AcDbLine
 10
455.12376
 20
383.292463
 30
0.0
 11
458.534327
 21
383.292463
 31
0.0
  0
TEXT
  5
9399
100
AcDbEntity
  8
DIM
100
AcDbText
 10
391.717258
 20
349.354629
 30
0.0
 40
1.5
  1
304 Stainless Steel
  7
ROMAND
 72
     2
 11
414.217258
 21
350.104629
 31
0.0
100
AcDbText
 73
     2
  0
TEXT
  5
939A
100
AcDbEntity
  8
DIM
100
AcDbText
 10
407.717258
 20
343.328789
 30
0.0
 40
1.5
  1
Floats
  7
ROMAND
 72
     2
 11
414.217258
 21
344.078789
 31
0.0
100
AcDbText
 73
     2
  0
TEXT
  5
939B
100
AcDbEntity
  8
DIM
100
AcDbText
 10
392.074401
 20
345.356899
 30
0.0
 40
1.5
  1
w/ (3) Cord Grips
  7
ROMAND
 72
     2
 11
414.217258
 21
346.106899
 31
0.0
100
AcDbText
 73
     2
  0
TEXT
  5
939C
100
AcDbEntity
  8
DIM
100
AcDbText
 10
398.788687
 20
347.410792
 30
0.0
 40
1.5
  1
Float Bracket
  7
ROMAND
 72
     2
 11
414.217258
 21
348.160792
 31
0.0
100
AcDbText
 73
     2
  0
LWPOLYLINE
  5
939D
100
AcDbEntity
  8
DIM
100
AcDbPolyline
 90
        4
 70
     1
 43
0.0
 10
407.203763
 20
343.309622
 10
407.203763
 20
344.571701
 10
405.941684
 20
344.571701
 10
405.941684
 20
343.309622
  0
LINE
  5
939E
100
AcDbEntity
  8
DIM
100
AcDbLine
 10
416.317258
 20
348.160792
 30
0.0
 11
415.317258
 21
348.160792
 31
0.0
  0
LEADER
  5
939F
100
AcDbEntity
  8
DIM
100
AcDbLeader
  3
STANDARD
 76
     2
 10
432.389308
 20
329.605157
 30
0.0
 10
416.317258
 20
348.160792
 30
0.0
 77
   256
1001
ACAD
1000
DSTYLE
1002
{
1070
   340
1005
2C
1070
   272
1070
     2
1070
   147
1040
1.25
1070
   287
1070
     5
1070
    44
1040
1.25
1070
   271
1070
     2
1070
    41
1040
1.1
1002
}
  0
TEXT
  5
A4FB
100
AcDbEntity
  8
DIM
100
AcDbText
 10
372.986208
 20
391.620055
 30
0.0
 40
1.5
  1
DISCHARGE PIPE
  7
ROMAND
100
AcDbText
  0
TEXT
  5
A4FC
100
AcDbEntity
  8
DIM
100
AcDbText
 10
374.96729
 20
388.25669
 30
0.0
 40
1.5
  1
304 Stainless Steel
  7
ROMAND
100
AcDbText
  0
TEXT
  5
A4FD
100
AcDbEntity
  8
DIM
100
AcDbText
 10
374.96729
 20
384.340581
 30
0.0
 40
1.5
  1
Sch80 PVC Pipe
  7
ROMAND
100
AcDbText
  0
TEXT
  5
A4FE
100
AcDbEntity
  8
DIM
100
AcDbText
 10
374.96729
 20
386.283472
 30
0.0
 40
1.5
  1
Sch40 Galvanized Steel
  7
ROMAND
100
AcDbText
  0
LINE
  5
A4FF
100
AcDbEntity
  8
DIM
100
AcDbLine
 10
372.949806
 20
390.985559
 30
0.0
 11
389.549957
 21
390.985559
 31
0.0
  0
LINE
  5
A500
100
AcDbEntity
  8
DIM
100
AcDbLine
 10
372.949806
 20
391.272921
 30
0.0
 11
389.549957
 21
391.272921
 31
0.0
  0
LWPOLYLINE
  5
A501
100
AcDbEntity
  8
DIM
100
AcDbPolyline
 90
        4
 70
     1
 43
0.0
 10
374.298438
 20
385.606239
 10
373.004696
 20
385.606239
 10
373.004696
 20
384.312496
 10
374.298438
 20
384.312496
  0
TEXT
  5
A502
100
AcDbEntity
  8
DIM
100
AcDbText
 10
374.951897
 20
380.975244
 30
0.0
 40
1.5
  1
1 1/4"
  7
ROMAND
100
AcDbText
  0
LWPOLYLINE
  5
A503
100
AcDbEntity
  8
DIM
100
AcDbPolyline
 90
        4
 70
     1
 43
0.0
 10
374.288291
 20
379.870183
 10
373.004696
 20
379.870183
 10
373.004696
 20
378.586588
 10
374.288291
 20
378.586588
  0
TEXT
  5
A504
100
AcDbEntity
  8
DIM
100
AcDbText
 10
374.951897
 20
378.658626
 30
0.0
 40
1.5
  1
2"
  7
ROMAND
100
AcDbText
  0
LWPOLYLINE
  5
A505
100
AcDbEntity
  8
DIM
100
AcDbPolyline
 90
        4
 70
     1
 43
0.0
 10
374.288291
 20
382.216891
 10
373.004696
 20
382.216891
 10
373.004696
 20
380.933296
 10
374.288291
 20
380.933296
  0
LWPOLYLINE
  5
A506
100
AcDbEntity
  8
DIM
100
AcDbPolyline
 90
        4
 70
     1
 43
0.0
 10
374.298438
 20
388.198278
 10
373.004696
 20
388.198278
 10
373.004696
 20
389.492021
 10
374.298438
 20
389.492021
  0
LWPOLYLINE
  5
A507
100
AcDbEntity
  8
DIM
100
AcDbPolyline
 90
        4
 70
     1
 43
0.0
 10
374.298438
 20
387.54913
 10
373.004696
 20
387.54913
 10
373.004696
 20
386.255387
 10
374.298438
 20
386.255387
  0
TEXT
  5
A508
100
AcDbEntity
  8
DIM
100
AcDbText
 10
380.21326
 20
419.937052
 30
0.0
 40
1.5
  1
Sump Pump(s)
  7
ROMAND
100
AcDbText
  0
TEXT
  5
A509
100
AcDbEntity
  8
DIM
100
AcDbText
 10
380.21326
 20
416.782324
 30
0.0
 40
1.5
  1
Grinder Pump(s)
  7
ROMAND
100
AcDbText
  0
TEXT
  5
A50A
100
AcDbEntity
  8
DIM
100
AcDbText
 10
380.21326
 20
413.627595
 30
0.0
 40
1.5
  1
Non-Clog Pump(s)
  7
ROMAND
100
AcDbText
  0
LINE
  5
A50B
100
AcDbEntity
  8
DIM
100
AcDbLine
 10
378.635896
 20
402.586045
 30
0.0
 11
384.417937
 21
402.586045
 31
0.0
  0
LINE
  5
A50C
100
AcDbEntity
  8
DIM
100
AcDbLine
 10
379.338303
 20
405.740774
 30
0.0
 11
384.534599
 21
405.740774
 31
0.0
  0
TEXT
  5
A50D
100
AcDbEntity
  8
DIM
100
AcDbText
 10
372.986208
 20
423.320817
 30
0.0
 40
1.5
  1
PUMP INFORMATION
  7
ROMAND
100
AcDbText
  0
LINE
  5
A50E
100
AcDbEntity
  8
DIM
100
AcDbLine
 10
372.949806
 20
422.973683
 30
0.0
 11
392.510083
 21
422.973683
 31
0.0
  0
LINE
  5
A50F
100
AcDbEntity
  8
DIM
100
AcDbLine
 10
372.949806
 20
422.686321
 30
0.0
 11
392.510083
 21
422.686321
 31
0.0
  0
LINE
  5
A510
100
AcDbEntity
  8
DIM
100
AcDbLine
 10
377.235964
 20
399.431317
 30
0.0
 11
384.359608
 21
399.431317
 31
0.0
  0
LINE
  5
A511
100
AcDbEntity
  8
DIM
100
AcDbLine
 10
377.060972
 20
396.276588
 30
0.0
 11
384.592929
 21
396.276588
 31
0.0
  0
TEXT
  5
A512
100
AcDbEntity
  8
DIM
100
AcDbText
 10
372.326439
 20
396.276588
 30
0.0
 40
1.5
  1
Elec:
  7
ROMAND
100
AcDbText
  0
TEXT
  5
A513
100
AcDbEntity
  8
DIM
100
AcDbText
 10
372.326439
 20
399.431317
 30
0.0
 40
1.5
  1
Elec:
  7
ROMAND
100
AcDbText
  0
TEXT
  5
A514
100
AcDbEntity
  8
DIM
100
AcDbText
 10
372.326439
 20
402.586045
 30
0.0
 40
1.5
  1
Motor:
  7
ROMAND
100
AcDbText
  0
TEXT
  5
A515
100
AcDbEntity
  8
DIM
100
AcDbText
 10
372.326439
 20
405.740774
 30
0.0
 40
1.5
  1
Rating:
  7
ROMAND
100
AcDbText
  0
TEXT
  5
A516
100
AcDbEntity
  8
DIM
100
AcDbText
 10
372.326439
 20
408.895502
 30
0.0
 40
1.5
  1
Model NO:
  7
ROMAND
100
AcDbText
  0
LWPOLYLINE
  5
A517
100
AcDbEntity
  8
DIM
100
AcDbPolyline
 90
        4
 70
     1
 43
0.0
 10
379.658845
 20
413.55153
 10
379.658845
 20
414.864421
 10
378.345953
 20
414.864421
 10
378.345953
 20
413.55153
  0
TEXT
  5
A518
100
AcDbEntity
  8
DIM
100
AcDbText
 10
372.326439
 20
419.937052
 30
0.0
 40
1.5
  1
Type:
  7
ROMAND
100
AcDbText
  0
LWPOLYLINE
  5
A519
100
AcDbEntity
  8
DIM
100
AcDbPolyline
 90
        4
 70
     1
 43
0.0
 10
379.658845
 20
419.834655
 10
379.658845
 20
421.147547
 10
378.345953
 20
421.147547
 10
378.345953
 20
419.834655
  0
LWPOLYLINE
  5
A51A
100
AcDbEntity
  8
DIM
100
AcDbPolyline
 90
        4
 70
     1
 43
0.0
 10
379.658845
 20
416.833759
 10
379.658845
 20
418.146651
 10
378.345953
 20
418.146651
 10
378.345953
 20
416.833759
  0
LINE
  5
A51B
100
AcDbEntity
  8
DIM
100
AcDbLine
 10
398.733317
 20
399.431317
 30
0.0
 11
403.873724
 21
399.431317
 31
0.0
  0
LINE
  5
A51C
100
AcDbEntity
  8
DIM
100
AcDbLine
 10
389.269132
 20
405.740774
 30
0.0
 11
395.692809
 21
405.740774
 31
0.0
  0
LINE
  5
A51D
100
AcDbEntity
  8
DIM
100
AcDbLine
 10
387.98342
 20
402.586045
 30
0.0
 11
395.284496
 21
402.586045
 31
0.0
  0
TEXT
  5
A51E
100
AcDbEntity
  8
DIM
100
AcDbText
 10
384.945353
 20
396.276588
 30
0.0
 40
1.5
  1
FL AMPS
  7
ROMAND
100
AcDbText
  0
LINE
  5
A51F
100
AcDbEntity
  8
DIM
100
AcDbLine
 10
387.983421
 20
399.431317
 30
0.0
 11
395.342827
 21
399.431317
 31
0.0
  0
TEXT
  5
A520
100
AcDbEntity
  8
DIM
100
AcDbText
 10
384.945353
 20
399.431317
 30
0.0
 40
1.5
  1
PH
  7
ROMAND
100
AcDbText
  0
TEXT
  5
A521
100
AcDbEntity
  8
DIM
100
AcDbText
 10
384.945353
 20
402.586045
 30
0.0
 40
1.5
  1
HP
  7
ROMAND
100
AcDbText
  0
TEXT
  5
A522
100
AcDbEntity
  8
DIM
100
AcDbText
 10
384.945353
 20
405.740774
 30
0.0
 40
1.5
  1
GPM
  7
ROMAND
100
AcDbText
  0
TEXT
  5
A523
100
AcDbEntity
  8
DIM
100
AcDbText
 10
395.986903
 20
399.431317
 30
0.0
 40
1.5
  1
HZ
  7
ROMAND
100
AcDbText
  0
TEXT
  5
A524
100
AcDbEntity
  8
DIM
100
AcDbText
 10
395.986903
 20
402.586045
 30
0.0
 40
1.5
  1
RPM
  7
ROMAND
100
AcDbText
  0
TEXT
  5
A525
100
AcDbEntity
  8
DIM
100
AcDbText
 10
395.986903
 20
405.740774
 30
0.0
 40
1.5
  1
TDH
  7
ROMAND
100
AcDbText
  0
LINE
  5
A526
100
AcDbEntity
  8
DIM
100
AcDbLine
 10
382.551361
 20
408.895502
 30
0.0
 11
398.842657
 21
408.895502
 31
0.0
  0
TEXT
  5
A527
100
AcDbEntity
  8
DIM
100
AcDbText
 10
403.873724
 20
399.431317
 30
0.0
 40
1.5
  1
v
  7
ROMAND
100
AcDbText
  0
ENDSEC
  0
SECTION
  2
OBJECTS
  0
DICTIONARY
  5
C
100
AcDbDictionary
  3
ACAD_GROUP
350
D
  3
ACAD_MLINESTYLE
350
1A
  3
ACDBVARIABLEDICTIONARY
350
45
  3
DRAWINGVARIABLESDICT
350
163A
  0
DICTIONARY
  5
D
102
{ACAD_REACTORS
330
C
102
}
100
AcDbDictionary
  0
DICTIONARY
  5
1A
102
{ACAD_REACTORS
330
C
102
}
100
AcDbDictionary
  3
STANDARD
350
1B
  0
DICTIONARY
  5
45
102
{ACAD_REACTORS
330
C
102
}
100
AcDbDictionary
  3
DIMADEC
350
46
  0
DICTIONARY
  5
163A
102
{ACAD_REACTORS
330
C
102
}
100
AcDbDictionary
1001
DRAWINGVARIABLESXDATA
1000
POLARANG
1000
0.785398
1000
POLARMODE
1000
0
  0
MLINESTYLE
  5
1B
102
{ACAD_REACTORS
330
1A
102
}
100
AcDbMlineStyle
  2
STANDARD
 70
     0
  3

 62
   256
 51
90.0
 52
90.0
 71
     2
 49
0.5
 62
   256
  6
BYLAYER
 49
-0.5
 62
   256
  6
BYLAYER
  0
DICTIONARYVAR
  5
46
102
{ACAD_REACTORS
330
45
102
}
100
DictionaryVariables
280
     0
  1
0
  0
ENDSEC
  0
EOF
