  0
SECTION
  2
HEADER
  9
$ACADVER
  1
AC1014
  9
$ACADMAINTVER
 70
     0
  9
$DWGCODEPAGE
  3
ANSI_1252
  9
$INSBASE
 10
0.0
 20
0.0
 30
0.0
  9
$EXTMIN
 10
-436.971769
 20
360.49079
 30
0.0
  9
$EXTMAX
 10
-327.242081
 20
502.493915
 30
0.0
  9
$LIMMIN
 10
43.217099
 20
-76.701281
  9
$LIMMAX
 10
223.217099
 20
58.298719
  9
$ORTHOMODE
 70
     1
  9
$REGENMODE
 70
     1
  9
$FILLMODE
 70
     1
  9
$QTEXTMODE
 70
     0
  9
$MIRRTEXT
 70
     1
  9
$DRAGMODE
 70
     2
  9
$LTSCALE
 40
4.0
  9
$OSMODE
 70
   675
  9
$ATTMODE
 70
     1
  9
$TEXTSIZE
 40
1.35
  9
$TRACEWID
 40
0.05
  9
$TEXTSTYLE
  7
ROMAND
  9
$CLAYER
  8
0
  9
$CELTYPE
  6
BYLAYER
  9
$CECOLOR
 62
   256
  9
$CELTSCALE
 40
1.0
  9
$DELOBJ
 70
     1
  9
$DISPSILH
 70
     0
  9
$DIMSCALE
 40
0.0
  9
$DIMASZ
 40
1.3
  9
$DIMEXO
 40
1.0
  9
$DIMDLI
 40
0.38
  9
$DIMRND
 40
0.0
  9
$DIMDLE
 40
0.0
  9
$DIMEXE
 40
0.2
  9
$DIMTP
 40
0.0
  9
$DIMTM
 40
0.0
  9
$DIMTXT
 40
0.18
  9
$DIMCEN
 40
0.09
  9
$DIMTSZ
 40
0.0
  9
$DIMTOL
 70
     0
  9
$DIMLIM
 70
     0
  9
$DIMTIH
 70
     1
  9
$DIMTOH
 70
     1
  9
$DIMSE1
 70
     0
  9
$DIMSE2
 70
     0
  9
$DIMTAD
 70
     0
  9
$DIMZIN
 70
    12
  9
$DIMBLK
  1

  9
$DIMASO
 70
     1
  9
$DIMSHO
 70
     1
  9
$DIMPOST
  1

  9
$DIMAPOST
  1

  9
$DIMALT
 70
     0
  9
$DIMALTD
 70
     2
  9
$DIMALTF
 40
25.4
  9
$DIMLFAC
 40
1.0
  9
$DIMTOFL
 70
     0
  9
$DIMTVP
 40
0.0
  9
$DIMTIX
 70
     0
  9
$DIMSOXD
 70
     0
  9
$DIMSAH
 70
     0
  9
$DIMBLK1
  1

  9
$DIMBLK2
  1

  9
$DIMSTYLE
  2
STANDARD
  9
$DIMCLRD
 70
     0
  9
$DIMCLRE
 70
     0
  9
$DIMCLRT
 70
     0
  9
$DIMTFAC
 40
1.0
  9
$DIMGAP
 40
1.35
  9
$DIMJUST
 70
     0
  9
$DIMSD1
 70
     0
  9
$DIMSD2
 70
     0
  9
$DIMTOLJ
 70
     1
  9
$DIMTZIN
 70
    12
  9
$DIMALTZ
 70
     0
  9
$DIMALTTZ
 70
     0
  9
$DIMFIT
 70
     3
  9
$DIMUPT
 70
     0
  9
$DIMUNIT
 70
     7
  9
$DIMDEC
 70
     4
  9
$DIMTDEC
 70
     4
  9
$DIMALTU
 70
     2
  9
$DIMALTTD
 70
     2
  9
$DIMTXSTY
  7
ROMAND
  9
$DIMAUNIT
 70
     0
  9
$LUNITS
 70
     2
  9
$LUPREC
 70
     4
  9
$SKETCHINC
 40
0.1
  9
$FILLETRAD
 40
0.0
  9
$AUNITS
 70
     0
  9
$AUPREC
 70
     0
  9
$MENU
  1
acad
  9
$ELEVATION
 40
0.0
  9
$PELEVATION
 40
0.0
  9
$THICKNESS
 40
0.0
  9
$LIMCHECK
 70
     0
  9
$BLIPMODE
 70
     0
  9
$CHAMFERA
 40
0.0
  9
$CHAMFERB
 40
0.0
  9
$CHAMFERC
 40
0.0
  9
$CHAMFERD
 40
0.0
  9
$SKPOLY
 70
     0
  9
$TDCREATE
 40
2449812.600894329
  9
$TDUPDATE
 40
2452962.427289386
  9
$TDINDWG
 40
0.3087265394
  9
$TDUSRTIMER
 40
0.3087265394
  9
$USRTIMER
 70
     1
  9
$ANGBASE
 50
0.0
  9
$ANGDIR
 70
     0
  9
$PDMODE
 70
     0
  9
$PDSIZE
 40
0.0
  9
$PLINEWID
 40
0.0
  9
$COORDS
 70
     1
  9
$SPLFRAME
 70
     0
  9
$SPLINETYPE
 70
     6
  9
$SPLINESEGS
 70
     8
  9
$ATTDIA
 70
     0
  9
$ATTREQ
 70
     1
  9
$HANDLING
 70
     1
  9
$HANDSEED
  5
A477
  9
$SURFTAB1
 70
     6
  9
$SURFTAB2
 70
     6
  9
$SURFTYPE
 70
     6
  9
$SURFU
 70
     6
  9
$SURFV
 70
     6
  9
$UCSNAME
  2

  9
$UCSORG
 10
0.0
 20
0.0
 30
0.0
  9
$UCSXDIR
 10
1.0
 20
0.0
 30
0.0
  9
$UCSYDIR
 10
0.0
 20
1.0
 30
0.0
  9
$PUCSNAME
  2

  9
$PUCSORG
 10
0.0
 20
0.0
 30
0.0
  9
$PUCSXDIR
 10
1.0
 20
0.0
 30
0.0
  9
$PUCSYDIR
 10
0.0
 20
1.0
 30
0.0
  9
$USERI1
 70
     0
  9
$USERI2
 70
     0
  9
$USERI3
 70
     0
  9
$USERI4
 70
     0
  9
$USERI5
 70
     0
  9
$USERR1
 40
0.0
  9
$USERR2
 40
0.0
  9
$USERR3
 40
0.0
  9
$USERR4
 40
0.0
  9
$USERR5
 40
0.0
  9
$WORLDVIEW
 70
     1
  9
$SHADEDGE
 70
     3
  9
$SHADEDIF
 70
    70
  9
$TILEMODE
 70
     1
  9
$MAXACTVP
 70
    16
  9
$PINSBASE
 10
0.0
 20
0.0
 30
0.0
  9
$PLIMCHECK
 70
     0
  9
$PEXTMIN
 10
1.000000E+20
 20
1.000000E+20
 30
1.000000E+20
  9
$PEXTMAX
 10
-1.000000E+20
 20
-1.000000E+20
 30
-1.000000E+20
  9
$PLIMMIN
 10
0.0
 20
0.0
  9
$PLIMMAX
 10
12.0
 20
9.0
  9
$UNITMODE
 70
     0
  9
$VISRETAIN
 70
     0
  9
$PLINEGEN
 70
     0
  9
$PSLTSCALE
 70
     1
  9
$TREEDEPTH
 70
  3020
  9
$PICKSTYLE
 70
     1
  9
$CMLSTYLE
  2
STANDARD
  9
$CMLJUST
 70
     0
  9
$CMLSCALE
 40
1.0
  9
$PROXYGRAPHICS
 70
     1
  9
$MEASUREMENT
 70
     0
  0
ENDSEC
  0
SECTION
  2
CLASSES
  0
CLASS
  1
DICTIONARYVAR
  2
AcDbDictionaryVar
  3
"AutoCAD"
 90
        0
280
     0
281
     0
  0
CLASS
  1
LWPOLYLINE
  2
AcDbPolyline
  3
"AutoCAD"
 90
        0
280
     0
281
     1
  0
CLASS
  1
HATCH
  2
AcDbHatch
  3
"ACAD_SEDONA"
 90
        0
280
     0
281
     1
  0
ENDSEC
  0
SECTION
  2
TABLES
  0
TABLE
  2
VPORT
  5
8
100
AcDbSymbolTable
 70
     1
  0
VPORT
  5
A46F
100
AcDbSymbolTableRecord
100
AcDbViewportTableRecord
  2
*ACTIVE
 70
     0
 10
0.0
 20
0.0
 11
1.0
 21
1.0
 12
-382.115529
 22
431.49973
 13
0.0
 23
0.0
 14
1.0
 24
1.0
 15
0.0
 25
0.0
 16
0.0
 26
0.0
 36
1.0
 17
0.0
 27
0.0
 37
0.0
 40
143.534615
 41
1.71048
 42
50.0
 43
0.0
 44
0.0
 50
0.0
 51
0.0
 71
     0
 72
   100
 73
     1
 74
     0
 75
     0
 76
     0
 77
     0
 78
     0
  0
ENDTAB
  0
TABLE
  2
LTYPE
  5
5
100
AcDbSymbolTable
 70
     3
  0
LTYPE
  5
11
100
AcDbSymbolTableRecord
100
AcDbLinetypeTableRecord
  2
BYBLOCK
 70
     0
  3

 72
    65
 73
     0
 40
0.0
  0
LTYPE
  5
12
100
AcDbSymbolTableRecord
100
AcDbLinetypeTableRecord
  2
BYLAYER
 70
     0
  3

 72
    65
 73
     0
 40
0.0
  0
LTYPE
  5
13
100
AcDbSymbolTableRecord
100
AcDbLinetypeTableRecord
  2
CONTINUOUS
 70
     0
  3
Solid line
 72
    65
 73
     0
 40
0.0
  0
LTYPE
  5
31
100
AcDbSymbolTableRecord
100
AcDbLinetypeTableRecord
  2
CENTER
 70
     0
  3
____ _ ____ _ ____ _ ____ _ ____ _ ____ _ ____ 
 72
    65
 73
     4
 40
2.0
 49
1.25
 74
     0
 49
-0.25
 74
     0
 49
0.25
 74
     0
 49
-0.25
 74
     0
  0
LTYPE
  5
33
100
AcDbSymbolTableRecord
100
AcDbLinetypeTableRecord
  2
HIDDEN
 70
     0
  3
__ __ __ __ __ __ __ __ __ __ __ __ __ __ __ __
 72
    65
 73
     2
 40
0.375
 49
0.25
 74
     0
 49
-0.125
 74
     0
  0
ENDTAB
  0
TABLE
  2
LAYER
  5
2
100
AcDbSymbolTable
 70
     7
  0
LAYER
  5
E
100
AcDbSymbolTableRecord
100
AcDbLayerTableRecord
  2
0
 70
     0
 62
     7
  6
CONTINUOUS
  0
LAYER
  5
37
100
AcDbSymbolTableRecord
100
AcDbLayerTableRecord
  2
OBJECT
 70
     0
 62
     2
  6
CONTINUOUS
  0
LAYER
  5
39
100
AcDbSymbolTableRecord
100
AcDbLayerTableRecord
  2
HIDDEN
 70
     0
 62
     1
  6
HIDDEN
  0
LAYER
  5
3A
100
AcDbSymbolTableRecord
100
AcDbLayerTableRecord
  2
CENTER
 70
     0
 62
     3
  6
CENTER
  0
LAYER
  5
3C
100
AcDbSymbolTableRecord
100
AcDbLayerTableRecord
  2
DEFPOINTS
 70
     0
 62
     7
  6
CONTINUOUS
  0
LAYER
  5
3D
100
AcDbSymbolTableRecord
100
AcDbLayerTableRecord
  2
BORDER
 70
     0
 62
     5
  6
CONTINUOUS
  0
LAYER
  5
40
100
AcDbSymbolTableRecord
100
AcDbLayerTableRecord
  2
LIMITS
 70
     0
 62
     7
  6
CONTINUOUS
  0
ENDTAB
  0
TABLE
  2
STYLE
  5
3
100
AcDbSymbolTable
 70
     5
  0
STYLE
  5
F
100
AcDbSymbolTableRecord
100
AcDbTextStyleTableRecord
  2
STANDARD
 70
     0
 40
0.0
 41
1.0
 50
0.0
 71
     0
 42
0.2
  3
txt
  4

  0
STYLE
  5
2B
100
AcDbSymbolTableRecord
100
AcDbTextStyleTableRecord
  2
ROMANS
 70
     0
 40
1.5
 41
1.0
 50
0.0
 71
     0
 42
1.5
  3
romans
  4

  0
STYLE
  5
2D
100
AcDbSymbolTableRecord
100
AcDbTextStyleTableRecord
  2
ROMAND
 70
     0
 40
1.35
 41
1.0
 50
0.0
 71
     0
 42
1.35
  3
romand
  4

  0
STYLE
  5
2E
100
AcDbSymbolTableRecord
100
AcDbTextStyleTableRecord
  2
ROMANC
 70
     0
 40
0.0531
 41
1.0
 50
0.0
 71
     0
 42
0.0531
  3
romanc
  4

  0
STYLE
  5
117F
100
AcDbSymbolTableRecord
100
AcDbTextStyleTableRecord
  2
COUNTRYBLUEPRINT
 70
     0
 40
0.061059
 41
1.0
 50
0.0
 71
     0
 42
0.061059
  3
cobt____.pfb
  4

  0
ENDTAB
  0
TABLE
  2
VIEW
  5
6
100
AcDbSymbolTable
 70
     0
  0
ENDTAB
  0
TABLE
  2
UCS
  5
7
100
AcDbSymbolTable
 70
     0
  0
ENDTAB
  0
TABLE
  2
APPID
  5
9
100
AcDbSymbolTable
 70
     6
  0
APPID
  5
10
100
AcDbSymbolTableRecord
100
AcDbRegAppTableRecord
  2
ACAD
 70
     0
  0
APPID
  5
1184
100
AcDbSymbolTableRecord
100
AcDbRegAppTableRecord
  2
CONTENTBLOCKICON
 70
     0
  0
APPID
  5
1185
100
AcDbSymbolTableRecord
100
AcDbRegAppTableRecord
  2
CONTENTBLOCKDESCRIPTION
 70
     0
  0
APPID
  5
1186
100
AcDbSymbolTableRecord
100
AcDbRegAppTableRecord
  2
DRAWINGVARIABLESXDATA
 70
     0
  0
APPID
  5
1187
100
AcDbSymbolTableRecord
100
AcDbRegAppTableRecord
  2
CONTENTTABDATA
 70
     0
  0
APPID
  5
1188
100
AcDbSymbolTableRecord
100
AcDbRegAppTableRecord
  2
CONTENTCURRENTTAB
 70
     0
  0
ENDTAB
  0
TABLE
  2
DIMSTYLE
  5
A
100
AcDbSymbolTable
 70
     1
  0
DIMSTYLE
105
1176
102
{ACAD_REACTORS
330
95F5
330
9604
330
967D
330
960E
330
95F4
330
967B
330
967A
330
A1B9
330
A1DF
330
A242
102
}
100
AcDbSymbolTableRecord
100
AcDbDimStyleTableRecord
  2
STANDARD
 70
     0
  3

  4

  5

  6

  7

 40
0.0
 41
1.3
 42
1.0
 43
0.38
 44
0.2
 45
0.0
 46
0.0
 47
0.0
 48
0.0
140
0.18
141
0.09
142
0.0
143
25.4
144
1.0
145
0.0
146
1.0
147
1.35
 71
     0
 72
     0
 73
     1
 74
     1
 75
     0
 76
     0
 77
     0
 78
    12
170
     0
171
     2
172
     0
173
     0
174
     0
175
     0
176
     0
177
     0
178
     0
270
     7
271
     4
272
     4
273
     2
274
     2
340
2D
275
     0
280
     0
281
     0
282
     0
283
     1
284
    12
285
     0
286
     0
287
     3
288
     0
  0
ENDTAB
  0
TABLE
  2
BLOCK_RECORD
  5
1
100
AcDbSymbolTable
 70
    10
  0
BLOCK_RECORD
  5
17
100
AcDbSymbolTableRecord
100
AcDbBlockTableRecord
  2
*MODEL_SPACE
  0
BLOCK_RECORD
  5
14
100
AcDbSymbolTableRecord
100
AcDbBlockTableRecord
  2
*PAPER_SPACE
  0
BLOCK_RECORD
  5
96B3
100
AcDbSymbolTableRecord
100
AcDbBlockTableRecord
  2
*D0
  0
BLOCK_RECORD
  5
96C1
100
AcDbSymbolTableRecord
100
AcDbBlockTableRecord
  2
*D1
  0
BLOCK_RECORD
  5
96CE
100
AcDbSymbolTableRecord
100
AcDbBlockTableRecord
  2
*D2
  0
BLOCK_RECORD
  5
96DB
100
AcDbSymbolTableRecord
100
AcDbBlockTableRecord
  2
*D3
  0
BLOCK_RECORD
  5
96E8
100
AcDbSymbolTableRecord
100
AcDbBlockTableRecord
  2
*D4
  0
BLOCK_RECORD
  5
96F6
100
AcDbSymbolTableRecord
100
AcDbBlockTableRecord
  2
*D5
  0
BLOCK_RECORD
  5
9703
100
AcDbSymbolTableRecord
100
AcDbBlockTableRecord
  2
*D6
  0
BLOCK_RECORD
  5
A1AC
100
AcDbSymbolTableRecord
100
AcDbBlockTableRecord
  2
*D7
  0
BLOCK_RECORD
  5
A1D2
100
AcDbSymbolTableRecord
100
AcDbBlockTableRecord
  2
*D8
  0
BLOCK_RECORD
  5
A234
100
AcDbSymbolTableRecord
100
AcDbBlockTableRecord
  2
*D9
  0
ENDTAB
  0
ENDSEC
  0
SECTION
  2
BLOCKS
  0
BLOCK
  5
43
100
AcDbEntity
  8
0
100
AcDbBlockBegin
  2
*MODEL_SPACE
 70
     0
 10
0.0
 20
0.0
 30
0.0
  3
*MODEL_SPACE
  1

  0
ENDBLK
  5
44
100
AcDbEntity
  8
0
100
AcDbBlockEnd
  0
BLOCK
  5
41
100
AcDbEntity
 67
     1
  8
0
100
AcDbBlockBegin
  2
*PAPER_SPACE
 70
     0
 10
0.0
 20
0.0
 30
0.0
  3
*PAPER_SPACE
  1

  0
ENDBLK
  5
42
100
AcDbEntity
 67
     1
  8
0
100
AcDbBlockEnd
  0
BLOCK
  5
96B4
100
AcDbEntity
  8
0
100
AcDbBlockBegin
  2
*D0
 70
     1
 10
0.0
 20
0.0
 30
0.0
  3
*D0
  1

  0
LINE
  5
96B5
100
AcDbEntity
  8
0
  6
BYBLOCK
 62
     0
100
AcDbLine
 10
-113.842741
 20
187.56268
 30
0.0
 11
-105.081905
 21
187.56268
 31
0.0
  0
LINE
  5
96B6
100
AcDbEntity
  8
0
  6
BYBLOCK
 62
     0
100
AcDbLine
 10
-113.842741
 20
188.56268
 30
0.0
 11
-105.081905
 21
188.56268
 31
0.0
  0
LINE
  5
96B7
100
AcDbEntity
  8
0
  6
BYBLOCK
 62
     0
100
AcDbLine
 10
-105.281905
 20
186.26268
 30
0.0
 11
-105.281905
 21
184.96268
 31
0.0
  0
LINE
  5
96B8
100
AcDbEntity
  8
0
  6
BYBLOCK
 62
     0
100
AcDbLine
 10
-105.281905
 20
189.86268
 30
0.0
 11
-105.281905
 21
191.16268
 31
0.0
  0
LINE
  5
96B9
100
AcDbEntity
  8
0
  6
BYBLOCK
 62
     0
100
AcDbLine
 10
-105.281905
 20
191.16268
 30
0.0
 11
-103.981905
 21
191.16268
 31
0.0
  0
SOLID
  5
96BA
100
AcDbEntity
  8
0
  6
BYBLOCK
 62
     0
100
AcDbTrace
 10
-105.498572
 20
186.26268
 30
0.0
 11
-105.065239
 21
186.26268
 31
0.0
 12
-105.281905
 22
187.56268
 32
0.0
 13
-105.281905
 23
187.56268
 33
0.0
  0
SOLID
  5
96BB
100
AcDbEntity
  8
0
  6
BYBLOCK
 62
     0
100
AcDbTrace
 10
-105.498572
 20
189.86268
 30
0.0
 11
-105.065239
 21
189.86268
 31
0.0
 12
-105.281905
 22
188.56268
 32
0.0
 13
-105.281905
 23
188.56268
 33
0.0
  0
MTEXT
  5
96BC
100
AcDbEntity
  8
0
  6
BYBLOCK
 62
     0
100
AcDbMText
 10
-101.731905
 20
191.16268
 30
0.0
 40
1.35
 41
0.0
 71
     5
 72
     1
  1
\A1;1"
  7
ROMAND
  0
POINT
  5
96BD
100
AcDbEntity
  8
DEFPOINTS
  6
BYBLOCK
 62
     0
100
AcDbPoint
 10
-114.842741
 20
187.56268
 30
0.0
  0
POINT
  5
96BE
100
AcDbEntity
  8
DEFPOINTS
  6
BYBLOCK
 62
     0
100
AcDbPoint
 10
-114.842741
 20
188.56268
 30
0.0
  0
POINT
  5
96BF
100
AcDbEntity
  8
DEFPOINTS
  6
BYBLOCK
 62
     0
100
AcDbPoint
 10
-105.281905
 20
188.56268
 30
0.0
  0
ENDBLK
  5
96C0
100
AcDbEntity
  8
0
100
AcDbBlockEnd
  0
BLOCK
  5
96C2
100
AcDbEntity
  8
0
100
AcDbBlockBegin
  2
*D1
 70
     1
 10
0.0
 20
0.0
 30
0.0
  3
*D1
  1

  0
LINE
  5
96C3
100
AcDbEntity
  8
0
  6
BYBLOCK
 62
     0
100
AcDbLine
 10
-140.217741
 20
183.56268
 30
0.0
 11
-145.194559
 21
183.56268
 31
0.0
  0
LINE
  5
96C4
100
AcDbEntity
  8
0
  6
BYBLOCK
 62
     0
100
AcDbLine
 10
-140.217741
 20
188.56268
 30
0.0
 11
-145.194559
 21
188.56268
 31
0.0
  0
LINE
  5
96C5
100
AcDbEntity
  8
0
  6
BYBLOCK
 62
     0
100
AcDbLine
 10
-144.994559
 20
182.26268
 30
0.0
 11
-144.994559
 21
180.96268
 31
0.0
  0
LINE
  5
96C6
100
AcDbEntity
  8
0
  6
BYBLOCK
 62
     0
100
AcDbLine
 10
-144.994559
 20
189.86268
 30
0.0
 11
-144.994559
 21
191.16268
 31
0.0
  0
SOLID
  5
96C7
100
AcDbEntity
  8
0
  6
BYBLOCK
 62
     0
100
AcDbTrace
 10
-145.211226
 20
182.26268
 30
0.0
 11
-144.777892
 21
182.26268
 31
0.0
 12
-144.994559
 22
183.56268
 32
0.0
 13
-144.994559
 23
183.56268
 33
0.0
  0
SOLID
  5
96C8
100
AcDbEntity
  8
0
  6
BYBLOCK
 62
     0
100
AcDbTrace
 10
-145.211226
 20
189.86268
 30
0.0
 11
-144.777892
 21
189.86268
 31
0.0
 12
-144.994559
 22
188.56268
 32
0.0
 13
-144.994559
 23
188.56268
 33
0.0
  0
MTEXT
  5
96C9
100
AcDbEntity
  8
0
  6
BYBLOCK
 62
     0
100
AcDbMText
 10
-144.994559
 20
186.06268
 30
0.0
 40
1.35
 41
0.0
 71
     5
 72
     1
  1
\A1;5"
  7
ROMAND
  0
POINT
  5
96CA
100
AcDbEntity
  8
DEFPOINTS
  6
BYBLOCK
 62
     0
100
AcDbPoint
 10
-139.217741
 20
183.56268
 30
0.0
  0
POINT
  5
96CB
100
AcDbEntity
  8
DEFPOINTS
  6
BYBLOCK
 62
     0
100
AcDbPoint
 10
-139.217741
 20
188.56268
 30
0.0
  0
POINT
  5
96CC
100
AcDbEntity
  8
DEFPOINTS
  6
BYBLOCK
 62
     0
100
AcDbPoint
 10
-144.994559
 20
188.56268
 30
0.0
  0
ENDBLK
  5
96CD
100
AcDbEntity
  8
0
100
AcDbBlockEnd
  0
BLOCK
  5
96CF
100
AcDbEntity
  8
0
100
AcDbBlockBegin
  2
*D2
 70
     1
 10
0.0
 20
0.0
 30
0.0
  3
*D2
  1

  0
LINE
  5
96D0
100
AcDbEntity
  8
0
  6
BYBLOCK
 62
     0
100
AcDbLine
 10
-140.467741
 20
184.56268
 30
0.0
 11
-140.467741
 21
199.402609
 31
0.0
  0
LINE
  5
96D1
100
AcDbEntity
  8
0
  6
BYBLOCK
 62
     0
100
AcDbLine
 10
-112.217741
 20
184.56268
 30
0.0
 11
-112.217741
 21
199.402609
 31
0.0
  0
LINE
  5
96D2
100
AcDbEntity
  8
0
  6
BYBLOCK
 62
     0
100
AcDbLine
 10
-139.167741
 20
199.202609
 30
0.0
 11
-132.032027
 21
199.202609
 31
0.0
  0
LINE
  5
96D3
100
AcDbEntity
  8
0
  6
BYBLOCK
 62
     0
100
AcDbLine
 10
-113.517741
 20
199.202609
 30
0.0
 11
-120.653455
 21
199.202609
 31
0.0
  0
SOLID
  5
96D4
100
AcDbEntity
  8
0
  6
BYBLOCK
 62
     0
100
AcDbTrace
 10
-139.167741
 20
199.419275
 30
0.0
 11
-139.167741
 21
198.985942
 31
0.0
 12
-140.467741
 22
199.202609
 32
0.0
 13
-140.467741
 23
199.202609
 33
0.0
  0
SOLID
  5
96D5
100
AcDbEntity
  8
0
  6
BYBLOCK
 62
     0
100
AcDbTrace
 10
-113.517741
 20
199.419275
 30
0.0
 11
-113.517741
 21
198.985942
 31
0.0
 12
-112.217741
 22
199.202609
 32
0.0
 13
-112.217741
 23
199.202609
 33
0.0
  0
MTEXT
  5
96D6
100
AcDbEntity
  8
0
  6
BYBLOCK
 62
     0
100
AcDbMText
 10
-126.342741
 20
199.202609
 30
0.0
 40
1.35
 41
0.0
 71
     5
 72
     1
  1
\A1;28 1/4"
  7
ROMAND
  0
POINT
  5
96D7
100
AcDbEntity
  8
DEFPOINTS
  6
BYBLOCK
 62
     0
100
AcDbPoint
 10
-140.467741
 20
183.56268
 30
0.0
  0
POINT
  5
96D8
100
AcDbEntity
  8
DEFPOINTS
  6
BYBLOCK
 62
     0
100
AcDbPoint
 10
-112.217741
 20
183.56268
 30
0.0
  0
POINT
  5
96D9
100
AcDbEntity
  8
DEFPOINTS
  6
BYBLOCK
 62
     0
100
AcDbPoint
 10
-112.217741
 20
199.202609
 30
0.0
  0
ENDBLK
  5
96DA
100
AcDbEntity
  8
0
100
AcDbBlockEnd
  0
BLOCK
  5
A26B
100
AcDbEntity
  8
0
100
AcDbBlockBegin
  2
*D3
 70
     1
 10
0.0
 20
0.0
 30
0.0
  3
*D3
  1

  0
LINE
  5
A26C
100
AcDbEntity
  8
0
  6
BYBLOCK
 62
     0
100
AcDbLine
 10
-397.320956
 20
473.548369
 30
0.0
 11
-397.320956
 21
460.339719
 31
0.0
  0
LINE
  5
A26D
100
AcDbEntity
  8
0
  6
BYBLOCK
 62
     0
100
AcDbLine
 10
-366.320956
 20
473.548369
 30
0.0
 11
-366.320956
 21
460.339719
 31
0.0
  0
LINE
  5
A26E
100
AcDbEntity
  8
0
  6
BYBLOCK
 62
     0
100
AcDbLine
 10
-396.020956
 20
460.539719
 30
0.0
 11
-384.713813
 21
460.539719
 31
0.0
  0
LINE
  5
A26F
100
AcDbEntity
  8
0
  6
BYBLOCK
 62
     0
100
AcDbLine
 10
-367.620956
 20
460.539719
 30
0.0
 11
-378.928099
 21
460.539719
 31
0.0
  0
SOLID
  5
A270
100
AcDbEntity
  8
0
  6
BYBLOCK
 62
     0
100
AcDbTrace
 10
-396.020956
 20
460.756385
 30
0.0
 11
-396.020956
 21
460.323052
 31
0.0
 12
-397.320956
 22
460.539719
 32
0.0
 13
-397.320956
 23
460.539719
 33
0.0
  0
SOLID
  5
A271
100
AcDbEntity
  8
0
  6
BYBLOCK
 62
     0
100
AcDbTrace
 10
-367.620956
 20
460.756385
 30
0.0
 11
-367.620956
 21
460.323052
 31
0.0
 12
-366.320956
 22
460.539719
 32
0.0
 13
-366.320956
 23
460.539719
 33
0.0
  0
MTEXT
  5
A272
100
AcDbEntity
  8
0
  6
BYBLOCK
 62
     0
100
AcDbMText
 10
-381.820956
 20
460.539719
 30
0.0
 40
1.35
 41
0.0
 71
     5
 72
     1
  1
\A1;\U+220531
  7
ROMAND
  0
POINT
  5
A273
100
AcDbEntity
  8
DEFPOINTS
  6
BYBLOCK
 62
     0
100
AcDbPoint
 10
-397.320956
 20
474.548369
 30
0.0
  0
POINT
  5
A274
100
AcDbEntity
  8
DEFPOINTS
  6
BYBLOCK
 62
     0
100
AcDbPoint
 10
-366.320956
 20
474.548369
 30
0.0
  0
POINT
  5
A275
100
AcDbEntity
  8
DEFPOINTS
  6
BYBLOCK
 62
     0
100
AcDbPoint
 10
-366.320956
 20
460.539719
 30
0.0
  0
ENDBLK
  5
A276
100
AcDbEntity
  8
0
100
AcDbBlockEnd
  0
BLOCK
  5
96E9
100
AcDbEntity
  8
0
100
AcDbBlockBegin
  2
*D4
 70
     1
 10
0.0
 20
0.0
 30
0.0
  3
*D4
  1

  0
LINE
  5
96EA
100
AcDbEntity
  8
0
  6
BYBLOCK
 62
     0
100
AcDbLine
 10
-109.842741
 20
182.56268
 30
0.0
 11
-101.771188
 21
182.56268
 31
0.0
  0
LINE
  5
96EB
100
AcDbEntity
  8
0
  6
BYBLOCK
 62
     0
100
AcDbLine
 10
-111.217741
 20
183.56268
 30
0.0
 11
-101.771188
 21
183.56268
 31
0.0
  0
LINE
  5
96EC
100
AcDbEntity
  8
0
  6
BYBLOCK
 62
     0
100
AcDbLine
 10
-101.971188
 20
181.26268
 30
0.0
 11
-101.971188
 21
179.96268
 31
0.0
  0
LINE
  5
96ED
100
AcDbEntity
  8
0
  6
BYBLOCK
 62
     0
100
AcDbLine
 10
-101.971188
 20
184.86268
 30
0.0
 11
-101.971188
 21
186.16268
 31
0.0
  0
LINE
  5
96EE
100
AcDbEntity
  8
0
  6
BYBLOCK
 62
     0
100
AcDbLine
 10
-101.971188
 20
186.16268
 30
0.0
 11
-100.671188
 21
186.16268
 31
0.0
  0
SOLID
  5
96EF
100
AcDbEntity
  8
0
  6
BYBLOCK
 62
     0
100
AcDbTrace
 10
-102.187855
 20
181.26268
 30
0.0
 11
-101.754521
 21
181.26268
 31
0.0
 12
-101.971188
 22
182.56268
 32
0.0
 13
-101.971188
 23
182.56268
 33
0.0
  0
SOLID
  5
96F0
100
AcDbEntity
  8
0
  6
BYBLOCK
 62
     0
100
AcDbTrace
 10
-102.187855
 20
184.86268
 30
0.0
 11
-101.754521
 21
184.86268
 31
0.0
 12
-101.971188
 22
183.56268
 32
0.0
 13
-101.971188
 23
183.56268
 33
0.0
  0
MTEXT
  5
96F1
100
AcDbEntity
  8
0
  6
BYBLOCK
 62
     0
100
AcDbMText
 10
-98.421188
 20
186.16268
 30
0.0
 40
1.35
 41
0.0
 71
     5
 72
     1
  1
\A1;1"
  7
ROMAND
  0
POINT
  5
96F2
100
AcDbEntity
  8
DEFPOINTS
  6
BYBLOCK
 62
     0
100
AcDbPoint
 10
-110.842741
 20
182.56268
 30
0.0
  0
POINT
  5
96F3
100
AcDbEntity
  8
DEFPOINTS
  6
BYBLOCK
 62
     0
100
AcDbPoint
 10
-112.217741
 20
183.56268
 30
0.0
  0
POINT
  5
96F4
100
AcDbEntity
  8
DEFPOINTS
  6
BYBLOCK
 62
     0
100
AcDbPoint
 10
-101.971188
 20
183.56268
 30
0.0
  0
ENDBLK
  5
96F5
100
AcDbEntity
  8
0
100
AcDbBlockEnd
  0
BLOCK
  5
96F7
100
AcDbEntity
  8
0
100
AcDbBlockBegin
  2
*D5
 70
     1
 10
0.0
 20
0.0
 30
0.0
  3
*D5
  1

  0
LINE
  5
96F8
100
AcDbEntity
  8
0
  6
BYBLOCK
 62
     0
100
AcDbLine
 10
-139.217741
 20
189.56268
 30
0.0
 11
-139.217741
 21
195.512214
 31
0.0
  0
LINE
  5
96F9
100
AcDbEntity
  8
0
  6
BYBLOCK
 62
     0
100
AcDbLine
 10
-113.467741
 20
189.56268
 30
0.0
 11
-113.467741
 21
195.512214
 31
0.0
  0
LINE
  5
96FA
100
AcDbEntity
  8
0
  6
BYBLOCK
 62
     0
100
AcDbLine
 10
-137.917741
 20
195.312214
 30
0.0
 11
-132.032027
 21
195.312214
 31
0.0
  0
LINE
  5
96FB
100
AcDbEntity
  8
0
  6
BYBLOCK
 62
     0
100
AcDbLine
 10
-114.767741
 20
195.312214
 30
0.0
 11
-120.653455
 21
195.312214
 31
0.0
  0
SOLID
  5
96FC
100
AcDbEntity
  8
0
  6
BYBLOCK
 62
     0
100
AcDbTrace
 10
-137.917741
 20
195.528881
 30
0.0
 11
-137.917741
 21
195.095548
 31
0.0
 12
-139.217741
 22
195.312214
 32
0.0
 13
-139.217741
 23
195.312214
 33
0.0
  0
SOLID
  5
96FD
100
AcDbEntity
  8
0
  6
BYBLOCK
 62
     0
100
AcDbTrace
 10
-114.767741
 20
195.528881
 30
0.0
 11
-114.767741
 21
195.095548
 31
0.0
 12
-113.467741
 22
195.312214
 32
0.0
 13
-113.467741
 23
195.312214
 33
0.0
  0
MTEXT
  5
96FE
100
AcDbEntity
  8
0
  6
BYBLOCK
 62
     0
100
AcDbMText
 10
-126.342741
 20
195.312214
 30
0.0
 40
1.35
 41
0.0
 71
     5
 72
     1
  1
\A1;25 3/4"
  7
ROMAND
  0
POINT
  5
96FF
100
AcDbEntity
  8
DEFPOINTS
  6
BYBLOCK
 62
     0
100
AcDbPoint
 10
-139.217741
 20
188.56268
 30
0.0
  0
POINT
  5
9700
100
AcDbEntity
  8
DEFPOINTS
  6
BYBLOCK
 62
     0
100
AcDbPoint
 10
-113.467741
 20
188.56268
 30
0.0
  0
POINT
  5
9701
100
AcDbEntity
  8
DEFPOINTS
  6
BYBLOCK
 62
     0
100
AcDbPoint
 10
-113.467741
 20
195.312214
 30
0.0
  0
ENDBLK
  5
9702
100
AcDbEntity
  8
0
100
AcDbBlockEnd
  0
BLOCK
  5
9704
100
AcDbEntity
  8
0
100
AcDbBlockBegin
  2
*D6
 70
     1
 10
0.0
 20
0.0
 30
0.0
  3
*D6
  1

  0
LINE
  5
9705
100
AcDbEntity
  8
0
  6
BYBLOCK
 62
     0
100
AcDbLine
 10
-137.842741
 20
189.56268
 30
0.0
 11
-137.842741
 21
192.191146
 31
0.0
  0
LINE
  5
9706
100
AcDbEntity
  8
0
  6
BYBLOCK
 62
     0
100
AcDbLine
 10
-114.842741
 20
189.56268
 30
0.0
 11
-114.842741
 21
192.191146
 31
0.0
  0
LINE
  5
9707
100
AcDbEntity
  8
0
  6
BYBLOCK
 62
     0
100
AcDbLine
 10
-136.542741
 20
191.991146
 30
0.0
 11
-129.332027
 21
191.991146
 31
0.0
  0
LINE
  5
9708
100
AcDbEntity
  8
0
  6
BYBLOCK
 62
     0
100
AcDbLine
 10
-116.142741
 20
191.991146
 30
0.0
 11
-123.353455
 21
191.991146
 31
0.0
  0
SOLID
  5
9709
100
AcDbEntity
  8
0
  6
BYBLOCK
 62
     0
100
AcDbTrace
 10
-136.542741
 20
192.207813
 30
0.0
 11
-136.542741
 21
191.77448
 31
0.0
 12
-137.842741
 22
191.991146
 32
0.0
 13
-137.842741
 23
191.991146
 33
0.0
  0
SOLID
  5
970A
100
AcDbEntity
  8
0
  6
BYBLOCK
 62
     0
100
AcDbTrace
 10
-116.142741
 20
192.207813
 30
0.0
 11
-116.142741
 21
191.77448
 31
0.0
 12
-114.842741
 22
191.991146
 32
0.0
 13
-114.842741
 23
191.991146
 33
0.0
  0
MTEXT
  5
970B
100
AcDbEntity
  8
0
  6
BYBLOCK
 62
     0
100
AcDbMText
 10
-126.342741
 20
191.991146
 30
0.0
 40
1.35
 41
0.0
 71
     5
 72
     1
  1
\A1;23"
  7
ROMAND
  0
POINT
  5
970C
100
AcDbEntity
  8
DEFPOINTS
  6
BYBLOCK
 62
     0
100
AcDbPoint
 10
-137.842741
 20
188.56268
 30
0.0
  0
POINT
  5
970D
100
AcDbEntity
  8
DEFPOINTS
  6
BYBLOCK
 62
     0
100
AcDbPoint
 10
-114.842741
 20
188.56268
 30
0.0
  0
POINT
  5
970E
100
AcDbEntity
  8
DEFPOINTS
  6
BYBLOCK
 62
     0
100
AcDbPoint
 10
-114.842741
 20
191.991146
 30
0.0
  0
ENDBLK
  5
970F
100
AcDbEntity
  8
0
100
AcDbBlockEnd
  0
BLOCK
  5
A463
100
AcDbEntity
  8
0
100
AcDbBlockBegin
  2
*D7
 70
     1
 10
0.0
 20
0.0
 30
0.0
  3
*D7
  1

  0
LINE
  5
A464
100
AcDbEntity
  8
0
  6
BYBLOCK
 62
     0
100
AcDbLine
 10
-396.320956
 20
471.970294
 30
0.0
 11
-396.320956
 21
464.873474
 31
0.0
  0
LINE
  5
A465
100
AcDbEntity
  8
0
  6
BYBLOCK
 62
     0
100
AcDbLine
 10
-367.320956
 20
471.970294
 30
0.0
 11
-367.320956
 21
464.873474
 31
0.0
  0
LINE
  5
A466
100
AcDbEntity
  8
0
  6
BYBLOCK
 62
     0
100
AcDbLine
 10
-395.020956
 20
465.073474
 30
0.0
 11
-384.874528
 21
465.073474
 31
0.0
  0
LINE
  5
A467
100
AcDbEntity
  8
0
  6
BYBLOCK
 62
     0
100
AcDbLine
 10
-368.620956
 20
465.073474
 30
0.0
 11
-378.767385
 21
465.073474
 31
0.0
  0
SOLID
  5
A468
100
AcDbEntity
  8
0
  6
BYBLOCK
 62
     0
100
AcDbTrace
 10
-395.020956
 20
465.290141
 30
0.0
 11
-395.020956
 21
464.856807
 31
0.0
 12
-396.320956
 22
465.073474
 32
0.0
 13
-396.320956
 23
465.073474
 33
0.0
  0
SOLID
  5
A469
100
AcDbEntity
  8
0
  6
BYBLOCK
 62
     0
100
AcDbTrace
 10
-368.620956
 20
465.290141
 30
0.0
 11
-368.620956
 21
464.856807
 31
0.0
 12
-367.320956
 22
465.073474
 32
0.0
 13
-367.320956
 23
465.073474
 33
0.0
  0
MTEXT
  5
A46A
100
AcDbEntity
  8
0
  6
BYBLOCK
 62
     0
100
AcDbMText
 10
-381.820956
 20
465.073474
 30
0.0
 40
1.35
 41
0.0
 71
     5
 72
     1
  1
\A1;\U+220529
  7
ROMAND
  0
POINT
  5
A46B
100
AcDbEntity
  8
DEFPOINTS
  6
BYBLOCK
 62
     0
100
AcDbPoint
 10
-396.320956
 20
472.970294
 30
0.0
  0
POINT
  5
A46C
100
AcDbEntity
  8
DEFPOINTS
  6
BYBLOCK
 62
     0
100
AcDbPoint
 10
-367.320956
 20
472.970294
 30
0.0
  0
POINT
  5
A46D
100
AcDbEntity
  8
DEFPOINTS
  6
BYBLOCK
 62
     0
100
AcDbPoint
 10
-367.320956
 20
465.073474
 30
0.0
  0
ENDBLK
  5
A46E
100
AcDbEntity
  8
0
100
AcDbBlockEnd
  0
BLOCK
  5
A1E0
100
AcDbEntity
  8
0
100
AcDbBlockBegin
  2
*D8
 70
     1
 10
0.0
 20
0.0
 30
0.0
  3
*D8
  1

  0
LINE
  5
A1E1
100
AcDbEntity
  8
0
  6
BYBLOCK
 62
     0
100
AcDbLine
 10
-393.945956
 20
472.298369
 30
0.0
 11
-393.945956
 21
469.001956
 31
0.0
  0
LINE
  5
A1E2
100
AcDbEntity
  8
0
  6
BYBLOCK
 62
     0
100
AcDbLine
 10
-369.695956
 20
472.298369
 30
0.0
 11
-369.695956
 21
469.001956
 31
0.0
  0
LINE
  5
A1E3
100
AcDbEntity
  8
0
  6
BYBLOCK
 62
     0
100
AcDbLine
 10
-392.645956
 20
469.201956
 30
0.0
 11
-387.638813
 21
469.201956
 31
0.0
  0
LINE
  5
A1E4
100
AcDbEntity
  8
0
  6
BYBLOCK
 62
     0
100
AcDbLine
 10
-370.995956
 20
469.201956
 30
0.0
 11
-376.003099
 21
469.201956
 31
0.0
  0
SOLID
  5
A1E5
100
AcDbEntity
  8
0
  6
BYBLOCK
 62
     0
100
AcDbTrace
 10
-392.645956
 20
469.418622
 30
0.0
 11
-392.645956
 21
468.985289
 31
0.0
 12
-393.945956
 22
469.201956
 32
0.0
 13
-393.945956
 23
469.201956
 33
0.0
  0
SOLID
  5
A1E6
100
AcDbEntity
  8
0
  6
BYBLOCK
 62
     0
100
AcDbTrace
 10
-370.995956
 20
469.418622
 30
0.0
 11
-370.995956
 21
468.985289
 31
0.0
 12
-369.695956
 22
469.201956
 32
0.0
 13
-369.695956
 23
469.201956
 33
0.0
  0
MTEXT
  5
A1E7
100
AcDbEntity
  8
0
  6
BYBLOCK
 62
     0
100
AcDbMText
 10
-381.820956
 20
469.201956
 30
0.0
 40
1.35
 41
0.0
 71
     5
 72
     1
  1
\A1;\U+220524 1/4
  7
ROMAND
  0
POINT
  5
A1E8
100
AcDbEntity
  8
DEFPOINTS
  6
BYBLOCK
 62
     0
100
AcDbPoint
 10
-393.945956
 20
473.298369
 30
0.0
  0
POINT
  5
A1E9
100
AcDbEntity
  8
DEFPOINTS
  6
BYBLOCK
 62
     0
100
AcDbPoint
 10
-369.695956
 20
473.298369
 30
0.0
  0
POINT
  5
A1EA
100
AcDbEntity
  8
DEFPOINTS
  6
BYBLOCK
 62
     0
100
AcDbPoint
 10
-369.695956
 20
469.201956
 30
0.0
  0
ENDBLK
  5
A1EB
100
AcDbEntity
  8
0
100
AcDbBlockEnd
  0
BLOCK
  5
A250
100
AcDbEntity
  8
0
100
AcDbBlockBegin
  2
*D9
 70
     1
 10
0.0
 20
0.0
 30
0.0
  3
*D9
  1

  0
LINE
  5
A251
100
AcDbEntity
  8
0
  6
BYBLOCK
 62
     0
100
AcDbLine
 10
-398.320956
 20
474.548369
 30
0.0
 11
-401.734181
 21
474.548369
 31
0.0
  0
LINE
  5
A252
100
AcDbEntity
  8
0
  6
BYBLOCK
 62
     0
100
AcDbLine
 10
-394.945956
 20
473.298369
 30
0.0
 11
-401.734181
 21
473.298369
 31
0.0
  0
LINE
  5
A253
100
AcDbEntity
  8
0
  6
BYBLOCK
 62
     0
100
AcDbLine
 10
-401.534181
 20
475.848369
 30
0.0
 11
-401.534181
 21
477.148369
 31
0.0
  0
LINE
  5
A254
100
AcDbEntity
  8
0
  6
BYBLOCK
 62
     0
100
AcDbLine
 10
-401.534181
 20
471.998369
 30
0.0
 11
-401.534181
 21
466.975295
 31
0.0
  0
LINE
  5
A255
100
AcDbEntity
  8
0
  6
BYBLOCK
 62
     0
100
AcDbLine
 10
-401.534181
 20
466.975295
 30
0.0
 11
-402.834181
 21
466.975295
 31
0.0
  0
SOLID
  5
A256
100
AcDbEntity
  8
0
  6
BYBLOCK
 62
     0
100
AcDbTrace
 10
-401.750848
 20
475.848369
 30
0.0
 11
-401.317514
 21
475.848369
 31
0.0
 12
-401.534181
 22
474.548369
 32
0.0
 13
-401.534181
 23
474.548369
 33
0.0
  0
SOLID
  5
A257
100
AcDbEntity
  8
0
  6
BYBLOCK
 62
     0
100
AcDbTrace
 10
-401.750848
 20
471.998369
 30
0.0
 11
-401.317514
 21
471.998369
 31
0.0
 12
-401.534181
 22
473.298369
 32
0.0
 13
-401.534181
 23
473.298369
 33
0.0
  0
MTEXT
  5
A258
100
AcDbEntity
  8
0
  6
BYBLOCK
 62
     0
100
AcDbMText
 10
-407.269895
 20
466.975295
 30
0.0
 40
1.35
 41
0.0
 71
     5
 72
     1
  1
\A1;1 1/4\P(TYP.)
  7
ROMAND
  0
POINT
  5
A259
100
AcDbEntity
  8
DEFPOINTS
  6
BYBLOCK
 62
     0
100
AcDbPoint
 10
-397.320956
 20
474.548369
 30
0.0
  0
POINT
  5
A25A
100
AcDbEntity
  8
DEFPOINTS
  6
BYBLOCK
 62
     0
100
AcDbPoint
 10
-393.945956
 20
473.298369
 30
0.0
  0
POINT
  5
A25B
100
AcDbEntity
  8
DEFPOINTS
  6
BYBLOCK
 62
     0
100
AcDbPoint
 10
-401.534181
 20
473.298369
 30
0.0
  0
ENDBLK
  5
A25C
100
AcDbEntity
  8
0
100
AcDbBlockEnd
  0
ENDSEC
  0
SECTION
  2
ENTITIES
  0
TEXT
  5
DEB
100
AcDbEntity
  8
0
  6
BYBLOCK
 62
     0
100
AcDbText
 10
2733.512779
 20
2768.093757
 30
0.0
 40
30.0
  1
   
  7
ROMANS
 72
     1
 11
2778.512779
 21
2783.093757
 31
0.0
100
AcDbText
 73
     2
  0
TEXT
  5
DED
100
AcDbEntity
  8
0
  6
BYBLOCK
 62
     0
100
AcDbText
 10
2080.819019
 20
3803.787506
 30
0.0
 40
30.0
  1
  
  7
ROMANS
 72
     1
 11
2110.819019
 21
3818.787506
 31
0.0
100
AcDbText
 73
     2
  0
TEXT
  5
DEE
100
AcDbEntity
  8
0
  6
BYBLOCK
 62
     0
100
AcDbText
 10
2080.446299
 20
3623.787506
 30
0.0
 40
30.0
  1
  
  7
ROMANS
 72
     1
 11
2110.446299
 21
3638.787506
 31
0.0
100
AcDbText
 73
     2
  0
TEXT
  5
DEF
100
AcDbEntity
  8
0
  6
BYBLOCK
 62
     0
100
AcDbText
 10
1265.400556
 20
3054.113346
 30
0.0
 40
30.0
  1
  
  7
ROMANS
 72
     1
 11
1295.400556
 21
3069.113346
 31
0.0
100
AcDbText
 73
     2
  0
TEXT
  5
2D42
100
AcDbEntity
  8
0
  6
BYBLOCK
 62
     0
100
AcDbText
 10
392.52643
 20
-196.287036
 30
0.0
 40
1.8
  1
   
 50
270.0
  7
ROMANS
 72
     1
 11
393.42643
 21
-198.987036
 31
0.0
100
AcDbText
 73
     2
  0
TEXT
  5
2D43
100
AcDbEntity
  8
0
  6
BYBLOCK
 62
     0
100
AcDbText
 10
454.668055
 20
-157.12541
 30
0.0
 40
1.8
  1
  
 50
270.0
  7
ROMANS
 72
     1
 11
455.568055
 21
-158.92541
 31
0.0
100
AcDbText
 73
     2
  0
TEXT
  5
2D44
100
AcDbEntity
  8
0
  6
BYBLOCK
 62
     0
100
AcDbText
 10
443.868055
 20
-157.103047
 30
0.0
 40
1.8
  1
  
 50
270.0
  7
ROMANS
 72
     1
 11
444.768055
 21
-158.903047
 31
0.0
100
AcDbText
 73
     2
  0
TEXT
  5
2D45
100
AcDbEntity
  8
0
  6
BYBLOCK
 62
     0
100
AcDbText
 10
409.687606
 20
-108.200303
 30
0.0
 40
1.8
  1
  
 50
270.0
  7
ROMANS
 72
     1
 11
410.587606
 21
-110.000303
 31
0.0
100
AcDbText
 73
     2
  0
TEXT
  5
2D46
100
AcDbEntity
  8
0
  6
BYBLOCK
 62
     0
100
AcDbText
 10
311.151036
 20
249.450858
 30
0.0
 40
2.8125
  1
  
  7
ROMANS
 72
     1
 11
313.963536
 21
250.857108
 31
0.0
100
AcDbText
 73
     2
  0
TEXT
  5
2D47
100
AcDbEntity
  8
0
  6
BYBLOCK
 62
     0
100
AcDbText
 10
387.561574
 20
302.85781
 30
0.0
 40
2.8125
  1
  
  7
ROMANS
 72
     1
 11
390.374074
 21
304.26406
 31
0.0
100
AcDbText
 73
     2
  0
TEXT
  5
2D48
100
AcDbEntity
  8
0
  6
BYBLOCK
 62
     0
100
AcDbText
 10
387.596517
 20
319.73281
 30
0.0
 40
2.8125
  1
  
  7
ROMANS
 72
     1
 11
390.409017
 21
321.13906
 31
0.0
100
AcDbText
 73
     2
  0
TEXT
  5
2D49
100
AcDbEntity
  8
0
  6
BYBLOCK
 62
     0
100
AcDbText
 10
448.786557
 20
222.636521
 30
0.0
 40
2.8125
  1
   
  7
ROMANS
 72
     1
 11
453.005307
 21
224.042771
 31
0.0
100
AcDbText
 73
     2
  0
TEXT
  5
2D4A
100
AcDbEntity
  8
0
  6
BYBLOCK
 62
     0
100
AcDbText
 10
216.448177
 20
-3.536966
 30
0.0
 40
0.28125
  1
  
  7
ROMANS
 72
     1
 11
216.729427
 21
-3.396341
 31
0.0
100
AcDbText
 73
     2
  0
TEXT
  5
2D4B
100
AcDbEntity
  8
0
  6
BYBLOCK
 62
     0
100
AcDbText
 10
224.08923
 20
1.80373
 30
0.0
 40
0.28125
  1
  
  7
ROMANS
 72
     1
 11
224.37048
 21
1.944355
 31
0.0
100
AcDbText
 73
     2
  0
TEXT
  5
2D4C
100
AcDbEntity
  8
0
  6
BYBLOCK
 62
     0
100
AcDbText
 10
224.092725
 20
3.49123
 30
0.0
 40
0.28125
  1
  
  7
ROMANS
 72
     1
 11
224.373975
 21
3.631855
 31
0.0
100
AcDbText
 73
     2
  0
TEXT
  5
2D4D
100
AcDbEntity
  8
0
  6
BYBLOCK
 62
     0
100
AcDbText
 10
230.211729
 20
-6.218399
 30
0.0
 40
0.28125
  1
   
  7
ROMANS
 72
     1
 11
230.633604
 21
-6.077774
 31
0.0
100
AcDbText
 73
     2
  0
TEXT
  5
2D4E
100
AcDbEntity
  8
0
  6
BYBLOCK
 62
     0
100
AcDbText
 10
218.79904
 20
2.242272
 30
0.0
 40
0.3375
  1
  
  7
ROMANS
 72
     1
 11
219.13654
 21
2.411022
 31
0.0
100
AcDbText
 73
     2
  0
TEXT
  5
2D4F
100
AcDbEntity
  8
0
  6
BYBLOCK
 62
     0
100
AcDbText
 10
227.968304
 20
8.651107
 30
0.0
 40
0.3375
  1
  
  7
ROMANS
 72
     1
 11
228.305804
 21
8.819857
 31
0.0
100
AcDbText
 73
     2
  0
TEXT
  5
2D50
100
AcDbEntity
  8
0
  6
BYBLOCK
 62
     0
100
AcDbText
 10
227.972497
 20
10.676107
 30
0.0
 40
0.3375
  1
  
  7
ROMANS
 72
     1
 11
228.309997
 21
10.844857
 31
0.0
100
AcDbText
 73
     2
  0
TEXT
  5
2D51
100
AcDbEntity
  8
0
  6
BYBLOCK
 62
     0
100
AcDbText
 10
235.315302
 20
-0.975448
 30
0.0
 40
0.3375
  1
   
  7
ROMANS
 72
     1
 11
235.821552
 21
-0.806698
 31
0.0
100
AcDbText
 73
     2
  0
TEXT
  5
2D52
100
AcDbEntity
  8
0
  6
BYBLOCK
 62
     0
100
AcDbText
 10
216.524233
 20
-3.521073
 30
0.0
 40
0.28125
  1
  
  7
ROMANS
 72
     1
 11
216.805483
 21
-3.380448
 31
0.0
100
AcDbText
 73
     2
  0
TEXT
  5
2D53
100
AcDbEntity
  8
0
  6
BYBLOCK
 62
     0
100
AcDbText
 10
224.165287
 20
1.819622
 30
0.0
 40
0.28125
  1
  
  7
ROMANS
 72
     1
 11
224.446537
 21
1.960247
 31
0.0
100
AcDbText
 73
     2
  0
TEXT
  5
2D54
100
AcDbEntity
  8
0
  6
BYBLOCK
 62
     0
100
AcDbText
 10
224.168781
 20
3.507122
 30
0.0
 40
0.28125
  1
  
  7
ROMANS
 72
     1
 11
224.450031
 21
3.647747
 31
0.0
100
AcDbText
 73
     2
  0
TEXT
  5
2D55
100
AcDbEntity
  8
0
  6
BYBLOCK
 62
     0
100
AcDbText
 10
230.287785
 20
-6.202507
 30
0.0
 40
0.28125
  1
   
  7
ROMANS
 72
     1
 11
230.70966
 21
-6.061882
 31
0.0
100
AcDbText
 73
     2
  0
TEXT
  5
2D56
100
AcDbEntity
  8
0
  6
BYBLOCK
 62
     0
100
AcDbText
 10
214.704213
 20
-3.448904
 30
0.0
 40
0.28125
  1
  
  7
ROMANS
 72
     1
 11
214.985463
 21
-3.308279
 31
0.0
100
AcDbText
 73
     2
  0
TEXT
  5
2D57
100
AcDbEntity
  8
0
  6
BYBLOCK
 62
     0
100
AcDbText
 10
222.345267
 20
1.891792
 30
0.0
 40
0.28125
  1
  
  7
ROMANS
 72
     1
 11
222.626517
 21
2.032417
 31
0.0
100
AcDbText
 73
     2
  0
TEXT
  5
2D58
100
AcDbEntity
  8
0
  6
BYBLOCK
 62
     0
100
AcDbText
 10
222.348761
 20
3.579292
 30
0.0
 40
0.28125
  1
  
  7
ROMANS
 72
     1
 11
222.630011
 21
3.719917
 31
0.0
100
AcDbText
 73
     2
  0
TEXT
  5
2D59
100
AcDbEntity
  8
0
  6
BYBLOCK
 62
     0
100
AcDbText
 10
228.467765
 20
-6.130337
 30
0.0
 40
0.28125
  1
   
  7
ROMANS
 72
     1
 11
228.88964
 21
-5.989712
 31
0.0
100
AcDbText
 73
     2
  0
TEXT
  5
2D5A
100
AcDbEntity
  8
0
  6
BYBLOCK
 62
     0
100
AcDbText
 10
214.719957
 20
-3.394128
 30
0.0
 40
0.28125
  1
  
  7
ROMANS
 72
     1
 11
215.001207
 21
-3.253503
 31
0.0
100
AcDbText
 73
     2
  0
TEXT
  5
2D5B
100
AcDbEntity
  8
0
  6
BYBLOCK
 62
     0
100
AcDbText
 10
222.361011
 20
1.946567
 30
0.0
 40
0.28125
  1
  
  7
ROMANS
 72
     1
 11
222.642261
 21
2.087192
 31
0.0
100
AcDbText
 73
     2
  0
TEXT
  5
2D5C
100
AcDbEntity
  8
0
  6
BYBLOCK
 62
     0
100
AcDbText
 10
222.364505
 20
3.634067
 30
0.0
 40
0.28125
  1
  
  7
ROMANS
 72
     1
 11
222.645755
 21
3.774692
 31
0.0
100
AcDbText
 73
     2
  0
TEXT
  5
2D5D
100
AcDbEntity
  8
0
  6
BYBLOCK
 62
     0
100
AcDbText
 10
228.483509
 20
-6.075562
 30
0.0
 40
0.28125
  1
   
  7
ROMANS
 72
     1
 11
228.905384
 21
-5.934937
 31
0.0
100
AcDbText
 73
     2
  0
TEXT
  5
2D5E
100
AcDbEntity
  8
0
  6
BYBLOCK
 62
     0
100
AcDbText
 10
231.601443
 20
-10.018718
 30
0.0
 40
0.253125
  1
  
  7
ROMANS
 72
     1
 11
231.854568
 21
-9.892155
 31
0.0
100
AcDbText
 73
     2
  0
TEXT
  5
2D5F
100
AcDbEntity
  8
0
  6
BYBLOCK
 62
     0
100
AcDbText
 10
238.478391
 20
-5.212092
 30
0.0
 40
0.253125
  1
  
  7
ROMANS
 72
     1
 11
238.731516
 21
-5.08553
 31
0.0
100
AcDbText
 73
     2
  0
TEXT
  5
2D60
100
AcDbEntity
  8
0
  6
BYBLOCK
 62
     0
100
AcDbText
 10
238.481536
 20
-3.693342
 30
0.0
 40
0.253125
  1
  
  7
ROMANS
 72
     1
 11
238.734661
 21
-3.56678
 31
0.0
100
AcDbText
 73
     2
  0
TEXT
  5
2D61
100
AcDbEntity
  8
0
  6
BYBLOCK
 62
     0
100
AcDbText
 10
243.98864
 20
-12.432008
 30
0.0
 40
0.253125
  1
   
  7
ROMANS
 72
     1
 11
244.368327
 21
-12.305446
 31
0.0
100
AcDbText
 73
     2
  0
TEXT
  5
2D62
100
AcDbEntity
  8
BORDER
 62
     7
100
AcDbText
 10
201.375704
 20
-48.237128
 30
0.0
 40
0.206513
  1

  7
ROMANC
100
AcDbText
  0
TEXT
  5
2D63
100
AcDbEntity
  8
0
  6
BYBLOCK
 62
     0
100
AcDbText
 10
315.060982
 20
255.245274
 30
0.0
 40
2.882712
  1
  
  7
ROMANS
 72
     1
 11
317.943694
 21
256.68663
 31
0.0
100
AcDbText
 73
     2
  0
TEXT
  5
2D64
100
AcDbEntity
  8
0
  6
BYBLOCK
 62
     0
100
AcDbText
 10
393.379055
 20
309.985493
 30
0.0
 40
2.882712
  1
  
  7
ROMANS
 72
     1
 11
396.261767
 21
311.426849
 31
0.0
100
AcDbText
 73
     2
  0
TEXT
  5
2D65
100
AcDbEntity
  8
0
  6
BYBLOCK
 62
     0
100
AcDbText
 10
393.41487
 20
327.281766
 30
0.0
 40
2.882712
  1
  
  7
ROMANS
 72
     1
 11
396.297582
 21
328.723122
 31
0.0
100
AcDbText
 73
     2
  0
TEXT
  5
2D66
100
AcDbEntity
  8
0
  6
BYBLOCK
 62
     0
100
AcDbText
 10
456.132476
 20
227.761537
 30
0.0
 40
2.882712
  1
   
  7
ROMANS
 72
     1
 11
460.456544
 21
229.202893
 31
0.0
100
AcDbText
 73
     2
  0
TEXT
  5
3A13
100
AcDbEntity
  8
0
  6
BYBLOCK
 62
     0
100
AcDbText
 10
379.247723
 20
-209.763905
 30
0.0
 40
1.8
  1
   
 50
270.0
  7
ROMANS
 72
     1
 11
380.147723
 21
-212.463905
 31
0.0
100
AcDbText
 73
     2
  0
TEXT
  5
3A14
100
AcDbEntity
  8
0
  6
BYBLOCK
 62
     0
100
AcDbText
 10
441.389348
 20
-170.602279
 30
0.0
 40
1.8
  1
  
 50
270.0
  7
ROMANS
 72
     1
 11
442.289348
 21
-172.402279
 31
0.0
100
AcDbText
 73
     2
  0
TEXT
  5
3A15
100
AcDbEntity
  8
0
  6
BYBLOCK
 62
     0
100
AcDbText
 10
430.589348
 20
-170.579916
 30
0.0
 40
1.8
  1
  
 50
270.0
  7
ROMANS
 72
     1
 11
431.489348
 21
-172.379916
 31
0.0
100
AcDbText
 73
     2
  0
TEXT
  5
3A16
100
AcDbEntity
  8
0
  6
BYBLOCK
 62
     0
100
AcDbText
 10
396.408898
 20
-121.677172
 30
0.0
 40
1.8
  1
  
 50
270.0
  7
ROMANS
 72
     1
 11
397.308898
 21
-123.477172
 31
0.0
100
AcDbText
 73
     2
  0
TEXT
  5
3A17
100
AcDbEntity
  8
0
  6
BYBLOCK
 62
     0
100
AcDbText
 10
297.872329
 20
235.973989
 30
0.0
 40
2.8125
  1
  
  7
ROMANS
 72
     1
 11
300.684829
 21
237.380239
 31
0.0
100
AcDbText
 73
     2
  0
TEXT
  5
3A18
100
AcDbEntity
  8
0
  6
BYBLOCK
 62
     0
100
AcDbText
 10
374.282867
 20
289.380941
 30
0.0
 40
2.8125
  1
  
  7
ROMANS
 72
     1
 11
377.095367
 21
290.787191
 31
0.0
100
AcDbText
 73
     2
  0
TEXT
  5
3A19
100
AcDbEntity
  8
0
  6
BYBLOCK
 62
     0
100
AcDbText
 10
374.31781
 20
306.255941
 30
0.0
 40
2.8125
  1
  
  7
ROMANS
 72
     1
 11
377.13031
 21
307.662191
 31
0.0
100
AcDbText
 73
     2
  0
TEXT
  5
3A1A
100
AcDbEntity
  8
0
  6
BYBLOCK
 62
     0
100
AcDbText
 10
435.50785
 20
209.159652
 30
0.0
 40
2.8125
  1
   
  7
ROMANS
 72
     1
 11
439.7266
 21
210.565902
 31
0.0
100
AcDbText
 73
     2
  0
TEXT
  5
3A1B
100
AcDbEntity
  8
0
  6
BYBLOCK
 62
     0
100
AcDbText
 10
203.16947
 20
-17.013835
 30
0.0
 40
0.28125
  1
  
  7
ROMANS
 72
     1
 11
203.45072
 21
-16.87321
 31
0.0
100
AcDbText
 73
     2
  0
TEXT
  5
3A1C
100
AcDbEntity
  8
0
  6
BYBLOCK
 62
     0
100
AcDbText
 10
210.810523
 20
-11.673139
 30
0.0
 40
0.28125
  1
  
  7
ROMANS
 72
     1
 11
211.091773
 21
-11.532514
 31
0.0
100
AcDbText
 73
     2
  0
TEXT
  5
3A1D
100
AcDbEntity
  8
0
  6
BYBLOCK
 62
     0
100
AcDbText
 10
210.814018
 20
-9.985639
 30
0.0
 40
0.28125
  1
  
  7
ROMANS
 72
     1
 11
211.095268
 21
-9.845014
 31
0.0
100
AcDbText
 73
     2
  0
TEXT
  5
3A1E
100
AcDbEntity
  8
0
  6
BYBLOCK
 62
     0
100
AcDbText
 10
216.933022
 20
-19.695268
 30
0.0
 40
0.28125
  1
   
  7
ROMANS
 72
     1
 11
217.354897
 21
-19.554643
 31
0.0
100
AcDbText
 73
     2
  0
TEXT
  5
3A1F
100
AcDbEntity
  8
0
  6
BYBLOCK
 62
     0
100
AcDbText
 10
205.520333
 20
-11.234597
 30
0.0
 40
0.3375
  1
  
  7
ROMANS
 72
     1
 11
205.857833
 21
-11.065847
 31
0.0
100
AcDbText
 73
     2
  0
TEXT
  5
3A20
100
AcDbEntity
  8
0
  6
BYBLOCK
 62
     0
100
AcDbText
 10
214.689597
 20
-4.825762
 30
0.0
 40
0.3375
  1
  
  7
ROMANS
 72
     1
 11
215.027097
 21
-4.657012
 31
0.0
100
AcDbText
 73
     2
  0
TEXT
  5
3A21
100
AcDbEntity
  8
0
  6
BYBLOCK
 62
     0
100
AcDbText
 10
214.69379
 20
-2.800762
 30
0.0
 40
0.3375
  1
  
  7
ROMANS
 72
     1
 11
215.03129
 21
-2.632012
 31
0.0
100
AcDbText
 73
     2
  0
TEXT
  5
3A22
100
AcDbEntity
  8
0
  6
BYBLOCK
 62
     0
100
AcDbText
 10
222.036595
 20
-14.452317
 30
0.0
 40
0.3375
  1
   
  7
ROMANS
 72
     1
 11
222.542845
 21
-14.283567
 31
0.0
100
AcDbText
 73
     2
  0
TEXT
  5
3A23
100
AcDbEntity
  8
0
  6
BYBLOCK
 62
     0
100
AcDbText
 10
203.245526
 20
-16.997942
 30
0.0
 40
0.28125
  1
  
  7
ROMANS
 72
     1
 11
203.526776
 21
-16.857317
 31
0.0
100
AcDbText
 73
     2
  0
TEXT
  5
3A24
100
AcDbEntity
  8
0
  6
BYBLOCK
 62
     0
100
AcDbText
 10
210.88658
 20
-11.657247
 30
0.0
 40
0.28125
  1
  
  7
ROMANS
 72
     1
 11
211.16783
 21
-11.516622
 31
0.0
100
AcDbText
 73
     2
  0
TEXT
  5
3A25
100
AcDbEntity
  8
0
  6
BYBLOCK
 62
     0
100
AcDbText
 10
210.890074
 20
-9.969747
 30
0.0
 40
0.28125
  1
  
  7
ROMANS
 72
     1
 11
211.171324
 21
-9.829122
 31
0.0
100
AcDbText
 73
     2
  0
TEXT
  5
3A26
100
AcDbEntity
  8
0
  6
BYBLOCK
 62
     0
100
AcDbText
 10
217.009078
 20
-19.679376
 30
0.0
 40
0.28125
  1
   
  7
ROMANS
 72
     1
 11
217.430953
 21
-19.538751
 31
0.0
100
AcDbText
 73
     2
  0
TEXT
  5
3A27
100
AcDbEntity
  8
0
  6
BYBLOCK
 62
     0
100
AcDbText
 10
201.425506
 20
-16.925773
 30
0.0
 40
0.28125
  1
  
  7
ROMANS
 72
     1
 11
201.706756
 21
-16.785148
 31
0.0
100
AcDbText
 73
     2
  0
TEXT
  5
3A28
100
AcDbEntity
  8
0
  6
BYBLOCK
 62
     0
100
AcDbText
 10
209.06656
 20
-11.585077
 30
0.0
 40
0.28125
  1
  
  7
ROMANS
 72
     1
 11
209.34781
 21
-11.444452
 31
0.0
100
AcDbText
 73
     2
  0
TEXT
  5
3A29
100
AcDbEntity
  8
0
  6
BYBLOCK
 62
     0
100
AcDbText
 10
209.070054
 20
-9.897577
 30
0.0
 40
0.28125
  1
  
  7
ROMANS
 72
     1
 11
209.351304
 21
-9.756952
 31
0.0
100
AcDbText
 73
     2
  0
TEXT
  5
3A2A
100
AcDbEntity
  8
0
  6
BYBLOCK
 62
     0
100
AcDbText
 10
215.189058
 20
-19.607206
 30
0.0
 40
0.28125
  1
   
  7
ROMANS
 72
     1
 11
215.610933
 21
-19.466581
 31
0.0
100
AcDbText
 73
     2
  0
TEXT
  5
3A2B
100
AcDbEntity
  8
0
  6
BYBLOCK
 62
     0
100
AcDbText
 10
201.44125
 20
-16.870997
 30
0.0
 40
0.28125
  1
  
  7
ROMANS
 72
     1
 11
201.7225
 21
-16.730372
 31
0.0
100
AcDbText
 73
     2
  0
TEXT
  5
3A2C
100
AcDbEntity
  8
0
  6
BYBLOCK
 62
     0
100
AcDbText
 10
209.082304
 20
-11.530302
 30
0.0
 40
0.28125
  1
  
  7
ROMANS
 72
     1
 11
209.363554
 21
-11.389677
 31
0.0
100
AcDbText
 73
     2
  0
TEXT
  5
3A2D
100
AcDbEntity
  8
0
  6
BYBLOCK
 62
     0
100
AcDbText
 10
209.085798
 20
-9.842802
 30
0.0
 40
0.28125
  1
  
  7
ROMANS
 72
     1
 11
209.367048
 21
-9.702177
 31
0.0
100
AcDbText
 73
     2
  0
TEXT
  5
3A2E
100
AcDbEntity
  8
0
  6
BYBLOCK
 62
     0
100
AcDbText
 10
215.204802
 20
-19.552431
 30
0.0
 40
0.28125
  1
   
  7
ROMANS
 72
     1
 11
215.626677
 21
-19.411806
 31
0.0
100
AcDbText
 73
     2
  0
TEXT
  5
3A2F
100
AcDbEntity
  8
0
  6
BYBLOCK
 62
     0
100
AcDbText
 10
218.322736
 20
-23.495587
 30
0.0
 40
0.253125
  1
  
  7
ROMANS
 72
     1
 11
218.575861
 21
-23.369024
 31
0.0
100
AcDbText
 73
     2
  0
TEXT
  5
3A30
100
AcDbEntity
  8
0
  6
BYBLOCK
 62
     0
100
AcDbText
 10
225.199684
 20
-18.688961
 30
0.0
 40
0.253125
  1
  
  7
ROMANS
 72
     1
 11
225.452809
 21
-18.562399
 31
0.0
100
AcDbText
 73
     2
  0
TEXT
  5
3A31
100
AcDbEntity
  8
0
  6
BYBLOCK
 62
     0
100
AcDbText
 10
225.202829
 20
-17.170211
 30
0.0
 40
0.253125
  1
  
  7
ROMANS
 72
     1
 11
225.455954
 21
-17.043649
 31
0.0
100
AcDbText
 73
     2
  0
TEXT
  5
3A32
100
AcDbEntity
  8
0
  6
BYBLOCK
 62
     0
100
AcDbText
 10
230.709933
 20
-25.908877
 30
0.0
 40
0.253125
  1
   
  7
ROMANS
 72
     1
 11
231.08962
 21
-25.782315
 31
0.0
100
AcDbText
 73
     2
  0
TEXT
  5
3A33
100
AcDbEntity
  8
BORDER
 62
     7
100
AcDbText
 10
188.096997
 20
-61.713997
 30
0.0
 40
0.206513
  1

  7
ROMANC
100
AcDbText
  0
TEXT
  5
3A34
100
AcDbEntity
  8
0
  6
BYBLOCK
 62
     0
100
AcDbText
 10
301.782275
 20
241.768405
 30
0.0
 40
2.882712
  1
  
  7
ROMANS
 72
     1
 11
304.664987
 21
243.209761
 31
0.0
100
AcDbText
 73
     2
  0
TEXT
  5
3A35
100
AcDbEntity
  8
0
  6
BYBLOCK
 62
     0
100
AcDbText
 10
380.100348
 20
296.508624
 30
0.0
 40
2.882712
  1
  
  7
ROMANS
 72
     1
 11
382.98306
 21
297.94998
 31
0.0
100
AcDbText
 73
     2
  0
TEXT
  5
3A36
100
AcDbEntity
  8
0
  6
BYBLOCK
 62
     0
100
AcDbText
 10
380.136163
 20
313.804897
 30
0.0
 40
2.882712
  1
  
  7
ROMANS
 72
     1
 11
383.018875
 21
315.246253
 31
0.0
100
AcDbText
 73
     2
  0
TEXT
  5
3A37
100
AcDbEntity
  8
0
  6
BYBLOCK
 62
     0
100
AcDbText
 10
442.853769
 20
214.284668
 30
0.0
 40
2.882712
  1
   
  7
ROMANS
 72
     1
 11
447.177837
 21
215.726024
 31
0.0
100
AcDbText
 73
     2
  0
TEXT
  5
453C
100
AcDbEntity
  8
0
  6
BYBLOCK
 62
     0
100
AcDbText
 10
309.452123
 20
-36.345282
 30
0.0
 40
1.8
  1
   
 50
270.0
  7
ROMANS
 72
     1
 11
310.352123
 21
-39.045282
 31
0.0
100
AcDbText
 73
     2
  0
TEXT
  5
453D
100
AcDbEntity
  8
0
  6
BYBLOCK
 62
     0
100
AcDbText
 10
371.593748
 20
2.816344
 30
0.0
 40
1.8
  1
  
 50
270.0
  7
ROMANS
 72
     1
 11
372.493748
 21
1.016344
 31
0.0
100
AcDbText
 73
     2
  0
TEXT
  5
453E
100
AcDbEntity
  8
0
  6
BYBLOCK
 62
     0
100
AcDbText
 10
360.793748
 20
2.838707
 30
0.0
 40
1.8
  1
  
 50
270.0
  7
ROMANS
 72
     1
 11
361.693748
 21
1.038707
 31
0.0
100
AcDbText
 73
     2
  0
TEXT
  5
453F
100
AcDbEntity
  8
0
  6
BYBLOCK
 62
     0
100
AcDbText
 10
326.613298
 20
51.741452
 30
0.0
 40
1.8
  1
  
 50
270.0
  7
ROMANS
 72
     1
 11
327.513298
 21
49.941452
 31
0.0
100
AcDbText
 73
     2
  0
TEXT
  5
4540
100
AcDbEntity
  8
0
  6
BYBLOCK
 62
     0
100
AcDbText
 10
228.076728
 20
409.392612
 30
0.0
 40
2.8125
  1
  
  7
ROMANS
 72
     1
 11
230.889228
 21
410.798862
 31
0.0
100
AcDbText
 73
     2
  0
TEXT
  5
4541
100
AcDbEntity
  8
0
  6
BYBLOCK
 62
     0
100
AcDbText
 10
304.487267
 20
462.799565
 30
0.0
 40
2.8125
  1
  
  7
ROMANS
 72
     1
 11
307.299767
 21
464.205815
 31
0.0
100
AcDbText
 73
     2
  0
TEXT
  5
4542
100
AcDbEntity
  8
0
  6
BYBLOCK
 62
     0
100
AcDbText
 10
304.522209
 20
479.674565
 30
0.0
 40
2.8125
  1
  
  7
ROMANS
 72
     1
 11
307.334709
 21
481.080815
 31
0.0
100
AcDbText
 73
     2
  0
TEXT
  5
4543
100
AcDbEntity
  8
0
  6
BYBLOCK
 62
     0
100
AcDbText
 10
365.712249
 20
382.578276
 30
0.0
 40
2.8125
  1
   
  7
ROMANS
 72
     1
 11
369.930999
 21
383.984526
 31
0.0
100
AcDbText
 73
     2
  0
TEXT
  5
4544
100
AcDbEntity
  8
0
  6
BYBLOCK
 62
     0
100
AcDbText
 10
133.373869
 20
156.404789
 30
0.0
 40
0.28125
  1
  
  7
ROMANS
 72
     1
 11
133.655119
 21
156.545414
 31
0.0
100
AcDbText
 73
     2
  0
TEXT
  5
4545
100
AcDbEntity
  8
0
  6
BYBLOCK
 62
     0
100
AcDbText
 10
141.014923
 20
161.745484
 30
0.0
 40
0.28125
  1
  
  7
ROMANS
 72
     1
 11
141.296173
 21
161.886109
 31
0.0
100
AcDbText
 73
     2
  0
TEXT
  5
4546
100
AcDbEntity
  8
0
  6
BYBLOCK
 62
     0
100
AcDbText
 10
141.018417
 20
163.432984
 30
0.0
 40
0.28125
  1
  
  7
ROMANS
 72
     1
 11
141.299667
 21
163.573609
 31
0.0
100
AcDbText
 73
     2
  0
TEXT
  5
4547
100
AcDbEntity
  8
0
  6
BYBLOCK
 62
     0
100
AcDbText
 10
147.137421
 20
153.723355
 30
0.0
 40
0.28125
  1
   
  7
ROMANS
 72
     1
 11
147.559296
 21
153.86398
 31
0.0
100
AcDbText
 73
     2
  0
TEXT
  5
4548
100
AcDbEntity
  8
0
  6
BYBLOCK
 62
     0
100
AcDbText
 10
135.724732
 20
162.184027
 30
0.0
 40
0.3375
  1
  
  7
ROMANS
 72
     1
 11
136.062232
 21
162.352777
 31
0.0
100
AcDbText
 73
     2
  0
TEXT
  5
4549
100
AcDbEntity
  8
0
  6
BYBLOCK
 62
     0
100
AcDbText
 10
144.893997
 20
168.592861
 30
0.0
 40
0.3375
  1
  
  7
ROMANS
 72
     1
 11
145.231497
 21
168.761611
 31
0.0
100
AcDbText
 73
     2
  0
TEXT
  5
454A
100
AcDbEntity
  8
0
  6
BYBLOCK
 62
     0
100
AcDbText
 10
144.89819
 20
170.617861
 30
0.0
 40
0.3375
  1
  
  7
ROMANS
 72
     1
 11
145.23569
 21
170.786611
 31
0.0
100
AcDbText
 73
     2
  0
TEXT
  5
454B
100
AcDbEntity
  8
0
  6
BYBLOCK
 62
     0
100
AcDbText
 10
152.240995
 20
158.966306
 30
0.0
 40
0.3375
  1
   
  7
ROMANS
 72
     1
 11
152.747245
 21
159.135056
 31
0.0
100
AcDbText
 73
     2
  0
TEXT
  5
454C
100
AcDbEntity
  8
0
  6
BYBLOCK
 62
     0
100
AcDbText
 10
133.449926
 20
156.420681
 30
0.0
 40
0.28125
  1
  
  7
ROMANS
 72
     1
 11
133.731176
 21
156.561306
 31
0.0
100
AcDbText
 73
     2
  0
TEXT
  5
454D
100
AcDbEntity
  8
0
  6
BYBLOCK
 62
     0
100
AcDbText
 10
141.09098
 20
161.761376
 30
0.0
 40
0.28125
  1
  
  7
ROMANS
 72
     1
 11
141.37223
 21
161.902001
 31
0.0
100
AcDbText
 73
     2
  0
TEXT
  5
454E
100
AcDbEntity
  8
0
  6
BYBLOCK
 62
     0
100
AcDbText
 10
141.094474
 20
163.448876
 30
0.0
 40
0.28125
  1
  
  7
ROMANS
 72
     1
 11
141.375724
 21
163.589501
 31
0.0
100
AcDbText
 73
     2
  0
TEXT
  5
454F
100
AcDbEntity
  8
0
  6
BYBLOCK
 62
     0
100
AcDbText
 10
147.213478
 20
153.739247
 30
0.0
 40
0.28125
  1
   
  7
ROMANS
 72
     1
 11
147.635353
 21
153.879872
 31
0.0
100
AcDbText
 73
     2
  0
TEXT
  5
4550
100
AcDbEntity
  8
0
  6
BYBLOCK
 62
     0
100
AcDbText
 10
131.629905
 20
156.492851
 30
0.0
 40
0.28125
  1
  
  7
ROMANS
 72
     1
 11
131.911155
 21
156.633476
 31
0.0
100
AcDbText
 73
     2
  0
TEXT
  5
4551
100
AcDbEntity
  8
0
  6
BYBLOCK
 62
     0
100
AcDbText
 10
139.270959
 20
161.833546
 30
0.0
 40
0.28125
  1
  
  7
ROMANS
 72
     1
 11
139.552209
 21
161.974171
 31
0.0
100
AcDbText
 73
     2
  0
TEXT
  5
4552
100
AcDbEntity
  8
0
  6
BYBLOCK
 62
     0
100
AcDbText
 10
139.274454
 20
163.521046
 30
0.0
 40
0.28125
  1
  
  7
ROMANS
 72
     1
 11
139.555704
 21
163.661671
 31
0.0
100
AcDbText
 73
     2
  0
TEXT
  5
4553
100
AcDbEntity
  8
0
  6
BYBLOCK
 62
     0
100
AcDbText
 10
145.393458
 20
153.811417
 30
0.0
 40
0.28125
  1
   
  7
ROMANS
 72
     1
 11
145.815333
 21
153.952042
 31
0.0
100
AcDbText
 73
     2
  0
TEXT
  5
4554
100
AcDbEntity
  8
0
  6
BYBLOCK
 62
     0
100
AcDbText
 10
131.64565
 20
156.547626
 30
0.0
 40
0.28125
  1
  
  7
ROMANS
 72
     1
 11
131.9269
 21
156.688251
 31
0.0
100
AcDbText
 73
     2
  0
TEXT
  5
4555
100
AcDbEntity
  8
0
  6
BYBLOCK
 62
     0
100
AcDbText
 10
139.286704
 20
161.888321
 30
0.0
 40
0.28125
  1
  
  7
ROMANS
 72
     1
 11
139.567954
 21
162.028946
 31
0.0
100
AcDbText
 73
     2
  0
TEXT
  5
4556
100
AcDbEntity
  8
0
  6
BYBLOCK
 62
     0
100
AcDbText
 10
139.290198
 20
163.575821
 30
0.0
 40
0.28125
  1
  
  7
ROMANS
 72
     1
 11
139.571448
 21
163.716446
 31
0.0
100
AcDbText
 73
     2
  0
TEXT
  5
4557
100
AcDbEntity
  8
0
  6
BYBLOCK
 62
     0
100
AcDbText
 10
145.409202
 20
153.866193
 30
0.0
 40
0.28125
  1
   
  7
ROMANS
 72
     1
 11
145.831077
 21
154.006818
 31
0.0
100
AcDbText
 73
     2
  0
TEXT
  5
4558
100
AcDbEntity
  8
0
  6
BYBLOCK
 62
     0
100
AcDbText
 10
148.527136
 20
149.923037
 30
0.0
 40
0.253125
  1
  
  7
ROMANS
 72
     1
 11
148.780261
 21
150.049599
 31
0.0
100
AcDbText
 73
     2
  0
TEXT
  5
4559
100
AcDbEntity
  8
0
  6
BYBLOCK
 62
     0
100
AcDbText
 10
155.404084
 20
154.729662
 30
0.0
 40
0.253125
  1
  
  7
ROMANS
 72
     1
 11
155.657209
 21
154.856225
 31
0.0
100
AcDbText
 73
     2
  0
TEXT
  5
455A
100
AcDbEntity
  8
0
  6
BYBLOCK
 62
     0
100
AcDbText
 10
155.407229
 20
156.248412
 30
0.0
 40
0.253125
  1
  
  7
ROMANS
 72
     1
 11
155.660354
 21
156.374975
 31
0.0
100
AcDbText
 73
     2
  0
TEXT
  5
455B
100
AcDbEntity
  8
0
  6
BYBLOCK
 62
     0
100
AcDbText
 10
160.914332
 20
147.509746
 30
0.0
 40
0.253125
  1
   
  7
ROMANS
 72
     1
 11
161.29402
 21
147.636309
 31
0.0
100
AcDbText
 73
     2
  0
TEXT
  5
455C
100
AcDbEntity
  8
BORDER
 62
     7
100
AcDbText
 10
118.301397
 20
111.704627
 30
0.0
 40
0.206513
  1

  7
ROMANC
100
AcDbText
  0
TEXT
  5
455D
100
AcDbEntity
  8
0
  6
BYBLOCK
 62
     0
100
AcDbText
 10
231.986675
 20
415.187029
 30
0.0
 40
2.882712
  1
  
  7
ROMANS
 72
     1
 11
234.869387
 21
416.628385
 31
0.0
100
AcDbText
 73
     2
  0
TEXT
  5
455E
100
AcDbEntity
  8
0
  6
BYBLOCK
 62
     0
100
AcDbText
 10
310.304748
 20
469.927248
 30
0.0
 40
2.882712
  1
  
  7
ROMANS
 72
     1
 11
313.18746
 21
471.368604
 31
0.0
100
AcDbText
 73
     2
  0
TEXT
  5
455F
100
AcDbEntity
  8
0
  6
BYBLOCK
 62
     0
100
AcDbText
 10
310.340563
 20
487.22352
 30
0.0
 40
2.882712
  1
  
  7
ROMANS
 72
     1
 11
313.223275
 21
488.664876
 31
0.0
100
AcDbText
 73
     2
  0
TEXT
  5
4560
100
AcDbEntity
  8
0
  6
BYBLOCK
 62
     0
100
AcDbText
 10
373.058169
 20
387.703291
 30
0.0
 40
2.882712
  1
   
  7
ROMANS
 72
     1
 11
377.382237
 21
389.144647
 31
0.0
100
AcDbText
 73
     2
  0
TEXT
  5
49E7
100
AcDbEntity
  8
0
  6
BYBLOCK
 62
     0
100
AcDbText
 10
1307.094358
 20
2922.391974
 30
0.0
 40
27.0
  1
  
  7
ROMANS
 72
     1
 11
1334.094358
 21
2935.891974
 31
0.0
100
AcDbText
 73
     2
  0
TEXT
  5
49E8
100
AcDbEntity
  8
0
  6
BYBLOCK
 62
     0
100
AcDbText
 10
2040.635527
 20
3435.098719
 30
0.0
 40
27.0
  1
  
  7
ROMANS
 72
     1
 11
2067.635527
 21
3448.598719
 31
0.0
100
AcDbText
 73
     2
  0
TEXT
  5
49E9
100
AcDbEntity
  8
0
  6
BYBLOCK
 62
     0
100
AcDbText
 10
2040.970975
 20
3597.098719
 30
0.0
 40
27.0
  1
  
  7
ROMANS
 72
     1
 11
2067.970975
 21
3610.598719
 31
0.0
100
AcDbText
 73
     2
  0
TEXT
  5
49EA
100
AcDbEntity
  8
0
  6
BYBLOCK
 62
     0
100
AcDbText
 10
2628.39536
 20
2664.974344
 30
0.0
 40
27.0
  1
   
  7
ROMANS
 72
     1
 11
2668.89536
 21
2678.474344
 31
0.0
100
AcDbText
 73
     2
  0
TEXT
  5
4E88
100
AcDbEntity
  8
0
  6
BYBLOCK
 62
     0
100
AcDbText
 10
3306.418268
 20
2812.173317
 30
0.0
 40
30.0
  1
   
  7
ROMANS
 72
     1
 11
3351.418268
 21
2827.173317
 31
0.0
100
AcDbText
 73
     2
  0
TEXT
  5
4E89
100
AcDbEntity
  8
0
  6
BYBLOCK
 62
     0
100
AcDbText
 10
2653.724508
 20
3847.867066
 30
0.0
 40
30.0
  1
  
  7
ROMANS
 72
     1
 11
2683.724508
 21
3862.867066
 31
0.0
100
AcDbText
 73
     2
  0
TEXT
  5
4E8A
100
AcDbEntity
  8
0
  6
BYBLOCK
 62
     0
100
AcDbText
 10
2653.351788
 20
3667.867066
 30
0.0
 40
30.0
  1
  
  7
ROMANS
 72
     1
 11
2683.351788
 21
3682.867066
 31
0.0
100
AcDbText
 73
     2
  0
TEXT
  5
4E8B
100
AcDbEntity
  8
0
  6
BYBLOCK
 62
     0
100
AcDbText
 10
1838.306045
 20
3098.192906
 30
0.0
 40
30.0
  1
  
  7
ROMANS
 72
     1
 11
1868.306045
 21
3113.192906
 31
0.0
100
AcDbText
 73
     2
  0
TEXT
  5
4F36
100
AcDbEntity
  8
0
  6
BYBLOCK
 62
     0
100
AcDbText
 10
965.431919
 20
-152.207476
 30
0.0
 40
1.8
  1
   
 50
270.0
  7
ROMANS
 72
     1
 11
966.331919
 21
-154.907476
 31
0.0
100
AcDbText
 73
     2
  0
TEXT
  5
4F37
100
AcDbEntity
  8
0
  6
BYBLOCK
 62
     0
100
AcDbText
 10
1027.573544
 20
-113.045851
 30
0.0
 40
1.8
  1
  
 50
270.0
  7
ROMANS
 72
     1
 11
1028.473544
 21
-114.845851
 31
0.0
100
AcDbText
 73
     2
  0
TEXT
  5
4F38
100
AcDbEntity
  8
0
  6
BYBLOCK
 62
     0
100
AcDbText
 10
1016.773544
 20
-113.023487
 30
0.0
 40
1.8
  1
  
 50
270.0
  7
ROMANS
 72
     1
 11
1017.673544
 21
-114.823487
 31
0.0
100
AcDbText
 73
     2
  0
TEXT
  5
4F39
100
AcDbEntity
  8
0
  6
BYBLOCK
 62
     0
100
AcDbText
 10
982.593095
 20
-64.120743
 30
0.0
 40
1.8
  1
  
 50
270.0
  7
ROMANS
 72
     1
 11
983.493095
 21
-65.920743
 31
0.0
100
AcDbText
 73
     2
  0
TEXT
  5
4F3A
100
AcDbEntity
  8
0
  6
BYBLOCK
 62
     0
100
AcDbText
 10
884.056525
 20
293.530418
 30
0.0
 40
2.8125
  1
  
  7
ROMANS
 72
     1
 11
886.869025
 21
294.936668
 31
0.0
100
AcDbText
 73
     2
  0
TEXT
  5
4F3B
100
AcDbEntity
  8
0
  6
BYBLOCK
 62
     0
100
AcDbText
 10
960.467063
 20
346.93737
 30
0.0
 40
2.8125
  1
  
  7
ROMANS
 72
     1
 11
963.279563
 21
348.34362
 31
0.0
100
AcDbText
 73
     2
  0
TEXT
  5
4F3C
100
AcDbEntity
  8
0
  6
BYBLOCK
 62
     0
100
AcDbText
 10
960.502006
 20
363.81237
 30
0.0
 40
2.8125
  1
  
  7
ROMANS
 72
     1
 11
963.314506
 21
365.21862
 31
0.0
100
AcDbText
 73
     2
  0
TEXT
  5
4F3D
100
AcDbEntity
  8
0
  6
BYBLOCK
 62
     0
100
AcDbText
 10
1021.692046
 20
266.716081
 30
0.0
 40
2.8125
  1
   
  7
ROMANS
 72
     1
 11
1025.910796
 21
268.122331
 31
0.0
100
AcDbText
 73
     2
  0
TEXT
  5
4F3E
100
AcDbEntity
  8
0
  6
BYBLOCK
 62
     0
100
AcDbText
 10
789.353666
 20
40.542594
 30
0.0
 40
0.28125
  1
  
  7
ROMANS
 72
     1
 11
789.634916
 21
40.683219
 31
0.0
100
AcDbText
 73
     2
  0
TEXT
  5
4F3F
100
AcDbEntity
  8
0
  6
BYBLOCK
 62
     0
100
AcDbText
 10
796.994719
 20
45.88329
 30
0.0
 40
0.28125
  1
  
  7
ROMANS
 72
     1
 11
797.275969
 21
46.023915
 31
0.0
100
AcDbText
 73
     2
  0
TEXT
  5
4F40
100
AcDbEntity
  8
0
  6
BYBLOCK
 62
     0
100
AcDbText
 10
796.998214
 20
47.57079
 30
0.0
 40
0.28125
  1
  
  7
ROMANS
 72
     1
 11
797.279464
 21
47.711415
 31
0.0
100
AcDbText
 73
     2
  0
TEXT
  5
4F41
100
AcDbEntity
  8
0
  6
BYBLOCK
 62
     0
100
AcDbText
 10
803.117218
 20
37.861161
 30
0.0
 40
0.28125
  1
   
  7
ROMANS
 72
     1
 11
803.539093
 21
38.001786
 31
0.0
100
AcDbText
 73
     2
  0
TEXT
  5
4F42
100
AcDbEntity
  8
0
  6
BYBLOCK
 62
     0
100
AcDbText
 10
791.704529
 20
46.321832
 30
0.0
 40
0.3375
  1
  
  7
ROMANS
 72
     1
 11
792.042029
 21
46.490582
 31
0.0
100
AcDbText
 73
     2
  0
TEXT
  5
4F43
100
AcDbEntity
  8
0
  6
BYBLOCK
 62
     0
100
AcDbText
 10
800.873793
 20
52.730666
 30
0.0
 40
0.3375
  1
  
  7
ROMANS
 72
     1
 11
801.211293
 21
52.899416
 31
0.0
100
AcDbText
 73
     2
  0
TEXT
  5
4F44
100
AcDbEntity
  8
0
  6
BYBLOCK
 62
     0
100
AcDbText
 10
800.877986
 20
54.755666
 30
0.0
 40
0.3375
  1
  
  7
ROMANS
 72
     1
 11
801.215486
 21
54.924416
 31
0.0
100
AcDbText
 73
     2
  0
TEXT
  5
4F45
100
AcDbEntity
  8
0
  6
BYBLOCK
 62
     0
100
AcDbText
 10
808.220791
 20
43.104112
 30
0.0
 40
0.3375
  1
   
  7
ROMANS
 72
     1
 11
808.727041
 21
43.272862
 31
0.0
100
AcDbText
 73
     2
  0
TEXT
  5
4F46
100
AcDbEntity
  8
0
  6
BYBLOCK
 62
     0
100
AcDbText
 10
789.429722
 20
40.558486
 30
0.0
 40
0.28125
  1
  
  7
ROMANS
 72
     1
 11
789.710972
 21
40.699111
 31
0.0
100
AcDbText
 73
     2
  0
TEXT
  5
4F47
100
AcDbEntity
  8
0
  6
BYBLOCK
 62
     0
100
AcDbText
 10
797.070776
 20
45.899182
 30
0.0
 40
0.28125
  1
  
  7
ROMANS
 72
     1
 11
797.352026
 21
46.039807
 31
0.0
100
AcDbText
 73
     2
  0
TEXT
  5
4F48
100
AcDbEntity
  8
0
  6
BYBLOCK
 62
     0
100
AcDbText
 10
797.07427
 20
47.586682
 30
0.0
 40
0.28125
  1
  
  7
ROMANS
 72
     1
 11
797.35552
 21
47.727307
 31
0.0
100
AcDbText
 73
     2
  0
TEXT
  5
4F49
100
AcDbEntity
  8
0
  6
BYBLOCK
 62
     0
100
AcDbText
 10
803.193274
 20
37.877053
 30
0.0
 40
0.28125
  1
   
  7
ROMANS
 72
     1
 11
803.615149
 21
38.017678
 31
0.0
100
AcDbText
 73
     2
  0
TEXT
  5
4F4A
100
AcDbEntity
  8
0
  6
BYBLOCK
 62
     0
100
AcDbText
 10
787.609702
 20
40.630656
 30
0.0
 40
0.28125
  1
  
  7
ROMANS
 72
     1
 11
787.890952
 21
40.771281
 31
0.0
100
AcDbText
 73
     2
  0
TEXT
  5
4F4B
100
AcDbEntity
  8
0
  6
BYBLOCK
 62
     0
100
AcDbText
 10
795.250756
 20
45.971351
 30
0.0
 40
0.28125
  1
  
  7
ROMANS
 72
     1
 11
795.532006
 21
46.111976
 31
0.0
100
AcDbText
 73
     2
  0
TEXT
  5
4F4C
100
AcDbEntity
  8
0
  6
BYBLOCK
 62
     0
100
AcDbText
 10
795.25425
 20
47.658851
 30
0.0
 40
0.28125
  1
  
  7
ROMANS
 72
     1
 11
795.5355
 21
47.799476
 31
0.0
100
AcDbText
 73
     2
  0
TEXT
  5
4F4D
100
AcDbEntity
  8
0
  6
BYBLOCK
 62
     0
100
AcDbText
 10
801.373254
 20
37.949223
 30
0.0
 40
0.28125
  1
   
  7
ROMANS
 72
     1
 11
801.795129
 21
38.089848
 31
0.0
100
AcDbText
 73
     2
  0
TEXT
  5
4F4E
100
AcDbEntity
  8
0
  6
BYBLOCK
 62
     0
100
AcDbText
 10
787.625447
 20
40.685432
 30
0.0
 40
0.28125
  1
  
  7
ROMANS
 72
     1
 11
787.906697
 21
40.826057
 31
0.0
100
AcDbText
 73
     2
  0
TEXT
  5
4F4F
100
AcDbEntity
  8
0
  6
BYBLOCK
 62
     0
100
AcDbText
 10
795.2665
 20
46.026127
 30
0.0
 40
0.28125
  1
  
  7
ROMANS
 72
     1
 11
795.54775
 21
46.166752
 31
0.0
100
AcDbText
 73
     2
  0
TEXT
  5
4F50
100
AcDbEntity
  8
0
  6
BYBLOCK
 62
     0
100
AcDbText
 10
795.269995
 20
47.713627
 30
0.0
 40
0.28125
  1
  
  7
ROMANS
 72
     1
 11
795.551245
 21
47.854252
 31
0.0
100
AcDbText
 73
     2
  0
TEXT
  5
4F51
100
AcDbEntity
  8
0
  6
BYBLOCK
 62
     0
100
AcDbText
 10
801.388999
 20
38.003998
 30
0.0
 40
0.28125
  1
   
  7
ROMANS
 72
     1
 11
801.810874
 21
38.144623
 31
0.0
100
AcDbText
 73
     2
  0
TEXT
  5
4F52
100
AcDbEntity
  8
0
  6
BYBLOCK
 62
     0
100
AcDbText
 10
804.506932
 20
34.060842
 30
0.0
 40
0.253125
  1
  
  7
ROMANS
 72
     1
 11
804.760057
 21
34.187404
 31
0.0
100
AcDbText
 73
     2
  0
TEXT
  5
4F53
100
AcDbEntity
  8
0
  6
BYBLOCK
 62
     0
100
AcDbText
 10
811.38388
 20
38.867468
 30
0.0
 40
0.253125
  1
  
  7
ROMANS
 72
     1
 11
811.637005
 21
38.99403
 31
0.0
100
AcDbText
 73
     2
  0
TEXT
  5
4F54
100
AcDbEntity
  8
0
  6
BYBLOCK
 62
     0
100
AcDbText
 10
811.387025
 20
40.386218
 30
0.0
 40
0.253125
  1
  
  7
ROMANS
 72
     1
 11
811.64015
 21
40.51278
 31
0.0
100
AcDbText
 73
     2
  0
TEXT
  5
4F55
100
AcDbEntity
  8
0
  6
BYBLOCK
 62
     0
100
AcDbText
 10
816.894129
 20
31.647552
 30
0.0
 40
0.253125
  1
   
  7
ROMANS
 72
     1
 11
817.273816
 21
31.774114
 31
0.0
100
AcDbText
 73
     2
  0
TEXT
  5
4F56
100
AcDbEntity
  8
BORDER
 62
     7
100
AcDbText
 10
774.281194
 20
-4.157568
 30
0.0
 40
0.206513
  1

  7
ROMANC
100
AcDbText
  0
TEXT
  5
4F57
100
AcDbEntity
  8
0
  6
BYBLOCK
 62
     0
100
AcDbText
 10
887.966471
 20
299.324834
 30
0.0
 40
2.882712
  1
  
  7
ROMANS
 72
     1
 11
890.849183
 21
300.76619
 31
0.0
100
AcDbText
 73
     2
  0
TEXT
  5
4F58
100
AcDbEntity
  8
0
  6
BYBLOCK
 62
     0
100
AcDbText
 10
966.284544
 20
354.065053
 30
0.0
 40
2.882712
  1
  
  7
ROMANS
 72
     1
 11
969.167256
 21
355.506409
 31
0.0
100
AcDbText
 73
     2
  0
TEXT
  5
4F59
100
AcDbEntity
  8
0
  6
BYBLOCK
 62
     0
100
AcDbText
 10
966.320359
 20
371.361326
 30
0.0
 40
2.882712
  1
  
  7
ROMANS
 72
     1
 11
969.203071
 21
372.802682
 31
0.0
100
AcDbText
 73
     2
  0
TEXT
  5
4F5A
100
AcDbEntity
  8
0
  6
BYBLOCK
 62
     0
100
AcDbText
 10
1029.037965
 20
271.841097
 30
0.0
 40
2.882712
  1
   
  7
ROMANS
 72
     1
 11
1033.362033
 21
273.282453
 31
0.0
100
AcDbText
 73
     2
  0
TEXT
  5
5063
100
AcDbEntity
  8
0
  6
BYBLOCK
 62
     0
100
AcDbText
 10
952.153212
 20
-165.684345
 30
0.0
 40
1.8
  1
   
 50
270.0
  7
ROMANS
 72
     1
 11
953.053212
 21
-168.384345
 31
0.0
100
AcDbText
 73
     2
  0
TEXT
  5
5064
100
AcDbEntity
  8
0
  6
BYBLOCK
 62
     0
100
AcDbText
 10
1014.294837
 20
-126.52272
 30
0.0
 40
1.8
  1
  
 50
270.0
  7
ROMANS
 72
     1
 11
1015.194837
 21
-128.32272
 31
0.0
100
AcDbText
 73
     2
  0
TEXT
  5
5065
100
AcDbEntity
  8
0
  6
BYBLOCK
 62
     0
100
AcDbText
 10
1003.494837
 20
-126.500356
 30
0.0
 40
1.8
  1
  
 50
270.0
  7
ROMANS
 72
     1
 11
1004.394837
 21
-128.300356
 31
0.0
100
AcDbText
 73
     2
  0
TEXT
  5
5066
100
AcDbEntity
  8
0
  6
BYBLOCK
 62
     0
100
AcDbText
 10
969.314388
 20
-77.597612
 30
0.0
 40
1.8
  1
  
 50
270.0
  7
ROMANS
 72
     1
 11
970.214388
 21
-79.397612
 31
0.0
100
AcDbText
 73
     2
  0
TEXT
  5
5067
100
AcDbEntity
  8
0
  6
BYBLOCK
 62
     0
100
AcDbText
 10
870.777818
 20
280.053549
 30
0.0
 40
2.8125
  1
  
  7
ROMANS
 72
     1
 11
873.590318
 21
281.459799
 31
0.0
100
AcDbText
 73
     2
  0
TEXT
  5
5068
100
AcDbEntity
  8
0
  6
BYBLOCK
 62
     0
100
AcDbText
 10
947.188356
 20
333.460501
 30
0.0
 40
2.8125
  1
  
  7
ROMANS
 72
     1
 11
950.000856
 21
334.866751
 31
0.0
100
AcDbText
 73
     2
  0
TEXT
  5
5069
100
AcDbEntity
  8
0
  6
BYBLOCK
 62
     0
100
AcDbText
 10
947.223299
 20
350.335501
 30
0.0
 40
2.8125
  1
  
  7
ROMANS
 72
     1
 11
950.035799
 21
351.741751
 31
0.0
100
AcDbText
 73
     2
  0
TEXT
  5
506A
100
AcDbEntity
  8
0
  6
BYBLOCK
 62
     0
100
AcDbText
 10
1008.413339
 20
253.239212
 30
0.0
 40
2.8125
  1
   
  7
ROMANS
 72
     1
 11
1012.632089
 21
254.645462
 31
0.0
100
AcDbText
 73
     2
  0
TEXT
  5
506B
100
AcDbEntity
  8
0
  6
BYBLOCK
 62
     0
100
AcDbText
 10
776.074959
 20
27.065725
 30
0.0
 40
0.28125
  1
  
  7
ROMANS
 72
     1
 11
776.356209
 21
27.20635
 31
0.0
100
AcDbText
 73
     2
  0
TEXT
  5
506C
100
AcDbEntity
  8
0
  6
BYBLOCK
 62
     0
100
AcDbText
 10
783.716012
 20
32.406421
 30
0.0
 40
0.28125
  1
  
  7
ROMANS
 72
     1
 11
783.997262
 21
32.547046
 31
0.0
100
AcDbText
 73
     2
  0
TEXT
  5
506D
100
AcDbEntity
  8
0
  6
BYBLOCK
 62
     0
100
AcDbText
 10
783.719507
 20
34.093921
 30
0.0
 40
0.28125
  1
  
  7
ROMANS
 72
     1
 11
784.000757
 21
34.234546
 31
0.0
100
AcDbText
 73
     2
  0
TEXT
  5
506E
100
AcDbEntity
  8
0
  6
BYBLOCK
 62
     0
100
AcDbText
 10
789.838511
 20
24.384292
 30
0.0
 40
0.28125
  1
   
  7
ROMANS
 72
     1
 11
790.260386
 21
24.524917
 31
0.0
100
AcDbText
 73
     2
  0
TEXT
  5
506F
100
AcDbEntity
  8
0
  6
BYBLOCK
 62
     0
100
AcDbText
 10
778.425822
 20
32.844963
 30
0.0
 40
0.3375
  1
  
  7
ROMANS
 72
     1
 11
778.763322
 21
33.013713
 31
0.0
100
AcDbText
 73
     2
  0
TEXT
  5
5070
100
AcDbEntity
  8
0
  6
BYBLOCK
 62
     0
100
AcDbText
 10
787.595086
 20
39.253798
 30
0.0
 40
0.3375
  1
  
  7
ROMANS
 72
     1
 11
787.932586
 21
39.422548
 31
0.0
100
AcDbText
 73
     2
  0
TEXT
  5
5071
100
AcDbEntity
  8
0
  6
BYBLOCK
 62
     0
100
AcDbText
 10
787.599279
 20
41.278798
 30
0.0
 40
0.3375
  1
  
  7
ROMANS
 72
     1
 11
787.936779
 21
41.447548
 31
0.0
100
AcDbText
 73
     2
  0
TEXT
  5
5072
100
AcDbEntity
  8
0
  6
BYBLOCK
 62
     0
100
AcDbText
 10
794.942084
 20
29.627243
 30
0.0
 40
0.3375
  1
   
  7
ROMANS
 72
     1
 11
795.448334
 21
29.795993
 31
0.0
100
AcDbText
 73
     2
  0
TEXT
  5
5073
100
AcDbEntity
  8
0
  6
BYBLOCK
 62
     0
100
AcDbText
 10
776.151015
 20
27.081617
 30
0.0
 40
0.28125
  1
  
  7
ROMANS
 72
     1
 11
776.432265
 21
27.222242
 31
0.0
100
AcDbText
 73
     2
  0
TEXT
  5
5074
100
AcDbEntity
  8
0
  6
BYBLOCK
 62
     0
100
AcDbText
 10
783.792069
 20
32.422313
 30
0.0
 40
0.28125
  1
  
  7
ROMANS
 72
     1
 11
784.073319
 21
32.562938
 31
0.0
100
AcDbText
 73
     2
  0
TEXT
  5
5075
100
AcDbEntity
  8
0
  6
BYBLOCK
 62
     0
100
AcDbText
 10
783.795563
 20
34.109813
 30
0.0
 40
0.28125
  1
  
  7
ROMANS
 72
     1
 11
784.076813
 21
34.250438
 31
0.0
100
AcDbText
 73
     2
  0
TEXT
  5
5076
100
AcDbEntity
  8
0
  6
BYBLOCK
 62
     0
100
AcDbText
 10
789.914567
 20
24.400184
 30
0.0
 40
0.28125
  1
   
  7
ROMANS
 72
     1
 11
790.336442
 21
24.540809
 31
0.0
100
AcDbText
 73
     2
  0
TEXT
  5
5077
100
AcDbEntity
  8
0
  6
BYBLOCK
 62
     0
100
AcDbText
 10
774.330995
 20
27.153787
 30
0.0
 40
0.28125
  1
  
  7
ROMANS
 72
     1
 11
774.612245
 21
27.294412
 31
0.0
100
AcDbText
 73
     2
  0
TEXT
  5
5078
100
AcDbEntity
  8
0
  6
BYBLOCK
 62
     0
100
AcDbText
 10
781.972049
 20
32.494482
 30
0.0
 40
0.28125
  1
  
  7
ROMANS
 72
     1
 11
782.253299
 21
32.635107
 31
0.0
100
AcDbText
 73
     2
  0
TEXT
  5
5079
100
AcDbEntity
  8
0
  6
BYBLOCK
 62
     0
100
AcDbText
 10
781.975543
 20
34.181982
 30
0.0
 40
0.28125
  1
  
  7
ROMANS
 72
     1
 11
782.256793
 21
34.322607
 31
0.0
100
AcDbText
 73
     2
  0
TEXT
  5
507A
100
AcDbEntity
  8
0
  6
BYBLOCK
 62
     0
100
AcDbText
 10
788.094547
 20
24.472354
 30
0.0
 40
0.28125
  1
   
  7
ROMANS
 72
     1
 11
788.516422
 21
24.612979
 31
0.0
100
AcDbText
 73
     2
  0
TEXT
  5
507B
100
AcDbEntity
  8
0
  6
BYBLOCK
 62
     0
100
AcDbText
 10
774.346739
 20
27.208563
 30
0.0
 40
0.28125
  1
  
  7
ROMANS
 72
     1
 11
774.627989
 21
27.349188
 31
0.0
100
AcDbText
 73
     2
  0
TEXT
  5
507C
100
AcDbEntity
  8
0
  6
BYBLOCK
 62
     0
100
AcDbText
 10
781.987793
 20
32.549258
 30
0.0
 40
0.28125
  1
  
  7
ROMANS
 72
     1
 11
782.269043
 21
32.689883
 31
0.0
100
AcDbText
 73
     2
  0
TEXT
  5
507D
100
AcDbEntity
  8
0
  6
BYBLOCK
 62
     0
100
AcDbText
 10
781.991288
 20
34.236758
 30
0.0
 40
0.28125
  1
  
  7
ROMANS
 72
     1
 11
782.272538
 21
34.377383
 31
0.0
100
AcDbText
 73
     2
  0
TEXT
  5
507E
100
AcDbEntity
  8
0
  6
BYBLOCK
 62
     0
100
AcDbText
 10
788.110292
 20
24.527129
 30
0.0
 40
0.28125
  1
   
  7
ROMANS
 72
     1
 11
788.532167
 21
24.667754
 31
0.0
100
AcDbText
 73
     2
  0
TEXT
  5
507F
100
AcDbEntity
  8
0
  6
BYBLOCK
 62
     0
100
AcDbText
 10
791.228225
 20
20.583973
 30
0.0
 40
0.253125
  1
  
  7
ROMANS
 72
     1
 11
791.48135
 21
20.710536
 31
0.0
100
AcDbText
 73
     2
  0
TEXT
  5
5080
100
AcDbEntity
  8
0
  6
BYBLOCK
 62
     0
100
AcDbText
 10
798.105173
 20
25.390599
 30
0.0
 40
0.253125
  1
  
  7
ROMANS
 72
     1
 11
798.358298
 21
25.517161
 31
0.0
100
AcDbText
 73
     2
  0
TEXT
  5
5081
100
AcDbEntity
  8
0
  6
BYBLOCK
 62
     0
100
AcDbText
 10
798.108318
 20
26.909349
 30
0.0
 40
0.253125
  1
  
  7
ROMANS
 72
     1
 11
798.361443
 21
27.035911
 31
0.0
100
AcDbText
 73
     2
  0
TEXT
  5
5082
100
AcDbEntity
  8
0
  6
BYBLOCK
 62
     0
100
AcDbText
 10
803.615422
 20
18.170683
 30
0.0
 40
0.253125
  1
   
  7
ROMANS
 72
     1
 11
803.995109
 21
18.297245
 31
0.0
100
AcDbText
 73
     2
  0
TEXT
  5
5083
100
AcDbEntity
  8
BORDER
 62
     7
100
AcDbText
 10
761.002486
 20
-17.634437
 30
0.0
 40
0.206513
  1

  7
ROMANC
100
AcDbText
  0
TEXT
  5
5084
100
AcDbEntity
  8
0
  6
BYBLOCK
 62
     0
100
AcDbText
 10
874.687764
 20
285.847965
 30
0.0
 40
2.882712
  1
  
  7
ROMANS
 72
     1
 11
877.570476
 21
287.289321
 31
0.0
100
AcDbText
 73
     2
  0
TEXT
  5
5085
100
AcDbEntity
  8
0
  6
BYBLOCK
 62
     0
100
AcDbText
 10
953.005837
 20
340.588184
 30
0.0
 40
2.882712
  1
  
  7
ROMANS
 72
     1
 11
955.888549
 21
342.02954
 31
0.0
100
AcDbText
 73
     2
  0
TEXT
  5
5086
100
AcDbEntity
  8
0
  6
BYBLOCK
 62
     0
100
AcDbText
 10
953.041652
 20
357.884457
 30
0.0
 40
2.882712
  1
  
  7
ROMANS
 72
     1
 11
955.924364
 21
359.325813
 31
0.0
100
AcDbText
 73
     2
  0
TEXT
  5
5087
100
AcDbEntity
  8
0
  6
BYBLOCK
 62
     0
100
AcDbText
 10
1015.759258
 20
258.364228
 30
0.0
 40
2.882712
  1
   
  7
ROMANS
 72
     1
 11
1020.083326
 21
259.805584
 31
0.0
100
AcDbText
 73
     2
  0
TEXT
  5
5088
100
AcDbEntity
  8
0
  6
BYBLOCK
 62
     0
100
AcDbText
 10
882.357612
 20
7.734278
 30
0.0
 40
1.8
  1
   
 50
270.0
  7
ROMANS
 72
     1
 11
883.257612
 21
5.034278
 31
0.0
100
AcDbText
 73
     2
  0
TEXT
  5
5089
100
AcDbEntity
  8
0
  6
BYBLOCK
 62
     0
100
AcDbText
 10
944.499237
 20
46.895904
 30
0.0
 40
1.8
  1
  
 50
270.0
  7
ROMANS
 72
     1
 11
945.399237
 21
45.095904
 31
0.0
100
AcDbText
 73
     2
  0
TEXT
  5
508A
100
AcDbEntity
  8
0
  6
BYBLOCK
 62
     0
100
AcDbText
 10
933.699237
 20
46.918267
 30
0.0
 40
1.8
  1
  
 50
270.0
  7
ROMANS
 72
     1
 11
934.599237
 21
45.118267
 31
0.0
100
AcDbText
 73
     2
  0
TEXT
  5
508B
100
AcDbEntity
  8
0
  6
BYBLOCK
 62
     0
100
AcDbText
 10
899.518787
 20
95.821012
 30
0.0
 40
1.8
  1
  
 50
270.0
  7
ROMANS
 72
     1
 11
900.418787
 21
94.021012
 31
0.0
100
AcDbText
 73
     2
  0
TEXT
  5
508C
100
AcDbEntity
  8
0
  6
BYBLOCK
 62
     0
100
AcDbText
 10
800.982218
 20
453.472172
 30
0.0
 40
2.8125
  1
  
  7
ROMANS
 72
     1
 11
803.794718
 21
454.878422
 31
0.0
100
AcDbText
 73
     2
  0
TEXT
  5
508D
100
AcDbEntity
  8
0
  6
BYBLOCK
 62
     0
100
AcDbText
 10
877.392756
 20
506.879125
 30
0.0
 40
2.8125
  1
  
  7
ROMANS
 72
     1
 11
880.205256
 21
508.285375
 31
0.0
100
AcDbText
 73
     2
  0
TEXT
  5
508E
100
AcDbEntity
  8
0
  6
BYBLOCK
 62
     0
100
AcDbText
 10
877.427698
 20
523.754125
 30
0.0
 40
2.8125
  1
  
  7
ROMANS
 72
     1
 11
880.240198
 21
525.160375
 31
0.0
100
AcDbText
 73
     2
  0
TEXT
  5
508F
100
AcDbEntity
  8
0
  6
BYBLOCK
 62
     0
100
AcDbText
 10
938.617739
 20
426.657836
 30
0.0
 40
2.8125
  1
   
  7
ROMANS
 72
     1
 11
942.836489
 21
428.064086
 31
0.0
100
AcDbText
 73
     2
  0
TEXT
  5
5090
100
AcDbEntity
  8
0
  6
BYBLOCK
 62
     0
100
AcDbText
 10
706.279358
 20
200.484349
 30
0.0
 40
0.28125
  1
  
  7
ROMANS
 72
     1
 11
706.560608
 21
200.624974
 31
0.0
100
AcDbText
 73
     2
  0
TEXT
  5
5091
100
AcDbEntity
  8
0
  6
BYBLOCK
 62
     0
100
AcDbText
 10
713.920412
 20
205.825044
 30
0.0
 40
0.28125
  1
  
  7
ROMANS
 72
     1
 11
714.201662
 21
205.965669
 31
0.0
100
AcDbText
 73
     2
  0
TEXT
  5
5092
100
AcDbEntity
  8
0
  6
BYBLOCK
 62
     0
100
AcDbText
 10
713.923907
 20
207.512544
 30
0.0
 40
0.28125
  1
  
  7
ROMANS
 72
     1
 11
714.205157
 21
207.653169
 31
0.0
100
AcDbText
 73
     2
  0
TEXT
  5
5093
100
AcDbEntity
  8
0
  6
BYBLOCK
 62
     0
100
AcDbText
 10
720.042911
 20
197.802915
 30
0.0
 40
0.28125
  1
   
  7
ROMANS
 72
     1
 11
720.464786
 21
197.94354
 31
0.0
100
AcDbText
 73
     2
  0
TEXT
  5
5094
100
AcDbEntity
  8
0
  6
BYBLOCK
 62
     0
100
AcDbText
 10
708.630221
 20
206.263587
 30
0.0
 40
0.3375
  1
  
  7
ROMANS
 72
     1
 11
708.967721
 21
206.432337
 31
0.0
100
AcDbText
 73
     2
  0
TEXT
  5
5095
100
AcDbEntity
  8
0
  6
BYBLOCK
 62
     0
100
AcDbText
 10
717.799486
 20
212.672421
 30
0.0
 40
0.3375
  1
  
  7
ROMANS
 72
     1
 11
718.136986
 21
212.841171
 31
0.0
100
AcDbText
 73
     2
  0
TEXT
  5
5096
100
AcDbEntity
  8
0
  6
BYBLOCK
 62
     0
100
AcDbText
 10
717.803679
 20
214.697421
 30
0.0
 40
0.3375
  1
  
  7
ROMANS
 72
     1
 11
718.141179
 21
214.866171
 31
0.0
100
AcDbText
 73
     2
  0
TEXT
  5
5097
100
AcDbEntity
  8
0
  6
BYBLOCK
 62
     0
100
AcDbText
 10
725.146484
 20
203.045866
 30
0.0
 40
0.3375
  1
   
  7
ROMANS
 72
     1
 11
725.652734
 21
203.214616
 31
0.0
100
AcDbText
 73
     2
  0
TEXT
  5
5098
100
AcDbEntity
  8
0
  6
BYBLOCK
 62
     0
100
AcDbText
 10
706.355415
 20
200.500241
 30
0.0
 40
0.28125
  1
  
  7
ROMANS
 72
     1
 11
706.636665
 21
200.640866
 31
0.0
100
AcDbText
 73
     2
  0
TEXT
  5
5099
100
AcDbEntity
  8
0
  6
BYBLOCK
 62
     0
100
AcDbText
 10
713.996469
 20
205.840936
 30
0.0
 40
0.28125
  1
  
  7
ROMANS
 72
     1
 11
714.277719
 21
205.981561
 31
0.0
100
AcDbText
 73
     2
  0
TEXT
  5
509A
100
AcDbEntity
  8
0
  6
BYBLOCK
 62
     0
100
AcDbText
 10
713.999963
 20
207.528436
 30
0.0
 40
0.28125
  1
  
  7
ROMANS
 72
     1
 11
714.281213
 21
207.669061
 31
0.0
100
AcDbText
 73
     2
  0
TEXT
  5
509B
100
AcDbEntity
  8
0
  6
BYBLOCK
 62
     0
100
AcDbText
 10
720.118967
 20
197.818807
 30
0.0
 40
0.28125
  1
   
  7
ROMANS
 72
     1
 11
720.540842
 21
197.959432
 31
0.0
100
AcDbText
 73
     2
  0
TEXT
  5
509C
100
AcDbEntity
  8
0
  6
BYBLOCK
 62
     0
100
AcDbText
 10
704.535395
 20
200.572411
 30
0.0
 40
0.28125
  1
  
  7
ROMANS
 72
     1
 11
704.816645
 21
200.713036
 31
0.0
100
AcDbText
 73
     2
  0
TEXT
  5
509D
100
AcDbEntity
  8
0
  6
BYBLOCK
 62
     0
100
AcDbText
 10
712.176448
 20
205.913106
 30
0.0
 40
0.28125
  1
  
  7
ROMANS
 72
     1
 11
712.457698
 21
206.053731
 31
0.0
100
AcDbText
 73
     2
  0
TEXT
  5
509E
100
AcDbEntity
  8
0
  6
BYBLOCK
 62
     0
100
AcDbText
 10
712.179943
 20
207.600606
 30
0.0
 40
0.28125
  1
  
  7
ROMANS
 72
     1
 11
712.461193
 21
207.741231
 31
0.0
100
AcDbText
 73
     2
  0
TEXT
  5
509F
100
AcDbEntity
  8
0
  6
BYBLOCK
 62
     0
100
AcDbText
 10
718.298947
 20
197.890977
 30
0.0
 40
0.28125
  1
   
  7
ROMANS
 72
     1
 11
718.720822
 21
198.031602
 31
0.0
100
AcDbText
 73
     2
  0
TEXT
  5
50A0
100
AcDbEntity
  8
0
  6
BYBLOCK
 62
     0
100
AcDbText
 10
704.551139
 20
200.627186
 30
0.0
 40
0.28125
  1
  
  7
ROMANS
 72
     1
 11
704.832389
 21
200.767811
 31
0.0
100
AcDbText
 73
     2
  0
TEXT
  5
50A1
100
AcDbEntity
  8
0
  6
BYBLOCK
 62
     0
100
AcDbText
 10
712.192193
 20
205.967881
 30
0.0
 40
0.28125
  1
  
  7
ROMANS
 72
     1
 11
712.473443
 21
206.108506
 31
0.0
100
AcDbText
 73
     2
  0
TEXT
  5
50A2
100
AcDbEntity
  8
0
  6
BYBLOCK
 62
     0
100
AcDbText
 10
712.195687
 20
207.655381
 30
0.0
 40
0.28125
  1
  
  7
ROMANS
 72
     1
 11
712.476937
 21
207.796006
 31
0.0
100
AcDbText
 73
     2
  0
TEXT
  5
50A3
100
AcDbEntity
  8
0
  6
BYBLOCK
 62
     0
100
AcDbText
 10
718.314691
 20
197.945752
 30
0.0
 40
0.28125
  1
   
  7
ROMANS
 72
     1
 11
718.736566
 21
198.086377
 31
0.0
100
AcDbText
 73
     2
  0
TEXT
  5
50A4
100
AcDbEntity
  8
0
  6
BYBLOCK
 62
     0
100
AcDbText
 10
721.432625
 20
194.002596
 30
0.0
 40
0.253125
  1
  
  7
ROMANS
 72
     1
 11
721.68575
 21
194.129159
 31
0.0
100
AcDbText
 73
     2
  0
TEXT
  5
50A5
100
AcDbEntity
  8
0
  6
BYBLOCK
 62
     0
100
AcDbText
 10
728.309573
 20
198.809222
 30
0.0
 40
0.253125
  1
  
  7
ROMANS
 72
     1
 11
728.562698
 21
198.935785
 31
0.0
100
AcDbText
 73
     2
  0
TEXT
  5
50A6
100
AcDbEntity
  8
0
  6
BYBLOCK
 62
     0
100
AcDbText
 10
728.312718
 20
200.327972
 30
0.0
 40
0.253125
  1
  
  7
ROMANS
 72
     1
 11
728.565843
 21
200.454535
 31
0.0
100
AcDbText
 73
     2
  0
TEXT
  5
50A7
100
AcDbEntity
  8
0
  6
BYBLOCK
 62
     0
100
AcDbText
 10
733.819822
 20
191.589306
 30
0.0
 40
0.253125
  1
   
  7
ROMANS
 72
     1
 11
734.199509
 21
191.715869
 31
0.0
100
AcDbText
 73
     2
  0
TEXT
  5
50A8
100
AcDbEntity
  8
BORDER
 62
     7
100
AcDbText
 10
691.206886
 20
155.784187
 30
0.0
 40
0.206513
  1

  7
ROMANC
100
AcDbText
  0
TEXT
  5
50A9
100
AcDbEntity
  8
0
  6
BYBLOCK
 62
     0
100
AcDbText
 10
804.892164
 20
459.266589
 30
0.0
 40
2.882712
  1
  
  7
ROMANS
 72
     1
 11
807.774876
 21
460.707945
 31
0.0
100
AcDbText
 73
     2
  0
TEXT
  5
50AA
100
AcDbEntity
  8
0
  6
BYBLOCK
 62
     0
100
AcDbText
 10
883.210237
 20
514.006808
 30
0.0
 40
2.882712
  1
  
  7
ROMANS
 72
     1
 11
886.092949
 21
515.448164
 31
0.0
100
AcDbText
 73
     2
  0
TEXT
  5
50AB
100
AcDbEntity
  8
0
  6
BYBLOCK
 62
     0
100
AcDbText
 10
883.246052
 20
531.30308
 30
0.0
 40
2.882712
  1
  
  7
ROMANS
 72
     1
 11
886.128764
 21
532.744436
 31
0.0
100
AcDbText
 73
     2
  0
TEXT
  5
50AC
100
AcDbEntity
  8
0
  6
BYBLOCK
 62
     0
100
AcDbText
 10
945.963658
 20
431.782851
 30
0.0
 40
2.882712
  1
   
  7
ROMANS
 72
     1
 11
950.287726
 21
433.224207
 31
0.0
100
AcDbText
 73
     2
  0
TEXT
  5
529C
100
AcDbEntity
  8
0
  6
BYBLOCK
 62
     0
100
AcDbText
 10
2271.454281
 20
4412.640864
 30
0.0
 40
40.5
  1
  
  7
ROMANS
 72
     1
 11
2311.954281
 21
4432.890864
 31
0.0
100
AcDbText
 73
     2
  0
TEXT
  5
529D
100
AcDbEntity
  8
0
  6
BYBLOCK
 62
     0
100
AcDbText
 10
3371.766034
 20
5181.70098
 30
0.0
 40
40.5
  1
  
  7
ROMANS
 72
     1
 11
3412.266034
 21
5201.95098
 31
0.0
100
AcDbText
 73
     2
  0
TEXT
  5
529E
100
AcDbEntity
  8
0
  6
BYBLOCK
 62
     0
100
AcDbText
 10
3372.269206
 20
5424.70098
 30
0.0
 40
40.5
  1
  
  7
ROMANS
 72
     1
 11
3412.769206
 21
5444.95098
 31
0.0
100
AcDbText
 73
     2
  0
TEXT
  5
529F
100
AcDbEntity
  8
0
  6
BYBLOCK
 62
     0
100
AcDbText
 10
4253.405783
 20
4026.514418
 30
0.0
 40
40.5
  1
   
  7
ROMANS
 72
     1
 11
4314.155783
 21
4046.764418
 31
0.0
100
AcDbText
 73
     2
  0
TEXT
  5
7712
100
AcDbEntity
  8
0
  6
BYBLOCK
 62
     0
100
AcDbText
 10
2530.26873
 20
2794.139801
 30
0.0
 40
30.0
  1
   
  7
ROMANS
 72
     1
 11
2575.26873
 21
2809.139801
 31
0.0
100
AcDbText
 73
     2
  0
TEXT
  5
7713
100
AcDbEntity
  8
0
  6
BYBLOCK
 62
     0
100
AcDbText
 10
1877.57497
 20
3829.83355
 30
0.0
 40
30.0
  1
  
  7
ROMANS
 72
     1
 11
1907.57497
 21
3844.83355
 31
0.0
100
AcDbText
 73
     2
  0
TEXT
  5
7714
100
AcDbEntity
  8
0
  6
BYBLOCK
 62
     0
100
AcDbText
 10
1877.20225
 20
3649.83355
 30
0.0
 40
30.0
  1
  
  7
ROMANS
 72
     1
 11
1907.20225
 21
3664.83355
 31
0.0
100
AcDbText
 73
     2
  0
TEXT
  5
7715
100
AcDbEntity
  8
0
  6
BYBLOCK
 62
     0
100
AcDbText
 10
1062.156507
 20
3080.15939
 30
0.0
 40
30.0
  1
  
  7
ROMANS
 72
     1
 11
1092.156507
 21
3095.15939
 31
0.0
100
AcDbText
 73
     2
  0
TEXT
  5
7748
100
AcDbEntity
  8
0
  6
BYBLOCK
 62
     0
100
AcDbText
 10
189.282381
 20
-170.240992
 30
0.0
 40
1.8
  1
   
 50
270.0
  7
ROMANS
 72
     1
 11
190.182381
 21
-172.940992
 31
0.0
100
AcDbText
 73
     2
  0
TEXT
  5
7749
100
AcDbEntity
  8
0
  6
BYBLOCK
 62
     0
100
AcDbText
 10
251.424006
 20
-131.079367
 30
0.0
 40
1.8
  1
  
 50
270.0
  7
ROMANS
 72
     1
 11
252.324006
 21
-132.879367
 31
0.0
100
AcDbText
 73
     2
  0
TEXT
  5
774A
100
AcDbEntity
  8
0
  6
BYBLOCK
 62
     0
100
AcDbText
 10
240.624006
 20
-131.057003
 30
0.0
 40
1.8
  1
  
 50
270.0
  7
ROMANS
 72
     1
 11
241.524006
 21
-132.857003
 31
0.0
100
AcDbText
 73
     2
  0
TEXT
  5
774B
100
AcDbEntity
  8
0
  6
BYBLOCK
 62
     0
100
AcDbText
 10
206.443557
 20
-82.154259
 30
0.0
 40
1.8
  1
  
 50
270.0
  7
ROMANS
 72
     1
 11
207.343557
 21
-83.954259
 31
0.0
100
AcDbText
 73
     2
  0
TEXT
  5
774C
100
AcDbEntity
  8
0
  6
BYBLOCK
 62
     0
100
AcDbText
 10
107.906987
 20
275.496902
 30
0.0
 40
2.8125
  1
  
  7
ROMANS
 72
     1
 11
110.719487
 21
276.903152
 31
0.0
100
AcDbText
 73
     2
  0
TEXT
  5
774D
100
AcDbEntity
  8
0
  6
BYBLOCK
 62
     0
100
AcDbText
 10
184.317525
 20
328.903854
 30
0.0
 40
2.8125
  1
  
  7
ROMANS
 72
     1
 11
187.130025
 21
330.310104
 31
0.0
100
AcDbText
 73
     2
  0
TEXT
  5
774E
100
AcDbEntity
  8
0
  6
BYBLOCK
 62
     0
100
AcDbText
 10
184.352468
 20
345.778854
 30
0.0
 40
2.8125
  1
  
  7
ROMANS
 72
     1
 11
187.164968
 21
347.185104
 31
0.0
100
AcDbText
 73
     2
  0
TEXT
  5
774F
100
AcDbEntity
  8
0
  6
BYBLOCK
 62
     0
100
AcDbText
 10
245.542508
 20
248.682565
 30
0.0
 40
2.8125
  1
   
  7
ROMANS
 72
     1
 11
249.761258
 21
250.088815
 31
0.0
100
AcDbText
 73
     2
  0
TEXT
  5
7750
100
AcDbEntity
  8
0
  6
BYBLOCK
 62
     0
100
AcDbText
 10
13.204128
 20
22.509078
 30
0.0
 40
0.28125
  1
  
  7
ROMANS
 72
     1
 11
13.485378
 21
22.649703
 31
0.0
100
AcDbText
 73
     2
  0
TEXT
  5
7751
100
AcDbEntity
  8
0
  6
BYBLOCK
 62
     0
100
AcDbText
 10
20.845181
 20
27.849773
 30
0.0
 40
0.28125
  1
  
  7
ROMANS
 72
     1
 11
21.126431
 21
27.990398
 31
0.0
100
AcDbText
 73
     2
  0
TEXT
  5
7752
100
AcDbEntity
  8
0
  6
BYBLOCK
 62
     0
100
AcDbText
 10
20.848676
 20
29.537273
 30
0.0
 40
0.28125
  1
  
  7
ROMANS
 72
     1
 11
21.129926
 21
29.677898
 31
0.0
100
AcDbText
 73
     2
  0
TEXT
  5
7753
100
AcDbEntity
  8
0
  6
BYBLOCK
 62
     0
100
AcDbText
 10
26.96768
 20
19.827645
 30
0.0
 40
0.28125
  1
   
  7
ROMANS
 72
     1
 11
27.389555
 21
19.96827
 31
0.0
100
AcDbText
 73
     2
  0
TEXT
  5
7754
100
AcDbEntity
  8
0
  6
BYBLOCK
 62
     0
100
AcDbText
 10
15.554991
 20
28.288316
 30
0.0
 40
0.3375
  1
  
  7
ROMANS
 72
     1
 11
15.892491
 21
28.457066
 31
0.0
100
AcDbText
 73
     2
  0
TEXT
  5
7755
100
AcDbEntity
  8
0
  6
BYBLOCK
 62
     0
100
AcDbText
 10
24.724255
 20
34.69715
 30
0.0
 40
0.3375
  1
  
  7
ROMANS
 72
     1
 11
25.061755
 21
34.8659
 31
0.0
100
AcDbText
 73
     2
  0
TEXT
  5
7756
100
AcDbEntity
  8
0
  6
BYBLOCK
 62
     0
100
AcDbText
 10
24.728448
 20
36.72215
 30
0.0
 40
0.3375
  1
  
  7
ROMANS
 72
     1
 11
25.065948
 21
36.8909
 31
0.0
100
AcDbText
 73
     2
  0
TEXT
  5
7757
100
AcDbEntity
  8
0
  6
BYBLOCK
 62
     0
100
AcDbText
 10
32.071253
 20
25.070596
 30
0.0
 40
0.3375
  1
   
  7
ROMANS
 72
     1
 11
32.577503
 21
25.239346
 31
0.0
100
AcDbText
 73
     2
  0
TEXT
  5
7758
100
AcDbEntity
  8
0
  6
BYBLOCK
 62
     0
100
AcDbText
 10
13.280184
 20
22.52497
 30
0.0
 40
0.28125
  1
  
  7
ROMANS
 72
     1
 11
13.561434
 21
22.665595
 31
0.0
100
AcDbText
 73
     2
  0
TEXT
  5
7759
100
AcDbEntity
  8
0
  6
BYBLOCK
 62
     0
100
AcDbText
 10
20.921238
 20
27.865666
 30
0.0
 40
0.28125
  1
  
  7
ROMANS
 72
     1
 11
21.202488
 21
28.006291
 31
0.0
100
AcDbText
 73
     2
  0
TEXT
  5
775A
100
AcDbEntity
  8
0
  6
BYBLOCK
 62
     0
100
AcDbText
 10
20.924732
 20
29.553166
 30
0.0
 40
0.28125
  1
  
  7
ROMANS
 72
     1
 11
21.205982
 21
29.693791
 31
0.0
100
AcDbText
 73
     2
  0
TEXT
  5
775B
100
AcDbEntity
  8
0
  6
BYBLOCK
 62
     0
100
AcDbText
 10
27.043736
 20
19.843537
 30
0.0
 40
0.28125
  1
   
  7
ROMANS
 72
     1
 11
27.465611
 21
19.984162
 31
0.0
100
AcDbText
 73
     2
  0
TEXT
  5
775C
100
AcDbEntity
  8
0
  6
BYBLOCK
 62
     0
100
AcDbText
 10
11.460164
 20
22.59714
 30
0.0
 40
0.28125
  1
  
  7
ROMANS
 72
     1
 11
11.741414
 21
22.737765
 31
0.0
100
AcDbText
 73
     2
  0
TEXT
  5
775D
100
AcDbEntity
  8
0
  6
BYBLOCK
 62
     0
100
AcDbText
 10
19.101218
 20
27.937835
 30
0.0
 40
0.28125
  1
  
  7
ROMANS
 72
     1
 11
19.382468
 21
28.07846
 31
0.0
100
AcDbText
 73
     2
  0
TEXT
  5
775E
100
AcDbEntity
  8
0
  6
BYBLOCK
 62
     0
100
AcDbText
 10
19.104712
 20
29.625335
 30
0.0
 40
0.28125
  1
  
  7
ROMANS
 72
     1
 11
19.385962
 21
29.76596
 31
0.0
100
AcDbText
 73
     2
  0
TEXT
  5
775F
100
AcDbEntity
  8
0
  6
BYBLOCK
 62
     0
100
AcDbText
 10
25.223716
 20
19.915706
 30
0.0
 40
0.28125
  1
   
  7
ROMANS
 72
     1
 11
25.645591
 21
20.056331
 31
0.0
100
AcDbText
 73
     2
  0
TEXT
  5
7760
100
AcDbEntity
  8
0
  6
BYBLOCK
 62
     0
100
AcDbText
 10
11.475908
 20
22.651916
 30
0.0
 40
0.28125
  1
  
  7
ROMANS
 72
     1
 11
11.757158
 21
22.792541
 31
0.0
100
AcDbText
 73
     2
  0
TEXT
  5
7761
100
AcDbEntity
  8
0
  6
BYBLOCK
 62
     0
100
AcDbText
 10
19.116962
 20
27.992611
 30
0.0
 40
0.28125
  1
  
  7
ROMANS
 72
     1
 11
19.398212
 21
28.133236
 31
0.0
100
AcDbText
 73
     2
  0
TEXT
  5
7762
100
AcDbEntity
  8
0
  6
BYBLOCK
 62
     0
100
AcDbText
 10
19.120457
 20
29.680111
 30
0.0
 40
0.28125
  1
  
  7
ROMANS
 72
     1
 11
19.401707
 21
29.820736
 31
0.0
100
AcDbText
 73
     2
  0
TEXT
  5
7763
100
AcDbEntity
  8
0
  6
BYBLOCK
 62
     0
100
AcDbText
 10
25.239461
 20
19.970482
 30
0.0
 40
0.28125
  1
   
  7
ROMANS
 72
     1
 11
25.661336
 21
20.111107
 31
0.0
100
AcDbText
 73
     2
  0
TEXT
  5
7764
100
AcDbEntity
  8
0
  6
BYBLOCK
 62
     0
100
AcDbText
 10
28.357394
 20
16.027326
 30
0.0
 40
0.253125
  1
  
  7
ROMANS
 72
     1
 11
28.610519
 21
16.153888
 31
0.0
100
AcDbText
 73
     2
  0
TEXT
  5
7765
100
AcDbEntity
  8
0
  6
BYBLOCK
 62
     0
100
AcDbText
 10
35.234342
 20
20.833952
 30
0.0
 40
0.253125
  1
  
  7
ROMANS
 72
     1
 11
35.487467
 21
20.960514
 31
0.0
100
AcDbText
 73
     2
  0
TEXT
  5
7766
100
AcDbEntity
  8
0
  6
BYBLOCK
 62
     0
100
AcDbText
 10
35.237487
 20
22.352702
 30
0.0
 40
0.253125
  1
  
  7
ROMANS
 72
     1
 11
35.490612
 21
22.479264
 31
0.0
100
AcDbText
 73
     2
  0
TEXT
  5
7767
100
AcDbEntity
  8
0
  6
BYBLOCK
 62
     0
100
AcDbText
 10
40.744591
 20
13.614036
 30
0.0
 40
0.253125
  1
   
  7
ROMANS
 72
     1
 11
41.124278
 21
13.740598
 31
0.0
100
AcDbText
 73
     2
  0
TEXT
  5
7768
100
AcDbEntity
  8
BORDER
 62
     7
100
AcDbText
 10
-1.868345
 20
-22.191084
 30
0.0
 40
0.206513
  1

  7
ROMANC
100
AcDbText
  0
TEXT
  5
7769
100
AcDbEntity
  8
0
  6
BYBLOCK
 62
     0
100
AcDbText
 10
111.816933
 20
281.291318
 30
0.0
 40
2.882712
  1
  
  7
ROMANS
 72
     1
 11
114.699645
 21
282.732674
 31
0.0
100
AcDbText
 73
     2
  0
TEXT
  5
776A
100
AcDbEntity
  8
0
  6
BYBLOCK
 62
     0
100
AcDbText
 10
190.135006
 20
336.031537
 30
0.0
 40
2.882712
  1
  
  7
ROMANS
 72
     1
 11
193.017718
 21
337.472893
 31
0.0
100
AcDbText
 73
     2
  0
TEXT
  5
776B
100
AcDbEntity
  8
0
  6
BYBLOCK
 62
     0
100
AcDbText
 10
190.170821
 20
353.327809
 30
0.0
 40
2.882712
  1
  
  7
ROMANS
 72
     1
 11
193.053533
 21
354.769166
 31
0.0
100
AcDbText
 73
     2
  0
TEXT
  5
776C
100
AcDbEntity
  8
0
  6
BYBLOCK
 62
     0
100
AcDbText
 10
252.888427
 20
253.807581
 30
0.0
 40
2.882712
  1
   
  7
ROMANS
 72
     1
 11
257.212495
 21
255.248937
 31
0.0
100
AcDbText
 73
     2
  0
TEXT
  5
785F
100
AcDbEntity
  8
0
  6
BYBLOCK
 62
     0
100
AcDbText
 10
176.003674
 20
-183.717861
 30
0.0
 40
1.8
  1
   
 50
270.0
  7
ROMANS
 72
     1
 11
176.903674
 21
-186.417861
 31
0.0
100
AcDbText
 73
     2
  0
TEXT
  5
7860
100
AcDbEntity
  8
0
  6
BYBLOCK
 62
     0
100
AcDbText
 10
238.145299
 20
-144.556236
 30
0.0
 40
1.8
  1
  
 50
270.0
  7
ROMANS
 72
     1
 11
239.045299
 21
-146.356236
 31
0.0
100
AcDbText
 73
     2
  0
TEXT
  5
7861
100
AcDbEntity
  8
0
  6
BYBLOCK
 62
     0
100
AcDbText
 10
227.345299
 20
-144.533872
 30
0.0
 40
1.8
  1
  
 50
270.0
  7
ROMANS
 72
     1
 11
228.245299
 21
-146.333872
 31
0.0
100
AcDbText
 73
     2
  0
TEXT
  5
7862
100
AcDbEntity
  8
0
  6
BYBLOCK
 62
     0
100
AcDbText
 10
193.16485
 20
-95.631128
 30
0.0
 40
1.8
  1
  
 50
270.0
  7
ROMANS
 72
     1
 11
194.06485
 21
-97.431128
 31
0.0
100
AcDbText
 73
     2
  0
TEXT
  5
7863
100
AcDbEntity
  8
0
  6
BYBLOCK
 62
     0
100
AcDbText
 10
94.62828
 20
262.020033
 30
0.0
 40
2.8125
  1
  
  7
ROMANS
 72
     1
 11
97.44078
 21
263.426283
 31
0.0
100
AcDbText
 73
     2
  0
TEXT
  5
7864
100
AcDbEntity
  8
0
  6
BYBLOCK
 62
     0
100
AcDbText
 10
171.038818
 20
315.426985
 30
0.0
 40
2.8125
  1
  
  7
ROMANS
 72
     1
 11
173.851318
 21
316.833235
 31
0.0
100
AcDbText
 73
     2
  0
TEXT
  5
7865
100
AcDbEntity
  8
0
  6
BYBLOCK
 62
     0
100
AcDbText
 10
171.073761
 20
332.301985
 30
0.0
 40
2.8125
  1
  
  7
ROMANS
 72
     1
 11
173.886261
 21
333.708235
 31
0.0
100
AcDbText
 73
     2
  0
TEXT
  5
7866
100
AcDbEntity
  8
0
  6
BYBLOCK
 62
     0
100
AcDbText
 10
232.263801
 20
235.205696
 30
0.0
 40
2.8125
  1
   
  7
ROMANS
 72
     1
 11
236.482551
 21
236.611946
 31
0.0
100
AcDbText
 73
     2
  0
TEXT
  5
7867
100
AcDbEntity
  8
0
  6
BYBLOCK
 62
     0
100
AcDbText
 10
-0.074579
 20
9.032209
 30
0.0
 40
0.28125
  1
  
  7
ROMANS
 72
     1
 11
0.206671
 21
9.172834
 31
0.0
100
AcDbText
 73
     2
  0
TEXT
  5
7868
100
AcDbEntity
  8
0
  6
BYBLOCK
 62
     0
100
AcDbText
 10
7.566474
 20
14.372905
 30
0.0
 40
0.28125
  1
  
  7
ROMANS
 72
     1
 11
7.847724
 21
14.51353
 31
0.0
100
AcDbText
 73
     2
  0
TEXT
  5
7869
100
AcDbEntity
  8
0
  6
BYBLOCK
 62
     0
100
AcDbText
 10
7.569969
 20
16.060405
 30
0.0
 40
0.28125
  1
  
  7
ROMANS
 72
     1
 11
7.851219
 21
16.20103
 31
0.0
100
AcDbText
 73
     2
  0
TEXT
  5
786A
100
AcDbEntity
  8
0
  6
BYBLOCK
 62
     0
100
AcDbText
 10
13.688973
 20
6.350776
 30
0.0
 40
0.28125
  1
   
  7
ROMANS
 72
     1
 11
14.110848
 21
6.491401
 31
0.0
100
AcDbText
 73
     2
  0
TEXT
  5
786B
100
AcDbEntity
  8
0
  6
BYBLOCK
 62
     0
100
AcDbText
 10
2.276284
 20
14.811447
 30
0.0
 40
0.3375
  1
  
  7
ROMANS
 72
     1
 11
2.613784
 21
14.980197
 31
0.0
100
AcDbText
 73
     2
  0
TEXT
  5
786C
100
AcDbEntity
  8
0
  6
BYBLOCK
 62
     0
100
AcDbText
 10
11.445548
 20
21.220281
 30
0.0
 40
0.3375
  1
  
  7
ROMANS
 72
     1
 11
11.783048
 21
21.389031
 31
0.0
100
AcDbText
 73
     2
  0
TEXT
  5
786D
100
AcDbEntity
  8
0
  6
BYBLOCK
 62
     0
100
AcDbText
 10
11.449741
 20
23.245281
 30
0.0
 40
0.3375
  1
  
  7
ROMANS
 72
     1
 11
11.787241
 21
23.414031
 31
0.0
100
AcDbText
 73
     2
  0
TEXT
  5
786E
100
AcDbEntity
  8
0
  6
BYBLOCK
 62
     0
100
AcDbText
 10
18.792546
 20
11.593727
 30
0.0
 40
0.3375
  1
   
  7
ROMANS
 72
     1
 11
19.298796
 21
11.762477
 31
0.0
100
AcDbText
 73
     2
  0
TEXT
  5
786F
100
AcDbEntity
  8
0
  6
BYBLOCK
 62
     0
100
AcDbText
 10
0.001477
 20
9.048101
 30
0.0
 40
0.28125
  1
  
  7
ROMANS
 72
     1
 11
0.282727
 21
9.188726
 31
0.0
100
AcDbText
 73
     2
  0
TEXT
  5
7870
100
AcDbEntity
  8
0
  6
BYBLOCK
 62
     0
100
AcDbText
 10
7.642531
 20
14.388797
 30
0.0
 40
0.28125
  1
  
  7
ROMANS
 72
     1
 11
7.923781
 21
14.529422
 31
0.0
100
AcDbText
 73
     2
  0
TEXT
  5
7871
100
AcDbEntity
  8
0
  6
BYBLOCK
 62
     0
100
AcDbText
 10
7.646025
 20
16.076297
 30
0.0
 40
0.28125
  1
  
  7
ROMANS
 72
     1
 11
7.927275
 21
16.216922
 31
0.0
100
AcDbText
 73
     2
  0
TEXT
  5
7872
100
AcDbEntity
  8
0
  6
BYBLOCK
 62
     0
100
AcDbText
 10
13.765029
 20
6.366668
 30
0.0
 40
0.28125
  1
   
  7
ROMANS
 72
     1
 11
14.186904
 21
6.507293
 31
0.0
100
AcDbText
 73
     2
  0
TEXT
  5
7873
100
AcDbEntity
  8
0
  6
BYBLOCK
 62
     0
100
AcDbText
 10
-1.818543
 20
9.120271
 30
0.0
 40
0.28125
  1
  
  7
ROMANS
 72
     1
 11
-1.537293
 21
9.260896
 31
0.0
100
AcDbText
 73
     2
  0
TEXT
  5
7874
100
AcDbEntity
  8
0
  6
BYBLOCK
 62
     0
100
AcDbText
 10
5.822511
 20
14.460966
 30
0.0
 40
0.28125
  1
  
  7
ROMANS
 72
     1
 11
6.103761
 21
14.601591
 31
0.0
100
AcDbText
 73
     2
  0
TEXT
  5
7875
100
AcDbEntity
  8
0
  6
BYBLOCK
 62
     0
100
AcDbText
 10
5.826005
 20
16.148466
 30
0.0
 40
0.28125
  1
  
  7
ROMANS
 72
     1
 11
6.107255
 21
16.289091
 31
0.0
100
AcDbText
 73
     2
  0
TEXT
  5
7876
100
AcDbEntity
  8
0
  6
BYBLOCK
 62
     0
100
AcDbText
 10
11.945009
 20
6.438838
 30
0.0
 40
0.28125
  1
   
  7
ROMANS
 72
     1
 11
12.366884
 21
6.579463
 31
0.0
100
AcDbText
 73
     2
  0
TEXT
  5
7877
100
AcDbEntity
  8
0
  6
BYBLOCK
 62
     0
100
AcDbText
 10
-1.802799
 20
9.175047
 30
0.0
 40
0.28125
  1
  
  7
ROMANS
 72
     1
 11
-1.521549
 21
9.315672
 31
0.0
100
AcDbText
 73
     2
  0
TEXT
  5
7878
100
AcDbEntity
  8
0
  6
BYBLOCK
 62
     0
100
AcDbText
 10
5.838255
 20
14.515742
 30
0.0
 40
0.28125
  1
  
  7
ROMANS
 72
     1
 11
6.119505
 21
14.656367
 31
0.0
100
AcDbText
 73
     2
  0
TEXT
  5
7879
100
AcDbEntity
  8
0
  6
BYBLOCK
 62
     0
100
AcDbText
 10
5.84175
 20
16.203242
 30
0.0
 40
0.28125
  1
  
  7
ROMANS
 72
     1
 11
6.123
 21
16.343867
 31
0.0
100
AcDbText
 73
     2
  0
TEXT
  5
787A
100
AcDbEntity
  8
0
  6
BYBLOCK
 62
     0
100
AcDbText
 10
11.960754
 20
6.493613
 30
0.0
 40
0.28125
  1
   
  7
ROMANS
 72
     1
 11
12.382629
 21
6.634238
 31
0.0
100
AcDbText
 73
     2
  0
TEXT
  5
787B
100
AcDbEntity
  8
0
  6
BYBLOCK
 62
     0
100
AcDbText
 10
15.078687
 20
2.550457
 30
0.0
 40
0.253125
  1
  
  7
ROMANS
 72
     1
 11
15.331812
 21
2.67702
 31
0.0
100
AcDbText
 73
     2
  0
TEXT
  5
787C
100
AcDbEntity
  8
0
  6
BYBLOCK
 62
     0
100
AcDbText
 10
21.955635
 20
7.357083
 30
0.0
 40
0.253125
  1
  
  7
ROMANS
 72
     1
 11
22.20876
 21
7.483645
 31
0.0
100
AcDbText
 73
     2
  0
TEXT
  5
787D
100
AcDbEntity
  8
0
  6
BYBLOCK
 62
     0
100
AcDbText
 10
21.95878
 20
8.875833
 30
0.0
 40
0.253125
  1
  
  7
ROMANS
 72
     1
 11
22.211905
 21
9.002395
 31
0.0
100
AcDbText
 73
     2
  0
TEXT
  5
787E
100
AcDbEntity
  8
0
  6
BYBLOCK
 62
     0
100
AcDbText
 10
27.465884
 20
0.137167
 30
0.0
 40
0.253125
  1
   
  7
ROMANS
 72
     1
 11
27.845571
 21
0.263729
 31
0.0
100
AcDbText
 73
     2
  0
TEXT
  5
787F
100
AcDbEntity
  8
BORDER
 62
     7
100
AcDbText
 10
-15.147052
 20
-35.667953
 30
0.0
 40
0.206513
  1

  7
ROMANC
100
AcDbText
  0
TEXT
  5
7880
100
AcDbEntity
  8
0
  6
BYBLOCK
 62
     0
100
AcDbText
 10
98.538226
 20
267.814449
 30
0.0
 40
2.882712
  1
  
  7
ROMANS
 72
     1
 11
101.420938
 21
269.255805
 31
0.0
100
AcDbText
 73
     2
  0
TEXT
  5
7881
100
AcDbEntity
  8
0
  6
BYBLOCK
 62
     0
100
AcDbText
 10
176.856299
 20
322.554668
 30
0.0
 40
2.882712
  1
  
  7
ROMANS
 72
     1
 11
179.739011
 21
323.996024
 31
0.0
100
AcDbText
 73
     2
  0
TEXT
  5
7882
100
AcDbEntity
  8
0
  6
BYBLOCK
 62
     0
100
AcDbText
 10
176.892114
 20
339.850941
 30
0.0
 40
2.882712
  1
  
  7
ROMANS
 72
     1
 11
179.774826
 21
341.292297
 31
0.0
100
AcDbText
 73
     2
  0
TEXT
  5
7883
100
AcDbEntity
  8
0
  6
BYBLOCK
 62
     0
100
AcDbText
 10
239.60972
 20
240.330712
 30
0.0
 40
2.882712
  1
   
  7
ROMANS
 72
     1
 11
243.933788
 21
241.772068
 31
0.0
100
AcDbText
 73
     2
  0
TEXT
  5
7884
100
AcDbEntity
  8
0
  6
BYBLOCK
 62
     0
100
AcDbText
 10
106.208074
 20
-10.299238
 30
0.0
 40
1.8
  1
   
 50
270.0
  7
ROMANS
 72
     1
 11
107.108074
 21
-12.999238
 31
0.0
100
AcDbText
 73
     2
  0
TEXT
  5
7885
100
AcDbEntity
  8
0
  6
BYBLOCK
 62
     0
100
AcDbText
 10
168.349699
 20
28.862388
 30
0.0
 40
1.8
  1
  
 50
270.0
  7
ROMANS
 72
     1
 11
169.249699
 21
27.062388
 31
0.0
100
AcDbText
 73
     2
  0
TEXT
  5
7886
100
AcDbEntity
  8
0
  6
BYBLOCK
 62
     0
100
AcDbText
 10
157.549699
 20
28.884751
 30
0.0
 40
1.8
  1
  
 50
270.0
  7
ROMANS
 72
     1
 11
158.449699
 21
27.084751
 31
0.0
100
AcDbText
 73
     2
  0
TEXT
  5
7887
100
AcDbEntity
  8
0
  6
BYBLOCK
 62
     0
100
AcDbText
 10
123.369249
 20
77.787496
 30
0.0
 40
1.8
  1
  
 50
270.0
  7
ROMANS
 72
     1
 11
124.269249
 21
75.987496
 31
0.0
100
AcDbText
 73
     2
  0
TEXT
  5
7888
100
AcDbEntity
  8
0
  6
BYBLOCK
 62
     0
100
AcDbText
 10
24.83268
 20
435.438656
 30
0.0
 40
2.8125
  1
  
  7
ROMANS
 72
     1
 11
27.64518
 21
436.844906
 31
0.0
100
AcDbText
 73
     2
  0
TEXT
  5
7889
100
AcDbEntity
  8
0
  6
BYBLOCK
 62
     0
100
AcDbText
 10
101.243218
 20
488.845609
 30
0.0
 40
2.8125
  1
  
  7
ROMANS
 72
     1
 11
104.055718
 21
490.251859
 31
0.0
100
AcDbText
 73
     2
  0
TEXT
  5
788A
100
AcDbEntity
  8
0
  6
BYBLOCK
 62
     0
100
AcDbText
 10
101.27816
 20
505.720609
 30
0.0
 40
2.8125
  1
  
  7
ROMANS
 72
     1
 11
104.09066
 21
507.126859
 31
0.0
100
AcDbText
 73
     2
  0
TEXT
  5
788B
100
AcDbEntity
  8
0
  6
BYBLOCK
 62
     0
100
AcDbText
 10
162.468201
 20
408.62432
 30
0.0
 40
2.8125
  1
   
  7
ROMANS
 72
     1
 11
166.686951
 21
410.03057
 31
0.0
100
AcDbText
 73
     2
  0
TEXT
  5
788C
100
AcDbEntity
  8
0
  6
BYBLOCK
 62
     0
100
AcDbText
 10
-69.87018
 20
182.450833
 30
0.0
 40
0.28125
  1
  
  7
ROMANS
 72
     1
 11
-69.58893
 21
182.591458
 31
0.0
100
AcDbText
 73
     2
  0
TEXT
  5
788D
100
AcDbEntity
  8
0
  6
BYBLOCK
 62
     0
100
AcDbText
 10
-62.229126
 20
187.791528
 30
0.0
 40
0.28125
  1
  
  7
ROMANS
 72
     1
 11
-61.947876
 21
187.932153
 31
0.0
100
AcDbText
 73
     2
  0
TEXT
  5
788E
100
AcDbEntity
  8
0
  6
BYBLOCK
 62
     0
100
AcDbText
 10
-62.225632
 20
189.479028
 30
0.0
 40
0.28125
  1
  
  7
ROMANS
 72
     1
 11
-61.944382
 21
189.619653
 31
0.0
100
AcDbText
 73
     2
  0
TEXT
  5
788F
100
AcDbEntity
  8
0
  6
BYBLOCK
 62
     0
100
AcDbText
 10
-56.106628
 20
179.769399
 30
0.0
 40
0.28125
  1
   
  7
ROMANS
 72
     1
 11
-55.684753
 21
179.910024
 31
0.0
100
AcDbText
 73
     2
  0
TEXT
  5
7890
100
AcDbEntity
  8
0
  6
BYBLOCK
 62
     0
100
AcDbText
 10
-67.519317
 20
188.230071
 30
0.0
 40
0.3375
  1
  
  7
ROMANS
 72
     1
 11
-67.181817
 21
188.398821
 31
0.0
100
AcDbText
 73
     2
  0
TEXT
  5
7891
100
AcDbEntity
  8
0
  6
BYBLOCK
 62
     0
100
AcDbText
 10
-58.350052
 20
194.638905
 30
0.0
 40
0.3375
  1
  
  7
ROMANS
 72
     1
 11
-58.012552
 21
194.807655
 31
0.0
100
AcDbText
 73
     2
  0
TEXT
  5
7892
100
AcDbEntity
  8
0
  6
BYBLOCK
 62
     0
100
AcDbText
 10
-58.345859
 20
196.663905
 30
0.0
 40
0.3375
  1
  
  7
ROMANS
 72
     1
 11
-58.008359
 21
196.832655
 31
0.0
100
AcDbText
 73
     2
  0
TEXT
  5
7893
100
AcDbEntity
  8
0
  6
BYBLOCK
 62
     0
100
AcDbText
 10
-51.003054
 20
185.01235
 30
0.0
 40
0.3375
  1
   
  7
ROMANS
 72
     1
 11
-50.496804
 21
185.1811
 31
0.0
100
AcDbText
 73
     2
  0
TEXT
  5
7894
100
AcDbEntity
  8
0
  6
BYBLOCK
 62
     0
100
AcDbText
 10
-69.794123
 20
182.466725
 30
0.0
 40
0.28125
  1
  
  7
ROMANS
 72
     1
 11
-69.512873
 21
182.60735
 31
0.0
100
AcDbText
 73
     2
  0
TEXT
  5
7895
100
AcDbEntity
  8
0
  6
BYBLOCK
 62
     0
100
AcDbText
 10
-62.153069
 20
187.80742
 30
0.0
 40
0.28125
  1
  
  7
ROMANS
 72
     1
 11
-61.871819
 21
187.948045
 31
0.0
100
AcDbText
 73
     2
  0
TEXT
  5
7896
100
AcDbEntity
  8
0
  6
BYBLOCK
 62
     0
100
AcDbText
 10
-62.149575
 20
189.49492
 30
0.0
 40
0.28125
  1
  
  7
ROMANS
 72
     1
 11
-61.868325
 21
189.635545
 31
0.0
100
AcDbText
 73
     2
  0
TEXT
  5
7897
100
AcDbEntity
  8
0
  6
BYBLOCK
 62
     0
100
AcDbText
 10
-56.030571
 20
179.785291
 30
0.0
 40
0.28125
  1
   
  7
ROMANS
 72
     1
 11
-55.608696
 21
179.925916
 31
0.0
100
AcDbText
 73
     2
  0
TEXT
  5
7898
100
AcDbEntity
  8
0
  6
BYBLOCK
 62
     0
100
AcDbText
 10
-71.614143
 20
182.538895
 30
0.0
 40
0.28125
  1
  
  7
ROMANS
 72
     1
 11
-71.332893
 21
182.67952
 31
0.0
100
AcDbText
 73
     2
  0
TEXT
  5
7899
100
AcDbEntity
  8
0
  6
BYBLOCK
 62
     0
100
AcDbText
 10
-63.97309
 20
187.87959
 30
0.0
 40
0.28125
  1
  
  7
ROMANS
 72
     1
 11
-63.69184
 21
188.020215
 31
0.0
100
AcDbText
 73
     2
  0
TEXT
  5
789A
100
AcDbEntity
  8
0
  6
BYBLOCK
 62
     0
100
AcDbText
 10
-63.969595
 20
189.56709
 30
0.0
 40
0.28125
  1
  
  7
ROMANS
 72
     1
 11
-63.688345
 21
189.707715
 31
0.0
100
AcDbText
 73
     2
  0
TEXT
  5
789B
100
AcDbEntity
  8
0
  6
BYBLOCK
 62
     0
100
AcDbText
 10
-57.850591
 20
179.857461
 30
0.0
 40
0.28125
  1
   
  7
ROMANS
 72
     1
 11
-57.428716
 21
179.998086
 31
0.0
100
AcDbText
 73
     2
  0
TEXT
  5
789C
100
AcDbEntity
  8
0
  6
BYBLOCK
 62
     0
100
AcDbText
 10
-71.598399
 20
182.59367
 30
0.0
 40
0.28125
  1
  
  7
ROMANS
 72
     1
 11
-71.317149
 21
182.734295
 31
0.0
100
AcDbText
 73
     2
  0
TEXT
  5
789D
100
AcDbEntity
  8
0
  6
BYBLOCK
 62
     0
100
AcDbText
 10
-63.957345
 20
187.934365
 30
0.0
 40
0.28125
  1
  
  7
ROMANS
 72
     1
 11
-63.676095
 21
188.07499
 31
0.0
100
AcDbText
 73
     2
  0
TEXT
  5
789E
100
AcDbEntity
  8
0
  6
BYBLOCK
 62
     0
100
AcDbText
 10
-63.953851
 20
189.621865
 30
0.0
 40
0.28125
  1
  
  7
ROMANS
 72
     1
 11
-63.672601
 21
189.76249
 31
0.0
100
AcDbText
 73
     2
  0
TEXT
  5
789F
100
AcDbEntity
  8
0
  6
BYBLOCK
 62
     0
100
AcDbText
 10
-57.834847
 20
179.912236
 30
0.0
 40
0.28125
  1
   
  7
ROMANS
 72
     1
 11
-57.412972
 21
180.052861
 31
0.0
100
AcDbText
 73
     2
  0
TEXT
  5
78A0
100
AcDbEntity
  8
0
  6
BYBLOCK
 62
     0
100
AcDbText
 10
-54.716913
 20
175.96908
 30
0.0
 40
0.253125
  1
  
  7
ROMANS
 72
     1
 11
-54.463788
 21
176.095643
 31
0.0
100
AcDbText
 73
     2
  0
TEXT
  5
78A1
100
AcDbEntity
  8
0
  6
BYBLOCK
 62
     0
100
AcDbText
 10
-47.839965
 20
180.775706
 30
0.0
 40
0.253125
  1
  
  7
ROMANS
 72
     1
 11
-47.58684
 21
180.902269
 31
0.0
100
AcDbText
 73
     2
  0
TEXT
  5
78A2
100
AcDbEntity
  8
0
  6
BYBLOCK
 62
     0
100
AcDbText
 10
-47.83682
 20
182.294456
 30
0.0
 40
0.253125
  1
  
  7
ROMANS
 72
     1
 11
-47.583695
 21
182.421019
 31
0.0
100
AcDbText
 73
     2
  0
TEXT
  5
78A3
100
AcDbEntity
  8
0
  6
BYBLOCK
 62
     0
100
AcDbText
 10
-42.329716
 20
173.55579
 30
0.0
 40
0.253125
  1
   
  7
ROMANS
 72
     1
 11
-41.950029
 21
173.682353
 31
0.0
100
AcDbText
 73
     2
  0
TEXT
  5
78A4
100
AcDbEntity
  8
BORDER
 62
     7
100
AcDbText
 10
-84.942652
 20
137.750671
 30
0.0
 40
0.206513
  1

  7
ROMANC
100
AcDbText
  0
TEXT
  5
78A5
100
AcDbEntity
  8
0
  6
BYBLOCK
 62
     0
100
AcDbText
 10
28.742626
 20
441.233072
 30
0.0
 40
2.882712
  1
  
  7
ROMANS
 72
     1
 11
31.625338
 21
442.674429
 31
0.0
100
AcDbText
 73
     2
  0
TEXT
  5
78A6
100
AcDbEntity
  8
0
  6
BYBLOCK
 62
     0
100
AcDbText
 10
107.060699
 20
495.973292
 30
0.0
 40
2.882712
  1
  
  7
ROMANS
 72
     1
 11
109.943411
 21
497.414648
 31
0.0
100
AcDbText
 73
     2
  0
TEXT
  5
78A7
100
AcDbEntity
  8
0
  6
BYBLOCK
 62
     0
100
AcDbText
 10
107.096514
 20
513.269564
 30
0.0
 40
2.882712
  1
  
  7
ROMANS
 72
     1
 11
109.979226
 21
514.71092
 31
0.0
100
AcDbText
 73
     2
  0
TEXT
  5
78A8
100
AcDbEntity
  8
0
  6
BYBLOCK
 62
     0
100
AcDbText
 10
169.81412
 20
413.749335
 30
0.0
 40
2.882712
  1
   
  7
ROMANS
 72
     1
 11
174.138188
 21
415.190691
 31
0.0
100
AcDbText
 73
     2
  0
TEXT
  5
7908
100
AcDbEntity
  8
0
  6
BYBLOCK
 62
     0
100
AcDbText
 10
1495.304743
 20
4394.607348
 30
0.0
 40
40.5
  1
  
  7
ROMANS
 72
     1
 11
1535.804743
 21
4414.857348
 31
0.0
100
AcDbText
 73
     2
  0
TEXT
  5
7909
100
AcDbEntity
  8
0
  6
BYBLOCK
 62
     0
100
AcDbText
 10
2595.616496
 20
5163.667464
 30
0.0
 40
40.5
  1
  
  7
ROMANS
 72
     1
 11
2636.116496
 21
5183.917464
 31
0.0
100
AcDbText
 73
     2
  0
TEXT
  5
790A
100
AcDbEntity
  8
0
  6
BYBLOCK
 62
     0
100
AcDbText
 10
2596.119668
 20
5406.667464
 30
0.0
 40
40.5
  1
  
  7
ROMANS
 72
     1
 11
2636.619668
 21
5426.917464
 31
0.0
100
AcDbText
 73
     2
  0
TEXT
  5
790B
100
AcDbEntity
  8
0
  6
BYBLOCK
 62
     0
100
AcDbText
 10
3477.256245
 20
4008.480902
 30
0.0
 40
40.5
  1
   
  7
ROMANS
 72
     1
 11
3538.006245
 21
4028.730902
 31
0.0
100
AcDbText
 73
     2
  0
TEXT
  5
791D
100
AcDbEntity
  8
0
  6
BYBLOCK
 62
     0
100
AcDbText
 10
2679.380384
 20
2775.71328
 30
0.0
 40
30.0
  1
   
  7
ROMANS
 72
     1
 11
2724.380384
 21
2790.71328
 31
0.0
100
AcDbText
 73
     2
  0
TEXT
  5
791E
100
AcDbEntity
  8
0
  6
BYBLOCK
 62
     0
100
AcDbText
 10
2026.686623
 20
3811.40703
 30
0.0
 40
30.0
  1
  
  7
ROMANS
 72
     1
 11
2056.686623
 21
3826.40703
 31
0.0
100
AcDbText
 73
     2
  0
TEXT
  5
791F
100
AcDbEntity
  8
0
  6
BYBLOCK
 62
     0
100
AcDbText
 10
2026.313903
 20
3631.40703
 30
0.0
 40
30.0
  1
  
  7
ROMANS
 72
     1
 11
2056.313903
 21
3646.40703
 31
0.0
100
AcDbText
 73
     2
  0
TEXT
  5
7920
100
AcDbEntity
  8
0
  6
BYBLOCK
 62
     0
100
AcDbText
 10
1211.26816
 20
3061.73287
 30
0.0
 40
30.0
  1
  
  7
ROMANS
 72
     1
 11
1241.26816
 21
3076.73287
 31
0.0
100
AcDbText
 73
     2
  0
TEXT
  5
7C38
100
AcDbEntity
  8
0
  6
BYBLOCK
 62
     0
100
AcDbText
 10
-35.469168
 20
264.33213
 30
0.0
 40
2.799994
  1
  
  7
ROMANS
 72
     1
 11
-32.669174
 21
265.732127
 31
0.0
100
AcDbText
 73
     2
  0
TEXT
  5
7C39
100
AcDbEntity
  8
0
  6
BYBLOCK
 62
     0
100
AcDbText
 10
40.601598
 20
317.501599
 30
0.0
 40
2.799994
  1
  
  7
ROMANS
 72
     1
 11
43.401591
 21
318.901596
 31
0.0
100
AcDbText
 73
     2
  0
TEXT
  5
7C3A
100
AcDbEntity
  8
0
  6
BYBLOCK
 62
     0
100
AcDbText
 10
40.636385
 20
334.301562
 30
0.0
 40
2.799994
  1
  
  7
ROMANS
 72
     1
 11
43.436379
 21
335.701559
 31
0.0
100
AcDbText
 73
     2
  0
TEXT
  5
7C3B
100
AcDbEntity
  8
0
  6
BYBLOCK
 62
     0
100
AcDbText
 10
101.554333
 20
237.637028
 30
0.0
 40
2.799994
  1
   
  7
ROMANS
 72
     1
 11
105.754324
 21
239.037025
 31
0.0
100
AcDbText
 73
     2
  0
DIMENSION
  5
95F4
100
AcDbEntity
  8
0
100
AcDbDimension
  2
*D4
 10
-357.449403
 20
476.548369
 30
0.0
 11
-353.899403
 21
479.148369
 31
0.0
 12
-255.478215
 22
292.985688
 32
0.0
 70
    32
  1
<>"
  3
STANDARD
100
AcDbAlignedDimension
 13
-366.320956
 23
475.548369
 33
0.0
 14
-367.695956
 24
476.548369
 34
0.0
 50
90.0
100
AcDbRotatedDimension
1001
ACAD
1000
DSTYLE
1002
{
1070
    40
1040
1.0
1002
}
  0
DIMENSION
  5
95F5
100
AcDbEntity
  8
0
100
AcDbDimension
  2
*D0
 10
-360.76012
 20
481.548369
 30
0.0
 11
-357.21012
 21
484.148369
 31
0.0
 12
-255.478215
 22
292.985688
 32
0.0
 70
    32
  1
<>"
  3
STANDARD
100
AcDbAlignedDimension
 13
-370.320956
 23
480.548369
 33
0.0
 14
-370.320956
 24
481.548369
 34
0.0
 50
90.0
100
AcDbRotatedDimension
1001
ACAD
1000
DSTYLE
1002
{
1070
    40
1040
1.0
1002
}
  0
LINE
  5
9601
100
AcDbEntity
  8
OBJECT
100
AcDbLine
 10
-367.695956
 20
475.548369
 30
0.0
 11
-367.695956
 21
476.548369
 31
0.0
  0
SOLID
  5
9602
100
AcDbEntity
  8
0
  6
BYBLOCK
 62
     0
100
AcDbTrace
 10
-363.364529
 20
476.848369
 30
0.0
 11
-362.931196
 21
476.848369
 31
0.0
 12
-363.147863
 22
475.548369
 32
0.0
 13
-363.147863
 23
475.548369
 33
0.0
  0
LINE
  5
9603
100
AcDbEntity
  8
OBJECT
100
AcDbLine
 10
-395.945956
 20
475.548369
 30
0.0
 11
-395.945956
 21
476.548369
 31
0.0
  0
DIMENSION
  5
9604
100
AcDbEntity
  8
0
100
AcDbDimension
  2
*D1
 10
-400.472774
 20
481.548369
 30
0.0
 11
-400.472774
 21
479.048369
 31
0.0
 12
-255.478215
 22
292.985688
 32
0.0
 70
    32
  1
<>"
  3
STANDARD
100
AcDbAlignedDimension
 13
-394.695956
 23
476.548369
 33
0.0
 14
-394.695956
 24
481.548369
 34
0.0
 50
90.0
100
AcDbRotatedDimension
1001
ACAD
1000
DSTYLE
1002
{
1070
    40
1040
1.0
1002
}
  0
LINE
  5
960C
100
AcDbEntity
  8
OBJECT
100
AcDbLine
 10
-397.320956
 20
475.548369
 30
0.0
 11
-366.320956
 21
475.548369
 31
0.0
  0
LINE
  5
960D
100
AcDbEntity
  8
OBJECT
100
AcDbLine
 10
-397.320956
 20
474.548369
 30
0.0
 11
-366.320956
 21
474.548369
 31
0.0
  0
DIMENSION
  5
960E
100
AcDbEntity
  8
0
100
AcDbDimension
  2
*D3
 10
-366.320956
 20
460.539719
 30
0.0
 11
-381.820956
 21
460.539719
 31
0.0
 70
   160
  1
%%c<>
  3
STANDARD
100
AcDbAlignedDimension
 13
-397.320956
 23
474.548369
 33
0.0
 14
-366.320956
 24
474.548369
 34
0.0
100
AcDbRotatedDimension
1001
ACAD
1000
DSTYLE
1002
{
1070
    40
1040
1.0
1002
}
  0
LINE
  5
960F
100
AcDbEntity
  8
OBJECT
100
AcDbLine
 10
-397.320956
 20
474.548369
 30
0.0
 11
-397.320956
 21
475.548369
 31
0.0
  0
LINE
  5
9610
100
AcDbEntity
  8
OBJECT
100
AcDbLine
 10
-366.320956
 20
474.548369
 30
0.0
 11
-366.320956
 21
475.548369
 31
0.0
  0
LINE
  5
9611
100
AcDbEntity
  8
0
  6
BYBLOCK
 62
     0
100
AcDbLine
 10
-365.320956
 20
474.548369
 30
0.0
 11
-362.947863
 21
474.548369
 31
0.0
  0
LINE
  5
9612
100
AcDbEntity
  8
0
  6
BYBLOCK
 62
     0
100
AcDbLine
 10
-365.320956
 20
475.548369
 30
0.0
 11
-362.947863
 21
475.548369
 31
0.0
  0
SOLID
  5
9613
100
AcDbEntity
  8
0
  6
BYBLOCK
 62
     0
100
AcDbTrace
 10
-363.364529
 20
473.248369
 30
0.0
 11
-362.931196
 21
473.248369
 31
0.0
 12
-363.147863
 22
474.548369
 32
0.0
 13
-363.147863
 23
474.548369
 33
0.0
  0
POINT
  5
9614
100
AcDbEntity
  8
DEFPOINTS
  6
BYBLOCK
 62
     0
100
AcDbPoint
 10
-366.320956
 20
474.548369
 30
0.0
  0
POINT
  5
9615
100
AcDbEntity
  8
DEFPOINTS
  6
BYBLOCK
 62
     0
100
AcDbPoint
 10
-366.320956
 20
475.548369
 30
0.0
  0
POINT
  5
9616
100
AcDbEntity
  8
DEFPOINTS
  6
BYBLOCK
 62
     0
100
AcDbPoint
 10
-363.147863
 20
475.548369
 30
0.0
  0
LINE
  5
9617
100
AcDbEntity
  8
0
  6
BYBLOCK
 62
     0
100
AcDbLine
 10
-363.147863
 20
471.948369
 30
0.0
 11
-361.847863
 21
471.948369
 31
0.0
  0
LINE
  5
9618
100
AcDbEntity
  8
0
  6
BYBLOCK
 62
     0
100
AcDbLine
 10
-363.147863
 20
473.248369
 30
0.0
 11
-363.147863
 21
471.948369
 31
0.0
  0
LINE
  5
9619
100
AcDbEntity
  8
0
  6
BYBLOCK
 62
     0
100
AcDbLine
 10
-363.147863
 20
473.248369
 30
0.0
 11
-363.147863
 21
471.948369
 31
0.0
  0
MTEXT
  5
961A
100
AcDbEntity
  8
0
  6
BYBLOCK
 62
     0
100
AcDbMText
 10
-359.597863
 20
471.948369
 30
0.0
 40
1.35
 41
0.0
 71
     5
 72
     1
  1
\A1;1"
  7
ROMAND
  0
ELLIPSE
  5
9643
100
AcDbEntity
  8
OBJECT
100
AcDbEllipse
 10
-379.674653
 20
392.200597
 30
0.0
 11
-15.7685902191667
 21
0.0
 31
0.0
210
0.0
220
0.0
230
1.0
 40
0.57735
 41
3.618096686078391
 42
5.806681274691078
  0
ELLIPSE
  5
9644
100
AcDbEntity
  8
OBJECT
100
AcDbEllipse
 10
-379.674653
 20
396.200597
 30
0.0
 11
-14.08456602100327
 21
0.0
 31
0.0
210
0.0
220
0.0
230
1.0
 40
0.57735
 41
3.203119010360629
 42
6.22165895040875
  0
ELLIPSE
  5
9645
100
AcDbEntity
  8
OBJECT
100
AcDbEllipse
 10
-379.674653
 20
397.200597
 30
0.0
 11
-14.08456602100327
 21
0.0
 31
0.0
210
0.0
220
0.0
230
1.0
 40
0.57735
 41
0.0
 42
6.283185307179586
  0
ELLIPSE
  5
9646
100
AcDbEntity
  8
OBJECT
100
AcDbEllipse
 10
-379.674653
 20
390.450597
 30
0.0
 11
-14.69693845669906
 21
0.0
 31
0.0
210
0.0
220
0.0
230
1.0
 40
0.57735
 41
3.607277280201484
 42
5.817500680567924
  0
ELLIPSE
  5
9647
100
AcDbEntity
  8
OBJECT
100
AcDbEllipse
 10
-379.674653
 20
390.200597
 30
0.0
 11
-14.69693845669906
 21
0.0
 31
0.0
210
0.0
220
0.0
230
1.0
 40
0.57735
 41
3.621767595077556
 42
5.803010365691823
  0
ELLIPSE
  5
9648
100
AcDbEntity
  8
OBJECT
100
AcDbEllipse
 10
-379.674653
 20
397.200597
 30
0.0
 11
-15.7685902191667
 21
0.0
 31
0.0
210
0.0
220
0.0
230
1.0
 40
0.57735
 41
0.0
 42
6.283185307179586
  0
ELLIPSE
  5
9649
100
AcDbEntity
  8
OBJECT
100
AcDbEllipse
 10
-379.674653
 20
390.200597
 30
0.0
 11
-18.98354550656963
 21
0.0
 31
0.0
210
0.0
220
0.0
230
1.0
 40
0.57735
 41
6.283185307179586
 42
9.424777960769379
  0
ELLIPSE
  5
964A
100
AcDbEntity
  8
OBJECT
100
AcDbEllipse
 10
-379.674653
 20
391.200597
 30
0.0
 11
-18.98354550656963
 21
0.0
 31
0.0
210
0.0
220
0.0
230
1.0
 40
0.57735
 41
5.692557925134357
 42
10.0154053428146
  0
ELLIPSE
  5
964B
100
AcDbEntity
  8
OBJECT
100
AcDbEllipse
 10
-379.674653
 20
391.200597
 30
0.0
 11
-17.29952130840619
 21
0.0
 31
0.0
210
0.0
220
0.0
230
1.0
 40
0.57735
 41
6.283185307179586
 42
9.424777960769379
  0
ELLIPSE
  5
964C
100
AcDbEntity
  8
OBJECT
100
AcDbEllipse
 10
-379.674653
 20
392.200597
 30
0.0
 11
-17.29952130840619
 21
0.0
 31
0.0
210
0.0
220
0.0
230
1.0
 40
0.57735
 41
5.850557438400592
 42
9.857405829548874
  0
ELLIPSE
  5
964D
100
AcDbEntity
  8
OBJECT
100
AcDbEllipse
 10
-379.674653
 20
392.200597
 30
0.0
 11
-15.7685902191667
 21
0.0
 31
0.0
210
0.0
220
0.0
230
1.0
 40
0.57735
 41
6.283185307179586
 42
9.424777960769379
  0
LINE
  5
964E
100
AcDbEntity
  8
OBJECT
100
AcDbLine
 10
-396.974174
 20
391.200597
 30
0.0
 11
-396.974174
 21
392.200597
 31
0.0
  0
LINE
  5
964F
100
AcDbEntity
  8
OBJECT
100
AcDbLine
 10
-398.658199
 20
391.200597
 30
0.0
 11
-398.658199
 21
390.200597
 31
0.0
  0
LINE
  5
9650
100
AcDbEntity
  8
OBJECT
100
AcDbLine
 10
-395.443243
 20
397.200597
 30
0.0
 11
-395.443243
 21
392.200597
 31
0.0
  0
LINE
  5
9652
100
AcDbEntity
  8
0
100
AcDbLine
 10
-390.066958
 20
396.450597
 30
0.0
 11
-390.066958
 21
396.200597
 31
0.0
  0
LINE
  5
9658
100
AcDbEntity
  8
OBJECT
100
AcDbLine
 10
-360.691108
 20
391.200597
 30
0.0
 11
-360.691108
 21
390.200597
 31
0.0
  0
LINE
  5
9659
100
AcDbEntity
  8
OBJECT
100
AcDbLine
 10
-362.375132
 20
391.200597
 30
0.0
 11
-362.375132
 21
392.200597
 31
0.0
  0
LINE
  5
965A
100
AcDbEntity
  8
OBJECT
100
AcDbLine
 10
-363.906063
 20
392.200597
 30
0.0
 11
-363.906063
 21
397.200597
 31
0.0
  0
CIRCLE
  5
9672
100
AcDbEntity
  8
CENTER
100
AcDbCircle
 10
-381.820956
 20
437.383069
 30
0.0
 40
12.25
  0
CIRCLE
  5
9673
100
AcDbEntity
  8
OBJECT
100
AcDbCircle
 10
-381.820956
 20
437.383069
 30
0.0
 40
12.875
  0
CIRCLE
  5
9674
100
AcDbEntity
  8
OBJECT
100
AcDbCircle
 10
-381.820956
 20
437.383069
 30
0.0
 40
11.5
  0
LINE
  5
9675
100
AcDbEntity
  8
CENTER
100
AcDbLine
 10
-381.820956
 20
418.247131
 30
0.0
 11
-381.820956
 21
456.519007
 31
0.0
  0
CIRCLE
  5
9676
100
AcDbEntity
  8
OBJECT
100
AcDbCircle
 10
-381.820956
 20
437.383069
 30
0.0
 40
14.125
  0
CIRCLE
  5
9677
100
AcDbEntity
  8
OBJECT
100
AcDbCircle
 10
-381.820956
 20
437.383069
 30
0.0
 40
15.5
  0
LINE
  5
9678
100
AcDbEntity
  8
OBJECT
100
AcDbLine
 10
-394.695956
 20
481.548369
 30
0.0
 11
-368.945956
 21
481.548369
 31
0.0
  0
LINE
  5
9679
100
AcDbEntity
  8
HIDDEN
100
AcDbLine
 10
-393.320956
 20
480.548369
 30
0.0
 11
-370.320956
 21
480.548369
 31
0.0
  0
DIMENSION
  5
967A
100
AcDbEntity
  8
0
100
AcDbDimension
  2
*D6
 10
-370.320956
 20
484.976835
 30
0.0
 11
-381.820956
 21
484.976835
 31
0.0
 12
-255.478215
 22
292.985688
 32
0.0
 70
    32
  1
<>"
  3
STANDARD
100
AcDbAlignedDimension
 13
-393.320956
 23
481.548369
 33
0.0
 14
-370.320956
 24
481.548369
 34
0.0
100
AcDbRotatedDimension
1001
ACAD
1000
DSTYLE
1002
{
1070
    40
1040
1.0
1002
}
  0
DIMENSION
  5
967B
100
AcDbEntity
  8
0
100
AcDbDimension
  2
*D5
 10
-368.945956
 20
488.297902
 30
0.0
 11
-381.820956
 21
488.297902
 31
0.0
 12
-255.478215
 22
292.985688
 32
0.0
 70
    32
  1
<>"
  3
STANDARD
100
AcDbAlignedDimension
 13
-394.695956
 23
481.548369
 33
0.0
 14
-368.945956
 24
481.548369
 34
0.0
100
AcDbRotatedDimension
1001
ACAD
1000
DSTYLE
1002
{
1070
    40
1040
1.0
1002
}
  0
LINE
  5
967C
100
AcDbEntity
  8
OBJECT
100
AcDbLine
 10
-395.945956
 20
476.548369
 30
0.0
 11
-367.695956
 21
476.548369
 31
0.0
  0
DIMENSION
  5
967D
100
AcDbEntity
  8
0
100
AcDbDimension
  2
*D2
 10
-367.695956
 20
492.188297
 30
0.0
 11
-381.820956
 21
492.188297
 31
0.0
 12
-255.478215
 22
292.985688
 32
0.0
 70
    32
  1
<>"
  3
STANDARD
100
AcDbAlignedDimension
 13
-395.945956
 23
476.548369
 33
0.0
 14
-367.695956
 24
476.548369
 34
0.0
100
AcDbRotatedDimension
1001
ACAD
1000
DSTYLE
1002
{
1070
    40
1040
1.0
1002
}
  0
LINE
  5
967E
100
AcDbEntity
  8
HIDDEN
100
AcDbLine
 10
-393.320956
 20
481.548369
 30
0.0
 11
-393.320956
 21
480.548369
 31
0.0
  0
LINE
  5
967F
100
AcDbEntity
  8
OBJECT
100
AcDbLine
 10
-394.695956
 20
476.548369
 30
0.0
 11
-394.695956
 21
481.548369
 31
0.0
  0
LINE
  5
9680
100
AcDbEntity
  8
HIDDEN
100
AcDbLine
 10
-370.320956
 20
481.548369
 30
0.0
 11
-370.320956
 21
480.548369
 31
0.0
  0
LINE
  5
9681
100
AcDbEntity
  8
OBJECT
100
AcDbLine
 10
-368.945956
 20
476.548369
 30
0.0
 11
-368.945956
 21
481.548369
 31
0.0
  0
LINE
  5
9682
100
AcDbEntity
  8
0
  6
BYBLOCK
 62
     0
100
AcDbLine
 10
-363.147863
 20
476.848369
 30
0.0
 11
-363.147863
 21
478.148369
 31
0.0
  0
LINE
  5
9684
100
AcDbEntity
  8
CENTER
100
AcDbLine
 10
-400.956894
 20
437.383069
 30
0.0
 11
-362.685018
 21
437.383069
 31
0.0
  0
LWPOLYLINE
  5
9A1A
100
AcDbEntity
  8
BORDER
 62
     5
100
AcDbPolyline
 90
        2
 70
     0
 43
0.289815
 10
-329.560598
 20
376.98348
 10
-329.560598
 20
499.01614
  0
LWPOLYLINE
  5
9A1B
100
AcDbEntity
  8
BORDER
 62
     5
100
AcDbPolyline
 90
        2
 70
     0
 43
0.289815
 10
-434.653253
 20
376.98348
 10
-434.653253
 20
499.01614
  0
LINE
  5
9A1C
100
AcDbEntity
  8
LIMITS
 62
     7
100
AcDbLine
 10
-436.971769
 20
502.493915
 30
0.0
 11
-436.971769
 21
360.49079
 31
0.0
  0
LINE
  5
9A1D
100
AcDbEntity
  8
LIMITS
100
AcDbLine
 10
-327.242081
 20
360.49079
 30
0.0
 11
-327.242081
 21
499.601773
 31
0.0
  0
LINE
  5
9A1E
100
AcDbEntity
  8
LIMITS
100
AcDbLine
 10
-327.242081
 20
499.601773
 30
0.0
 11
-327.242081
 21
360.49079
 31
0.0
  0
LINE
  5
9A1F
100
AcDbEntity
  8
LIMITS
 62
     7
100
AcDbLine
 10
-327.242081
 20
360.49079
 30
0.0
 11
-327.242081
 21
502.493915
 31
0.0
  0
LWPOLYLINE
  5
9A20
100
AcDbEntity
  8
BORDER
 62
     5
100
AcDbPolyline
 90
        6
 70
     0
 43
0.516375
 10
-434.653253
 20
376.98348
 10
-434.653253
 20
499.01614
 42
-0.414214
 10
-433.493994
 20
500.175398
 10
-330.719856
 20
500.175398
 42
-0.414214
 10
-329.560598
 20
499.01614
 10
-329.560598
 20
376.98348
  0
TEXT
  5
9A26
100
AcDbEntity
  8
BORDER
 62
     6
100
AcDbText
 10
-370.200594
 20
367.085009
 30
0.0
 40
0.650164
  1
Reference
  7
ROMANC
100
AcDbText
  0
LINE
  5
9A29
100
AcDbEntity
  8
BORDER
100
AcDbLine
 10
-370.542762
 20
364.838008
 30
0.0
 11
-354.194834
 21
364.838008
 31
0.0
  0
LINE
  5
9A2A
100
AcDbEntity
  8
BORDER
100
AcDbLine
 10
-370.542762
 20
368.144281
 30
0.0
 11
-354.194834
 21
368.144281
 31
0.0
  0
LINE
  5
9A33
100
AcDbEntity
  8
BORDER
100
AcDbLine
 10
-387.931635
 20
369.185226
 30
0.0
 11
-354.194834
 21
369.185226
 31
0.0
  0
LWPOLYLINE
  5
9A34
100
AcDbEntity
  8
BORDER
 62
     5
100
AcDbPolyline
 90
        2
 70
     0
 43
0.724536
 10
-408.569943
 20
376.43059
 10
-355.643907
 20
376.43059
  0
LINE
  5
9A35
100
AcDbEntity
  8
BORDER
100
AcDbLine
 10
-387.931635
 20
374.981517
 30
0.0
 11
-355.643907
 21
374.981517
 31
0.0
  0
TEXT
  5
9A36
100
AcDbEntity
  8
BORDER
 62
     6
100
AcDbText
 10
-376.996352
 20
373.985596
 30
0.0
 40
0.543882
  1
This print is and contains confidential proprietary information owned exclusively
 41
0.656934
  7
ROMANS
 72
     5
 11
-354.588887
 21
373.985596
 31
0.0
100
AcDbText
  0
TEXT
  5
9A37
100
AcDbEntity
  8
BORDER
 62
     6
100
AcDbText
 10
-376.996352
 20
373.105025
 30
0.0
 40
0.543882
  1
by TOPP INDUSTRIES, INC. It is furnished on a strictly confidential basis.  This
 41
0.659437
  7
ROMANS
 72
     5
 11
-354.588887
 21
373.105025
 31
0.0
100
AcDbText
  0
TEXT
  5
9A38
100
AcDbEntity
  8
BORDER
 62
     6
100
AcDbText
 10
-376.996352
 20
372.224455
 30
0.0
 40
0.543882
  1
restriction includes, but is not limited to the condition that this print will not only
 41
0.626489
  7
ROMANS
 72
     5
 11
-354.588887
 21
372.224455
 31
0.0
100
AcDbText
  0
TEXT
  5
9A39
100
AcDbEntity
  8
BORDER
 62
     6
100
AcDbText
 10
-376.996352
 20
371.343884
 30
0.0
 40
0.543882
  1
be used as a record or to identify or inspect parts or for other information purposes
 41
0.596266
  7
ROMANS
 72
     5
 11
-354.588887
 21
371.343884
 31
0.0
100
AcDbText
  0
TEXT
  5
9A3A
100
AcDbEntity
  8
BORDER
 62
     6
100
AcDbText
 10
-376.996352
 20
370.463313
 30
0.0
 40
0.543882
  1
and will not be used to manufacture or procure the manufacture of the items shown
 41
0.600404
  7
ROMANS
 72
     5
 11
-354.588887
 21
370.463313
 31
0.0
100
AcDbText
  0
TEXT
  5
9A3B
100
AcDbEntity
  8
BORDER
 62
     6
100
AcDbText
 10
-376.996352
 20
369.582743
 30
0.0
 40
0.543882
  1
in this print by any other source than TOPP INDUSTRIES, INC.
 41
0.839168
  7
ROMANS
 72
     5
 11
-354.588887
 21
369.582743
 31
0.0
100
AcDbText
  0
LWPOLYLINE
  5
9A3C
100
AcDbEntity
  8
BORDER
 62
     5
100
AcDbPolyline
 90
        2
 70
     0
 43
0.724536
 10
-332.458743
 20
363.388935
 10
-431.755107
 20
363.388935
  0
LINE
  5
9A3D
100
AcDbEntity
  8
LIMITS
 62
     7
100
AcDbLine
 10
-436.971769
 20
360.49079
 30
0.0
 11
-327.242081
 21
360.49079
 31
0.0
  0
LINE
  5
9A4B
100
AcDbEntity
  8
BORDER
100
AcDbLine
 10
-417.587944
 20
372.616777
 30
0.0
 11
-417.151907
 21
372.616777
 31
0.0
  0
LINE
  5
9A4C
100
AcDbEntity
  8
BORDER
100
AcDbLine
 10
-417.03032
 20
372.15359
 30
0.0
 11
-417.587944
 21
372.15359
 31
0.0
  0
LINE
  5
9A4D
100
AcDbEntity
  8
BORDER
100
AcDbLine
 10
-417.587944
 20
373.079964
 30
0.0
 11
-417.03032
 21
373.079964
 31
0.0
  0
ARC
  5
9A4E
102
{ACAD_REACTORS
330
9A53
102
}
100
AcDbEntity
  8
BORDER
100
AcDbCircle
 10
-417.212467
 20
371.864938
 30
0.0
 40
2.361952
100
AcDbArc
 50
256.005504
 51
269.948223
  0
LINE
  5
9A4F
102
{ACAD_REACTORS
330
9A53
102
}
100
AcDbEntity
  8
BORDER
100
AcDbLine
 10
-418.71664
 20
371.328379
 30
0.0
 11
-417.193471
 21
371.328379
 31
0.0
  0
ARC
  5
9A50
102
{ACAD_REACTORS
330
9A53
102
}
100
AcDbEntity
  8
BORDER
100
AcDbCircle
 10
-417.517172
 20
370.378072
 30
0.0
 40
0.754768
100
AcDbArc
 50
359.205673
 51
110.674935
  0
LINE
  5
9A51
100
AcDbEntity
  8
BORDER
100
AcDbLine
 10
-416.856571
 20
367.374482
 30
0.0
 11
-417.335538
 21
367.374482
 31
0.0
  0
LINE
  5
9A52
100
AcDbEntity
  8
BORDER
100
AcDbLine
 10
-417.335538
 20
366.105409
 30
0.0
 11
-416.856571
 21
366.105409
 31
0.0
  0
HATCH
  5
9A53
100
AcDbEntity
  8
BORDER
100
AcDbHatch
 10
0.0
 20
0.0
 30
0.0
210
0.0
220
0.0
230
1.0
  2
ANSI37
 70
     0
 71
     1
 91
        2
 92
        7
 72
     1
 73
     1
 93
       16
 10
-418.2435741154631
 20
368.4337628521282
 42
-0.4142135623729403
 10
-418.5686493904631
 20
368.1086875771283
 42
0.0
 10
-418.7190844710996
 20
368.1086875771283
 42
0.0
 10
-418.7190844710995
 20
368.0230041967105
 42
0.0
 10
-417.3081442488926
 20
368.0230041967105
 42
0.0
 10
-417.3081442488926
 20
368.1086875771283
 42
0.0
 10
-417.4585793295284
 20
368.1086875771283
 42
-0.4142135623735561
 10
-417.7836546045289
 20
368.4337628521284
 42
0.0
 10
-417.7836546045289
 20
369.5730910413296
 42
0.0609117558027777
 10
-417.2146012622315
 20
369.502986812251
 42
0.4291497434354812
 10
-416.2090141556718
 20
370.406555142524
 42
0.3916311771518019
 10
-417.193471419836
 20
371.3283793961321
 42
0.0
 10
-418.7166402054931
 20
371.328379396132
 42
0.0
 10
-418.7166402054932
 20
371.2376492529604
 42
0.0
 10
-418.568649390463
 20
371.2376492529604
 42
-0.4142135623729925
 10
-418.2435741154631
 20
370.9125739779604
 42
0.0
 97
       16
330
9AF0
330
9A4F
330
9AC4
330
9AC5
330
9AC6
330
9AA0
330
9AAB
330
9AA9
330
9AAA
330
9AAE
330
9AA7
330
9AA8
330
9AAD
330
9AB1
330
9A4E
330
9AEA
 92
       22
 72
     1
 73
     1
 93
        3
 10
-417.7836546045289
 20
371.0842311356735
 42
-0.5287425889411141
 10
-416.762477173652
 20
370.3676082401646
 42
-0.5439228899280405
 10
-417.7836546045289
 20
369.6977213241215
 42
0.0
 97
        3
330
9A50
330
9A54
330
9A9E
 75
     0
 76
     1
 52
0.0
 41
0.023906
 77
     0
 78
     2
 53
45.0
 43
-436.289185
 44
281.690175
 45
-0.0021130339359676
 46
0.0021130339359676
 79
     0
 53
135.0
 43
-436.289185
 44
281.690175
 45
-0.0021130339359676
 46
-0.0021130339359676
 79
     0
 47
0.027301
 98
        2
 10
-418.05195
 20
370.212204
 10
-418.05195
 20
370.212204
  0
ARC
  5
9A54
102
{ACAD_REACTORS
330
9A53
102
}
100
AcDbEntity
  8
BORDER
100
AcDbCircle
 10
-417.48987
 20
370.363162
 30
0.0
 40
0.727407
100
AcDbArc
 50
246.179097
 51
0.350223
  0
LINE
  5
9A55
100
AcDbEntity
  8
BORDER
100
AcDbLine
 10
-424.259194
 20
371.726834
 30
0.0
 11
-416.351898
 21
371.726834
 31
0.0
  0
LINE
  5
9A56
100
AcDbEntity
  8
BORDER
100
AcDbLine
 10
-431.755107
 20
374.981517
 30
0.0
 11
-415.815307
 21
374.981517
 31
0.0
  0
LWPOLYLINE
  5
9A57
100
AcDbEntity
  8
BORDER
 62
     5
100
AcDbPolyline
 90
        2
 70
     0
 43
0.724536
 10
-431.755107
 20
376.43059
 10
-415.815307
 20
376.43059
  0
LINE
  5
9A58
100
AcDbEntity
  8
BORDER
100
AcDbLine
 10
-431.755107
 20
364.838008
 30
0.0
 11
-414.366234
 21
364.838008
 31
0.0
  0
LINE
  5
9A59
100
AcDbEntity
  8
BORDER
100
AcDbLine
 10
-431.49682
 20
367.782748
 30
0.0
 11
-415.986968
 21
367.782748
 31
0.0
  0
LINE
  5
9A5A
100
AcDbEntity
  8
BORDER
100
AcDbLine
 10
-431.49682
 20
367.782748
 30
0.0
 11
-415.986968
 21
367.782748
 31
0.0
  0
LINE
  5
9A60
100
AcDbEntity
  8
BORDER
100
AcDbLine
 10
-418.507983
 20
366.105409
 30
0.0
 11
-418.507983
 21
367.374482
 31
0.0
  0
LINE
  5
9A61
100
AcDbEntity
  8
BORDER
100
AcDbLine
 10
-417.335538
 20
367.374482
 30
0.0
 11
-417.335538
 21
366.105409
 31
0.0
  0
LINE
  5
9A62
100
AcDbEntity
  8
BORDER
100
AcDbLine
 10
-419.326187
 20
367.374482
 30
0.0
 11
-419.326187
 21
366.105409
 31
0.0
  0
LINE
  5
9A63
100
AcDbEntity
  8
BORDER
100
AcDbLine
 10
-420.121955
 20
366.105409
 30
0.0
 11
-420.625267
 21
367.374482
 31
0.0
  0
LINE
  5
9A64
100
AcDbEntity
  8
BORDER
100
AcDbLine
 10
-421.963477
 20
366.723768
 30
0.0
 11
-421.459655
 21
366.105409
 31
0.0
  0
LINE
  5
9A65
100
AcDbEntity
  8
BORDER
100
AcDbLine
 10
-422.310835
 20
367.374482
 30
0.0
 11
-422.310835
 21
366.105409
 31
0.0
  0
LINE
  5
9A66
100
AcDbEntity
  8
BORDER
100
AcDbLine
 10
-420.625267
 20
367.374482
 30
0.0
 11
-421.111341
 21
366.105409
 31
0.0
  0
LINE
  5
9A67
100
AcDbEntity
  8
BORDER
100
AcDbLine
 10
-425.789996
 20
366.723768
 30
0.0
 11
-425.286174
 21
366.105409
 31
0.0
  0
LINE
  5
9A68
100
AcDbEntity
  8
BORDER
100
AcDbLine
 10
-426.137354
 20
367.374482
 30
0.0
 11
-426.137354
 21
366.105409
 31
0.0
  0
LINE
  5
9A69
100
AcDbEntity
  8
BORDER
100
AcDbLine
 10
-424.796737
 20
367.374482
 30
0.0
 11
-424.796737
 21
366.105409
 31
0.0
  0
LINE
  5
9A6A
100
AcDbEntity
  8
BORDER
100
AcDbLine
 10
-430.26067
 20
367.374482
 30
0.0
 11
-430.26067
 21
366.105409
 31
0.0
  0
LINE
  5
9A6B
100
AcDbEntity
  8
BORDER
100
AcDbLine
 10
-429.288303
 20
366.105409
 30
0.0
 11
-430.26067
 21
367.374482
 31
0.0
  0
LINE
  5
9A6C
100
AcDbEntity
  8
BORDER
100
AcDbLine
 10
-429.288303
 20
367.374482
 30
0.0
 11
-429.288303
 21
366.105409
 31
0.0
  0
ARC
  5
9A6D
100
AcDbEntity
  8
BORDER
100
AcDbCircle
 10
-428.41111
 20
366.68657
 30
0.0
 40
0.581983
100
AcDbArc
 50
174.737783
 51
327.723969
  0
SPLINE
  5
9A6E
100
AcDbEntity
  8
BORDER
100
AcDbSpline
210
0.0
220
0.0
230
1.0
 70
    11
 71
     3
 72
    24
 73
    20
 74
     0
 42
0.0000001
 43
0.0000001
 40
0.0
 40
0.0
 40
0.0
 40
0.0
 40
0.474866629778075
 40
0.474866629778075
 40
1.277791044886493
 40
1.277791044886493
 40
2.080715459994911
 40
2.080715459994911
 40
2.883639875103329
 40
2.883639875103329
 40
3.686564290211747
 40
3.686564290211747
 40
4.489488705320165
 40
4.489488705320165
 40
5.292413120428583
 40
5.292413120428583
 40
6.095337535537001
 40
6.095337535537001
 40
6.283185307179586
 40
6.283185307179586
 40
6.283185307179586
 40
6.283185307179586
 10
-427.0868503384132
 20
367.3916948951543
 30
0.0
 10
-427.1897063107202
 20
367.3916948951543
 30
0.0
 10
-427.2924756424445
 20
367.3667454517451
 30
0.0
 10
-427.5386083251943
 20
367.2398067329905
 30
0.0
 10
-427.6586873398773
 20
367.09516669296
 30
0.0
 10
-427.7591271516365
 20
366.7611861107995
 30
0.0
 10
-427.7388202125333
 20
366.5740831844695
 30
0.0
 10
-427.569076365763
 20
366.269602080258
 30
0.0
 10
-427.4207705998048
 20
366.1542687243675
 30
0.0
 10
-427.0844578469743
 20
366.0652578972231
 30
0.0
 10
-426.8987164891451
 20
366.0921847784679
 30
0.0
 10
-426.6012957258781
 20
366.2730550367097
 30
0.0
 10
-426.4916134986753
 20
366.4257743438514
 30
0.0
 10
-426.4147416892416
 20
366.7659894867395
 30
0.0
 10
-426.4480628928509
 20
366.9512071368091
 30
0.0
 10
-426.6386535362297
 20
367.2430170298677
 30
0.0
 10
-426.7946517056962
 20
367.3476476692024
 30
0.0
 10
-427.005475641472
 20
367.3878499795109
 30
0.0
 10
-427.0461625663391
 20
367.3916948951543
 30
0.0
 10
-427.0868503384132
 20
367.3916948951543
 30
0.0
  0
LINE
  5
9A6F
100
AcDbEntity
  8
BORDER
100
AcDbLine
 10
-430.816308
 20
367.374482
 30
0.0
 11
-430.816308
 21
366.105409
 31
0.0
  0
LWPOLYLINE
  5
9A70
100
AcDbEntity
  8
BORDER
 62
     5
100
AcDbPolyline
 90
        2
 70
     0
 43
0.724536
 10
-431.755107
 20
363.388935
 42
-0.414214
 10
-434.653253
 20
366.287081
 42
0.560527
  0
LINE
  5
9A71
100
AcDbEntity
  8
BORDER
100
AcDbLine
 10
-433.20418
 20
366.287081
 30
0.0
 11
-433.20418
 21
373.532445
 31
0.0
  0
LWPOLYLINE
  5
9A72
100
AcDbEntity
  8
BORDER
 62
     5
100
AcDbPolyline
 90
        2
 70
     0
 43
0.724536
 10
-434.653253
 20
373.532445
 10
-434.653253
 20
366.287081
  0
SPLINE
  5
9A73
100
AcDbEntity
  8
BORDER
100
AcDbSpline
210
0.0
220
0.0
230
1.0
 70
    11
 71
     3
 72
    24
 73
    20
 74
     0
 42
0.0000001
 43
0.0000001
 40
0.0
 40
0.0
 40
0.0
 40
0.0
 40
0.474866629778075
 40
0.474866629778075
 40
1.277791044886493
 40
1.277791044886493
 40
2.080715459994911
 40
2.080715459994911
 40
2.883639875103329
 40
2.883639875103329
 40
3.686564290211747
 40
3.686564290211747
 40
4.489488705320165
 40
4.489488705320165
 40
5.292413120428583
 40
5.292413120428583
 40
6.095337535537001
 40
6.095337535537001
 40
6.283185307179586
 40
6.283185307179586
 40
6.283185307179586
 40
6.283185307179586
 10
-423.310782691009
 20
367.3916948951543
 30
0.0
 10
-423.4136386633163
 20
367.3916948951543
 30
0.0
 10
-423.5164079950406
 20
367.3667454517451
 30
0.0
 10
-423.7625406777904
 20
367.2398067329905
 30
0.0
 10
-423.8826196924731
 20
367.09516669296
 30
0.0
 10
-423.9830595042323
 20
366.7611861107995
 30
0.0
 10
-423.962752565129
 20
366.5740831844695
 30
0.0
 10
-423.793008718359
 20
366.269602080258
 30
0.0
 10
-423.6447029524008
 20
366.1542687243675
 30
0.0
 10
-423.3083901995703
 20
366.0652578972231
 30
0.0
 10
-423.1226488417412
 20
366.0921847784679
 30
0.0
 10
-422.8252280784742
 20
366.2730550367097
 30
0.0
 10
-422.7155458512713
 20
366.4257743438514
 30
0.0
 10
-422.6386740418374
 20
366.7659894867395
 30
0.0
 10
-422.6719952454466
 20
366.9512071368091
 30
0.0
 10
-422.8625858888254
 20
367.2430170298677
 30
0.0
 10
-423.0185840582923
 20
367.3476476692024
 30
0.0
 10
-423.229407994068
 20
367.3878499795109
 30
0.0
 10
-423.2700949189348
 20
367.3916948951543
 30
0.0
 10
-423.310782691009
 20
367.3916948951543
 30
0.0
  0
ARC
  5
9A74
100
AcDbEntity
  8
BORDER
100
AcDbCircle
 10
-431.755107
 20
366.287081
 30
0.0
 40
1.449073
100
AcDbArc
 50
180.0
 51
270.0
  0
LINE
  5
9A75
100
AcDbEntity
  8
BORDER
100
AcDbLine
 10
-430.371293
 20
364.944651
 30
0.0
 11
-430.371293
 21
364.944651
 31
0.0
  0
LINE
  5
9A76
100
AcDbEntity
  8
BORDER
100
AcDbLine
 10
-431.07617
 20
366.105409
 30
0.0
 11
-430.556445
 21
366.105409
 31
0.0
  0
LINE
  5
9A77
100
AcDbEntity
  8
BORDER
100
AcDbLine
 10
-417.689214
 20
366.105409
 30
0.0
 11
-418.507983
 21
366.105409
 31
0.0
  0
LINE
  5
9A78
102
{ACAD_REACTORS
330
9A79
102
}
100
AcDbEntity
  8
BORDER
100
AcDbLine
 10
-430.69015
 20
373.684287
 30
0.0
 11
-424.470571
 21
373.684287
 31
0.0
  0
HATCH
  5
9A79
100
AcDbEntity
  8
BORDER
100
AcDbHatch
 10
0.0
 20
0.0
 30
0.0
210
0.0
220
0.0
230
1.0
  2
ANSI37
 70
     0
 71
     1
 91
        1
 92
        7
 72
     1
 73
     1
 93
       18
 10
-428.2608707247391
 20
368.9486183329956
 42
-0.4142135623730529
 10
-429.0483770247392
 20
368.1611120329957
 42
0.0
 10
-429.3019904904176
 20
368.1611120329957
 42
0.0
 10
-429.3019904904177
 20
367.9968484126195
 42
0.0
 10
-425.8587307071043
 20
367.9968484126196
 42
0.0
 10
-425.8587307071044
 20
368.1611120329957
 42
0.0
 10
-426.1123441727831
 20
368.1611120329957
 42
-0.4142135623730529
 10
-426.899850472783
 20
368.9486183329957
 42
0.0
 10
-426.899850472783
 20
373.282753957888
 42
0.0
 10
-426.2067003842331
 20
373.282753957888
 42
-0.4138200196737848
 10
-424.6349595784122
 20
371.7131238799243
 42
0.0
 10
-424.4705710195326
 20
371.7131238799243
 42
0.0
 10
-424.4705710195323
 20
373.6842873244346
 42
0.0
 10
-430.6901501779897
 20
373.6842873244347
 42
0.0
 10
-430.6901501779896
 20
371.7131238799243
 42
0.0
 10
-430.5257616191098
 20
371.7131238799243
 42
-0.4138200196737849
 10
-428.9540208132888
 20
373.282753957888
 42
0.0
 10
-428.2608707247391
 20
373.282753957888
 42
0.0
 97
       18
330
9A94
330
9A9D
330
9A9B
330
9A9C
330
9A78
330
9A7F
330
9A7E
330
9A7A
330
9A95
330
9A85
330
9A8A
330
9A89
330
9A88
330
9A87
330
9A8D
330
9A8E
330
9A86
330
9A84
 75
     0
 76
     1
 52
0.0
 41
0.023906
 77
     0
 78
     2
 53
45.0
 43
-436.289185
 44
281.690175
 45
-0.0021130339359676
 46
0.0021130339359676
 79
     0
 53
135.0
 43
-436.289185
 44
281.690175
 45
-0.0021130339359676
 46
-0.0021130339359676
 79
     0
 47
0.049862
 98
        1
 10
-427.747387
 20
371.031607
  0
ARC
  5
9A7A
102
{ACAD_REACTORS
330
9A79
102
}
100
AcDbEntity
  8
BORDER
100
AcDbCircle
 10
-428.954021
 20
371.711012
 30
0.0
 40
1.571742
100
AcDbArc
 50
90.0
 51
179.923004
  0
ARC
  5
9A7B
100
AcDbEntity
  8
BORDER
100
AcDbCircle
 10
-431.755107
 20
373.532445
 30
0.0
 40
1.449073
100
AcDbArc
 50
90.0
 51
180.0
  0
LWPOLYLINE
  5
9A7C
100
AcDbEntity
  8
BORDER
 62
     5
100
AcDbPolyline
 90
        2
 70
     0
 43
0.724536
 10
-431.755107
 20
376.43059
 42
0.414214
 10
-434.653253
 20
373.532445
 42
-0.560527
  0
LINE
  5
9A7D
100
AcDbEntity
  8
BORDER
100
AcDbLine
 10
-431.07617
 20
367.374482
 30
0.0
 11
-430.556445
 21
367.374482
 31
0.0
  0
LINE
  5
9A7E
102
{ACAD_REACTORS
330
9A79
102
}
100
AcDbEntity
  8
BORDER
100
AcDbLine
 10
-430.69015
 20
371.713124
 30
0.0
 11
-430.525763
 21
371.713124
 31
0.0
  0
LINE
  5
9A7F
102
{ACAD_REACTORS
330
9A79
102
}
100
AcDbEntity
  8
BORDER
100
AcDbLine
 10
-430.69015
 20
371.713124
 30
0.0
 11
-430.69015
 21
373.684287
 31
0.0
  0
LINE
  5
9A80
100
AcDbEntity
  8
BORDER
100
AcDbLine
 10
-422.985957
 20
372.15359
 30
0.0
 11
-423.620938
 21
373.099332
 31
0.0
  0
HATCH
  5
9A81
100
AcDbEntity
  8
BORDER
100
AcDbHatch
 10
0.0
 20
0.0
 30
0.0
210
0.0
220
0.0
230
1.0
  2
ANSI37
 70
     0
 71
     1
 91
        2
 92
        5
 93
        1
 72
     3
 10
-423.381286
 20
369.680401
 11
0.0
 21
1.723504
 40
0.93822
 50
0.0
 51
360.0
 73
     1
 97
        1
330
9A83
 92
       20
 93
        1
 72
     3
 10
-423.381286
 20
369.690222
 11
0.0
 21
1.546735
 40
0.683214
 50
0.0
 51
360.0
 73
     1
 97
        1
330
9A82
 75
     0
 76
     1
 52
0.0
 41
0.023906
 77
     0
 78
     2
 53
45.0
 43
-436.289185
 44
281.690175
 45
-0.0021130339359676
 46
0.0021130339359676
 79
     0
 53
135.0
 43
-436.289185
 44
281.690175
 45
-0.0021130339359676
 46
-0.0021130339359676
 79
     0
 47
0.027301
 98
        2
 10
-424.54429
 20
370.381897
 10
-424.54429
 20
370.381897
  0
ELLIPSE
  5
9A82
102
{ACAD_REACTORS
330
9A81
102
}
100
AcDbEntity
  8
BORDER
100
AcDbEllipse
 10
-423.381286
 20
369.690222
 30
0.0
 11
0.0000000000000116
 21
1.546734535794929
 31
0.0
210
0.0
220
0.0
230
1.0
 40
0.683214
 41
0.0
 42
6.283185307179586
  0
ELLIPSE
  5
9A83
102
{ACAD_REACTORS
330
9A81
102
}
100
AcDbEntity
  8
BORDER
100
AcDbEllipse
 10
-423.381286
 20
369.680401
 30
0.0
 11
0.0000000000000116
 21
1.723504127316173
 31
0.0
210
0.0
220
0.0
230
1.0
 40
0.93822
 41
0.0
 42
6.283185307179586
  0
LINE
  5
9A84
102
{ACAD_REACTORS
330
9A79
102
}
100
AcDbEntity
  8
BORDER
100
AcDbLine
 10
-426.89985
 20
368.948618
 30
0.0
 11
-426.89985
 21
373.282754
 31
0.0
  0
LINE
  5
9A85
102
{ACAD_REACTORS
330
9A79
102
}
100
AcDbEntity
  8
BORDER
100
AcDbLine
 10
-428.260871
 20
368.948618
 30
0.0
 11
-428.260871
 21
373.282754
 31
0.0
  0
ARC
  5
9A86
102
{ACAD_REACTORS
330
9A79
102
}
100
AcDbEntity
  8
BORDER
100
AcDbCircle
 10
-426.112344
 20
368.948618
 30
0.0
 40
0.787506
100
AcDbArc
 50
180.0
 51
270.0
  0
LINE
  5
9A87
102
{ACAD_REACTORS
330
9A79
102
}
100
AcDbEntity
  8
BORDER
100
AcDbLine
 10
-429.30199
 20
367.996848
 30
0.0
 11
-425.858731
 21
367.996848
 31
0.0
  0
LINE
  5
9A88
102
{ACAD_REACTORS
330
9A79
102
}
100
AcDbEntity
  8
BORDER
100
AcDbLine
 10
-429.30199
 20
368.161112
 30
0.0
 11
-429.30199
 21
367.996848
 31
0.0
  0
LINE
  5
9A89
102
{ACAD_REACTORS
330
9A79
102
}
100
AcDbEntity
  8
BORDER
100
AcDbLine
 10
-429.30199
 20
368.161112
 30
0.0
 11
-429.048377
 21
368.161112
 31
0.0
  0
ARC
  5
9A8A
102
{ACAD_REACTORS
330
9A79
102
}
100
AcDbEntity
  8
BORDER
100
AcDbCircle
 10
-429.048377
 20
368.948618
 30
0.0
 40
0.787506
100
AcDbArc
 50
270.0
 51
0.0
  0
ARC
  5
9A8B
100
AcDbEntity
  8
BORDER
100
AcDbCircle
 10
-428.365999
 20
366.749923
 30
0.0
 40
0.624721
100
AcDbArc
 50
44.321228
 51
180.91508
  0
ARC
  5
9A8C
100
AcDbEntity
  8
BORDER
100
AcDbCircle
 10
-424.467355
 20
367.049125
 30
0.0
 40
0.325357
100
AcDbArc
 50
270.0
 51
90.0
  0
LINE
  5
9A8D
102
{ACAD_REACTORS
330
9A79
102
}
100
AcDbEntity
  8
BORDER
100
AcDbLine
 10
-425.858731
 20
368.161112
 30
0.0
 11
-425.858731
 21
367.996848
 31
0.0
  0
LINE
  5
9A8E
102
{ACAD_REACTORS
330
9A79
102
}
100
AcDbEntity
  8
BORDER
100
AcDbLine
 10
-425.858731
 20
368.161112
 30
0.0
 11
-426.112344
 21
368.161112
 31
0.0
  0
LINE
  5
9A8F
100
AcDbEntity
  8
BORDER
100
AcDbLine
 10
-425.69863
 20
367.374482
 30
0.0
 11
-426.137354
 21
367.374482
 31
0.0
  0
LINE
  5
9A90
100
AcDbEntity
  8
BORDER
100
AcDbLine
 10
-426.137354
 20
366.723768
 30
0.0
 11
-425.69863
 21
366.723768
 31
0.0
  0
ARC
  5
9A91
100
AcDbEntity
  8
BORDER
100
AcDbCircle
 10
-425.69863
 20
367.049125
 30
0.0
 40
0.325357
100
AcDbArc
 50
270.0
 51
90.0
  0
LINE
  5
9A92
100
AcDbEntity
  8
BORDER
100
AcDbLine
 10
-424.796737
 20
366.723768
 30
0.0
 11
-424.467355
 21
366.723768
 31
0.0
  0
LINE
  5
9A93
100
AcDbEntity
  8
BORDER
100
AcDbLine
 10
-424.467355
 20
367.374482
 30
0.0
 11
-424.796737
 21
367.374482
 31
0.0
  0
LINE
  5
9A94
102
{ACAD_REACTORS
330
9A79
102
}
100
AcDbEntity
  8
BORDER
100
AcDbLine
 10
-426.2067
 20
373.282754
 30
0.0
 11
-426.89985
 21
373.282754
 31
0.0
  0
LINE
  5
9A95
102
{ACAD_REACTORS
330
9A79
102
}
100
AcDbEntity
  8
BORDER
100
AcDbLine
 10
-428.954021
 20
373.282754
 30
0.0
 11
-428.260871
 21
373.282754
 31
0.0
  0
LINE
  5
9A96
100
AcDbEntity
  8
BORDER
100
AcDbLine
 10
-423.620938
 20
373.099332
 30
0.0
 11
-423.620938
 21
372.15359
 31
0.0
  0
LINE
  5
9A97
100
AcDbEntity
  8
BORDER
100
AcDbLine
 10
-424.182635
 20
373.079964
 30
0.0
 11
-424.040025
 21
373.079964
 31
0.0
  0
LINE
  5
9A98
100
AcDbEntity
  8
BORDER
100
AcDbLine
 10
-424.040025
 20
373.079964
 30
0.0
 11
-424.040025
 21
372.15359
 31
0.0
  0
LINE
  5
9A99
100
AcDbEntity
  8
BORDER
100
AcDbLine
 10
-424.182635
 20
372.15359
 30
0.0
 11
-423.897415
 21
372.15359
 31
0.0
  0
LINE
  5
9A9A
100
AcDbEntity
  8
BORDER
100
AcDbLine
 10
-424.040025
 20
373.079964
 30
0.0
 11
-423.897415
 21
373.079964
 31
0.0
  0
LINE
  5
9A9B
102
{ACAD_REACTORS
330
9A79
102
}
100
AcDbEntity
  8
BORDER
100
AcDbLine
 10
-424.470571
 20
371.713124
 30
0.0
 11
-424.634958
 21
371.713124
 31
0.0
  0
LINE
  5
9A9C
102
{ACAD_REACTORS
330
9A79
102
}
100
AcDbEntity
  8
BORDER
100
AcDbLine
 10
-424.470571
 20
371.713124
 30
0.0
 11
-424.470571
 21
373.684287
 31
0.0
  0
ARC
  5
9A9D
102
{ACAD_REACTORS
330
9A79
102
}
100
AcDbEntity
  8
BORDER
100
AcDbCircle
 10
-426.2067
 20
371.711012
 30
0.0
 40
1.571742
100
AcDbArc
 50
0.076996
 51
90.0
  0
LINE
  5
9A9E
102
{ACAD_REACTORS
330
9A53
102
}
100
AcDbEntity
  8
BORDER
100
AcDbLine
 10
-417.783655
 20
371.084231
 30
0.0
 11
-417.783655
 21
369.697721
 31
0.0
  0
HATCH
  5
9A9F
100
AcDbEntity
  8
BORDER
100
AcDbHatch
 10
0.0
 20
0.0
 30
0.0
210
0.0
220
0.0
230
1.0
  2
ANSI37
 70
     0
 71
     1
 91
        2
 92
        7
 72
     1
 73
     1
 93
       16
 10
-421.0189713618748
 20
368.4462849268486
 42
-0.4142135623730429
 10
-421.3440466368746
 20
368.1212096518488
 42
0.0
 10
-421.4944817175112
 20
368.1212096518489
 42
0.0
 10
-421.4944817175112
 20
368.0355262714302
 42
0.0
 10
-420.0835414953038
 20
368.0355262714303
 42
0.0
 10
-420.0835414953039
 20
368.1212096518488
 42
0.0
 10
-420.2339765759404
 20
368.1212096518488
 42
-0.4142135623730951
 10
-420.5590518509402
 20
368.4462849268486
 42
0.0
 10
-420.5590518509402
 20
369.5856131160494
 42
0.0609117558023308
 10
-419.9899985086469
 20
369.515508886971
 42
0.4291497434370095
 10
-418.9844114020835
 20
370.419077217245
 42
0.3916311771396207
 10
-419.9688686662061
 20
371.3409014708519
 42
0.0
 10
-421.4920374519047
 20
371.3409014708519
 42
0.0
 10
-421.4920374519047
 20
371.2501713276809
 42
0.0
 10
-421.3440466368746
 20
371.2501713276809
 42
-0.4142135623730951
 10
-421.0189713618748
 20
370.9250960526811
 42
0.0
 97
        1
330
9AA1
 92
       22
 72
     1
 73
     1
 93
        3
 10
-420.5590518509402
 20
371.0967532103932
 42
-0.528742588946543
 10
-419.5378744200635
 20
370.3801303148714
 42
-0.5439228899218147
 10
-420.5590518509402
 20
369.7102433988418
 42
0.0
 97
        1
330
9AA2
 75
     0
 76
     1
 52
0.0
 41
0.023906
 77
     0
 78
     2
 53
45.0
 43
-436.289185
 44
281.690175
 45
-0.0021130339359676
 46
0.0021130339359676
 79
     0
 53
135.0
 43
-436.289185
 44
281.690175
 45
-0.0021130339359676
 46
-0.0021130339359676
 79
     0
 47
0.027301
 98
        2
 10
-420.834382
 20
370.499378
 10
-420.834382
 20
370.499378
  0
LINE
  5
9AA0
102
{ACAD_REACTORS
330
9A53
102
}
100
AcDbEntity
  8
BORDER
100
AcDbLine
 10
-418.243574
 20
368.433763
 30
0.0
 11
-418.243574
 21
370.912574
 31
0.0
  0
LWPOLYLINE
  5
9AA1
102
{ACAD_REACTORS
330
9A9F
102
}
100
AcDbEntity
  8
BORDER
100
AcDbPolyline
 90
       17
 70
     0
 43
0.0
 10
-419.989999
 20
369.515509
 42
-0.060912
 10
-420.559052
 20
369.585613
 10
-420.559052
 20
368.446285
 42
0.414214
 10
-420.233977
 20
368.12121
 10
-420.083541
 20
368.12121
 10
-420.083541
 20
368.035526
 10
-421.494482
 20
368.035526
 10
-421.494482
 20
368.12121
 10
-421.344047
 20
368.12121
 42
0.414214
 10
-421.018971
 20
368.446285
 10
-421.018971
 20
370.925096
 42
0.414214
 10
-421.344047
 20
371.250171
 10
-421.492037
 20
371.250171
 10
-421.492037
 20
371.340901
 10
-419.980807
 20
371.340901
 42
-0.395102
 10
-418.984411
 20
370.419077
 42
-0.42915
 10
-419.989999
 20
369.515509
  0
LWPOLYLINE
  5
9AA2
102
{ACAD_REACTORS
330
9A9F
102
}
100
AcDbEntity
  8
BORDER
100
AcDbPolyline
 90
        3
 70
     1
 43
0.0
 10
-420.559052
 20
369.710243
 42
0.543923
 10
-419.537874
 20
370.38013
 42
0.528743
 10
-420.559052
 20
371.096753
  0
LINE
  5
9AA3
100
AcDbEntity
  8
BORDER
100
AcDbLine
 10
-420.934107
 20
366.568144
 30
0.0
 11
-420.305475
 21
366.568144
 31
0.0
  0
LINE
  5
9AA4
100
AcDbEntity
  8
BORDER
100
AcDbLine
 10
-421.872111
 20
367.374482
 30
0.0
 11
-422.310835
 21
367.374482
 31
0.0
  0
LINE
  5
9AA5
100
AcDbEntity
  8
BORDER
100
AcDbLine
 10
-422.310835
 20
366.723768
 30
0.0
 11
-421.872111
 21
366.723768
 31
0.0
  0
ARC
  5
9AA6
100
AcDbEntity
  8
BORDER
100
AcDbCircle
 10
-421.872111
 20
367.049125
 30
0.0
 40
0.325357
100
AcDbArc
 50
270.0
 51
90.0
  0
LINE
  5
9AA7
102
{ACAD_REACTORS
330
9A53
102
}
100
AcDbEntity
  8
BORDER
100
AcDbLine
 10
-417.308144
 20
368.108688
 30
0.0
 11
-417.308144
 21
368.023004
 31
0.0
  0
LINE
  5
9AA8
102
{ACAD_REACTORS
330
9A53
102
}
100
AcDbEntity
  8
BORDER
100
AcDbLine
 10
-417.458579
 20
368.108688
 30
0.0
 11
-417.308144
 21
368.108688
 31
0.0
  0
LINE
  5
9AA9
102
{ACAD_REACTORS
330
9A53
102
}
100
AcDbEntity
  8
BORDER
100
AcDbLine
 10
-418.719084
 20
368.108688
 30
0.0
 11
-418.568649
 21
368.108688
 31
0.0
  0
LINE
  5
9AAA
102
{ACAD_REACTORS
330
9A53
102
}
100
AcDbEntity
  8
BORDER
100
AcDbLine
 10
-418.719084
 20
368.108688
 30
0.0
 11
-418.719084
 21
368.023004
 31
0.0
  0
ARC
  5
9AAB
102
{ACAD_REACTORS
330
9A53
102
}
100
AcDbEntity
  8
BORDER
100
AcDbCircle
 10
-418.568649
 20
368.433763
 30
0.0
 40
0.325075
100
AcDbArc
 50
270.0
 51
360.0
  0
LINE
  5
9AAC
100
AcDbEntity
  8
BORDER
100
AcDbLine
 10
-418.507983
 20
367.374482
 30
0.0
 11
-417.689214
 21
367.374482
 31
0.0
  0
ARC
  5
9AAD
102
{ACAD_REACTORS
330
9A53
102
}
100
AcDbEntity
  8
BORDER
100
AcDbCircle
 10
-417.458579
 20
368.433763
 30
0.0
 40
0.325075
100
AcDbArc
 50
180.0
 51
270.0
  0
LINE
  5
9AAE
102
{ACAD_REACTORS
330
9A53
102
}
100
AcDbEntity
  8
BORDER
100
AcDbLine
 10
-418.719084
 20
368.023004
 30
0.0
 11
-417.308144
 21
368.023004
 31
0.0
  0
LINE
  5
9AAF
100
AcDbEntity
  8
BORDER
100
AcDbLine
 10
-418.507983
 20
366.739946
 30
0.0
 11
-417.963492
 21
366.739946
 31
0.0
  0
LINE
  5
9AB0
100
AcDbEntity
  8
BORDER
100
AcDbLine
 10
-419.863864
 20
367.374482
 30
0.0
 11
-418.78851
 21
367.374482
 31
0.0
  0
LINE
  5
9AB1
102
{ACAD_REACTORS
330
9A53
102
}
100
AcDbEntity
  8
BORDER
100
AcDbLine
 10
-417.783655
 20
369.573091
 30
0.0
 11
-417.783655
 21
368.433763
 31
0.0
  0
ARC
  5
9AB2
100
AcDbEntity
  8
BORDER
100
AcDbCircle
 10
-420.438953
 20
372.793648
 30
0.0
 40
0.287344
100
AcDbArc
 50
25.379638
 51
143.047804
  0
ARC
  5
9AB3
100
AcDbEntity
  8
BORDER
100
AcDbCircle
 10
-420.401661
 20
372.447353
 30
0.0
 40
0.293301
100
AcDbArc
 50
200.502447
 51
334.026213
  0
ARC
  5
9AB4
100
AcDbEntity
  8
BORDER
100
AcDbCircle
 10
-416.35315
 20
379.222603
 30
0.0
 40
7.744227
100
AcDbArc
 50
236.383068
 51
240.315223
  0
ARC
  5
9AB5
100
AcDbEntity
  8
BORDER
100
AcDbCircle
 10
-420.568221
 20
372.882476
 30
0.0
 40
0.130815
100
AcDbArc
 50
140.101426
 51
236.383068
  0
LINE
  5
9AB6
100
AcDbEntity
  8
BORDER
100
AcDbLine
 10
-420.979418
 20
373.079964
 30
0.0
 11
-420.979418
 21
372.464731
 31
0.0
  0
LINE
  5
9AB7
100
AcDbEntity
  8
BORDER
100
AcDbLine
 10
-421.601699
 20
372.464731
 30
0.0
 11
-421.601699
 21
373.079964
 31
0.0
  0
ARC
  5
9AB8
100
AcDbEntity
  8
BORDER
100
AcDbCircle
 10
-421.290558
 20
372.464731
 30
0.0
 40
0.311141
100
AcDbArc
 50
180.0
 51
0.0
  0
LINE
  5
9AB9
100
AcDbEntity
  8
BORDER
100
AcDbLine
 10
-422.592269
 20
373.079964
 30
0.0
 11
-422.592269
 21
372.15359
 31
0.0
  0
LINE
  5
9ABA
100
AcDbEntity
  8
BORDER
100
AcDbLine
 10
-422.592269
 20
372.15359
 30
0.0
 11
-422.395076
 21
372.15359
 31
0.0
  0
LINE
  5
9ABB
100
AcDbEntity
  8
BORDER
100
AcDbLine
 10
-422.395076
 20
373.079964
 30
0.0
 11
-422.592269
 21
373.079964
 31
0.0
  0
ARC
  5
9ABC
100
AcDbEntity
  8
BORDER
100
AcDbCircle
 10
-422.395076
 20
372.616777
 30
0.0
 40
0.463187
100
AcDbArc
 50
270.0
 51
90.0
  0
LINE
  5
9ABD
100
AcDbEntity
  8
BORDER
100
AcDbLine
 10
-422.985957
 20
373.079964
 30
0.0
 11
-422.985957
 21
372.15359
 31
0.0
  0
LINE
  5
9ABE
100
AcDbEntity
  8
BORDER
100
AcDbLine
 10
-417.587944
 20
372.15359
 30
0.0
 11
-417.587944
 21
373.079964
 31
0.0
  0
LINE
  5
9ABF
100
AcDbEntity
  8
BORDER
100
AcDbLine
 10
-418.159896
 20
372.15359
 30
0.0
 11
-417.874676
 21
372.15359
 31
0.0
  0
LINE
  5
9AC0
100
AcDbEntity
  8
BORDER
100
AcDbLine
 10
-418.159896
 20
373.079964
 30
0.0
 11
-417.874676
 21
373.079964
 31
0.0
  0
LINE
  5
9AC1
100
AcDbEntity
  8
BORDER
100
AcDbLine
 10
-418.017286
 20
373.079964
 30
0.0
 11
-418.017286
 21
372.15359
 31
0.0
  0
ARC
  5
9AC2
100
AcDbEntity
  8
BORDER
100
AcDbCircle
 10
-418.678583
 20
372.846139
 30
0.0
 40
0.233826
100
AcDbArc
 50
270.0
 51
90.0
  0
LINE
  5
9AC3
100
AcDbEntity
  8
BORDER
100
AcDbLine
 10
-418.743175
 20
372.612313
 30
0.0
 11
-418.449371
 21
372.15359
 31
0.0
  0
LINE
  5
9AC4
102
{ACAD_REACTORS
330
9A53
102
}
100
AcDbEntity
  8
BORDER
100
AcDbLine
 10
-418.71664
 20
371.328379
 30
0.0
 11
-418.71664
 21
371.237649
 31
0.0
  0
LINE
  5
9AC5
102
{ACAD_REACTORS
330
9A53
102
}
100
AcDbEntity
  8
BORDER
100
AcDbLine
 10
-418.71664
 20
371.237649
 30
0.0
 11
-418.568649
 21
371.237649
 31
0.0
  0
ARC
  5
9AC6
102
{ACAD_REACTORS
330
9A53
102
}
100
AcDbEntity
  8
BORDER
100
AcDbCircle
 10
-418.568649
 20
370.912574
 30
0.0
 40
0.325075
100
AcDbArc
 50
0.0
 51
90.0
  0
LINE
  5
9AC7
100
AcDbEntity
  8
BORDER
100
AcDbLine
 10
-419.015543
 20
373.079964
 30
0.0
 11
-419.015543
 21
372.15359
 31
0.0
  0
LINE
  5
9AC8
100
AcDbEntity
  8
BORDER
100
AcDbLine
 10
-419.592759
 20
373.079964
 30
0.0
 11
-419.592759
 21
372.15359
 31
0.0
  0
ARC
  5
9AC9
100
AcDbEntity
  8
BORDER
100
AcDbCircle
 10
-420.25309
 20
372.381057
 30
0.0
 40
0.130815
100
AcDbArc
 50
331.630608
 51
60.315223
  0
LINE
  5
9ACA
100
AcDbEntity
  8
BORDER
100
AcDbLine
 10
-419.973342
 20
373.079964
 30
0.0
 11
-419.212176
 21
373.079964
 31
0.0
  0
LINE
  5
9ACB
100
AcDbEntity
  8
BORDER
100
AcDbLine
 10
-419.015543
 20
372.612313
 30
0.0
 11
-418.678583
 21
372.612313
 31
0.0
  0
LINE
  5
9ACC
100
AcDbEntity
  8
BORDER
100
AcDbLine
 10
-418.678583
 20
373.079964
 30
0.0
 11
-419.015543
 21
373.079964
 31
0.0
  0
LINE
  5
9ACF
100
AcDbEntity
  8
BORDER
100
AcDbLine
 10
-370.542762
 20
368.144281
 30
0.0
 11
-370.542762
 21
364.838008
 31
0.0
  0
TEXT
  5
9AD0
100
AcDbEntity
  8
BORDER
 62
     6
100
AcDbText
 10
-370.200594
 20
366.032362
 30
0.0
 40
0.650164
  1
No:
  7
ROMANC
100
AcDbText
  0
LINE
  5
9AD1
100
AcDbEntity
  8
BORDER
100
AcDbLine
 10
-371.583707
 20
368.144281
 30
0.0
 11
-371.583707
 21
364.838008
 31
0.0
  0
LINE
  5
9AD2
100
AcDbEntity
  8
BORDER
100
AcDbLine
 10
-387.931635
 20
364.838008
 30
0.0
 11
-387.931635
 21
368.144281
 31
0.0
  0
TEXT
  5
9AD3
100
AcDbEntity
  8
BORDER
 62
     6
100
AcDbText
 10
-387.597566
 20
365.960315
 30
0.0
 40
0.650164
  1
Prior To:
  7
ROMANC
100
AcDbText
  0
TEXT
  5
9AD4
100
AcDbEntity
  8
BORDER
 62
     6
100
AcDbText
 10
-404.010688
 20
366.190199
 30
0.0
 40
0.55264
  1
Rochester, IN  46975
  7
ROMANC
100
AcDbText
  0
LINE
  5
9AD5
100
AcDbEntity
  8
BORDER
100
AcDbLine
 10
-410.019016
 20
364.838008
 30
0.0
 11
-410.019016
 21
368.144281
 31
0.0
  0
LWPOLYLINE
  5
9AD6
100
AcDbEntity
  8
BORDER
 62
     5
100
AcDbPolyline
 90
        2
 70
     0
 43
0.724536
 10
-411.468089
 20
373.532445
 10
-411.468089
 20
364.838008
  0
LINE
  5
9AD7
100
AcDbEntity
  8
BORDER
100
AcDbLine
 10
-414.366234
 20
364.838008
 30
0.0
 11
-414.366234
 21
373.532445
 31
0.0
  0
LWPOLYLINE
  5
9AD8
100
AcDbEntity
  8
BORDER
 62
     5
100
AcDbPolyline
 90
        2
 70
     0
 43
0.724536
 10
-412.917161
 20
364.838008
 10
-412.917161
 20
373.532445
  0
ARC
  5
9AD9
100
AcDbEntity
  8
BORDER
100
AcDbCircle
 10
-416.856571
 20
366.739946
 30
0.0
 40
0.634537
100
AcDbArc
 50
270.0
 51
90.0
  0
TEXT
  5
9ADA
100
AcDbEntity
  8
BORDER
 62
     6
100
AcDbText
 10
-380.605468
 20
365.42021
 30
0.0
 40
0.833217
  1
11/18/03
  7
ROMAND
100
AcDbText
  0
TEXT
  5
9ADB
100
AcDbEntity
  8
BORDER
 62
     6
100
AcDbText
 10
-409.000288
 20
365.078728
 30
0.0
 40
0.55264
  1
Phone: 800/354-4534  Fax: 574/223-6106
  7
ROMANC
100
AcDbText
  0
LINE
  5
9ADC
100
AcDbEntity
  8
BORDER
100
AcDbLine
 10
-410.019016
 20
364.838008
 30
0.0
 11
-375.835999
 21
364.838008
 31
0.0
  0
LINE
  5
9ADD
100
AcDbEntity
  8
BORDER
100
AcDbLine
 10
-387.931635
 20
364.838008
 30
0.0
 11
-371.583707
 21
364.838008
 31
0.0
  0
TEXT
  5
9ADE
100
AcDbEntity
  8
BORDER
 62
     6
100
AcDbText
 10
-406.39051
 20
367.171637
 30
0.0
 40
0.55264
  1
Highway 25 North P.O. Box 420
  7
ROMANC
100
AcDbText
  0
TEXT
  5
9ADF
100
AcDbEntity
  8
BORDER
 62
     6
100
AcDbText
 10
-407.631719
 20
369.615146
 30
0.0
 40
0.650164
  1
24" X 6" Riser for Direct Casting
  7
ROMANC
100
AcDbText
  0
TEXT
  5
9AE0
100
AcDbEntity
  8
BORDER
 62
     6
100
AcDbText
 10
-409.674306
 20
372.862276
 30
0.0
 40
0.747689
  1
24" X 6" Riser for Direct Casting
  7
ROMANC
100
AcDbText
  0
LINE
  5
9AE1
100
AcDbEntity
  8
BORDER
100
AcDbLine
 10
-410.019016
 20
371.635048
 30
0.0
 11
-387.931635
 21
371.635048
 31
0.0
  0
LINE
  5
9AE2
100
AcDbEntity
  8
BORDER
100
AcDbLine
 10
-408.569943
 20
374.981517
 30
0.0
 11
-375.835999
 21
374.981517
 31
0.0
  0
LINE
  5
9AE3
100
AcDbEntity
  8
BORDER
100
AcDbLine
 10
-410.019016
 20
369.185226
 30
0.0
 11
-375.835999
 21
369.185226
 31
0.0
  0
LINE
  5
9AE4
100
AcDbEntity
  8
BORDER
100
AcDbLine
 10
-410.019016
 20
368.144281
 30
0.0
 11
-375.835999
 21
368.144281
 31
0.0
  0
TEXT
  5
9AE5
100
AcDbEntity
  8
BORDER
 62
     6
100
AcDbText
 10
-409.809049
 20
370.669675
 30
0.0
 40
0.650164
  1
Reference:
  7
ROMANC
100
AcDbText
  0
ARC
  5
9AE6
100
AcDbEntity
  8
BORDER
100
AcDbCircle
 10
-408.569943
 20
373.532445
 30
0.0
 40
1.449073
100
AcDbArc
 50
90.0
 51
180.0
  0
LWPOLYLINE
  5
9AE7
100
AcDbEntity
  8
BORDER
 62
     5
100
AcDbPolyline
 90
        2
 70
     0
 43
0.724536
 10
-408.569943
 20
376.43059
 42
0.414214
 10
-411.468089
 20
373.532445
 42
-0.560527
  0
ARC
  5
9AE8
100
AcDbEntity
  8
BORDER
100
AcDbCircle
 10
-415.815307
 20
373.532445
 30
0.0
 40
1.449073
100
AcDbArc
 50
0.0
 51
90.0
  0
LWPOLYLINE
  5
9AE9
100
AcDbEntity
  8
BORDER
 62
     5
100
AcDbPolyline
 90
        2
 70
     0
 43
0.724536
 10
-415.815307
 20
376.43059
 42
-0.414214
 10
-412.917161
 20
373.532445
 42
0.560527
  0
ARC
  5
9AEA
102
{ACAD_REACTORS
330
9A53
102
}
100
AcDbEntity
  8
BORDER
100
AcDbCircle
 10
-417.141237
 20
370.432686
 30
0.0
 40
0.932589
100
AcDbArc
 50
265.488062
 51
358.394374
  0
ARC
  5
9AEB
100
AcDbEntity
  8
BORDER
100
AcDbCircle
 10
-412.499782
 20
379.222603
 30
0.0
 40
7.744227
100
AcDbArc
 50
236.383068
 51
240.315223
  0
ARC
  5
9AEC
100
AcDbEntity
  8
BORDER
100
AcDbCircle
 10
-416.399722
 20
372.381057
 30
0.0
 40
0.130815
100
AcDbArc
 50
331.630608
 51
60.315223
  0
ARC
  5
9AED
100
AcDbEntity
  8
BORDER
100
AcDbCircle
 10
-416.714854
 20
372.882476
 30
0.0
 40
0.130815
100
AcDbArc
 50
140.101426
 51
236.383068
  0
ARC
  5
9AEE
100
AcDbEntity
  8
BORDER
100
AcDbCircle
 10
-416.585585
 20
372.793648
 30
0.0
 40
0.287344
100
AcDbArc
 50
25.379638
 51
143.047804
  0
ARC
  5
9AEF
100
AcDbEntity
  8
BORDER
100
AcDbCircle
 10
-416.548293
 20
372.447353
 30
0.0
 40
0.293301
100
AcDbArc
 50
200.502447
 51
334.026213
  0
ARC
  5
9AF0
102
{ACAD_REACTORS
330
9A53
102
}
100
AcDbEntity
  8
BORDER
100
AcDbCircle
 10
-417.199441
 20
370.335419
 30
0.0
 40
0.992978
100
AcDbArc
 50
4.10812
 51
90.34444
  0
LINE
  5
9AF1
100
AcDbEntity
  8
BORDER
100
AcDbLine
 10
-410.019016
 20
369.185226
 30
0.0
 11
-410.019016
 21
373.532445
 31
0.0
  0
TEXT
  5
9AF6
100
AcDbEntity
  8
BORDER
 62
     6
100
AcDbText
 10
-381.667916
 20
372.403983
 30
0.0
 40
0.886765
  1
RM
  7
COUNTRYBLUEPRINT
100
AcDbText
  0
TEXT
  5
9AF7
100
AcDbEntity
  8
BORDER
 62
     6
100
AcDbText
 10
-387.634628
 20
369.374975
 30
0.0
 40
0.650164
  1
Date: 11/18/03
  7
ROMANC
100
AcDbText
  0
TEXT
  5
9AF8
100
AcDbEntity
  8
BORDER
 62
     6
100
AcDbText
 10
-387.597566
 20
367.012962
 30
0.0
 40
0.650164
  1
Supersedes Prints
  7
ROMANC
100
AcDbText
  0
LINE
  5
9AF9
100
AcDbEntity
  8
BORDER
100
AcDbLine
 10
-387.931635
 20
368.144281
 30
0.0
 11
-371.583707
 21
368.144281
 31
0.0
  0
LINE
  5
9AFA
100
AcDbEntity
  8
BORDER
100
AcDbLine
 10
-387.931635
 20
369.185226
 30
0.0
 11
-387.931635
 21
374.981517
 31
0.0
  0
TEXT
  5
9AFB
100
AcDbEntity
  8
BORDER
 62
     6
100
AcDbText
 10
-387.634628
 20
372.473225
 30
0.0
 40
0.650164
  1
Drawn By:
  7
ROMANC
100
AcDbText
  0
TEXT
  5
9AFC
100
AcDbEntity
  8
BORDER
 62
     6
100
AcDbText
 10
-387.634628
 20
370.9241
 30
0.0
 40
0.650164
  1
Appv'd By: .
  7
ROMANC
100
AcDbText
  0
TEXT
  5
9AFD
100
AcDbEntity
  8
BORDER
 62
     6
100
AcDbText
 10
-387.634628
 20
374.02235
 30
0.0
 40
0.650164
  1
Scale: None
  7
ROMANC
100
AcDbText
  0
LWPOLYLINE
  5
9BDC
100
AcDbEntity
  8
BORDER
 62
     5
100
AcDbPolyline
 90
        2
 70
     0
 43
0.724536
 10
-332.458743
 20
363.388935
 42
0.414214
 10
-329.560598
 20
366.287081
 42
-0.560527
  0
LWPOLYLINE
  5
9BDD
100
AcDbEntity
  8
BORDER
 62
     5
100
AcDbPolyline
 90
        2
 70
     0
 43
0.724536
 10
-329.560598
 20
373.532445
 10
-329.560598
 20
366.287081
  0
LINE
  5
9BDE
100
AcDbEntity
  8
BORDER
100
AcDbLine
 10
-331.009671
 20
366.287081
 30
0.0
 11
-331.009671
 21
373.532445
 31
0.0
  0
LINE
  5
9BDF
100
AcDbEntity
  8
BORDER
100
AcDbLine
 10
-349.847616
 20
364.838008
 30
0.0
 11
-349.847616
 21
373.532445
 31
0.0
  0
LINE
  5
9BE0
100
AcDbEntity
  8
BORDER
100
AcDbLine
 10
-354.194834
 20
368.144281
 30
0.0
 11
-354.194834
 21
364.838008
 31
0.0
  0
LWPOLYLINE
  5
9BE1
100
AcDbEntity
  8
BORDER
 62
     5
100
AcDbPolyline
 90
        2
 70
     0
 43
0.724536
 10
-352.745762
 20
364.838008
 10
-352.745762
 20
373.532445
  0
LWPOLYLINE
  5
9BE2
100
AcDbEntity
  8
BORDER
 62
     5
100
AcDbPolyline
 90
        2
 70
     0
 43
0.724536
 10
-351.296689
 20
364.838008
 10
-351.296689
 20
373.532445
  0
TEXT
  5
9BE3
100
AcDbEntity
  8
BORDER
 62
     6
100
AcDbText
 10
-365.130364
 20
365.577132
 30
0.0
 40
1.950493
  1
15136A
  7
ROMANC
100
AcDbText
  0
LINE
  5
9BE4
100
AcDbEntity
  8
BORDER
100
AcDbLine
 10
-332.458743
 20
364.838008
 30
0.0
 11
-349.847616
 21
364.838008
 31
0.0
  0
ARC
  5
9BE5
100
AcDbEntity
  8
BORDER
100
AcDbCircle
 10
-332.458743
 20
366.287081
 30
0.0
 40
1.449073
100
AcDbArc
 50
270.0
 51
0.0
  0
TEXT
  5
9BE6
100
AcDbEntity
  8
BORDER
 62
     6
100
AcDbText
 10
-344.293435
 20
373.044464
 30
0.0
 40
0.975246
  1
Revisions
  7
ROMANC
100
AcDbText
  0
TEXT
  5
9BE7
100
AcDbEntity
  8
BORDER
 62
     6
100
AcDbText
 10
-345.72433
 20
371.30991
 30
0.0
 40
0.724536
  1
First Released.
  7
ROMAND
100
AcDbText
  0
LINE
  5
9BE8
100
AcDbEntity
  8
BORDER
100
AcDbLine
 10
-332.458743
 20
369.497334
 30
0.0
 11
-348.398543
 21
369.497334
 31
0.0
  0
LINE
  5
9BE9
100
AcDbEntity
  8
BORDER
100
AcDbLine
 10
-332.458743
 20
368.048261
 30
0.0
 11
-348.398543
 21
368.048261
 31
0.0
  0
LINE
  5
9BEA
100
AcDbEntity
  8
BORDER
100
AcDbLine
 10
-332.458743
 20
366.599188
 30
0.0
 11
-348.398543
 21
366.599188
 31
0.0
  0
LWPOLYLINE
  5
9BEB
100
AcDbEntity
  8
BORDER
 62
     5
100
AcDbPolyline
 90
        2
 70
     0
 43
0.724536
 10
-332.458743
 20
376.43059
 10
-348.398543
 20
376.43059
  0
LINE
  5
9BEC
100
AcDbEntity
  8
BORDER
100
AcDbLine
 10
-332.458743
 20
374.981517
 30
0.0
 11
-348.398543
 21
374.981517
 31
0.0
  0
LINE
  5
9BED
100
AcDbEntity
  8
BORDER
100
AcDbLine
 10
-332.458743
 20
372.395479
 30
0.0
 11
-348.398543
 21
372.395479
 31
0.0
  0
LINE
  5
9BEE
100
AcDbEntity
  8
BORDER
100
AcDbLine
 10
-332.458743
 20
370.946406
 30
0.0
 11
-348.398543
 21
370.946406
 31
0.0
  0
LWPOLYLINE
  5
9BEF
100
AcDbEntity
  8
BORDER
 62
     5
100
AcDbPolyline
 90
        2
 70
     0
 43
0.724536
 10
-355.643907
 20
376.43059
 42
-0.414214
 10
-352.745762
 20
373.532445
 42
0.560527
  0
ARC
  5
9BF0
100
AcDbEntity
  8
BORDER
100
AcDbCircle
 10
-348.398543
 20
373.532445
 30
0.0
 40
1.449073
100
AcDbArc
 50
90.0
 51
180.0
  0
ARC
  5
9BF1
100
AcDbEntity
  8
BORDER
100
AcDbCircle
 10
-355.643907
 20
373.532445
 30
0.0
 40
1.449073
100
AcDbArc
 50
0.0
 51
90.0
  0
LWPOLYLINE
  5
9BF2
100
AcDbEntity
  8
BORDER
 62
     5
100
AcDbPolyline
 90
        2
 70
     0
 43
0.724536
 10
-348.398543
 20
376.43059
 42
0.414214
 10
-351.296689
 20
373.532445
 42
-0.560527
  0
LINE
  5
9BF3
100
AcDbEntity
  8
BORDER
100
AcDbLine
 10
-354.194834
 20
373.532445
 30
0.0
 11
-354.194834
 21
369.185226
 31
0.0
  0
LINE
  5
9BF4
100
AcDbEntity
  8
BORDER
100
AcDbLine
 10
-346.949471
 20
372.395479
 30
0.0
 11
-346.949471
 21
366.599188
 31
0.0
  0
LINE
  5
9BF5
100
AcDbEntity
  8
BORDER
100
AcDbLine
 10
-348.398543
 20
372.395479
 30
0.0
 11
-348.398543
 21
366.599188
 31
0.0
  0
TEXT
  5
9BF6
100
AcDbEntity
  8
BORDER
 62
     6
100
AcDbText
 10
-348.018327
 20
371.30991
 30
0.0
 40
0.724536
  1
A
  7
ROMAND
100
AcDbText
  0
LWPOLYLINE
  5
9BF7
100
AcDbEntity
  8
BORDER
100
AcDbPolyline
 90
        6
 70
     1
 43
0.0
 10
-347.365502
 20
371.133626
 10
-347.056777
 20
371.668355
 10
-347.365502
 20
372.203083
 10
-347.982953
 20
372.203083
 10
-348.291679
 20
371.668355
 10
-347.982953
 20
371.133626
  0
ARC
  5
9BF8
100
AcDbEntity
  8
BORDER
100
AcDbCircle
 10
-332.458743
 20
373.532445
 30
0.0
 40
1.449073
100
AcDbArc
 50
0.0
 51
90.0
  0
LWPOLYLINE
  5
9BF9
100
AcDbEntity
  8
BORDER
 62
     5
100
AcDbPolyline
 90
        2
 70
     0
 43
0.724536
 10
-332.458743
 20
376.43059
 42
-0.414214
 10
-329.560598
 20
373.532445
 42
0.560527
  0
LINE
  5
9BFA
100
AcDbEntity
  8
BORDER
100
AcDbLine
 10
-332.458743
 20
372.395479
 30
0.0
 11
-332.458743
 21
366.599188
 31
0.0
  0
LINE
  5
9C05
100
AcDbEntity
  8
LIMITS
 62
     7
100
AcDbLine
 10
-327.242081
 20
502.493915
 30
0.0
 11
-436.971769
 21
502.493915
 31
0.0
  0
LINE
  5
9DE1
100
AcDbEntity
  8
0
100
AcDbLine
 10
-381.820956
 20
474.548369
 30
0.0
 11
-381.820956
 21
478.938549
 31
0.0
  0
LINE
  5
9DE2
100
AcDbEntity
  8
OBJECT
100
AcDbLine
 10
-393.945956
 20
473.298369
 30
0.0
 11
-393.945956
 21
474.548369
 31
0.0
  0
LINE
  5
9DE3
100
AcDbEntity
  8
OBJECT
100
AcDbLine
 10
-369.695956
 20
473.298369
 30
0.0
 11
-369.695956
 21
474.548369
 31
0.0
  0
LINE
  5
9DE4
100
AcDbEntity
  8
OBJECT
100
AcDbLine
 10
-393.945956
 20
473.298369
 30
0.0
 11
-369.695956
 21
473.298369
 31
0.0
  0
LINE
  5
A1A0
100
AcDbEntity
  8
OBJECT
100
AcDbLine
 10
-367.570956
 20
473.298369
 30
0.0
 11
-367.070956
 21
473.298369
 31
0.0
  0
LINE
  5
A1A1
100
AcDbEntity
  8
CENTER
100
AcDbLine
 10
-367.320956
 20
472.970294
 30
0.0
 11
-367.320956
 21
475.044161
 31
0.0
  0
LINE
  5
A1A2
100
AcDbEntity
  8
OBJECT
100
AcDbLine
 10
-367.820956
 20
473.548369
 30
0.0
 11
-367.820956
 21
474.548369
 31
0.0
  0
ARC
  5
A1A3
100
AcDbEntity
  8
OBJECT
100
AcDbCircle
 10
-367.570956
 20
473.548369
 30
0.0
 40
0.25
100
AcDbArc
 50
180.0
 51
270.0
  0
LINE
  5
A1A4
100
AcDbEntity
  8
OBJECT
100
AcDbLine
 10
-366.820956
 20
473.548369
 30
0.0
 11
-366.820956
 21
474.548369
 31
0.0
  0
ARC
  5
A1A5
100
AcDbEntity
  8
OBJECT
100
AcDbCircle
 10
-367.070956
 20
473.548369
 30
0.0
 40
0.25
100
AcDbArc
 50
270.0
 51
0.0
  0
LINE
  5
A1A6
100
AcDbEntity
  8
OBJECT
100
AcDbLine
 10
-396.070956
 20
473.298369
 30
0.0
 11
-396.570956
 21
473.298369
 31
0.0
  0
LINE
  5
A1A7
100
AcDbEntity
  8
OBJECT
100
AcDbLine
 10
-396.820956
 20
473.548369
 30
0.0
 11
-396.820956
 21
474.548369
 31
0.0
  0
LINE
  5
A1A8
100
AcDbEntity
  8
CENTER
100
AcDbLine
 10
-396.320956
 20
472.970294
 30
0.0
 11
-396.320956
 21
475.044161
 31
0.0
  0
ARC
  5
A1A9
100
AcDbEntity
  8
OBJECT
100
AcDbCircle
 10
-396.570956
 20
473.548369
 30
0.0
 40
0.25
100
AcDbArc
 50
180.0
 51
270.0
  0
LINE
  5
A1AA
100
AcDbEntity
  8
OBJECT
100
AcDbLine
 10
-395.820956
 20
473.548369
 30
0.0
 11
-395.820956
 21
474.548369
 31
0.0
  0
ARC
  5
A1AB
100
AcDbEntity
  8
OBJECT
100
AcDbCircle
 10
-396.070956
 20
473.548369
 30
0.0
 40
0.25
100
AcDbArc
 50
270.0
 51
0.0
  0
DIMENSION
  5
A1B9
100
AcDbEntity
  8
0
100
AcDbDimension
  2
*D7
 10
-367.320956
 20
465.073474
 30
0.0
 11
-381.820956
 21
465.073474
 31
0.0
 70
   160
  1
%%c<>
  3
STANDARD
100
AcDbAlignedDimension
 13
-396.320956
 23
472.970294
 33
0.0
 14
-367.320956
 24
472.970294
 34
0.0
100
AcDbRotatedDimension
1001
ACAD
1000
DSTYLE
1002
{
1070
    40
1040
1.0
1002
}
  0
DIMENSION
  5
A1DF
100
AcDbEntity
  8
0
100
AcDbDimension
  2
*D8
 10
-369.695956
 20
469.201956
 30
0.0
 11
-381.820956
 21
469.201956
 31
0.0
 70
    32
  1
%%c<>
  3
STANDARD
100
AcDbAlignedDimension
 13
-393.945956
 23
473.298369
 33
0.0
 14
-369.695956
 24
473.298369
 34
0.0
100
AcDbRotatedDimension
1001
ACAD
1000
DSTYLE
1002
{
1070
    40
1040
1.0
1002
}
  0
DIMENSION
  5
A242
100
AcDbEntity
  8
0
100
AcDbDimension
  2
*D9
 10
-401.534181
 20
473.298369
 30
0.0
 11
-407.269895
 21
466.975295
 31
0.0
 70
   160
  1
<>\P(TYP.)
  3
STANDARD
100
AcDbAlignedDimension
 13
-397.320956
 23
474.548369
 33
0.0
 14
-393.945956
 24
473.298369
 34
0.0
 50
90.0
100
AcDbRotatedDimension
1001
ACAD
1000
DSTYLE
1002
{
1070
    40
1040
1.0
1002
}
  0
LEADER
  5
A25D
100
AcDbEntity
  8
0
100
AcDbLeader
  3
STANDARD
 73
     0
 75
     1
 40
4.307143
 41
10.157143
 76
     3
 10
-396.570956
 20
473.298369
 30
0.0
 10
-404.150759
 20
458.826095
 30
0.0
 10
-405.450759
 20
458.826095
 30
0.0
 77
   256
340
A25E
1001
ACAD
1000
DSTYLE
1002
{
1070
    40
1040
1.0
1002
}
  0
MTEXT
  5
A25E
102
{ACAD_REACTORS
330
A25D
102
}
100
AcDbEntity
  8
0
100
AcDbMText
 10
-406.800759
 20
458.826095
 30
0.0
 40
1.35
 41
0.0
 71
     6
 72
     1
  1
\A1;Riser Feet\P(6)
  7
ROMAND
  0
ENDSEC
  0
SECTION
  2
OBJECTS
  0
DICTIONARY
  5
C
100
AcDbDictionary
  3
ACAD_GROUP
350
D
  3
ACAD_MLINESTYLE
350
1A
  3
ACDBVARIABLEDICTIONARY
350
45
  0
DICTIONARY
  5
D
102
{ACAD_REACTORS
330
C
102
}
100
AcDbDictionary
  0
DICTIONARY
  5
1A
102
{ACAD_REACTORS
330
C
102
}
100
AcDbDictionary
  3
STANDARD
350
1B
  0
DICTIONARY
  5
45
102
{ACAD_REACTORS
330
C
102
}
100
AcDbDictionary
  3
DIMADEC
350
46
  3
SORTENTS
350
12BF
  0
MLINESTYLE
  5
1B
102
{ACAD_REACTORS
330
1A
102
}
100
AcDbMlineStyle
  2
STANDARD
 70
     0
  3

 62
   256
 51
90.0
 52
90.0
 71
     2
 49
0.5
 62
   256
  6
BYLAYER
 49
-0.5
 62
   256
  6
BYLAYER
  0
DICTIONARYVAR
  5
46
102
{ACAD_REACTORS
330
45
102
}
100
DictionaryVariables
280
     0
  1
0
  0
DICTIONARYVAR
  5
12BF
102
{ACAD_REACTORS
330
45
102
}
100
DictionaryVariables
280
     0
  1
96
  0
ENDSEC
  0
EOF
