  0
SECTION
  2
HEADER
  9
$ACADVER
  1
AC1014
  9
$ACADMAINTVER
 70
     0
  9
$DWGCODEPAGE
  3
ANSI_1252
  9
$INSBASE
 10
0.0
 20
0.0
 30
0.0
  9
$EXTMIN
 10
2.48555
 20
17.297109
 30
0.0
  9
$EXTMAX
 10
197.98555
 20
270.297109
 30
50.0
  9
$LIMMIN
 10
2.48555
 20
17.297109
  9
$LIMMAX
 10
197.98555
 20
270.297109
  9
$ORTHOMODE
 70
     1
  9
$REGENMODE
 70
     1
  9
$FILLMODE
 70
     1
  9
$QTEXTMODE
 70
     0
  9
$MIRRTEXT
 70
     1
  9
$DRAGMODE
 70
     2
  9
$LTSCALE
 40
4.0
  9
$OSMODE
 70
   675
  9
$ATTMODE
 70
     1
  9
$TEXTSIZE
 40
2.0
  9
$TRACEWID
 40
0.05
  9
$TEXTSTYLE
  7
ROMANC
  9
$CLAYER
  8
DIM
  9
$CELTYPE
  6
BYLAYER
  9
$CECOLOR
 62
   256
  9
$CELTSCALE
 40
1.0
  9
$DELOBJ
 70
     1
  9
$DISPSILH
 70
     0
  9
$DIMSCALE
 40
0.0
  9
$DIMASZ
 40
1.6
  9
$DIMEXO
 40
0.06
  9
$DIMDLI
 40
0.38
  9
$DIMRND
 40
0.0
  9
$DIMDLE
 40
0.0
  9
$DIMEXE
 40
1.7
  9
$DIMTP
 40
0.0
  9
$DIMTM
 40
0.0
  9
$DIMTXT
 40
1.5
  9
$DIMCEN
 40
0.09
  9
$DIMTSZ
 40
0.0
  9
$DIMTOL
 70
     0
  9
$DIMLIM
 70
     0
  9
$DIMTIH
 70
     1
  9
$DIMTOH
 70
     1
  9
$DIMSE1
 70
     0
  9
$DIMSE2
 70
     0
  9
$DIMTAD
 70
     0
  9
$DIMZIN
 70
     0
  9
$DIMBLK
  1

  9
$DIMASO
 70
     1
  9
$DIMSHO
 70
     1
  9
$DIMPOST
  1

  9
$DIMAPOST
  1

  9
$DIMALT
 70
     0
  9
$DIMALTD
 70
     2
  9
$DIMALTF
 40
25.4
  9
$DIMLFAC
 40
1.0
  9
$DIMTOFL
 70
     0
  9
$DIMTVP
 40
0.0
  9
$DIMTIX
 70
     0
  9
$DIMSOXD
 70
     0
  9
$DIMSAH
 70
     0
  9
$DIMBLK1
  1

  9
$DIMBLK2
  1

  9
$DIMSTYLE
  2
STANDARD
  9
$DIMCLRD
 70
     0
  9
$DIMCLRE
 70
     0
  9
$DIMCLRT
 70
     0
  9
$DIMTFAC
 40
1.0
  9
$DIMGAP
 40
1.5
  9
$DIMJUST
 70
     0
  9
$DIMSD1
 70
     0
  9
$DIMSD2
 70
     0
  9
$DIMTOLJ
 70
     1
  9
$DIMTZIN
 70
     0
  9
$DIMALTZ
 70
     0
  9
$DIMALTTZ
 70
     0
  9
$DIMFIT
 70
     5
  9
$DIMUPT
 70
     0
  9
$DIMUNIT
 70
     2
  9
$DIMDEC
 70
     2
  9
$DIMTDEC
 70
     2
  9
$DIMALTU
 70
     2
  9
$DIMALTTD
 70
     2
  9
$DIMTXSTY
  7
STANDARD
  9
$DIMAUNIT
 70
     0
  9
$LUNITS
 70
     2
  9
$LUPREC
 70
     2
  9
$SKETCHINC
 40
0.1
  9
$FILLETRAD
 40
0.0
  9
$AUNITS
 70
     0
  9
$AUPREC
 70
     0
  9
$MENU
  1
acad
  9
$ELEVATION
 40
0.0
  9
$PELEVATION
 40
0.0
  9
$THICKNESS
 40
0.0
  9
$LIMCHECK
 70
     0
  9
$BLIPMODE
 70
     0
  9
$CHAMFERA
 40
0.0
  9
$CHAMFERB
 40
0.0
  9
$CHAMFERC
 40
0.0
  9
$CHAMFERD
 40
0.0
  9
$SKPOLY
 70
     0
  9
$TDCREATE
 40
2449584.629804629
  9
$TDUPDATE
 40
2453133.568884155
  9
$TDINDWG
 40
1.1434864236
  9
$TDUSRTIMER
 40
1.1434864236
  9
$USRTIMER
 70
     1
  9
$ANGBASE
 50
0.0
  9
$ANGDIR
 70
     0
  9
$PDMODE
 70
     0
  9
$PDSIZE
 40
0.0
  9
$PLINEWID
 40
0.0
  9
$COORDS
 70
     1
  9
$SPLFRAME
 70
     0
  9
$SPLINETYPE
 70
     6
  9
$SPLINESEGS
 70
     8
  9
$ATTDIA
 70
     0
  9
$ATTREQ
 70
     1
  9
$HANDLING
 70
     1
  9
$HANDSEED
  5
C9C7
  9
$SURFTAB1
 70
     6
  9
$SURFTAB2
 70
     6
  9
$SURFTYPE
 70
     6
  9
$SURFU
 70
     6
  9
$SURFV
 70
     6
  9
$UCSNAME
  2

  9
$UCSORG
 10
0.0
 20
0.0
 30
0.0
  9
$UCSXDIR
 10
1.0
 20
0.0
 30
0.0
  9
$UCSYDIR
 10
0.0
 20
1.0
 30
0.0
  9
$PUCSNAME
  2

  9
$PUCSORG
 10
0.0
 20
0.0
 30
0.0
  9
$PUCSXDIR
 10
1.0
 20
0.0
 30
0.0
  9
$PUCSYDIR
 10
0.0
 20
1.0
 30
0.0
  9
$USERI1
 70
     0
  9
$USERI2
 70
     0
  9
$USERI3
 70
     0
  9
$USERI4
 70
     0
  9
$USERI5
 70
     0
  9
$USERR1
 40
0.0
  9
$USERR2
 40
0.0
  9
$USERR3
 40
0.0
  9
$USERR4
 40
0.0
  9
$USERR5
 40
0.0
  9
$WORLDVIEW
 70
     1
  9
$SHADEDGE
 70
     3
  9
$SHADEDIF
 70
    70
  9
$TILEMODE
 70
     1
  9
$MAXACTVP
 70
    16
  9
$PINSBASE
 10
0.0
 20
0.0
 30
0.0
  9
$PLIMCHECK
 70
     0
  9
$PEXTMIN
 10
1.000000E+20
 20
1.000000E+20
 30
1.000000E+20
  9
$PEXTMAX
 10
-1.000000E+20
 20
-1.000000E+20
 30
-1.000000E+20
  9
$PLIMMIN
 10
0.0
 20
0.0
  9
$PLIMMAX
 10
12.0
 20
9.0
  9
$UNITMODE
 70
     0
  9
$VISRETAIN
 70
     0
  9
$PLINEGEN
 70
     0
  9
$PSLTSCALE
 70
     1
  9
$TREEDEPTH
 70
  3020
  9
$PICKSTYLE
 70
     1
  9
$CMLSTYLE
  2
STANDARD
  9
$CMLJUST
 70
     0
  9
$CMLSCALE
 40
1.0
  9
$PROXYGRAPHICS
 70
     1
  9
$MEASUREMENT
 70
     0
  0
ENDSEC
  0
SECTION
  2
CLASSES
  0
CLASS
  1
DICTIONARYVAR
  2
AcDbDictionaryVar
  3
"AutoCAD"
 90
        0
280
     0
281
     0
  0
CLASS
  1
LWPOLYLINE
  2
AcDbPolyline
  3
"AutoCAD"
 90
        0
280
     0
281
     1
  0
CLASS
  1
HATCH
  2
AcDbHatch
  3
"ACAD_SEDONA"
 90
        0
280
     0
281
     1
  0
ENDSEC
  0
SECTION
  2
TABLES
  0
TABLE
  2
VPORT
  5
8
100
AcDbSymbolTable
 70
     3
  0
VPORT
  5
C9C6
100
AcDbSymbolTableRecord
100
AcDbViewportTableRecord
  2
*ACTIVE
 70
     0
 10
0.0
 20
0.0
 11
1.0
 21
1.0
 12
100.23555
 22
143.797109
 13
0.0
 23
0.0
 14
1.0
 24
1.0
 15
0.0
 25
0.0
 16
0.0
 26
0.0
 36
1.0
 17
0.0
 27
0.0
 37
0.0
 40
255.754991
 41
1.750909
 42
50.0
 43
0.0
 44
0.0
 50
0.0
 51
0.0
 71
     0
 72
   100
 73
     1
 74
     0
 75
     0
 76
     0
 77
     0
 78
     0
  0
ENDTAB
  0
TABLE
  2
LTYPE
  5
5
100
AcDbSymbolTable
 70
     4
  0
LTYPE
  5
11
100
AcDbSymbolTableRecord
100
AcDbLinetypeTableRecord
  2
BYBLOCK
 70
     0
  3

 72
    65
 73
     0
 40
0.0
  0
LTYPE
  5
12
100
AcDbSymbolTableRecord
100
AcDbLinetypeTableRecord
  2
BYLAYER
 70
     0
  3

 72
    65
 73
     0
 40
0.0
  0
LTYPE
  5
13
100
AcDbSymbolTableRecord
100
AcDbLinetypeTableRecord
  2
CONTINUOUS
 70
     0
  3
Solid line
 72
    65
 73
     0
 40
0.0
  0
LTYPE
  5
34
100
AcDbSymbolTableRecord
100
AcDbLinetypeTableRecord
  2
CENTER
 70
     0
  3
____ _ ____ _ ____ _ ____ _ ____ _ ____ _ ____ 
 72
    65
 73
     4
 40
2.0
 49
1.25
 74
     0
 49
-0.25
 74
     0
 49
0.25
 74
     0
 49
-0.25
 74
     0
  0
LTYPE
  5
35
100
AcDbSymbolTableRecord
100
AcDbLinetypeTableRecord
  2
HIDDEN
 70
     0
  3
__ __ __ __ __ __ __ __ __ __ __ __ __ __ __ __
 72
    65
 73
     2
 40
0.375
 49
0.25
 74
     0
 49
-0.125
 74
     0
  0
LTYPE
  5
36
100
AcDbSymbolTableRecord
100
AcDbLinetypeTableRecord
  2
PHANTOM
 70
     0
  3
______  __  __  ______  __  __  ______  __  __ 
 72
    65
 73
     6
 40
2.5
 49
1.25
 74
     0
 49
-0.25
 74
     0
 49
0.25
 74
     0
 49
-0.25
 74
     0
 49
0.25
 74
     0
 49
-0.25
 74
     0
  0
ENDTAB
  0
TABLE
  2
LAYER
  5
2
100
AcDbSymbolTable
 70
    12
  0
LAYER
  5
E
100
AcDbSymbolTableRecord
100
AcDbLayerTableRecord
  2
0
 70
     0
 62
     7
  6
CONTINUOUS
  0
LAYER
  5
39
100
AcDbSymbolTableRecord
100
AcDbLayerTableRecord
  2
OBJECT
 70
     0
 62
     2
  6
CONTINUOUS
  0
LAYER
  5
3A
100
AcDbSymbolTableRecord
100
AcDbLayerTableRecord
  2
DIM
 70
     0
 62
     6
  6
CONTINUOUS
  0
LAYER
  5
3B
100
AcDbSymbolTableRecord
100
AcDbLayerTableRecord
  2
HIDDEN
 70
     0
 62
     1
  6
HIDDEN
  0
LAYER
  5
3C
100
AcDbSymbolTableRecord
100
AcDbLayerTableRecord
  2
CENTER
 70
     0
 62
     3
  6
CENTER
  0
LAYER
  5
3D
100
AcDbSymbolTableRecord
100
AcDbLayerTableRecord
  2
15
 70
     0
 62
     4
  6
CONTINUOUS
  0
LAYER
  5
3E
100
AcDbSymbolTableRecord
100
AcDbLayerTableRecord
  2
DEFPOINTS
 70
     0
 62
     7
  6
CONTINUOUS
  0
LAYER
  5
3F
100
AcDbSymbolTableRecord
100
AcDbLayerTableRecord
  2
BORDER
 70
     0
 62
     5
  6
CONTINUOUS
  0
LAYER
  5
40
100
AcDbSymbolTableRecord
100
AcDbLayerTableRecord
  2
ELEV
 70
     0
 62
     3
  6
CONTINUOUS
  0
LAYER
  5
41
100
AcDbSymbolTableRecord
100
AcDbLayerTableRecord
  2
HATCH
 70
     0
 62
     4
  6
CONTINUOUS
  0
LAYER
  5
42
100
AcDbSymbolTableRecord
100
AcDbLayerTableRecord
  2
PUMP
 70
     0
 62
     4
  6
CONTINUOUS
  0
LAYER
  5
43
100
AcDbSymbolTableRecord
100
AcDbLayerTableRecord
  2
LIMITS
 70
     0
 62
     7
  6
CONTINUOUS
  0
ENDTAB
  0
TABLE
  2
STYLE
  5
3
100
AcDbSymbolTable
 70
     8
  0
STYLE
  5
F
100
AcDbSymbolTableRecord
100
AcDbTextStyleTableRecord
  2
STANDARD
 70
     0
 40
0.0
 41
1.0
 50
0.0
 71
     0
 42
0.2
  3
txt
  4

  0
STYLE
  5
2C
100
AcDbSymbolTableRecord
100
AcDbTextStyleTableRecord
  2
ROMANS
 70
     0
 40
1.5
 41
1.0
 50
0.0
 71
     0
 42
1.5
  3
romans
  4

  0
STYLE
  5
2D
100
AcDbSymbolTableRecord
100
AcDbTextStyleTableRecord
  2
ROMANC
 70
     0
 40
2.0
 41
1.0
 50
0.0
 71
     0
 42
2.0
  3
romanc.shx
  4

  0
STYLE
  5
2E
100
AcDbSymbolTableRecord
100
AcDbTextStyleTableRecord
  2
ROMAND
 70
     0
 40
1.7
 41
1.0
 50
0.0
 71
     0
 42
1.7
  3
romand
  4

  0
STYLE
  5
2F
100
AcDbSymbolTableRecord
100
AcDbTextStyleTableRecord
  2
SCRIPTC
 70
     0
 40
1.7
 41
1.0
 50
0.0
 71
     0
 42
1.7
  3
scriptc
  4

  0
STYLE
  5
31
100
AcDbSymbolTableRecord
100
AcDbTextStyleTableRecord
  2
ROMANT
 70
     0
 40
0.179898
 41
1.0
 50
0.0
 71
     0
 42
0.179898
  3
romant
  4

  0
STYLE
  5
32
100
AcDbSymbolTableRecord
100
AcDbTextStyleTableRecord
  2
ITALICT
 70
     0
 40
0.146873
 41
1.0
 50
0.0
 71
     0
 42
0.146873
  3
italict
  4

  0
STYLE
  5
33
100
AcDbSymbolTableRecord
100
AcDbTextStyleTableRecord
  2
COUNTRYBLUEPRINT
 70
     0
 40
0.061059
 41
1.0
 50
0.0
 71
     0
 42
0.061059
  3
cobt____.pfb
  4

  0
ENDTAB
  0
TABLE
  2
VIEW
  5
6
100
AcDbSymbolTable
 70
     0
  0
ENDTAB
  0
TABLE
  2
UCS
  5
7
100
AcDbSymbolTable
 70
     0
  0
ENDTAB
  0
TABLE
  2
APPID
  5
9
100
AcDbSymbolTable
 70
     3
  0
APPID
  5
10
100
AcDbSymbolTableRecord
100
AcDbRegAppTableRecord
  2
ACAD
 70
     0
  0
APPID
  5
2397
100
AcDbSymbolTableRecord
100
AcDbRegAppTableRecord
  2
DRAWINGVARIABLESXDATA
 70
     0
  0
APPID
  5
23CF
100
AcDbSymbolTableRecord
100
AcDbRegAppTableRecord
  2
CONTENTBLOCKICON
 70
     0
  0
ENDTAB
  0
TABLE
  2
DIMSTYLE
  5
A
100
AcDbSymbolTable
 70
     1
  0
DIMSTYLE
105
188E
102
{ACAD_REACTORS
330
616E
330
616D
330
616C
102
}
100
AcDbSymbolTableRecord
100
AcDbDimStyleTableRecord
  2
STANDARD
 70
     0
  3

  4

  5

  6

  7

 40
1.0
 41
0.18
 42
0.0625
 43
0.38
 44
0.18
 45
0.0
 46
0.0
 47
0.0
 48
0.0
140
0.18
141
0.09
142
0.0
143
25.4
144
1.0
145
0.0
146
1.0
147
0.09
 71
     0
 72
     0
 73
     1
 74
     1
 75
     0
 76
     0
 77
     0
 78
     0
170
     0
171
     2
172
     0
173
     0
174
     0
175
     0
176
     0
177
     0
178
     0
270
     2
271
     4
272
     4
273
     2
274
     2
340
F
275
     0
280
     0
281
     0
282
     0
283
     1
284
     0
285
     0
286
     0
287
     3
288
     0
  0
ENDTAB
  0
TABLE
  2
BLOCK_RECORD
  5
1
100
AcDbSymbolTable
 70
    11
  0
BLOCK_RECORD
  5
17
100
AcDbSymbolTableRecord
100
AcDbBlockTableRecord
  2
*MODEL_SPACE
  0
BLOCK_RECORD
  5
14
100
AcDbSymbolTableRecord
100
AcDbBlockTableRecord
  2
*PAPER_SPACE
  0
BLOCK_RECORD
  5
1D
100
AcDbSymbolTableRecord
100
AcDbBlockTableRecord
  2
*X0
  0
BLOCK_RECORD
  5
1E
100
AcDbSymbolTableRecord
100
AcDbBlockTableRecord
  2
*X1
  0
BLOCK_RECORD
  5
1F
100
AcDbSymbolTableRecord
100
AcDbBlockTableRecord
  2
*X2
  0
BLOCK_RECORD
  5
20
100
AcDbSymbolTableRecord
100
AcDbBlockTableRecord
  2
*X3
  0
BLOCK_RECORD
  5
21
100
AcDbSymbolTableRecord
100
AcDbBlockTableRecord
  2
*X4
  0
BLOCK_RECORD
  5
23B2
100
AcDbSymbolTableRecord
100
AcDbBlockTableRecord
  2
150PF
1001
CONTENTBLOCKICON
1071
        0
1004
280000002000000020000000010004000000000000020000000000000000000000000000000000000000000000008000008000000080800080000000800080008080000080808000C0C0C0000000FF0000FF000000FFFF00FF000000FF00FF00FFFF0000FFFFFF00FFFFFFFFFFFFFFFFFFFFFFFFFFFFFFFF
1004
FFFFFFFFFFFFFFFFFFFFFFFFFFFFFFFFFFFFFFFFFFFFFFFFFFFFFFFFFFFFFFFFFFFFFFFFFFFFFFFFFFFFFFFFFFFFFFFFFFFFFFFFFFFFFFFFFFFFFFFFFFFFFFFFFFFFFFFFFFFFFFFFFFFFFFFFFFFFFFFFFFFFFFFFFFFFFFFBABFFFFFFFFFFFFFFFFFFFFFFFFFFFFBBABFFFFFFFFFFFFFFFFFFFFFFFFFFFBAA
1004
AAABFFFFFFFFFFFFFFFFFFFFFFFBBBFFAFFBBBFFFFFFFFFFFFFFFFFFFFBBFFFBABFFFBFFFFFFFFFFFFFFFFFFFFBFFBBBABBBFFBFFFFFFFFFFFFFFFFFFBBFBBBBABFBBFBBFFFFFFFFFFFFFFFFFBFFBBBFAFBBBFFBFFFFFFFFFFFFFFFFFBFBBBFFAFFBBFFBFFFFFFFFFFFFFFFFAAAAAAAAAAAAAAAAAFFFFFFF
1004
FFFFFFFFFBFBFBFFAFFBBBFBFFFFFFFFFFFFFFFFFBFFBBBFAFBBBFFBFFFFFFFFFFFFFFFFFBBFBBBBABBBBFBBFFFFFFFFFFFFFFFFFFBFFBBFABBBFFBFFFFFFFFFFFFFFFFFFFBBFFFBABFFFBBFFFFFFFFFFFFFFFFFFFFBBFFFAFFFBBFFFFFFFFFFFFFFFFFFFFFFBBBBABBBFFFFFFFFFFFFFFFFFFFFFFFFFFAA
1004
AAAFFFFFFFFFFFFFFFFFFFFFFFFFFFFBABFFFFFFFFFFFFFFFFFFFFFFFFFFFFFFAFFFFFFFFFFFFFFFFFFFFFFFFFFFFFFFFFFFFFFFFFFFFFFFFFFFFFFFFFFFFFFFFFFFFFFFFFFFFFFFFFFFFFFFFFFFFFFFFFFFFFFFFFFFFFFFFFFFFFFFFFFFFFFFFFFFFFFFFFFFFFFFFFFFFFFFFFFFFFFFFFFFFFFFFFFFFFFF
1004
FFFFFFFFFFFFFFFFFFFFFFFFFFFFFFFF
  0
BLOCK_RECORD
  5
61DB
100
AcDbSymbolTableRecord
100
AcDbBlockTableRecord
  2
*D6
  0
BLOCK_RECORD
  5
61E8
100
AcDbSymbolTableRecord
100
AcDbBlockTableRecord
  2
*D7
  0
BLOCK_RECORD
  5
61F5
100
AcDbSymbolTableRecord
100
AcDbBlockTableRecord
  2
*D8
  0
BLOCK_RECORD
  5
620E
100
AcDbSymbolTableRecord
100
AcDbBlockTableRecord
  2
*D9
  0
ENDTAB
  0
ENDSEC
  0
SECTION
  2
BLOCKS
  0
BLOCK
  5
46
100
AcDbEntity
  8
0
100
AcDbBlockBegin
  2
*MODEL_SPACE
 70
     0
 10
0.0
 20
0.0
 30
0.0
  3
*MODEL_SPACE
  1

  0
ENDBLK
  5
47
100
AcDbEntity
  8
0
100
AcDbBlockEnd
  0
BLOCK
  5
44
100
AcDbEntity
 67
     1
  8
0
100
AcDbBlockBegin
  2
*PAPER_SPACE
 70
     0
 10
0.0
 20
0.0
 30
0.0
  3
*PAPER_SPACE
  1

  0
ENDBLK
  5
45
100
AcDbEntity
 67
     1
  8
0
100
AcDbBlockEnd
  0
BLOCK
  5
5E
100
AcDbEntity
  8
0
100
AcDbBlockBegin
  2
*X0
 70
     1
 10
0.0
 20
0.0
 30
0.0
  3
*X0
  1

  0
LINE
  5
5F
100
AcDbEntity
  8
0
 62
     0
100
AcDbLine
 10
112.198979
 20
89.394785
 30
0.0
 11
114.86671
 21
92.062516
 31
0.0
  0
LINE
  5
60
100
AcDbEntity
  8
0
 62
     0
100
AcDbLine
 10
112.198979
 20
89.527368
 30
0.0
 11
114.734127
 21
92.062516
 31
0.0
  0
LINE
  5
61
100
AcDbEntity
  8
0
 62
     0
100
AcDbLine
 10
112.198979
 20
89.65995
 30
0.0
 11
114.601545
 21
92.062516
 31
0.0
  0
LINE
  5
62
100
AcDbEntity
  8
0
 62
     0
100
AcDbLine
 10
112.198979
 20
89.792533
 30
0.0
 11
114.468962
 21
92.062516
 31
0.0
  0
LINE
  5
63
100
AcDbEntity
  8
0
 62
     0
100
AcDbLine
 10
112.198979
 20
89.925115
 30
0.0
 11
114.33638
 21
92.062516
 31
0.0
  0
LINE
  5
64
100
AcDbEntity
  8
0
 62
     0
100
AcDbLine
 10
112.198979
 20
90.057698
 30
0.0
 11
114.203797
 21
92.062516
 31
0.0
  0
LINE
  5
65
100
AcDbEntity
  8
0
 62
     0
100
AcDbLine
 10
112.198979
 20
90.19028
 30
0.0
 11
114.071215
 21
92.062516
 31
0.0
  0
LINE
  5
66
100
AcDbEntity
  8
0
 62
     0
100
AcDbLine
 10
112.198979
 20
90.322863
 30
0.0
 11
113.938632
 21
92.062516
 31
0.0
  0
LINE
  5
67
100
AcDbEntity
  8
0
 62
     0
100
AcDbLine
 10
112.198979
 20
90.455445
 30
0.0
 11
113.80605
 21
92.062516
 31
0.0
  0
LINE
  5
68
100
AcDbEntity
  8
0
 62
     0
100
AcDbLine
 10
112.198979
 20
90.588028
 30
0.0
 11
113.673467
 21
92.062516
 31
0.0
  0
LINE
  5
69
100
AcDbEntity
  8
0
 62
     0
100
AcDbLine
 10
112.198979
 20
90.72061
 30
0.0
 11
113.540885
 21
92.062516
 31
0.0
  0
LINE
  5
6A
100
AcDbEntity
  8
0
 62
     0
100
AcDbLine
 10
112.198979
 20
90.853193
 30
0.0
 11
113.408302
 21
92.062516
 31
0.0
  0
LINE
  5
6B
100
AcDbEntity
  8
0
 62
     0
100
AcDbLine
 10
112.198979
 20
90.985775
 30
0.0
 11
113.27572
 21
92.062516
 31
0.0
  0
LINE
  5
6C
100
AcDbEntity
  8
0
 62
     0
100
AcDbLine
 10
112.198979
 20
91.118358
 30
0.0
 11
113.143137
 21
92.062516
 31
0.0
  0
LINE
  5
6D
100
AcDbEntity
  8
0
 62
     0
100
AcDbLine
 10
112.198979
 20
91.25094
 30
0.0
 11
113.010555
 21
92.062516
 31
0.0
  0
LINE
  5
6E
100
AcDbEntity
  8
0
 62
     0
100
AcDbLine
 10
112.198979
 20
91.383523
 30
0.0
 11
112.877972
 21
92.062516
 31
0.0
  0
LINE
  5
6F
100
AcDbEntity
  8
0
 62
     0
100
AcDbLine
 10
112.198979
 20
91.516105
 30
0.0
 11
112.74539
 21
92.062516
 31
0.0
  0
LINE
  5
70
100
AcDbEntity
  8
0
 62
     0
100
AcDbLine
 10
112.198979
 20
91.648688
 30
0.0
 11
112.612807
 21
92.062516
 31
0.0
  0
LINE
  5
71
100
AcDbEntity
  8
0
 62
     0
100
AcDbLine
 10
112.198979
 20
91.78127
 30
0.0
 11
112.480225
 21
92.062516
 31
0.0
  0
LINE
  5
72
100
AcDbEntity
  8
0
 62
     0
100
AcDbLine
 10
112.198979
 20
91.913853
 30
0.0
 11
112.347642
 21
92.062516
 31
0.0
  0
LINE
  5
73
100
AcDbEntity
  8
0
 62
     0
100
AcDbLine
 10
112.198979
 20
92.046436
 30
0.0
 11
112.21506
 21
92.062516
 31
0.0
  0
LINE
  5
74
100
AcDbEntity
  8
0
 62
     0
100
AcDbLine
 10
112.252751
 20
89.315975
 30
0.0
 11
114.94552
 21
92.008744
 31
0.0
  0
LINE
  5
75
100
AcDbEntity
  8
0
 62
     0
100
AcDbLine
 10
112.391567
 20
89.322208
 30
0.0
 11
114.939287
 21
91.869928
 31
0.0
  0
LINE
  5
76
100
AcDbEntity
  8
0
 62
     0
100
AcDbLine
 10
112.538445
 20
89.336504
 30
0.0
 11
114.924991
 21
91.72305
 31
0.0
  0
LINE
  5
77
100
AcDbEntity
  8
0
 62
     0
100
AcDbLine
 10
112.695154
 20
89.36063
 30
0.0
 11
114.900865
 21
91.566341
 31
0.0
  0
LINE
  5
78
100
AcDbEntity
  8
0
 62
     0
100
AcDbLine
 10
112.864354
 20
89.397248
 30
0.0
 11
114.864247
 21
91.397141
 31
0.0
  0
LINE
  5
79
100
AcDbEntity
  8
0
 62
     0
100
AcDbLine
 10
113.050418
 20
89.45073
 30
0.0
 11
114.810765
 21
91.211077
 31
0.0
  0
LINE
  5
7A
100
AcDbEntity
  8
0
 62
     0
100
AcDbLine
 10
113.26154
 20
89.529269
 30
0.0
 11
114.732226
 21
90.999955
 31
0.0
  0
LINE
  5
7B
100
AcDbEntity
  8
0
 62
     0
100
AcDbLine
 10
113.517314
 20
89.65246
 30
0.0
 11
114.609035
 21
90.744181
 31
0.0
  0
LINE
  5
7C
100
AcDbEntity
  8
0
 62
     0
100
AcDbLine
 10
113.914036
 20
89.9166
 30
0.0
 11
114.344895
 21
90.347459
 31
0.0
  0
LINE
  5
7D
100
AcDbEntity
  8
0
 62
     0
100
AcDbLine
 10
114.098784
 20
90.078299
 30
0.0
 11
112.198979
 21
91.978104
 31
0.0
  0
LINE
  5
7E
100
AcDbEntity
  8
0
 62
     0
100
AcDbLine
 10
114.029919
 20
90.014581
 30
0.0
 11
112.198979
 21
91.845522
 31
0.0
  0
LINE
  5
7F
100
AcDbEntity
  8
0
 62
     0
100
AcDbLine
 10
113.95878
 20
89.953138
 30
0.0
 11
112.198979
 21
91.712939
 31
0.0
  0
LINE
  5
80
100
AcDbEntity
  8
0
 62
     0
100
AcDbLine
 10
113.885351
 20
89.893985
 30
0.0
 11
112.198979
 21
91.580357
 31
0.0
  0
LINE
  5
81
100
AcDbEntity
  8
0
 62
     0
100
AcDbLine
 10
113.809605
 20
89.837148
 30
0.0
 11
112.198979
 21
91.447774
 31
0.0
  0
LINE
  5
82
100
AcDbEntity
  8
0
 62
     0
100
AcDbLine
 10
113.731508
 20
89.782662
 30
0.0
 11
112.198979
 21
91.315192
 31
0.0
  0
LINE
  5
83
100
AcDbEntity
  8
0
 62
     0
100
AcDbLine
 10
113.651016
 20
89.730572
 30
0.0
 11
112.198979
 21
91.182609
 31
0.0
  0
LINE
  5
84
100
AcDbEntity
  8
0
 62
     0
100
AcDbLine
 10
113.568075
 20
89.68093
 30
0.0
 11
112.198979
 21
91.050027
 31
0.0
  0
LINE
  5
85
100
AcDbEntity
  8
0
 62
     0
100
AcDbLine
 10
113.482619
 20
89.633803
 30
0.0
 11
112.198979
 21
90.917444
 31
0.0
  0
LINE
  5
86
100
AcDbEntity
  8
0
 62
     0
100
AcDbLine
 10
113.394569
 20
89.589271
 30
0.0
 11
112.198979
 21
90.784862
 31
0.0
  0
LINE
  5
87
100
AcDbEntity
  8
0
 62
     0
100
AcDbLine
 10
113.303832
 20
89.547426
 30
0.0
 11
112.198979
 21
90.652279
 31
0.0
  0
LINE
  5
88
100
AcDbEntity
  8
0
 62
     0
100
AcDbLine
 10
113.210296
 20
89.508379
 30
0.0
 11
112.198979
 21
90.519697
 31
0.0
  0
LINE
  5
89
100
AcDbEntity
  8
0
 62
     0
100
AcDbLine
 10
113.113832
 20
89.472261
 30
0.0
 11
112.198979
 21
90.387114
 31
0.0
  0
LINE
  5
8A
100
AcDbEntity
  8
0
 62
     0
100
AcDbLine
 10
113.014285
 20
89.439225
 30
0.0
 11
112.198979
 21
90.254532
 31
0.0
  0
LINE
  5
8B
100
AcDbEntity
  8
0
 62
     0
100
AcDbLine
 10
112.911472
 20
89.409455
 30
0.0
 11
112.198979
 21
90.121949
 31
0.0
  0
LINE
  5
8C
100
AcDbEntity
  8
0
 62
     0
100
AcDbLine
 10
112.805177
 20
89.383169
 30
0.0
 11
112.198979
 21
89.989366
 31
0.0
  0
LINE
  5
8D
100
AcDbEntity
  8
0
 62
     0
100
AcDbLine
 10
112.695136
 20
89.360627
 30
0.0
 11
112.198979
 21
89.856784
 31
0.0
  0
LINE
  5
8E
100
AcDbEntity
  8
0
 62
     0
100
AcDbLine
 10
112.581034
 20
89.342146
 30
0.0
 11
112.198979
 21
89.724201
 31
0.0
  0
LINE
  5
8F
100
AcDbEntity
  8
0
 62
     0
100
AcDbLine
 10
112.462482
 20
89.328116
 30
0.0
 11
112.198979
 21
89.591619
 31
0.0
  0
LINE
  5
90
100
AcDbEntity
  8
0
 62
     0
100
AcDbLine
 10
112.338996
 20
89.319019
 30
0.0
 11
112.198979
 21
89.459036
 31
0.0
  0
LINE
  5
91
100
AcDbEntity
  8
0
 62
     0
100
AcDbLine
 10
112.209962
 20
89.315471
 30
0.0
 11
112.198979
 21
89.326454
 31
0.0
  0
LINE
  5
92
100
AcDbEntity
  8
0
 62
     0
100
AcDbLine
 10
114.165385
 20
90.144281
 30
0.0
 11
112.247149
 21
92.062516
 31
0.0
  0
LINE
  5
93
100
AcDbEntity
  8
0
 62
     0
100
AcDbLine
 10
114.229722
 20
90.212526
 30
0.0
 11
112.379732
 21
92.062516
 31
0.0
  0
LINE
  5
94
100
AcDbEntity
  8
0
 62
     0
100
AcDbLine
 10
114.291788
 20
90.283042
 30
0.0
 11
112.512314
 21
92.062516
 31
0.0
  0
LINE
  5
95
100
AcDbEntity
  8
0
 62
     0
100
AcDbLine
 10
114.35157
 20
90.355844
 30
0.0
 11
112.644897
 21
92.062516
 31
0.0
  0
LINE
  5
96
100
AcDbEntity
  8
0
 62
     0
100
AcDbLine
 10
114.409042
 20
90.430953
 30
0.0
 11
112.777479
 21
92.062516
 31
0.0
  0
LINE
  5
97
100
AcDbEntity
  8
0
 62
     0
100
AcDbLine
 10
114.464175
 20
90.508403
 30
0.0
 11
112.910062
 21
92.062516
 31
0.0
  0
LINE
  5
98
100
AcDbEntity
  8
0
 62
     0
100
AcDbLine
 10
114.516925
 20
90.588236
 30
0.0
 11
113.042644
 21
92.062516
 31
0.0
  0
LINE
  5
99
100
AcDbEntity
  8
0
 62
     0
100
AcDbLine
 10
114.567242
 20
90.670501
 30
0.0
 11
113.175227
 21
92.062516
 31
0.0
  0
LINE
  5
9A
100
AcDbEntity
  8
0
 62
     0
100
AcDbLine
 10
114.615064
 20
90.755262
 30
0.0
 11
113.30781
 21
92.062516
 31
0.0
  0
LINE
  5
9B
100
AcDbEntity
  8
0
 62
     0
100
AcDbLine
 10
114.660314
 20
90.842594
 30
0.0
 11
113.440392
 21
92.062516
 31
0.0
  0
LINE
  5
9C
100
AcDbEntity
  8
0
 62
     0
100
AcDbLine
 10
114.702904
 20
90.932587
 30
0.0
 11
113.572975
 21
92.062516
 31
0.0
  0
LINE
  5
9D
100
AcDbEntity
  8
0
 62
     0
100
AcDbLine
 10
114.742727
 20
91.025346
 30
0.0
 11
113.705557
 21
92.062516
 31
0.0
  0
LINE
  5
9E
100
AcDbEntity
  8
0
 62
     0
100
AcDbLine
 10
114.77966
 20
91.120995
 30
0.0
 11
113.83814
 21
92.062516
 31
0.0
  0
LINE
  5
9F
100
AcDbEntity
  8
0
 62
     0
100
AcDbLine
 10
114.813555
 20
91.219683
 30
0.0
 11
113.970722
 21
92.062516
 31
0.0
  0
LINE
  5
A0
100
AcDbEntity
  8
0
 62
     0
100
AcDbLine
 10
114.844238
 20
91.321583
 30
0.0
 11
114.103305
 21
92.062516
 31
0.0
  0
LINE
  5
A1
100
AcDbEntity
  8
0
 62
     0
100
AcDbLine
 10
114.871501
 20
91.426903
 30
0.0
 11
114.235887
 21
92.062516
 31
0.0
  0
LINE
  5
A2
100
AcDbEntity
  8
0
 62
     0
100
AcDbLine
 10
114.895095
 20
91.535891
 30
0.0
 11
114.36847
 21
92.062516
 31
0.0
  0
LINE
  5
A3
100
AcDbEntity
  8
0
 62
     0
100
AcDbLine
 10
114.914721
 20
91.648847
 30
0.0
 11
114.501052
 21
92.062516
 31
0.0
  0
LINE
  5
A4
100
AcDbEntity
  8
0
 62
     0
100
AcDbLine
 10
114.930012
 20
91.766139
 30
0.0
 11
114.633635
 21
92.062516
 31
0.0
  0
LINE
  5
A5
100
AcDbEntity
  8
0
 62
     0
100
AcDbLine
 10
114.940511
 20
91.888222
 30
0.0
 11
114.766217
 21
92.062516
 31
0.0
  0
LINE
  5
A6
100
AcDbEntity
  8
0
 62
     0
100
AcDbLine
 10
114.945647
 20
92.015669
 30
0.0
 11
114.8988
 21
92.062516
 31
0.0
  0
ENDBLK
  5
A7
100
AcDbEntity
  8
0
100
AcDbBlockEnd
  0
BLOCK
  5
A8
100
AcDbEntity
  8
0
100
AcDbBlockBegin
  2
*X1
 70
     1
 10
0.0
 20
0.0
 30
0.0
  3
*X1
  1

  0
LINE
  5
A9
100
AcDbEntity
  8
0
 62
     0
100
AcDbLine
 10
109.451993
 20
92.083683
 30
0.0
 11
112.177812
 21
94.809502
 31
0.0
  0
LINE
  5
AA
100
AcDbEntity
  8
0
 62
     0
100
AcDbLine
 10
109.456472
 20
92.220744
 30
0.0
 11
112.040751
 21
94.805023
 31
0.0
  0
LINE
  5
AB
100
AcDbEntity
  8
0
 62
     0
100
AcDbLine
 10
109.468674
 20
92.365529
 30
0.0
 11
111.895966
 21
94.792821
 31
0.0
  0
LINE
  5
AC
100
AcDbEntity
  8
0
 62
     0
100
AcDbLine
 10
109.490214
 20
92.519651
 30
0.0
 11
111.741844
 21
94.771281
 31
0.0
  0
LINE
  5
AD
100
AcDbEntity
  8
0
 62
     0
100
AcDbLine
 10
109.523486
 20
92.685505
 30
0.0
 11
111.57599
 21
94.738009
 31
0.0
  0
LINE
  5
AE
100
AcDbEntity
  8
0
 62
     0
100
AcDbLine
 10
109.572327
 20
92.86693
 30
0.0
 11
111.394566
 21
94.689168
 31
0.0
  0
LINE
  5
AF
100
AcDbEntity
  8
0
 62
     0
100
AcDbLine
 10
109.64366
 20
93.070845
 30
0.0
 11
111.19065
 21
94.617835
 31
0.0
  0
LINE
  5
B0
100
AcDbEntity
  8
0
 62
     0
100
AcDbLine
 10
109.752816
 20
93.312584
 30
0.0
 11
110.948911
 21
94.508679
 31
0.0
  0
LINE
  5
B1
100
AcDbEntity
  8
0
 62
     0
100
AcDbLine
 10
109.955576
 20
93.647926
 30
0.0
 11
110.613569
 21
94.305919
 31
0.0
  0
LINE
  5
B2
100
AcDbEntity
  8
0
 62
     0
100
AcDbLine
 10
109.563409
 20
92.062516
 30
0.0
 11
112.198979
 21
94.698086
 31
0.0
  0
LINE
  5
B3
100
AcDbEntity
  8
0
 62
     0
100
AcDbLine
 10
109.695992
 20
92.062516
 30
0.0
 11
112.198979
 21
94.565503
 31
0.0
  0
LINE
  5
B4
100
AcDbEntity
  8
0
 62
     0
100
AcDbLine
 10
109.828574
 20
92.062516
 30
0.0
 11
112.198979
 21
94.432921
 31
0.0
  0
LINE
  5
B5
100
AcDbEntity
  8
0
 62
     0
100
AcDbLine
 10
109.961157
 20
92.062516
 30
0.0
 11
112.198979
 21
94.300338
 31
0.0
  0
LINE
  5
B6
100
AcDbEntity
  8
0
 62
     0
100
AcDbLine
 10
110.093739
 20
92.062516
 30
0.0
 11
112.198979
 21
94.167756
 31
0.0
  0
LINE
  5
B7
100
AcDbEntity
  8
0
 62
     0
100
AcDbLine
 10
110.226322
 20
92.062516
 30
0.0
 11
112.198979
 21
94.035173
 31
0.0
  0
LINE
  5
B8
100
AcDbEntity
  8
0
 62
     0
100
AcDbLine
 10
110.358904
 20
92.062516
 30
0.0
 11
112.198979
 21
93.902591
 31
0.0
  0
LINE
  5
B9
100
AcDbEntity
  8
0
 62
     0
100
AcDbLine
 10
110.491487
 20
92.062516
 30
0.0
 11
112.198979
 21
93.770008
 31
0.0
  0
LINE
  5
BA
100
AcDbEntity
  8
0
 62
     0
100
AcDbLine
 10
110.624069
 20
92.062516
 30
0.0
 11
112.198979
 21
93.637426
 31
0.0
  0
LINE
  5
BB
100
AcDbEntity
  8
0
 62
     0
100
AcDbLine
 10
110.756652
 20
92.062516
 30
0.0
 11
112.198979
 21
93.504843
 31
0.0
  0
LINE
  5
BC
100
AcDbEntity
  8
0
 62
     0
100
AcDbLine
 10
110.889234
 20
92.062516
 30
0.0
 11
112.198979
 21
93.372261
 31
0.0
  0
LINE
  5
BD
100
AcDbEntity
  8
0
 62
     0
100
AcDbLine
 10
111.021817
 20
92.062516
 30
0.0
 11
112.198979
 21
93.239678
 31
0.0
  0
LINE
  5
BE
100
AcDbEntity
  8
0
 62
     0
100
AcDbLine
 10
111.154399
 20
92.062516
 30
0.0
 11
112.198979
 21
93.107096
 31
0.0
  0
LINE
  5
BF
100
AcDbEntity
  8
0
 62
     0
100
AcDbLine
 10
111.286982
 20
92.062516
 30
0.0
 11
112.198979
 21
92.974513
 31
0.0
  0
LINE
  5
C0
100
AcDbEntity
  8
0
 62
     0
100
AcDbLine
 10
111.419564
 20
92.062516
 30
0.0
 11
112.198979
 21
92.841931
 31
0.0
  0
LINE
  5
C1
100
AcDbEntity
  8
0
 62
     0
100
AcDbLine
 10
111.552147
 20
92.062516
 30
0.0
 11
112.198979
 21
92.709348
 31
0.0
  0
LINE
  5
C2
100
AcDbEntity
  8
0
 62
     0
100
AcDbLine
 10
111.684729
 20
92.062516
 30
0.0
 11
112.198979
 21
92.576766
 31
0.0
  0
LINE
  5
C3
100
AcDbEntity
  8
0
 62
     0
100
AcDbLine
 10
111.817312
 20
92.062516
 30
0.0
 11
112.198979
 21
92.444183
 31
0.0
  0
LINE
  5
C4
100
AcDbEntity
  8
0
 62
     0
100
AcDbLine
 10
111.949894
 20
92.062516
 30
0.0
 11
112.198979
 21
92.311601
 31
0.0
  0
LINE
  5
C5
100
AcDbEntity
  8
0
 62
     0
100
AcDbLine
 10
112.082477
 20
92.062516
 30
0.0
 11
112.198979
 21
92.179018
 31
0.0
  0
LINE
  5
C6
100
AcDbEntity
  8
0
 62
     0
100
AcDbLine
 10
112.114567
 20
92.062516
 30
0.0
 11
110.214761
 21
93.962322
 31
0.0
  0
LINE
  5
C7
100
AcDbEntity
  8
0
 62
     0
100
AcDbLine
 10
111.981984
 20
92.062516
 30
0.0
 11
110.151044
 21
93.893457
 31
0.0
  0
LINE
  5
C8
100
AcDbEntity
  8
0
 62
     0
100
AcDbLine
 10
111.849402
 20
92.062516
 30
0.0
 11
110.0896
 21
93.822318
 31
0.0
  0
LINE
  5
C9
100
AcDbEntity
  8
0
 62
     0
100
AcDbLine
 10
111.716819
 20
92.062516
 30
0.0
 11
110.030447
 21
93.748888
 31
0.0
  0
LINE
  5
CA
100
AcDbEntity
  8
0
 62
     0
100
AcDbLine
 10
111.584237
 20
92.062516
 30
0.0
 11
109.973611
 21
93.673142
 31
0.0
  0
LINE
  5
CB
100
AcDbEntity
  8
0
 62
     0
100
AcDbLine
 10
111.451654
 20
92.062516
 30
0.0
 11
109.919125
 21
93.595045
 31
0.0
  0
LINE
  5
CC
100
AcDbEntity
  8
0
 62
     0
100
AcDbLine
 10
111.319072
 20
92.062516
 30
0.0
 11
109.867034
 21
93.514554
 31
0.0
  0
LINE
  5
CD
100
AcDbEntity
  8
0
 62
     0
100
AcDbLine
 10
111.186489
 20
92.062516
 30
0.0
 11
109.817392
 21
93.431613
 31
0.0
  0
LINE
  5
CE
100
AcDbEntity
  8
0
 62
     0
100
AcDbLine
 10
111.053907
 20
92.062516
 30
0.0
 11
109.770266
 21
93.346157
 31
0.0
  0
LINE
  5
CF
100
AcDbEntity
  8
0
 62
     0
100
AcDbLine
 10
110.921324
 20
92.062516
 30
0.0
 11
109.725734
 21
93.258107
 31
0.0
  0
LINE
  5
D0
100
AcDbEntity
  8
0
 62
     0
100
AcDbLine
 10
110.788742
 20
92.062516
 30
0.0
 11
109.683889
 21
93.167369
 31
0.0
  0
LINE
  5
D1
100
AcDbEntity
  8
0
 62
     0
100
AcDbLine
 10
110.656159
 20
92.062516
 30
0.0
 11
109.644842
 21
93.073834
 31
0.0
  0
LINE
  5
D2
100
AcDbEntity
  8
0
 62
     0
100
AcDbLine
 10
110.523577
 20
92.062516
 30
0.0
 11
109.608723
 21
92.977369
 31
0.0
  0
LINE
  5
D3
100
AcDbEntity
  8
0
 62
     0
100
AcDbLine
 10
110.390994
 20
92.062516
 30
0.0
 11
109.575688
 21
92.877822
 31
0.0
  0
LINE
  5
D4
100
AcDbEntity
  8
0
 62
     0
100
AcDbLine
 10
110.258412
 20
92.062516
 30
0.0
 11
109.545918
 21
92.77501
 31
0.0
  0
LINE
  5
D5
100
AcDbEntity
  8
0
 62
     0
100
AcDbLine
 10
110.125829
 20
92.062516
 30
0.0
 11
109.519631
 21
92.668714
 31
0.0
  0
LINE
  5
D6
100
AcDbEntity
  8
0
 62
     0
100
AcDbLine
 10
109.993246
 20
92.062516
 30
0.0
 11
109.497089
 21
92.558673
 31
0.0
  0
LINE
  5
D7
100
AcDbEntity
  8
0
 62
     0
100
AcDbLine
 10
109.860664
 20
92.062516
 30
0.0
 11
109.478609
 21
92.444571
 31
0.0
  0
LINE
  5
D8
100
AcDbEntity
  8
0
 62
     0
100
AcDbLine
 10
109.728081
 20
92.062516
 30
0.0
 11
109.464578
 21
92.326019
 31
0.0
  0
LINE
  5
D9
100
AcDbEntity
  8
0
 62
     0
100
AcDbLine
 10
109.595499
 20
92.062516
 30
0.0
 11
109.455482
 21
92.202533
 31
0.0
  0
LINE
  5
DA
100
AcDbEntity
  8
0
 62
     0
100
AcDbLine
 10
109.462916
 20
92.062516
 30
0.0
 11
109.451933
 21
92.073499
 31
0.0
  0
LINE
  5
DB
100
AcDbEntity
  8
0
 62
     0
100
AcDbLine
 10
112.198979
 20
92.110687
 30
0.0
 11
110.280743
 21
94.028922
 31
0.0
  0
LINE
  5
DC
100
AcDbEntity
  8
0
 62
     0
100
AcDbLine
 10
112.198979
 20
92.243269
 30
0.0
 11
110.348989
 21
94.093259
 31
0.0
  0
LINE
  5
DD
100
AcDbEntity
  8
0
 62
     0
100
AcDbLine
 10
112.198979
 20
92.375852
 30
0.0
 11
110.419505
 21
94.155326
 31
0.0
  0
LINE
  5
DE
100
AcDbEntity
  8
0
 62
     0
100
AcDbLine
 10
112.198979
 20
92.508434
 30
0.0
 11
110.492306
 21
94.215107
 31
0.0
  0
LINE
  5
DF
100
AcDbEntity
  8
0
 62
     0
100
AcDbLine
 10
112.198979
 20
92.641017
 30
0.0
 11
110.567416
 21
94.27258
 31
0.0
  0
LINE
  5
E0
100
AcDbEntity
  8
0
 62
     0
100
AcDbLine
 10
112.198979
 20
92.773599
 30
0.0
 11
110.644866
 21
94.327712
 31
0.0
  0
LINE
  5
E1
100
AcDbEntity
  8
0
 62
     0
100
AcDbLine
 10
112.198979
 20
92.906182
 30
0.0
 11
110.724698
 21
94.380463
 31
0.0
  0
LINE
  5
E2
100
AcDbEntity
  8
0
 62
     0
100
AcDbLine
 10
112.198979
 20
93.038764
 30
0.0
 11
110.806963
 21
94.43078
 31
0.0
  0
LINE
  5
E3
100
AcDbEntity
  8
0
 62
     0
100
AcDbLine
 10
112.198979
 20
93.171347
 30
0.0
 11
110.891725
 21
94.478601
 31
0.0
  0
LINE
  5
E4
100
AcDbEntity
  8
0
 62
     0
100
AcDbLine
 10
112.198979
 20
93.303929
 30
0.0
 11
110.979057
 21
94.523851
 31
0.0
  0
LINE
  5
E5
100
AcDbEntity
  8
0
 62
     0
100
AcDbLine
 10
112.198979
 20
93.436512
 30
0.0
 11
111.06905
 21
94.566441
 31
0.0
  0
LINE
  5
E6
100
AcDbEntity
  8
0
 62
     0
100
AcDbLine
 10
112.198979
 20
93.569095
 30
0.0
 11
111.161808
 21
94.606265
 31
0.0
  0
LINE
  5
E7
100
AcDbEntity
  8
0
 62
     0
100
AcDbLine
 10
112.198979
 20
93.701677
 30
0.0
 11
111.257458
 21
94.643198
 31
0.0
  0
LINE
  5
E8
100
AcDbEntity
  8
0
 62
     0
100
AcDbLine
 10
112.198979
 20
93.83426
 30
0.0
 11
111.356145
 21
94.677093
 31
0.0
  0
LINE
  5
E9
100
AcDbEntity
  8
0
 62
     0
100
AcDbLine
 10
112.198979
 20
93.966842
 30
0.0
 11
111.458045
 21
94.707776
 31
0.0
  0
LINE
  5
EA
100
AcDbEntity
  8
0
 62
     0
100
AcDbLine
 10
112.198979
 20
94.099425
 30
0.0
 11
111.563365
 21
94.735038
 31
0.0
  0
LINE
  5
EB
100
AcDbEntity
  8
0
 62
     0
100
AcDbLine
 10
112.198979
 20
94.232007
 30
0.0
 11
111.672353
 21
94.758633
 31
0.0
  0
LINE
  5
EC
100
AcDbEntity
  8
0
 62
     0
100
AcDbLine
 10
112.198979
 20
94.36459
 30
0.0
 11
111.78531
 21
94.778259
 31
0.0
  0
LINE
  5
ED
100
AcDbEntity
  8
0
 62
     0
100
AcDbLine
 10
112.198979
 20
94.497172
 30
0.0
 11
111.902602
 21
94.793549
 31
0.0
  0
LINE
  5
EE
100
AcDbEntity
  8
0
 62
     0
100
AcDbLine
 10
112.198979
 20
94.629755
 30
0.0
 11
112.024685
 21
94.804049
 31
0.0
  0
LINE
  5
EF
100
AcDbEntity
  8
0
 62
     0
100
AcDbLine
 10
112.198979
 20
94.762337
 30
0.0
 11
112.152132
 21
94.809184
 31
0.0
  0
ENDBLK
  5
F0
100
AcDbEntity
  8
0
100
AcDbBlockEnd
  0
BLOCK
  5
F1
100
AcDbEntity
  8
0
100
AcDbBlockBegin
  2
*X2
 70
     1
 10
0.0
 20
0.0
 30
0.0
  3
*X2
  1

  0
LINE
  5
F2
100
AcDbEntity
  8
0
 62
     0
100
AcDbLine
 10
164.634173
 20
97.193864
 30
0.0
 11
165.570452
 21
98.130143
 31
0.0
  0
LINE
  5
F3
100
AcDbEntity
  8
0
 62
     0
100
AcDbLine
 10
164.545785
 20
97.193864
 30
0.0
 11
165.482064
 21
98.130143
 31
0.0
  0
LINE
  5
F4
100
AcDbEntity
  8
0
 62
     0
100
AcDbLine
 10
164.457396
 20
97.193864
 30
0.0
 11
165.393676
 21
98.130143
 31
0.0
  0
LINE
  5
F5
100
AcDbEntity
  8
0
 62
     0
100
AcDbLine
 10
164.369008
 20
97.193864
 30
0.0
 11
165.305287
 21
98.130143
 31
0.0
  0
LINE
  5
F6
100
AcDbEntity
  8
0
 62
     0
100
AcDbLine
 10
164.28062
 20
97.193864
 30
0.0
 11
165.216899
 21
98.130143
 31
0.0
  0
LINE
  5
F7
100
AcDbEntity
  8
0
 62
     0
100
AcDbLine
 10
164.192231
 20
97.193864
 30
0.0
 11
165.128511
 21
98.130143
 31
0.0
  0
LINE
  5
F8
100
AcDbEntity
  8
0
 62
     0
100
AcDbLine
 10
164.177907
 20
97.267928
 30
0.0
 11
165.040122
 21
98.130143
 31
0.0
  0
LINE
  5
F9
100
AcDbEntity
  8
0
 62
     0
100
AcDbLine
 10
164.177907
 20
97.356316
 30
0.0
 11
164.951734
 21
98.130143
 31
0.0
  0
LINE
  5
FA
100
AcDbEntity
  8
0
 62
     0
100
AcDbLine
 10
164.177907
 20
97.444705
 30
0.0
 11
164.863346
 21
98.130143
 31
0.0
  0
LINE
  5
FB
100
AcDbEntity
  8
0
 62
     0
100
AcDbLine
 10
164.177907
 20
97.533093
 30
0.0
 11
164.774957
 21
98.130143
 31
0.0
  0
LINE
  5
FC
100
AcDbEntity
  8
0
 62
     0
100
AcDbLine
 10
164.177907
 20
97.621481
 30
0.0
 11
164.686569
 21
98.130143
 31
0.0
  0
LINE
  5
FD
100
AcDbEntity
  8
0
 62
     0
100
AcDbLine
 10
164.177907
 20
97.70987
 30
0.0
 11
164.598181
 21
98.130143
 31
0.0
  0
LINE
  5
FE
100
AcDbEntity
  8
0
 62
     0
100
AcDbLine
 10
164.177907
 20
97.798258
 30
0.0
 11
164.509792
 21
98.130143
 31
0.0
  0
LINE
  5
FF
100
AcDbEntity
  8
0
 62
     0
100
AcDbLine
 10
164.177907
 20
97.886646
 30
0.0
 11
164.421404
 21
98.130143
 31
0.0
  0
LINE
  5
100
100
AcDbEntity
  8
0
 62
     0
100
AcDbLine
 10
164.177907
 20
97.975035
 30
0.0
 11
164.333016
 21
98.130143
 31
0.0
  0
LINE
  5
101
100
AcDbEntity
  8
0
 62
     0
100
AcDbLine
 10
164.177907
 20
98.063423
 30
0.0
 11
164.244627
 21
98.130143
 31
0.0
  0
LINE
  5
102
100
AcDbEntity
  8
0
 62
     0
100
AcDbLine
 10
164.722561
 20
97.193864
 30
0.0
 11
165.658841
 21
98.130143
 31
0.0
  0
LINE
  5
103
100
AcDbEntity
  8
0
 62
     0
100
AcDbLine
 10
164.81095
 20
97.193864
 30
0.0
 11
165.747229
 21
98.130143
 31
0.0
  0
LINE
  5
104
100
AcDbEntity
  8
0
 62
     0
100
AcDbLine
 10
164.899338
 20
97.193864
 30
0.0
 11
165.835617
 21
98.130143
 31
0.0
  0
LINE
  5
105
100
AcDbEntity
  8
0
 62
     0
100
AcDbLine
 10
164.987727
 20
97.193864
 30
0.0
 11
165.924006
 21
98.130143
 31
0.0
  0
LINE
  5
106
100
AcDbEntity
  8
0
 62
     0
100
AcDbLine
 10
165.076115
 20
97.193864
 30
0.0
 11
166.012394
 21
98.130143
 31
0.0
  0
LINE
  5
107
100
AcDbEntity
  8
0
 62
     0
100
AcDbLine
 10
165.164503
 20
97.193864
 30
0.0
 11
166.100783
 21
98.130143
 31
0.0
  0
LINE
  5
108
100
AcDbEntity
  8
0
 62
     0
100
AcDbLine
 10
165.252892
 20
97.193864
 30
0.0
 11
166.177907
 21
98.118879
 31
0.0
  0
LINE
  5
109
100
AcDbEntity
  8
0
 62
     0
100
AcDbLine
 10
165.34128
 20
97.193864
 30
0.0
 11
166.177907
 21
98.030491
 31
0.0
  0
LINE
  5
10A
100
AcDbEntity
  8
0
 62
     0
100
AcDbLine
 10
165.429668
 20
97.193864
 30
0.0
 11
166.177907
 21
97.942103
 31
0.0
  0
LINE
  5
10B
100
AcDbEntity
  8
0
 62
     0
100
AcDbLine
 10
165.518057
 20
97.193864
 30
0.0
 11
166.177907
 21
97.853714
 31
0.0
  0
LINE
  5
10C
100
AcDbEntity
  8
0
 62
     0
100
AcDbLine
 10
165.606445
 20
97.193864
 30
0.0
 11
166.177907
 21
97.765326
 31
0.0
  0
LINE
  5
10D
100
AcDbEntity
  8
0
 62
     0
100
AcDbLine
 10
165.694833
 20
97.193864
 30
0.0
 11
166.177907
 21
97.676938
 31
0.0
  0
LINE
  5
10E
100
AcDbEntity
  8
0
 62
     0
100
AcDbLine
 10
165.783222
 20
97.193864
 30
0.0
 11
166.177907
 21
97.588549
 31
0.0
  0
LINE
  5
10F
100
AcDbEntity
  8
0
 62
     0
100
AcDbLine
 10
165.87161
 20
97.193864
 30
0.0
 11
166.177907
 21
97.500161
 31
0.0
  0
LINE
  5
110
100
AcDbEntity
  8
0
 62
     0
100
AcDbLine
 10
165.959998
 20
97.193864
 30
0.0
 11
166.177907
 21
97.411773
 31
0.0
  0
LINE
  5
111
100
AcDbEntity
  8
0
 62
     0
100
AcDbLine
 10
166.048387
 20
97.193864
 30
0.0
 11
166.177907
 21
97.323384
 31
0.0
  0
LINE
  5
112
100
AcDbEntity
  8
0
 62
     0
100
AcDbLine
 10
166.136775
 20
97.193864
 30
0.0
 11
166.177907
 21
97.234996
 31
0.0
  0
LINE
  5
113
100
AcDbEntity
  8
0
 62
     0
100
AcDbLine
 10
165.584694
 20
97.193864
 30
0.0
 11
164.648414
 21
98.130143
 31
0.0
  0
LINE
  5
114
100
AcDbEntity
  8
0
 62
     0
100
AcDbLine
 10
165.496305
 20
97.193864
 30
0.0
 11
164.560026
 21
98.130143
 31
0.0
  0
LINE
  5
115
100
AcDbEntity
  8
0
 62
     0
100
AcDbLine
 10
165.407917
 20
97.193864
 30
0.0
 11
164.471638
 21
98.130143
 31
0.0
  0
LINE
  5
116
100
AcDbEntity
  8
0
 62
     0
100
AcDbLine
 10
165.319529
 20
97.193864
 30
0.0
 11
164.383249
 21
98.130143
 31
0.0
  0
LINE
  5
117
100
AcDbEntity
  8
0
 62
     0
100
AcDbLine
 10
165.23114
 20
97.193864
 30
0.0
 11
164.294861
 21
98.130143
 31
0.0
  0
LINE
  5
118
100
AcDbEntity
  8
0
 62
     0
100
AcDbLine
 10
165.142752
 20
97.193864
 30
0.0
 11
164.206473
 21
98.130143
 31
0.0
  0
LINE
  5
119
100
AcDbEntity
  8
0
 62
     0
100
AcDbLine
 10
165.054364
 20
97.193864
 30
0.0
 11
164.177907
 21
98.07032
 31
0.0
  0
LINE
  5
11A
100
AcDbEntity
  8
0
 62
     0
100
AcDbLine
 10
164.965975
 20
97.193864
 30
0.0
 11
164.177907
 21
97.981932
 31
0.0
  0
LINE
  5
11B
100
AcDbEntity
  8
0
 62
     0
100
AcDbLine
 10
164.877587
 20
97.193864
 30
0.0
 11
164.177907
 21
97.893544
 31
0.0
  0
LINE
  5
11C
100
AcDbEntity
  8
0
 62
     0
100
AcDbLine
 10
164.789199
 20
97.193864
 30
0.0
 11
164.177907
 21
97.805155
 31
0.0
  0
LINE
  5
11D
100
AcDbEntity
  8
0
 62
     0
100
AcDbLine
 10
164.70081
 20
97.193864
 30
0.0
 11
164.177907
 21
97.716767
 31
0.0
  0
LINE
  5
11E
100
AcDbEntity
  8
0
 62
     0
100
AcDbLine
 10
164.612422
 20
97.193864
 30
0.0
 11
164.177907
 21
97.628379
 31
0.0
  0
LINE
  5
11F
100
AcDbEntity
  8
0
 62
     0
100
AcDbLine
 10
164.524033
 20
97.193864
 30
0.0
 11
164.177907
 21
97.53999
 31
0.0
  0
LINE
  5
120
100
AcDbEntity
  8
0
 62
     0
100
AcDbLine
 10
164.435645
 20
97.193864
 30
0.0
 11
164.177907
 21
97.451602
 31
0.0
  0
LINE
  5
121
100
AcDbEntity
  8
0
 62
     0
100
AcDbLine
 10
164.347257
 20
97.193864
 30
0.0
 11
164.177907
 21
97.363214
 31
0.0
  0
LINE
  5
122
100
AcDbEntity
  8
0
 62
     0
100
AcDbLine
 10
164.258868
 20
97.193864
 30
0.0
 11
164.177907
 21
97.274825
 31
0.0
  0
LINE
  5
123
100
AcDbEntity
  8
0
 62
     0
100
AcDbLine
 10
165.673082
 20
97.193864
 30
0.0
 11
164.736803
 21
98.130143
 31
0.0
  0
LINE
  5
124
100
AcDbEntity
  8
0
 62
     0
100
AcDbLine
 10
165.76147
 20
97.193864
 30
0.0
 11
164.825191
 21
98.130143
 31
0.0
  0
LINE
  5
125
100
AcDbEntity
  8
0
 62
     0
100
AcDbLine
 10
165.849859
 20
97.193864
 30
0.0
 11
164.913579
 21
98.130143
 31
0.0
  0
LINE
  5
126
100
AcDbEntity
  8
0
 62
     0
100
AcDbLine
 10
165.938247
 20
97.193864
 30
0.0
 11
165.001968
 21
98.130143
 31
0.0
  0
LINE
  5
127
100
AcDbEntity
  8
0
 62
     0
100
AcDbLine
 10
166.026635
 20
97.193864
 30
0.0
 11
165.090356
 21
98.130143
 31
0.0
  0
LINE
  5
128
100
AcDbEntity
  8
0
 62
     0
100
AcDbLine
 10
166.115024
 20
97.193864
 30
0.0
 11
165.178744
 21
98.130143
 31
0.0
  0
LINE
  5
129
100
AcDbEntity
  8
0
 62
     0
100
AcDbLine
 10
166.177907
 20
97.219369
 30
0.0
 11
165.267133
 21
98.130143
 31
0.0
  0
LINE
  5
12A
100
AcDbEntity
  8
0
 62
     0
100
AcDbLine
 10
166.177907
 20
97.307757
 30
0.0
 11
165.355521
 21
98.130143
 31
0.0
  0
LINE
  5
12B
100
AcDbEntity
  8
0
 62
     0
100
AcDbLine
 10
166.177907
 20
97.396146
 30
0.0
 11
165.443909
 21
98.130143
 31
0.0
  0
LINE
  5
12C
100
AcDbEntity
  8
0
 62
     0
100
AcDbLine
 10
166.177907
 20
97.484534
 30
0.0
 11
165.532298
 21
98.130143
 31
0.0
  0
LINE
  5
12D
100
AcDbEntity
  8
0
 62
     0
100
AcDbLine
 10
166.177907
 20
97.572922
 30
0.0
 11
165.620686
 21
98.130143
 31
0.0
  0
LINE
  5
12E
100
AcDbEntity
  8
0
 62
     0
100
AcDbLine
 10
166.177907
 20
97.661311
 30
0.0
 11
165.709075
 21
98.130143
 31
0.0
  0
LINE
  5
12F
100
AcDbEntity
  8
0
 62
     0
100
AcDbLine
 10
166.177907
 20
97.749699
 30
0.0
 11
165.797463
 21
98.130143
 31
0.0
  0
LINE
  5
130
100
AcDbEntity
  8
0
 62
     0
100
AcDbLine
 10
166.177907
 20
97.838087
 30
0.0
 11
165.885851
 21
98.130143
 31
0.0
  0
LINE
  5
131
100
AcDbEntity
  8
0
 62
     0
100
AcDbLine
 10
166.177907
 20
97.926476
 30
0.0
 11
165.97424
 21
98.130143
 31
0.0
  0
LINE
  5
132
100
AcDbEntity
  8
0
 62
     0
100
AcDbLine
 10
166.177907
 20
98.014864
 30
0.0
 11
166.062628
 21
98.130143
 31
0.0
  0
LINE
  5
133
100
AcDbEntity
  8
0
 62
     0
100
AcDbLine
 10
166.177907
 20
98.103252
 30
0.0
 11
166.151016
 21
98.130143
 31
0.0
  0
ENDBLK
  5
134
100
AcDbEntity
  8
0
100
AcDbBlockEnd
  0
BLOCK
  5
135
100
AcDbEntity
  8
0
100
AcDbBlockBegin
  2
*X3
 70
     1
 10
0.0
 20
0.0
 30
0.0
  3
*X3
  1

  0
LINE
  5
136
100
AcDbEntity
  8
0
 62
     0
100
AcDbLine
 10
113.244857
 20
72.762994
 30
0.0
 11
115.254532
 21
74.772669
 31
0.0
  0
LINE
  5
137
100
AcDbEntity
  8
0
 62
     0
100
AcDbLine
 10
113.244857
 20
72.939771
 30
0.0
 11
115.077756
 21
74.772669
 31
0.0
  0
LINE
  5
138
100
AcDbEntity
  8
0
 62
     0
100
AcDbLine
 10
113.244857
 20
73.116547
 30
0.0
 11
114.900979
 21
74.772669
 31
0.0
  0
LINE
  5
139
100
AcDbEntity
  8
0
 62
     0
100
AcDbLine
 10
113.244857
 20
73.293324
 30
0.0
 11
114.724202
 21
74.772669
 31
0.0
  0
LINE
  5
13A
100
AcDbEntity
  8
0
 62
     0
100
AcDbLine
 10
113.244857
 20
73.470101
 30
0.0
 11
114.547426
 21
74.772669
 31
0.0
  0
LINE
  5
13B
100
AcDbEntity
  8
0
 62
     0
100
AcDbLine
 10
113.244857
 20
73.646878
 30
0.0
 11
114.370649
 21
74.772669
 31
0.0
  0
LINE
  5
13C
100
AcDbEntity
  8
0
 62
     0
100
AcDbLine
 10
113.244857
 20
73.823654
 30
0.0
 11
114.193872
 21
74.772669
 31
0.0
  0
LINE
  5
13D
100
AcDbEntity
  8
0
 62
     0
100
AcDbLine
 10
113.244857
 20
74.000431
 30
0.0
 11
114.017096
 21
74.772669
 31
0.0
  0
LINE
  5
13E
100
AcDbEntity
  8
0
 62
     0
100
AcDbLine
 10
113.244857
 20
74.177208
 30
0.0
 11
113.840319
 21
74.772669
 31
0.0
  0
LINE
  5
13F
100
AcDbEntity
  8
0
 62
     0
100
AcDbLine
 10
113.244857
 20
74.353984
 30
0.0
 11
113.663542
 21
74.772669
 31
0.0
  0
LINE
  5
140
100
AcDbEntity
  8
0
 62
     0
100
AcDbLine
 10
113.244857
 20
74.530761
 30
0.0
 11
113.486765
 21
74.772669
 31
0.0
  0
LINE
  5
141
100
AcDbEntity
  8
0
 62
     0
100
AcDbLine
 10
113.244857
 20
74.707538
 30
0.0
 11
113.309989
 21
74.772669
 31
0.0
  0
LINE
  5
142
100
AcDbEntity
  8
0
 62
     0
100
AcDbLine
 10
113.375131
 20
72.716491
 30
0.0
 11
115.301035
 21
74.642395
 31
0.0
  0
LINE
  5
143
100
AcDbEntity
  8
0
 62
     0
100
AcDbLine
 10
113.574294
 20
72.738877
 30
0.0
 11
115.278649
 21
74.443233
 31
0.0
  0
LINE
  5
144
100
AcDbEntity
  8
0
 62
     0
100
AcDbLine
 10
113.801058
 20
72.788865
 30
0.0
 11
115.228661
 21
74.216468
 31
0.0
  0
LINE
  5
145
100
AcDbEntity
  8
0
 62
     0
100
AcDbLine
 10
114.076757
 20
72.887787
 30
0.0
 11
115.12974
 21
73.94077
 31
0.0
  0
LINE
  5
146
100
AcDbEntity
  8
0
 62
     0
100
AcDbLine
 10
114.520614
 20
73.154867
 30
0.0
 11
114.862659
 21
73.496913
 31
0.0
  0
LINE
  5
147
100
AcDbEntity
  8
0
 62
     0
100
AcDbLine
 10
114.648834
 20
73.264794
 30
0.0
 11
113.244857
 21
74.66877
 31
0.0
  0
LINE
  5
148
100
AcDbEntity
  8
0
 62
     0
100
AcDbLine
 10
114.554597
 20
73.182254
 30
0.0
 11
113.244857
 21
74.491993
 31
0.0
  0
LINE
  5
149
100
AcDbEntity
  8
0
 62
     0
100
AcDbLine
 10
114.454916
 20
73.105157
 30
0.0
 11
113.244857
 21
74.315216
 31
0.0
  0
LINE
  5
14A
100
AcDbEntity
  8
0
 62
     0
100
AcDbLine
 10
114.349663
 20
73.033634
 30
0.0
 11
113.244857
 21
74.13844
 31
0.0
  0
LINE
  5
14B
100
AcDbEntity
  8
0
 62
     0
100
AcDbLine
 10
114.238635
 20
72.967885
 30
0.0
 11
113.244857
 21
73.961663
 31
0.0
  0
LINE
  5
14C
100
AcDbEntity
  8
0
 62
     0
100
AcDbLine
 10
114.121546
 20
72.908197
 30
0.0
 11
113.244857
 21
73.784886
 31
0.0
  0
LINE
  5
14D
100
AcDbEntity
  8
0
 62
     0
100
AcDbLine
 10
113.998006
 20
72.854961
 30
0.0
 11
113.244857
 21
73.60811
 31
0.0
  0
LINE
  5
14E
100
AcDbEntity
  8
0
 62
     0
100
AcDbLine
 10
113.867489
 20
72.808702
 30
0.0
 11
113.244857
 21
73.431333
 31
0.0
  0
LINE
  5
14F
100
AcDbEntity
  8
0
 62
     0
100
AcDbLine
 10
113.729285
 20
72.770129
 30
0.0
 11
113.244857
 21
73.254556
 31
0.0
  0
LINE
  5
150
100
AcDbEntity
  8
0
 62
     0
100
AcDbLine
 10
113.582426
 20
72.740211
 30
0.0
 11
113.244857
 21
73.07778
 31
0.0
  0
LINE
  5
151
100
AcDbEntity
  8
0
 62
     0
100
AcDbLine
 10
113.425552
 20
72.720308
 30
0.0
 11
113.244857
 21
72.901003
 31
0.0
  0
LINE
  5
152
100
AcDbEntity
  8
0
 62
     0
100
AcDbLine
 10
113.256681
 20
72.712403
 30
0.0
 11
113.244857
 21
72.724226
 31
0.0
  0
LINE
  5
153
100
AcDbEntity
  8
0
 62
     0
100
AcDbLine
 10
114.737693
 20
73.352711
 30
0.0
 11
113.317735
 21
74.772669
 31
0.0
  0
LINE
  5
154
100
AcDbEntity
  8
0
 62
     0
100
AcDbLine
 10
114.821179
 20
73.446001
 30
0.0
 11
113.494511
 21
74.772669
 31
0.0
  0
LINE
  5
155
100
AcDbEntity
  8
0
 62
     0
100
AcDbLine
 10
114.899238
 20
73.544719
 30
0.0
 11
113.671288
 21
74.772669
 31
0.0
  0
LINE
  5
156
100
AcDbEntity
  8
0
 62
     0
100
AcDbLine
 10
114.971752
 20
73.648982
 30
0.0
 11
113.848065
 21
74.772669
 31
0.0
  0
LINE
  5
157
100
AcDbEntity
  8
0
 62
     0
100
AcDbLine
 10
115.038532
 20
73.758978
 30
0.0
 11
114.024841
 21
74.772669
 31
0.0
  0
LINE
  5
158
100
AcDbEntity
  8
0
 62
     0
100
AcDbLine
 10
115.099309
 20
73.874979
 30
0.0
 11
114.201618
 21
74.772669
 31
0.0
  0
LINE
  5
159
100
AcDbEntity
  8
0
 62
     0
100
AcDbLine
 10
115.153711
 20
73.997353
 30
0.0
 11
114.378395
 21
74.772669
 31
0.0
  0
LINE
  5
15A
100
AcDbEntity
  8
0
 62
     0
100
AcDbLine
 10
115.20124
 20
74.126601
 30
0.0
 11
114.555172
 21
74.772669
 31
0.0
  0
LINE
  5
15B
100
AcDbEntity
  8
0
 62
     0
100
AcDbLine
 10
115.241223
 20
74.263394
 30
0.0
 11
114.731948
 21
74.772669
 31
0.0
  0
LINE
  5
15C
100
AcDbEntity
  8
0
 62
     0
100
AcDbLine
 10
115.272745
 20
74.408649
 30
0.0
 11
114.908725
 21
74.772669
 31
0.0
  0
LINE
  5
15D
100
AcDbEntity
  8
0
 62
     0
100
AcDbLine
 10
115.294527
 20
74.563644
 30
0.0
 11
115.085502
 21
74.772669
 31
0.0
  0
LINE
  5
15E
100
AcDbEntity
  8
0
 62
     0
100
AcDbLine
 10
115.304721
 20
74.730227
 30
0.0
 11
115.262278
 21
74.772669
 31
0.0
  0
ENDBLK
  5
15F
100
AcDbEntity
  8
0
100
AcDbBlockEnd
  0
BLOCK
  5
160
100
AcDbEntity
  8
0
100
AcDbBlockBegin
  2
*X4
 70
     1
 10
0.0
 20
0.0
 30
0.0
  3
*X4
  1

  0
LINE
  5
161
100
AcDbEntity
  8
0
 62
     0
100
AcDbLine
 10
111.192487
 20
74.953265
 30
0.0
 11
113.064262
 21
76.825039
 31
0.0
  0
LINE
  5
162
100
AcDbEntity
  8
0
 62
     0
100
AcDbLine
 10
111.221021
 20
75.158575
 30
0.0
 11
112.858952
 21
76.796506
 31
0.0
  0
LINE
  5
163
100
AcDbEntity
  8
0
 62
     0
100
AcDbLine
 10
111.280853
 20
75.395184
 30
0.0
 11
112.622343
 21
76.736674
 31
0.0
  0
LINE
  5
164
100
AcDbEntity
  8
0
 62
     0
100
AcDbLine
 10
111.401183
 20
75.692291
 30
0.0
 11
112.325236
 21
76.616343
 31
0.0
  0
LINE
  5
165
100
AcDbEntity
  8
0
 62
     0
100
AcDbLine
 10
111.188668
 20
74.772669
 30
0.0
 11
113.244857
 21
76.828858
 31
0.0
  0
LINE
  5
166
100
AcDbEntity
  8
0
 62
     0
100
AcDbLine
 10
111.365445
 20
74.772669
 30
0.0
 11
113.244857
 21
76.652081
 31
0.0
  0
LINE
  5
167
100
AcDbEntity
  8
0
 62
     0
100
AcDbLine
 10
111.542222
 20
74.772669
 30
0.0
 11
113.244857
 21
76.475305
 31
0.0
  0
LINE
  5
168
100
AcDbEntity
  8
0
 62
     0
100
AcDbLine
 10
111.718998
 20
74.772669
 30
0.0
 11
113.244857
 21
76.298528
 31
0.0
  0
LINE
  5
169
100
AcDbEntity
  8
0
 62
     0
100
AcDbLine
 10
111.895775
 20
74.772669
 30
0.0
 11
113.244857
 21
76.121751
 31
0.0
  0
LINE
  5
16A
100
AcDbEntity
  8
0
 62
     0
100
AcDbLine
 10
112.072552
 20
74.772669
 30
0.0
 11
113.244857
 21
75.944975
 31
0.0
  0
LINE
  5
16B
100
AcDbEntity
  8
0
 62
     0
100
AcDbLine
 10
112.249329
 20
74.772669
 30
0.0
 11
113.244857
 21
75.768198
 31
0.0
  0
LINE
  5
16C
100
AcDbEntity
  8
0
 62
     0
100
AcDbLine
 10
112.426105
 20
74.772669
 30
0.0
 11
113.244857
 21
75.591421
 31
0.0
  0
LINE
  5
16D
100
AcDbEntity
  8
0
 62
     0
100
AcDbLine
 10
112.602882
 20
74.772669
 30
0.0
 11
113.244857
 21
75.414644
 31
0.0
  0
LINE
  5
16E
100
AcDbEntity
  8
0
 62
     0
100
AcDbLine
 10
112.779659
 20
74.772669
 30
0.0
 11
113.244857
 21
75.237868
 31
0.0
  0
LINE
  5
16F
100
AcDbEntity
  8
0
 62
     0
100
AcDbLine
 10
112.956435
 20
74.772669
 30
0.0
 11
113.244857
 21
75.061091
 31
0.0
  0
LINE
  5
170
100
AcDbEntity
  8
0
 62
     0
100
AcDbLine
 10
113.133212
 20
74.772669
 30
0.0
 11
113.244857
 21
74.884314
 31
0.0
  0
LINE
  5
171
100
AcDbEntity
  8
0
 62
     0
100
AcDbLine
 10
113.140958
 20
74.772669
 30
0.0
 11
111.736982
 21
76.176645
 31
0.0
  0
LINE
  5
172
100
AcDbEntity
  8
0
 62
     0
100
AcDbLine
 10
112.964181
 20
74.772669
 30
0.0
 11
111.654442
 21
76.082409
 31
0.0
  0
LINE
  5
173
100
AcDbEntity
  8
0
 62
     0
100
AcDbLine
 10
112.787405
 20
74.772669
 30
0.0
 11
111.577346
 21
75.982728
 31
0.0
  0
LINE
  5
174
100
AcDbEntity
  8
0
 62
     0
100
AcDbLine
 10
112.610628
 20
74.772669
 30
0.0
 11
111.505822
 21
75.877475
 31
0.0
  0
LINE
  5
175
100
AcDbEntity
  8
0
 62
     0
100
AcDbLine
 10
112.433851
 20
74.772669
 30
0.0
 11
111.440074
 21
75.766447
 31
0.0
  0
LINE
  5
176
100
AcDbEntity
  8
0
 62
     0
100
AcDbLine
 10
112.257074
 20
74.772669
 30
0.0
 11
111.380386
 21
75.649358
 31
0.0
  0
LINE
  5
177
100
AcDbEntity
  8
0
 62
     0
100
AcDbLine
 10
112.080298
 20
74.772669
 30
0.0
 11
111.327149
 21
75.525818
 31
0.0
  0
LINE
  5
178
100
AcDbEntity
  8
0
 62
     0
100
AcDbLine
 10
111.903521
 20
74.772669
 30
0.0
 11
111.28089
 21
75.3953
 31
0.0
  0
LINE
  5
179
100
AcDbEntity
  8
0
 62
     0
100
AcDbLine
 10
111.726744
 20
74.772669
 30
0.0
 11
111.242317
 21
75.257097
 31
0.0
  0
LINE
  5
17A
100
AcDbEntity
  8
0
 62
     0
100
AcDbLine
 10
111.549968
 20
74.772669
 30
0.0
 11
111.212399
 21
75.110238
 31
0.0
  0
LINE
  5
17B
100
AcDbEntity
  8
0
 62
     0
100
AcDbLine
 10
111.373191
 20
74.772669
 30
0.0
 11
111.192496
 21
74.953364
 31
0.0
  0
LINE
  5
17C
100
AcDbEntity
  8
0
 62
     0
100
AcDbLine
 10
111.196414
 20
74.772669
 30
0.0
 11
111.184591
 21
74.784493
 31
0.0
  0
LINE
  5
17D
100
AcDbEntity
  8
0
 62
     0
100
AcDbLine
 10
113.244857
 20
74.845547
 30
0.0
 11
111.824899
 21
76.265505
 31
0.0
  0
LINE
  5
17E
100
AcDbEntity
  8
0
 62
     0
100
AcDbLine
 10
113.244857
 20
75.022323
 30
0.0
 11
111.918189
 21
76.348991
 31
0.0
  0
LINE
  5
17F
100
AcDbEntity
  8
0
 62
     0
100
AcDbLine
 10
113.244857
 20
75.1991
 30
0.0
 11
112.016907
 21
76.42705
 31
0.0
  0
LINE
  5
180
100
AcDbEntity
  8
0
 62
     0
100
AcDbLine
 10
113.244857
 20
75.375877
 30
0.0
 11
112.12117
 21
76.499564
 31
0.0
  0
LINE
  5
181
100
AcDbEntity
  8
0
 62
     0
100
AcDbLine
 10
113.244857
 20
75.552653
 30
0.0
 11
112.231167
 21
76.566344
 31
0.0
  0
LINE
  5
182
100
AcDbEntity
  8
0
 62
     0
100
AcDbLine
 10
113.244857
 20
75.72943
 30
0.0
 11
112.347167
 21
76.627121
 31
0.0
  0
LINE
  5
183
100
AcDbEntity
  8
0
 62
     0
100
AcDbLine
 10
113.244857
 20
75.906207
 30
0.0
 11
112.469541
 21
76.681523
 31
0.0
  0
LINE
  5
184
100
AcDbEntity
  8
0
 62
     0
100
AcDbLine
 10
113.244857
 20
76.082983
 30
0.0
 11
112.598789
 21
76.729052
 31
0.0
  0
LINE
  5
185
100
AcDbEntity
  8
0
 62
     0
100
AcDbLine
 10
113.244857
 20
76.25976
 30
0.0
 11
112.735582
 21
76.769035
 31
0.0
  0
LINE
  5
186
100
AcDbEntity
  8
0
 62
     0
100
AcDbLine
 10
113.244857
 20
76.436537
 30
0.0
 11
112.880837
 21
76.800557
 31
0.0
  0
LINE
  5
187
100
AcDbEntity
  8
0
 62
     0
100
AcDbLine
 10
113.244857
 20
76.613313
 30
0.0
 11
113.035832
 21
76.822339
 31
0.0
  0
LINE
  5
188
100
AcDbEntity
  8
0
 62
     0
100
AcDbLine
 10
113.244857
 20
76.79009
 30
0.0
 11
113.202415
 21
76.832532
 31
0.0
  0
ENDBLK
  5
189
100
AcDbEntity
  8
0
100
AcDbBlockEnd
  0
BLOCK
  5
23CD
100
AcDbEntity
  8
0
100
AcDbBlockBegin
  2
150PF
 70
     0
 10
0.0
 20
0.0
 30
0.0
  3
150PF
  1

  0
LINE
  5
23B3
100
AcDbEntity
  8
CENTER
100
AcDbLine
 10
2.458143
 20
3.253993
 30
0.0
 11
4.995721
 21
3.253993
 31
0.0
  0
ARC
  5
23B4
100
AcDbEntity
  8
OBJECT
100
AcDbCircle
 10
2.458143
 20
3.253993
 30
0.0
 40
2.25
100
AcDbArc
 50
284.940303
 51
75.059697
  0
LINE
  5
23B5
100
AcDbEntity
  8
CENTER
100
AcDbLine
 10
2.458143
 20
3.253993
 30
0.0
 11
-0.079436
 21
3.253993
 31
0.0
  0
LINE
  5
23B6
100
AcDbEntity
  8
CENTER
100
AcDbLine
 10
2.458143
 20
3.253993
 30
0.0
 11
2.458143
 21
5.791571
 31
0.0
  0
CIRCLE
  5
23B7
100
AcDbEntity
  8
OBJECT
100
AcDbCircle
 10
2.458143
 20
3.253993
 30
0.0
 40
1.4375
  0
ARC
  5
23B8
100
AcDbEntity
  8
OBJECT
100
AcDbCircle
 10
2.458143
 20
3.253993
 30
0.0
 40
2.25
100
AcDbArc
 50
104.940303
 51
255.059697
  0
LINE
  5
23B9
100
AcDbEntity
  8
OBJECT
  6
CENTER
 62
     3
100
AcDbLine
 10
2.458143
 20
0.941493
 30
0.0
 11
1.797626
 21
0.941493
 31
0.0
  0
CIRCLE
  5
23BA
100
AcDbEntity
  8
OBJECT
100
AcDbCircle
 10
2.458143
 20
0.941493
 30
0.0
 40
0.21875
  0
ARC
  5
23BB
100
AcDbEntity
  8
OBJECT
100
AcDbCircle
 10
2.458143
 20
0.941493
 30
0.0
 40
0.46875
100
AcDbArc
 50
180.0
 51
0.0
  0
CIRCLE
  5
23BC
100
AcDbEntity
  8
OBJECT
100
AcDbCircle
 10
2.458143
 20
3.253993
 30
0.0
 40
0.95
  0
LINE
  5
23BD
100
AcDbEntity
  8
OBJECT
100
AcDbLine
 10
1.989393
 20
0.941493
 30
0.0
 11
1.989393
 21
0.935125
 31
0.0
  0
ARC
  5
23BE
100
AcDbEntity
  8
OBJECT
100
AcDbCircle
 10
1.839393
 20
0.935125
 30
0.0
 40
0.15
100
AcDbArc
 50
0.0
 51
75.059697
  0
LINE
  5
23BF
100
AcDbEntity
  8
CENTER
100
AcDbLine
 10
2.458143
 20
3.253993
 30
0.0
 11
2.458143
 21
0.716415
 31
0.0
  0
LINE
  5
23C0
100
AcDbEntity
  8
OBJECT
100
AcDbLine
 10
2.926893
 20
0.941493
 30
0.0
 11
2.926893
 21
0.935125
 31
0.0
  0
ARC
  5
23C1
100
AcDbEntity
  8
OBJECT
100
AcDbCircle
 10
3.076893
 20
0.935125
 30
0.0
 40
0.15
100
AcDbArc
 50
104.940303
 51
180.0
  0
LINE
  5
23C2
100
AcDbEntity
  8
15
  6
CENTER
 62
     3
100
AcDbLine
 10
2.458143
 20
1.3321
 30
0.0
 11
2.458143
 21
0.262404
 31
0.0
  0
LINE
  5
23C3
100
AcDbEntity
  8
OBJECT
  6
CENTER
 62
     3
100
AcDbLine
 10
2.458143
 20
0.941493
 30
0.0
 11
3.011616
 21
0.941493
 31
0.0
  0
LINE
  5
23C4
100
AcDbEntity
  8
OBJECT
  6
CENTER
 62
     3
100
AcDbLine
 10
2.458143
 20
5.566493
 30
0.0
 11
1.797626
 21
5.566493
 31
0.0
  0
ARC
  5
23C5
100
AcDbEntity
  8
OBJECT
100
AcDbCircle
 10
2.458143
 20
5.566493
 30
0.0
 40
0.46875
100
AcDbArc
 50
0.0
 51
180.0
  0
CIRCLE
  5
23C6
100
AcDbEntity
  8
OBJECT
100
AcDbCircle
 10
2.458143
 20
5.566493
 30
0.0
 40
0.21875
  0
ARC
  5
23C7
100
AcDbEntity
  8
OBJECT
100
AcDbCircle
 10
1.839393
 20
5.572861
 30
0.0
 40
0.15
100
AcDbArc
 50
284.940303
 51
0.0
  0
LINE
  5
23C8
100
AcDbEntity
  8
OBJECT
100
AcDbLine
 10
1.989393
 20
5.566493
 30
0.0
 11
1.989393
 21
5.572861
 31
0.0
  0
ARC
  5
23C9
100
AcDbEntity
  8
OBJECT
100
AcDbCircle
 10
3.076893
 20
5.572861
 30
0.0
 40
0.15
100
AcDbArc
 50
180.0
 51
255.059697
  0
LINE
  5
23CA
100
AcDbEntity
  8
OBJECT
100
AcDbLine
 10
2.926893
 20
5.566493
 30
0.0
 11
2.926893
 21
5.572861
 31
0.0
  0
LINE
  5
23CB
100
AcDbEntity
  8
15
  6
CENTER
 62
     3
100
AcDbLine
 10
2.458143
 20
5.175886
 30
0.0
 11
2.458143
 21
6.245582
 31
0.0
  0
LINE
  5
23CC
100
AcDbEntity
  8
OBJECT
  6
CENTER
 62
     3
100
AcDbLine
 10
2.458143
 20
5.566493
 30
0.0
 11
3.011616
 21
5.566493
 31
0.0
  0
ENDBLK
  5
23CE
100
AcDbEntity
  8
0
100
AcDbBlockEnd
  0
BLOCK
  5
61DC
100
AcDbEntity
  8
0
100
AcDbBlockBegin
  2
*D6
 70
     1
 10
0.0
 20
0.0
 30
0.0
  3
*D6
  1

  0
LINE
  5
61DD
100
AcDbEntity
  8
0
  6
BYBLOCK
 62
     0
100
AcDbLine
 10
75.685307
 20
67.213316
 30
0.0
 11
75.685307
 21
52.631949
 31
0.0
  0
LINE
  5
61DE
100
AcDbEntity
  8
0
  6
BYBLOCK
 62
     0
100
AcDbLine
 10
123.685307
 20
67.213316
 30
0.0
 11
123.685307
 21
52.631949
 31
0.0
  0
LINE
  5
61DF
100
AcDbEntity
  8
0
  6
BYBLOCK
 62
     0
100
AcDbLine
 10
77.285307
 20
54.331949
 30
0.0
 11
96.285307
 21
54.331949
 31
0.0
  0
LINE
  5
61E0
100
AcDbEntity
  8
0
  6
BYBLOCK
 62
     0
100
AcDbLine
 10
122.085307
 20
54.331949
 30
0.0
 11
103.085307
 21
54.331949
 31
0.0
  0
SOLID
  5
61E1
100
AcDbEntity
  8
0
  6
BYBLOCK
 62
     0
100
AcDbTrace
 10
77.285307
 20
54.598615
 30
0.0
 11
77.285307
 21
54.065282
 31
0.0
 12
75.685307
 22
54.331949
 32
0.0
 13
75.685307
 23
54.331949
 33
0.0
  0
SOLID
  5
61E2
100
AcDbEntity
  8
0
  6
BYBLOCK
 62
     0
100
AcDbTrace
 10
122.085307
 20
54.598615
 30
0.0
 11
122.085307
 21
54.065282
 31
0.0
 12
123.685307
 22
54.331949
 32
0.0
 13
123.685307
 23
54.331949
 33
0.0
  0
MTEXT
  5
61E3
100
AcDbEntity
  8
0
  6
BYBLOCK
 62
     0
100
AcDbMText
 10
99.685307
 20
54.331949
 30
0.0
 40
1.7
 41
0.0
 71
     5
 72
     1
  1
\A1;  
  7
SCRIPTC
  0
POINT
  5
61E4
100
AcDbEntity
  8
DEFPOINTS
  6
BYBLOCK
 62
     0
100
AcDbPoint
 10
75.685307
 20
67.275816
 30
0.0
  0
POINT
  5
61E5
100
AcDbEntity
  8
DEFPOINTS
  6
BYBLOCK
 62
     0
100
AcDbPoint
 10
123.685307
 20
67.275816
 30
0.0
  0
POINT
  5
61E6
100
AcDbEntity
  8
DEFPOINTS
  6
BYBLOCK
 62
     0
100
AcDbPoint
 10
123.685307
 20
54.331949
 30
0.0
  0
ENDBLK
  5
61E7
100
AcDbEntity
  8
0
100
AcDbBlockEnd
  0
BLOCK
  5
61E9
100
AcDbEntity
  8
0
100
AcDbBlockBegin
  2
*D7
 70
     1
 10
0.0
 20
0.0
 30
0.0
  3
*D7
  1

  0
LINE
  5
61EA
100
AcDbEntity
  8
0
  6
BYBLOCK
 62
     0
100
AcDbLine
 10
72.685307
 20
65.675816
 30
0.0
 11
72.685307
 21
53.331949
 31
0.0
  0
LINE
  5
61EB
100
AcDbEntity
  8
0
  6
BYBLOCK
 62
     0
100
AcDbLine
 10
75.685307
 20
67.175816
 30
0.0
 11
75.685307
 21
53.331949
 31
0.0
  0
LINE
  5
61EC
100
AcDbEntity
  8
0
  6
BYBLOCK
 62
     0
100
AcDbLine
 10
77.185307
 20
54.331949
 30
0.0
 11
78.685307
 21
54.331949
 31
0.0
  0
LINE
  5
61ED
100
AcDbEntity
  8
0
  6
BYBLOCK
 62
     0
100
AcDbLine
 10
71.185307
 20
54.331949
 30
0.0
 11
69.685307
 21
54.331949
 31
0.0
  0
SOLID
  5
61EE
100
AcDbEntity
  8
0
  6
BYBLOCK
 62
     0
100
AcDbTrace
 10
77.185307
 20
54.581949
 30
0.0
 11
77.185307
 21
54.081949
 31
0.0
 12
75.685307
 22
54.331949
 32
0.0
 13
75.685307
 23
54.331949
 33
0.0
  0
SOLID
  5
61EF
100
AcDbEntity
  8
0
  6
BYBLOCK
 62
     0
100
AcDbTrace
 10
71.185307
 20
54.581949
 30
0.0
 11
71.185307
 21
54.081949
 31
0.0
 12
72.685307
 22
54.331949
 32
0.0
 13
72.685307
 23
54.331949
 33
0.0
  0
MTEXT
  5
61F0
100
AcDbEntity
  8
0
  6
BYBLOCK
 62
     0
100
AcDbMText
 10
67.185307
 20
54.331949
 30
0.0
 40
1.5
 41
0.0
 71
     5
 72
     1
  1
\A1;3"
  0
POINT
  5
61F1
100
AcDbEntity
  8
DEFPOINTS
  6
BYBLOCK
 62
     0
100
AcDbPoint
 10
72.685307
 20
65.775816
 30
0.0
  0
POINT
  5
61F2
100
AcDbEntity
  8
DEFPOINTS
  6
BYBLOCK
 62
     0
100
AcDbPoint
 10
75.685307
 20
67.275816
 30
0.0
  0
POINT
  5
61F3
100
AcDbEntity
  8
DEFPOINTS
  6
BYBLOCK
 62
     0
100
AcDbPoint
 10
75.685307
 20
54.331949
 30
0.0
  0
ENDBLK
  5
61F4
100
AcDbEntity
  8
0
100
AcDbBlockEnd
  0
BLOCK
  5
61F6
100
AcDbEntity
  8
0
100
AcDbBlockBegin
  2
*D8
 70
     1
 10
0.0
 20
0.0
 30
0.0
  3
*D8
  1

  0
LINE
  5
61F7
100
AcDbEntity
  8
0
  6
BYBLOCK
 62
     0
100
AcDbLine
 10
123.685307
 20
67.175816
 30
0.0
 11
123.685307
 21
53.331949
 31
0.0
  0
LINE
  5
61F8
100
AcDbEntity
  8
0
  6
BYBLOCK
 62
     0
100
AcDbLine
 10
126.685307
 20
65.675816
 30
0.0
 11
126.685307
 21
53.331949
 31
0.0
  0
LINE
  5
61F9
100
AcDbEntity
  8
0
  6
BYBLOCK
 62
     0
100
AcDbLine
 10
122.185307
 20
54.331949
 30
0.0
 11
120.685307
 21
54.331949
 31
0.0
  0
LINE
  5
61FA
100
AcDbEntity
  8
0
  6
BYBLOCK
 62
     0
100
AcDbLine
 10
128.185307
 20
54.331949
 30
0.0
 11
129.685307
 21
54.331949
 31
0.0
  0
SOLID
  5
61FB
100
AcDbEntity
  8
0
  6
BYBLOCK
 62
     0
100
AcDbTrace
 10
122.185307
 20
54.581949
 30
0.0
 11
122.185307
 21
54.081949
 31
0.0
 12
123.685307
 22
54.331949
 32
0.0
 13
123.685307
 23
54.331949
 33
0.0
  0
SOLID
  5
61FC
100
AcDbEntity
  8
0
  6
BYBLOCK
 62
     0
100
AcDbTrace
 10
128.185307
 20
54.581949
 30
0.0
 11
128.185307
 21
54.081949
 31
0.0
 12
126.685307
 22
54.331949
 32
0.0
 13
126.685307
 23
54.331949
 33
0.0
  0
MTEXT
  5
61FD
100
AcDbEntity
  8
0
  6
BYBLOCK
 62
     0
100
AcDbMText
 10
132.185307
 20
54.331949
 30
0.0
 40
1.5
 41
0.0
 71
     5
 72
     1
  1
\A1;3"
  0
POINT
  5
61FE
100
AcDbEntity
  8
DEFPOINTS
  6
BYBLOCK
 62
     0
100
AcDbPoint
 10
123.685307
 20
67.275816
 30
0.0
  0
POINT
  5
61FF
100
AcDbEntity
  8
DEFPOINTS
  6
BYBLOCK
 62
     0
100
AcDbPoint
 10
126.685307
 20
65.775816
 30
0.0
  0
POINT
  5
6200
100
AcDbEntity
  8
DEFPOINTS
  6
BYBLOCK
 62
     0
100
AcDbPoint
 10
126.685307
 20
54.331949
 30
0.0
  0
ENDBLK
  5
6201
100
AcDbEntity
  8
0
100
AcDbBlockEnd
  0
BLOCK
  5
620F
100
AcDbEntity
  8
0
100
AcDbBlockBegin
  2
*D9
 70
     1
 10
0.0
 20
0.0
 30
0.0
  3
*D9
  1

  0
LINE
  5
6210
100
AcDbEntity
  8
0
  6
BYBLOCK
 62
     0
100
AcDbLine
 10
61.369361
 20
160.919863
 30
0.0
 11
59.729361
 21
160.919863
 31
0.0
  0
LINE
  5
6211
100
AcDbEntity
  8
0
  6
BYBLOCK
 62
     0
100
AcDbLine
 10
66.103528
 20
118.123648
 30
0.0
 11
59.729361
 21
118.123648
 31
0.0
  0
LINE
  5
6212
100
AcDbEntity
  8
0
  6
BYBLOCK
 62
     0
100
AcDbLine
 10
61.429361
 20
159.319863
 30
0.0
 11
61.429361
 21
141.771755
 31
0.0
  0
LINE
  5
6213
100
AcDbEntity
  8
0
  6
BYBLOCK
 62
     0
100
AcDbLine
 10
61.429361
 20
119.723648
 30
0.0
 11
61.429361
 21
137.271755
 31
0.0
  0
SOLID
  5
6214
100
AcDbEntity
  8
0
  6
BYBLOCK
 62
     0
100
AcDbTrace
 10
61.162695
 20
159.319863
 30
0.0
 11
61.696028
 21
159.319863
 31
0.0
 12
61.429361
 22
160.919863
 32
0.0
 13
61.429361
 23
160.919863
 33
0.0
  0
SOLID
  5
6215
100
AcDbEntity
  8
0
  6
BYBLOCK
 62
     0
100
AcDbTrace
 10
61.162695
 20
119.723648
 30
0.0
 11
61.696028
 21
119.723648
 31
0.0
 12
61.429361
 22
118.123648
 32
0.0
 13
61.429361
 23
118.123648
 33
0.0
  0
MTEXT
  5
6216
100
AcDbEntity
  8
0
  6
BYBLOCK
 62
     0
100
AcDbMText
 10
61.429361
 20
139.521755
 30
0.0
 40
1.5
 41
0.0
 71
     5
 72
     1
  1
\A1;  
  0
POINT
  5
6217
100
AcDbEntity
  8
DEFPOINTS
  6
BYBLOCK
 62
     0
100
AcDbPoint
 10
61.429361
 20
160.919863
 30
0.0
  0
POINT
  5
6218
100
AcDbEntity
  8
DEFPOINTS
  6
BYBLOCK
 62
     0
100
AcDbPoint
 10
66.163528
 20
118.123648
 30
0.0
  0
POINT
  5
6219
100
AcDbEntity
  8
DEFPOINTS
  6
BYBLOCK
 62
     0
100
AcDbPoint
 10
61.429361
 20
118.123648
 30
0.0
  0
ENDBLK
  5
621A
100
AcDbEntity
  8
0
100
AcDbBlockEnd
  0
ENDSEC
  0
SECTION
  2
ENTITIES
  0
TEXT
  5
B19
100
AcDbEntity
  8
0
  6
BYBLOCK
 62
     0
100
AcDbText
 10
3549.49947
 20
3694.981337
 30
0.0
 40
38.436161
  1
   
  7
ROMANS
 72
     1
 11
3607.153712
 21
3714.199418
 31
0.0
100
AcDbText
 73
     2
  0
TEXT
  5
B1B
100
AcDbEntity
  8
0
  6
BYBLOCK
 62
     0
100
AcDbText
 10
2713.264726
 20
5021.917721
 30
0.0
 40
38.436161
  1
  
  7
ROMANS
 72
     1
 11
2751.700886
 21
5041.135801
 31
0.0
100
AcDbText
 73
     2
  0
TEXT
  5
B1C
100
AcDbEntity
  8
0
  6
BYBLOCK
 62
     0
100
AcDbText
 10
2712.787195
 20
4791.300756
 30
0.0
 40
38.436161
  1
  
  7
ROMANS
 72
     1
 11
2751.223356
 21
4810.518836
 31
0.0
100
AcDbText
 73
     2
  0
TEXT
  5
B1D
100
AcDbEntity
  8
0
  6
BYBLOCK
 62
     0
100
AcDbText
 10
1668.54622
 20
4061.431168
 30
0.0
 40
38.436161
  1
  
  7
ROMANS
 72
     1
 11
1706.982381
 21
4080.649249
 31
0.0
100
AcDbText
 73
     2
  0
TEXT
  5
B1E
100
AcDbEntity
  8
BORDER
 62
     7
100
AcDbText
 10
152.742519
 20
14.999143
 30
0.0
 40
2.753508
  1

  7
ROMANC
100
AcDbText
  0
TEXT
  5
C60
100
AcDbEntity
  8
0
  6
BYBLOCK
 62
     0
100
AcDbText
 10
720.914989
 20
492.400736
 30
0.0
 40
3.375
  1
   
  7
ROMANS
 72
     1
 11
725.977489
 21
494.088236
 31
0.0
100
AcDbText
 73
     2
  0
TEXT
  5
C61
100
AcDbEntity
  8
0
  6
BYBLOCK
 62
     0
100
AcDbText
 10
647.486941
 20
608.916283
 30
0.0
 40
3.375
  1
  
  7
ROMANS
 72
     1
 11
650.861941
 21
610.603783
 31
0.0
100
AcDbText
 73
     2
  0
TEXT
  5
C62
100
AcDbEntity
  8
0
  6
BYBLOCK
 62
     0
100
AcDbText
 10
647.44501
 20
588.666283
 30
0.0
 40
3.375
  1
  
  7
ROMANS
 72
     1
 11
650.82001
 21
590.353783
 31
0.0
100
AcDbText
 73
     2
  0
TEXT
  5
C63
100
AcDbEntity
  8
0
  6
BYBLOCK
 62
     0
100
AcDbText
 10
555.752364
 20
524.57794
 30
0.0
 40
3.375
  1
  
  7
ROMANS
 72
     1
 11
559.127364
 21
526.26544
 31
0.0
100
AcDbText
 73
     2
  0
TEXT
  5
E76
100
AcDbEntity
  8
0
  6
BYBLOCK
 62
     0
100
AcDbText
 10
514.17992
 20
577.153354
 30
0.0
 40
3.75
  1
   
  7
ROMANS
 72
     1
 11
519.80492
 21
579.028354
 31
0.0
100
AcDbText
 73
     2
  0
TEXT
  5
E77
100
AcDbEntity
  8
0
  6
BYBLOCK
 62
     0
100
AcDbText
 10
432.5932
 20
706.615073
 30
0.0
 40
3.75
  1
  
  7
ROMANS
 72
     1
 11
436.3432
 21
708.490073
 31
0.0
100
AcDbText
 73
     2
  0
TEXT
  5
E78
100
AcDbEntity
  8
0
  6
BYBLOCK
 62
     0
100
AcDbText
 10
432.54661
 20
684.115073
 30
0.0
 40
3.75
  1
  
  7
ROMANS
 72
     1
 11
436.29661
 21
685.990073
 31
0.0
100
AcDbText
 73
     2
  0
TEXT
  5
E79
100
AcDbEntity
  8
0
  6
BYBLOCK
 62
     0
100
AcDbText
 10
330.665892
 20
612.905803
 30
0.0
 40
3.75
  1
  
  7
ROMANS
 72
     1
 11
334.415892
 21
614.780803
 31
0.0
100
AcDbText
 73
     2
  0
TEXT
  5
E7A
100
AcDbEntity
  8
0
  6
BYBLOCK
 62
     0
100
AcDbText
 10
513.969991
 20
576.423014
 30
0.0
 40
3.75
  1
   
  7
ROMANS
 72
     1
 11
519.594991
 21
578.298014
 31
0.0
100
AcDbText
 73
     2
  0
TEXT
  5
E7B
100
AcDbEntity
  8
0
  6
BYBLOCK
 62
     0
100
AcDbText
 10
432.383271
 20
705.884733
 30
0.0
 40
3.75
  1
  
  7
ROMANS
 72
     1
 11
436.133271
 21
707.759733
 31
0.0
100
AcDbText
 73
     2
  0
TEXT
  5
E7C
100
AcDbEntity
  8
0
  6
BYBLOCK
 62
     0
100
AcDbText
 10
432.336681
 20
683.384733
 30
0.0
 40
3.75
  1
  
  7
ROMANS
 72
     1
 11
436.086681
 21
685.259733
 31
0.0
100
AcDbText
 73
     2
  0
TEXT
  5
E7D
100
AcDbEntity
  8
0
  6
BYBLOCK
 62
     0
100
AcDbText
 10
330.455963
 20
612.175463
 30
0.0
 40
3.75
  1
  
  7
ROMANS
 72
     1
 11
334.205963
 21
614.050463
 31
0.0
100
AcDbText
 73
     2
  0
TEXT
  5
E82
100
AcDbEntity
  8
0
  6
BYBLOCK
 62
     0
100
AcDbText
 10
538.236929
 20
575.46075
 30
0.0
 40
3.75
  1
   
  7
ROMANS
 72
     1
 11
543.861929
 21
577.33575
 31
0.0
100
AcDbText
 73
     2
  0
TEXT
  5
E83
100
AcDbEntity
  8
0
  6
BYBLOCK
 62
     0
100
AcDbText
 10
456.650209
 20
704.922469
 30
0.0
 40
3.75
  1
  
  7
ROMANS
 72
     1
 11
460.400209
 21
706.797469
 31
0.0
100
AcDbText
 73
     2
  0
TEXT
  5
E84
100
AcDbEntity
  8
0
  6
BYBLOCK
 62
     0
100
AcDbText
 10
456.603619
 20
682.422469
 30
0.0
 40
3.75
  1
  
  7
ROMANS
 72
     1
 11
460.353619
 21
684.297469
 31
0.0
100
AcDbText
 73
     2
  0
TEXT
  5
E85
100
AcDbEntity
  8
0
  6
BYBLOCK
 62
     0
100
AcDbText
 10
354.722901
 20
611.213199
 30
0.0
 40
3.75
  1
  
  7
ROMANS
 72
     1
 11
358.472901
 21
613.088199
 31
0.0
100
AcDbText
 73
     2
  0
TEXT
  5
E87
100
AcDbEntity
  8
0
  6
BYBLOCK
 62
     0
100
AcDbText
 10
605.270488
 20
645.154871
 30
0.0
 40
4.5
  1
   
  7
ROMANS
 72
     1
 11
612.020488
 21
647.404871
 31
0.0
100
AcDbText
 73
     2
  0
TEXT
  5
E88
100
AcDbEntity
  8
0
  6
BYBLOCK
 62
     0
100
AcDbText
 10
507.366424
 20
800.508933
 30
0.0
 40
4.5
  1
  
  7
ROMANS
 72
     1
 11
511.866424
 21
802.758933
 31
0.0
100
AcDbText
 73
     2
  0
TEXT
  5
E89
100
AcDbEntity
  8
0
  6
BYBLOCK
 62
     0
100
AcDbText
 10
507.310516
 20
773.508933
 30
0.0
 40
4.5
  1
  
  7
ROMANS
 72
     1
 11
511.810516
 21
775.758933
 31
0.0
100
AcDbText
 73
     2
  0
TEXT
  5
E8A
100
AcDbEntity
  8
0
  6
BYBLOCK
 62
     0
100
AcDbText
 10
385.053654
 20
688.057809
 30
0.0
 40
4.5
  1
  
  7
ROMANS
 72
     1
 11
389.553654
 21
690.307809
 31
0.0
100
AcDbText
 73
     2
  0
TEXT
  5
E8B
100
AcDbEntity
  8
0
  6
BYBLOCK
 62
     0
100
AcDbText
 10
537.222842
 20
575.248856
 30
0.0
 40
3.75
  1
   
  7
ROMANS
 72
     1
 11
542.847842
 21
577.123856
 31
0.0
100
AcDbText
 73
     2
  0
TEXT
  5
E8C
100
AcDbEntity
  8
0
  6
BYBLOCK
 62
     0
100
AcDbText
 10
455.636122
 20
704.710574
 30
0.0
 40
3.75
  1
  
  7
ROMANS
 72
     1
 11
459.386122
 21
706.585574
 31
0.0
100
AcDbText
 73
     2
  0
TEXT
  5
E8D
100
AcDbEntity
  8
0
  6
BYBLOCK
 62
     0
100
AcDbText
 10
455.589532
 20
682.210574
 30
0.0
 40
3.75
  1
  
  7
ROMANS
 72
     1
 11
459.339532
 21
684.085574
 31
0.0
100
AcDbText
 73
     2
  0
TEXT
  5
E8E
100
AcDbEntity
  8
0
  6
BYBLOCK
 62
     0
100
AcDbText
 10
353.708814
 20
611.001304
 30
0.0
 40
3.75
  1
  
  7
ROMANS
 72
     1
 11
357.458814
 21
612.876304
 31
0.0
100
AcDbText
 73
     2
  0
TEXT
  5
1102
100
AcDbEntity
  8
0
  6
BYBLOCK
 62
     0
100
AcDbText
 10
3451.553882
 20
3626.647796
 30
0.0
 40
37.5
  1
   
  7
ROMANS
 72
     1
 11
3507.803882
 21
3645.397796
 31
0.0
100
AcDbText
 73
     2
  0
TEXT
  5
1103
100
AcDbEntity
  8
0
  6
BYBLOCK
 62
     0
100
AcDbText
 10
2635.686681
 20
4921.264982
 30
0.0
 40
37.5
  1
  
  7
ROMANS
 72
     1
 11
2673.186681
 21
4940.014982
 31
0.0
100
AcDbText
 73
     2
  0
TEXT
  5
1104
100
AcDbEntity
  8
0
  6
BYBLOCK
 62
     0
100
AcDbText
 10
2635.220781
 20
4696.264982
 30
0.0
 40
37.5
  1
  
  7
ROMANS
 72
     1
 11
2672.720781
 21
4715.014982
 31
0.0
100
AcDbText
 73
     2
  0
TEXT
  5
1105
100
AcDbEntity
  8
0
  6
BYBLOCK
 62
     0
100
AcDbText
 10
1616.413603
 20
3984.172282
 30
0.0
 40
37.5
  1
  
  7
ROMANS
 72
     1
 11
1653.913603
 21
4002.922282
 31
0.0
100
AcDbText
 73
     2
  0
LINE
  5
1190
100
AcDbEntity
  8
CENTER
100
AcDbLine
 10
138.501927
 20
247.504673
 30
0.0
 11
168.501927
 21
247.504673
 31
0.0
  0
CIRCLE
  5
1191
100
AcDbEntity
  8
OBJECT
100
AcDbCircle
 10
153.501927
 20
247.504673
 30
0.0
 40
13.5
  0
LWPOLYLINE
  5
1193
100
AcDbEntity
  8
OBJECT
100
AcDbPolyline
 90
        6
 70
     1
 43
0.0
 10
147.126927
 20
236.751524
 10
146.876927
 20
236.607186
 10
146.876927
 20
236.318511
 10
147.126927
 20
236.174174
 10
147.376927
 20
236.318511
 10
147.376927
 20
236.607186
  0
LWPOLYLINE
  5
119B
100
AcDbEntity
  8
OBJECT
100
AcDbPolyline
 90
        6
 70
     1
 43
0.0
 10
141.001927
 20
247.64901
 10
140.751927
 20
247.793348
 10
140.501927
 20
247.64901
 10
140.501927
 20
247.360335
 10
140.751927
 20
247.215998
 10
141.001927
 20
247.360335
  0
LWPOLYLINE
  5
11A3
100
AcDbEntity
  8
OBJECT
100
AcDbPolyline
 90
        6
 70
     1
 43
0.0
 10
147.376927
 20
258.402159
 10
147.376927
 20
258.690834
 10
147.126927
 20
258.835172
 10
146.876927
 20
258.690834
 10
146.876927
 20
258.402159
 10
147.126927
 20
258.257821
  0
LWPOLYLINE
  5
11AB
100
AcDbEntity
  8
OBJECT
100
AcDbPolyline
 90
        6
 70
     1
 43
0.0
 10
159.626927
 20
236.607186
 10
159.626927
 20
236.318511
 10
159.876927
 20
236.174174
 10
160.126927
 20
236.318511
 10
160.126927
 20
236.607186
 10
159.876927
 20
236.751524
  0
LINE
  5
11DC
100
AcDbEntity
  8
CENTER
100
AcDbLine
 10
153.501927
 20
262.504673
 30
0.0
 11
153.501927
 21
232.504673
 31
0.0
  0
LWPOLYLINE
  5
11DE
100
AcDbEntity
  8
OBJECT
100
AcDbPolyline
 90
        6
 70
     1
 43
0.0
 10
159.876927
 20
258.257821
 10
160.126927
 20
258.402159
 10
160.126927
 20
258.690834
 10
159.876927
 20
258.835172
 10
159.626927
 20
258.690834
 10
159.626927
 20
258.402159
  0
LWPOLYLINE
  5
11E6
100
AcDbEntity
  8
OBJECT
100
AcDbPolyline
 90
        6
 70
     1
 43
0.0
 10
166.001927
 20
247.360335
 10
166.251927
 20
247.215998
 10
166.501927
 20
247.360335
 10
166.501927
 20
247.64901
 10
166.251927
 20
247.793348
 10
166.001927
 20
247.64901
  0
TEXT
  5
1207
100
AcDbEntity
  8
DIM
100
AcDbText
 10
128.220955
 20
183.139128
 30
0.0
 40
2.55
  1
Hinged and Lockable Cover
  7
ROMAND
100
AcDbText
  0
TEXT
  5
1208
100
AcDbEntity
  8
DIM
100
AcDbText
 10
134.233646
 20
179.168008
 30
0.0
 40
1.7
  1
Fiberglass   Aluminum   Steel
  7
ROMAND
100
AcDbText
  0
LINE
  5
1209
100
AcDbEntity
  8
DIM
100
AcDbLine
 10
128.48238
 20
182.268581
 30
0.0
 11
183.032433
 21
182.268581
 31
0.0
  0
LWPOLYLINE
  5
120A
100
AcDbEntity
  8
DIM
100
AcDbPolyline
 90
        4
 70
     1
 43
0.0
 10
133.884229
 20
179.308776
 10
133.884229
 20
181.049852
 10
132.143154
 20
181.049852
 10
132.143154
 20
179.308776
  0
LWPOLYLINE
  5
1210
100
AcDbEntity
  8
DIM
100
AcDbPolyline
 90
        4
 70
     1
 43
0.0
 10
151.835223
 20
179.308776
 10
151.835223
 20
181.049852
 10
150.094148
 20
181.049852
 10
150.094148
 20
179.308776
  0
LWPOLYLINE
  5
1216
100
AcDbEntity
  8
DIM
100
AcDbPolyline
 90
        4
 70
     1
 43
0.0
 10
169.9605
 20
179.308776
 10
169.9605
 20
181.049852
 10
168.219425
 20
181.049852
 10
168.219425
 20
179.308776
  0
LINE
  5
12F9
100
AcDbEntity
  8
LIMITS
100
AcDbLine
 10
197.98555
 20
17.297109
 30
0.0
 11
197.98555
 21
265.144322
 31
0.0
  0
LINE
  5
12FA
100
AcDbEntity
  8
BORDER
 62
     5
100
AcDbLine
 10
191.78937
 20
266.166322
 30
0.0
 11
8.681731
 21
266.166322
 31
0.0
  0
ARC
  5
12FB
100
AcDbEntity
  8
BORDER
 62
     8
100
AcDbCircle
 10
191.78937
 20
264.100928
 30
0.0
 40
2.065393
100
AcDbArc
 50
0.0
 51
90.0
  0
LINE
  5
12FC
100
AcDbEntity
  8
BORDER
100
AcDbLine
 10
50.505948
 20
25.042334
 30
0.0
 11
111.408153
 21
25.042334
 31
0.0
  0
LINE
  5
12FD
100
AcDbEntity
  8
BORDER
100
AcDbLine
 10
50.505948
 20
25.042334
 30
0.0
 11
50.505948
 21
30.932957
 31
0.0
  0
ARC
  5
12FE
100
AcDbEntity
  8
BORDER
100
AcDbCircle
 10
53.08769
 20
40.532785
 30
0.0
 40
2.581742
100
AcDbArc
 50
90.0
 51
180.0
  0
LWPOLYLINE
  5
12FF
100
AcDbEntity
  8
BORDER
 62
     5
100
AcDbPolyline
 90
        2
 70
     0
 43
1.290871
 10
147.383411
 20
45.696268
 42
-0.414214
 10
152.546895
 20
40.532785
 42
0.560527
  0
LWPOLYLINE
  5
1303
100
AcDbEntity
  8
BORDER
 62
     5
100
AcDbPolyline
 90
        2
 70
     0
 43
1.290871
 10
152.546895
 20
25.042334
 10
152.546895
 20
40.532785
  0
LWPOLYLINE
  5
1307
100
AcDbEntity
  8
BORDER
 62
     5
100
AcDbPolyline
 90
        2
 70
     0
 43
1.290871
 10
53.08769
 20
45.696268
 42
0.414214
 10
47.924206
 20
40.532785
 42
-0.560527
  0
LWPOLYLINE
  5
130B
100
AcDbEntity
  8
BORDER
 62
     5
100
AcDbPolyline
 90
        2
 70
     0
 43
1.290871
 10
47.924206
 20
40.532785
 10
47.924206
 20
25.042334
  0
LINE
  5
130F
100
AcDbEntity
  8
BORDER
100
AcDbLine
 10
53.08769
 20
43.114527
 30
0.0
 11
111.408153
 21
43.114527
 31
0.0
  0
LINE
  5
1310
100
AcDbEntity
  8
BORDER
100
AcDbLine
 10
149.965153
 20
40.532785
 30
0.0
 11
149.965153
 21
32.787559
 31
0.0
  0
ARC
  5
1311
100
AcDbEntity
  8
BORDER
100
AcDbCircle
 10
147.383411
 20
40.532785
 30
0.0
 40
2.581742
100
AcDbArc
 50
0.0
 51
90.0
  0
LWPOLYLINE
  5
1312
100
AcDbEntity
  8
BORDER
 62
     5
100
AcDbPolyline
 90
        2
 70
     0
 43
1.290871
 10
11.779821
 20
22.460592
 42
-0.414214
 10
6.616337
 20
27.624076
 42
0.560527
  0
LWPOLYLINE
  5
1316
100
AcDbEntity
  8
BORDER
 62
     5
100
AcDbPolyline
 90
        2
 70
     0
 43
1.290871
 10
11.779821
 20
45.696268
 42
0.414214
 10
6.616337
 20
40.532785
 42
-0.560527
  0
LINE
  5
131A
100
AcDbEntity
  8
BORDER
100
AcDbLine
 10
9.198079
 20
27.624076
 30
0.0
 11
9.198079
 21
40.532785
 31
0.0
  0
ARC
  5
131B
100
AcDbEntity
  8
BORDER
100
AcDbCircle
 10
11.779821
 20
27.624076
 30
0.0
 40
2.581742
100
AcDbArc
 50
180.0
 51
270.0
  0
ARC
  5
131C
100
AcDbEntity
  8
BORDER
100
AcDbCircle
 10
11.779821
 20
40.532785
 30
0.0
 40
2.581742
100
AcDbArc
 50
90.0
 51
180.0
  0
LWPOLYLINE
  5
131D
100
AcDbEntity
  8
BORDER
 62
     5
100
AcDbPolyline
 90
        2
 70
     0
 43
1.290871
 10
40.178981
 20
45.696268
 42
-0.414214
 10
45.342464
 20
40.532785
 42
0.560527
  0
LWPOLYLINE
  5
1321
100
AcDbEntity
  8
BORDER
 62
     5
100
AcDbPolyline
 90
        2
 70
     0
 43
1.290871
 10
45.342464
 20
25.042334
 10
45.342464
 20
40.532785
  0
LINE
  5
1325
100
AcDbEntity
  8
BORDER
100
AcDbLine
 10
42.760723
 20
25.042334
 30
0.0
 11
42.760723
 21
40.532785
 31
0.0
  0
LINE
  5
1326
100
AcDbEntity
  8
BORDER
100
AcDbLine
 10
11.779821
 20
43.114527
 30
0.0
 11
40.178981
 21
43.114527
 31
0.0
  0
LINE
  5
1327
100
AcDbEntity
  8
BORDER
100
AcDbLine
 10
11.779821
 20
25.042334
 30
0.0
 11
42.760723
 21
25.042334
 31
0.0
  0
ARC
  5
1328
100
AcDbEntity
  8
BORDER
100
AcDbCircle
 10
40.178981
 20
40.532785
 30
0.0
 40
2.581742
100
AcDbArc
 50
0.0
 51
90.0
  0
LWPOLYLINE
  5
1329
100
AcDbEntity
  8
BORDER
 62
     5
100
AcDbPolyline
 90
        2
 70
     0
 43
1.290871
 10
11.779821
 20
45.696268
 10
40.178981
 20
45.696268
  0
LWPOLYLINE
  5
132D
100
AcDbEntity
  8
BORDER
 62
     5
100
AcDbPolyline
 90
        2
 70
     0
 43
1.290871
 10
155.128636
 20
25.042334
 10
155.128636
 20
40.532785
  0
LINE
  5
1331
100
AcDbEntity
  8
BORDER
100
AcDbLine
 10
157.710378
 20
25.042334
 30
0.0
 11
157.710378
 21
40.532785
 31
0.0
  0
LINE
  5
1332
100
AcDbEntity
  8
BORDER
100
AcDbLine
 10
191.273022
 20
27.624076
 30
0.0
 11
191.273022
 21
40.532785
 31
0.0
  0
LWPOLYLINE
  5
1333
100
AcDbEntity
  8
BORDER
 62
     5
100
AcDbPolyline
 90
        2
 70
     0
 43
1.290871
 10
193.854764
 20
40.532785
 10
193.854764
 20
27.624076
  0
LINE
  5
1337
100
AcDbEntity
  8
BORDER
100
AcDbLine
 10
188.69128
 20
25.042334
 30
0.0
 11
157.710378
 21
25.042334
 31
0.0
  0
ARC
  5
1338
100
AcDbEntity
  8
BORDER
100
AcDbCircle
 10
188.69128
 20
27.624076
 30
0.0
 40
2.581742
100
AcDbArc
 50
270.0
 51
0.0
  0
LWPOLYLINE
  5
1339
100
AcDbEntity
  8
BORDER
 62
     5
100
AcDbPolyline
 90
        2
 70
     0
 43
1.290871
 10
188.69128
 20
22.460592
 42
0.414214
 10
193.854764
 20
27.624076
 42
-0.560527
  0
LWPOLYLINE
  5
133D
100
AcDbEntity
  8
BORDER
 62
     5
100
AcDbPolyline
 90
        2
 70
     0
 43
1.290871
 10
188.69128
 20
45.696268
 10
160.29212
 20
45.696268
  0
LINE
  5
1341
100
AcDbEntity
  8
BORDER
100
AcDbLine
 10
188.69128
 20
43.114527
 30
0.0
 11
160.29212
 21
43.114527
 31
0.0
  0
ARC
  5
1342
100
AcDbEntity
  8
BORDER
100
AcDbCircle
 10
188.69128
 20
40.532785
 30
0.0
 40
2.581742
100
AcDbArc
 50
0.0
 51
90.0
  0
LWPOLYLINE
  5
1343
100
AcDbEntity
  8
BORDER
 62
     5
100
AcDbPolyline
 90
        2
 70
     0
 43
1.290871
 10
188.69128
 20
45.696268
 42
-0.414214
 10
193.854764
 20
40.532785
 42
0.560527
  0
ARC
  5
1347
100
AcDbEntity
  8
BORDER
100
AcDbCircle
 10
160.29212
 20
40.532785
 30
0.0
 40
2.581742
100
AcDbArc
 50
90.0
 51
180.0
  0
LWPOLYLINE
  5
1348
100
AcDbEntity
  8
BORDER
 62
     5
100
AcDbPolyline
 90
        2
 70
     0
 43
1.290871
 10
160.29212
 20
45.696268
 42
0.414214
 10
155.128636
 20
40.532785
 42
-0.560527
  0
LINE
  5
134C
100
AcDbEntity
  8
BORDER
100
AcDbLine
 10
188.69128
 20
38.50711
 30
0.0
 11
160.29212
 21
38.50711
 31
0.0
  0
LINE
  5
134D
100
AcDbEntity
  8
BORDER
100
AcDbLine
 10
188.69128
 20
35.925368
 30
0.0
 11
160.29212
 21
35.925368
 31
0.0
  0
LINE
  5
134E
100
AcDbEntity
  8
BORDER
100
AcDbLine
 10
188.69128
 20
33.343626
 30
0.0
 11
160.29212
 21
33.343626
 31
0.0
  0
LINE
  5
134F
100
AcDbEntity
  8
BORDER
100
AcDbLine
 10
188.69128
 20
30.761884
 30
0.0
 11
160.29212
 21
30.761884
 31
0.0
  0
LINE
  5
1350
100
AcDbEntity
  8
BORDER
100
AcDbLine
 10
188.69128
 20
28.180142
 30
0.0
 11
160.29212
 21
28.180142
 31
0.0
  0
LINE
  5
1351
100
AcDbEntity
  8
BORDER
100
AcDbLine
 10
160.29212
 20
38.50711
 30
0.0
 11
160.29212
 21
28.180142
 31
0.0
  0
LINE
  5
1352
100
AcDbEntity
  8
BORDER
100
AcDbLine
 10
188.69128
 20
38.50711
 30
0.0
 11
188.69128
 21
28.180142
 31
0.0
  0
LINE
  5
1353
100
AcDbEntity
  8
BORDER
100
AcDbLine
 10
162.873862
 20
38.50711
 30
0.0
 11
162.873862
 21
28.180142
 31
0.0
  0
TEXT
  5
1354
100
AcDbEntity
  8
BORDER
 62
     6
100
AcDbText
 10
160.969533
 20
36.573005
 30
0.0
 40
1.290871
  1
A
  7
ROMAND
100
AcDbText
  0
LWPOLYLINE
  5
1355
100
AcDbEntity
  8
BORDER
100
AcDbPolyline
 90
        6
 70
     1
 43
0.0
 10
162.132639
 20
36.258928
 10
162.68268
 20
37.211628
 10
162.132639
 20
38.164327
 10
161.032557
 20
38.164327
 10
160.482515
 20
37.211628
 10
161.032557
 20
36.258928
  0
TEXT
  5
135D
100
AcDbEntity
  8
BORDER
 62
     6
100
AcDbText
 10
165.056635
 20
36.573005
 30
0.0
 40
1.290871
  1
First Released.
  7
ROMAND
100
AcDbText
  0
LINE
  5
135E
100
AcDbEntity
  8
BORDER
100
AcDbLine
 10
50.505948
 20
32.787559
 30
0.0
 11
111.408153
 21
32.787559
 31
0.0
  0
LINE
  5
135F
100
AcDbEntity
  8
BORDER
100
AcDbLine
 10
50.505948
 20
30.932957
 30
0.0
 11
111.408153
 21
30.932957
 31
0.0
  0
LINE
  5
1360
100
AcDbEntity
  8
BORDER
100
AcDbLine
 10
50.505948
 20
32.787559
 30
0.0
 11
50.505948
 21
40.532785
 31
0.0
  0
LINE
  5
1361
100
AcDbEntity
  8
BORDER
100
AcDbLine
 10
89.857951
 20
25.042334
 30
0.0
 11
89.857951
 21
30.932957
 31
0.0
  0
LINE
  5
1362
100
AcDbEntity
  8
BORDER
100
AcDbLine
 10
89.857951
 20
32.787559
 30
0.0
 11
89.857951
 21
43.114527
 31
0.0
  0
LINE
  5
1363
100
AcDbEntity
  8
BORDER
100
AcDbLine
 10
89.857951
 20
43.114527
 30
0.0
 11
147.383411
 21
43.114527
 31
0.0
  0
LINE
  5
1364
100
AcDbEntity
  8
BORDER
100
AcDbLine
 10
89.857951
 20
32.787559
 30
0.0
 11
149.965153
 21
32.787559
 31
0.0
  0
LINE
  5
1365
100
AcDbEntity
  8
BORDER
100
AcDbLine
 10
120.838853
 20
30.932957
 30
0.0
 11
149.965153
 21
30.932957
 31
0.0
  0
LINE
  5
1366
100
AcDbEntity
  8
BORDER
100
AcDbLine
 10
120.838853
 20
25.042334
 30
0.0
 11
149.965153
 21
25.042334
 31
0.0
  0
LINE
  5
1367
100
AcDbEntity
  8
BORDER
100
AcDbLine
 10
149.965153
 20
30.932957
 30
0.0
 11
149.965153
 21
25.042334
 31
0.0
  0
LINE
  5
1368
100
AcDbEntity
  8
BORDER
100
AcDbLine
 10
118.984251
 20
30.932957
 30
0.0
 11
118.984251
 21
25.042334
 31
0.0
  0
LINE
  5
1369
100
AcDbEntity
  8
BORDER
100
AcDbLine
 10
120.838853
 20
30.932957
 30
0.0
 11
120.838853
 21
25.042334
 31
0.0
  0
LINE
  5
136A
100
AcDbEntity
  8
BORDER
100
AcDbLine
 10
89.857951
 20
30.932957
 30
0.0
 11
118.984251
 21
30.932957
 31
0.0
  0
LINE
  5
136B
100
AcDbEntity
  8
BORDER
100
AcDbLine
 10
89.857951
 20
25.042334
 30
0.0
 11
118.984251
 21
25.042334
 31
0.0
  0
TEXT
  5
136C
100
AcDbEntity
  8
BORDER
 62
     6
100
AcDbText
 10
102.910623
 20
26.079615
 30
0.0
 40
1.484502
  1
05/30/03
  7
ROMAND
100
AcDbText
  0
LWPOLYLINE
  5
136D
100
AcDbEntity
  8
BORDER
 62
     8
100
AcDbPolyline
 90
        2
 70
     0
 43
0.516348
 10
193.854764
 20
264.100928
 42
0.414214
 10
191.78937
 20
266.166322
 42
0.76155
  0
LINE
  5
1371
100
AcDbEntity
  8
LIMITS
100
AcDbLine
 10
197.98555
 20
265.144322
 30
0.0
 11
197.98555
 21
17.297109
 31
0.0
  0
LINE
  5
17F4
100
AcDbEntity
  8
LIMITS
 62
     7
100
AcDbLine
 10
2.48555
 20
17.297109
 30
0.0
 11
197.98555
 21
17.297109
 31
0.0
  0
LINE
  5
17F5
100
AcDbEntity
  8
LIMITS
 62
     7
100
AcDbLine
 10
197.98555
 20
17.297109
 30
0.0
 11
197.98555
 21
270.297109
 31
0.0
  0
LINE
  5
17F6
100
AcDbEntity
  8
LIMITS
 62
     7
100
AcDbLine
 10
197.98555
 20
270.297109
 30
0.0
 11
2.48555
 21
270.297109
 31
0.0
  0
LINE
  5
17F7
100
AcDbEntity
  8
LIMITS
 62
     7
100
AcDbLine
 10
2.48555
 20
270.297109
 30
0.0
 11
2.48555
 21
17.297109
 31
0.0
  0
ARC
  5
17F8
100
AcDbEntity
  8
BORDER
 62
     5
100
AcDbCircle
 10
8.681731
 20
264.100928
 30
0.0
 40
2.065393
100
AcDbArc
 50
90.0
 51
180.0
  0
LWPOLYLINE
  5
17F9
100
AcDbEntity
  8
BORDER
 62
     5
100
AcDbPolyline
 90
        2
 70
     0
 43
0.516348
 10
6.616337
 20
264.100928
 42
-0.414214
 10
8.681731
 20
266.166322
 42
-0.76155
  0
LWPOLYLINE
  5
17FD
100
AcDbEntity
  8
BORDER
 62
     5
100
AcDbPolyline
 90
        2
 70
     0
 43
0.516348
 10
191.78937
 20
266.166322
 10
8.681731
 20
266.166322
  0
LWPOLYLINE
  5
1801
100
AcDbEntity
  8
BORDER
 62
     5
100
AcDbPolyline
 90
        2
 70
     0
 43
1.290871
 10
6.616337
 20
40.532785
 10
6.616337
 20
27.624076
  0
LWPOLYLINE
  5
1836
100
AcDbEntity
  8
BORDER
 62
     5
100
AcDbPolyline
 90
        2
 70
     0
 43
1.290871
 10
53.08769
 20
45.696268
 10
147.383411
 20
45.696268
  0
LWPOLYLINE
  5
183A
100
AcDbEntity
  8
BORDER
 62
     5
100
AcDbPolyline
 90
        2
 70
     0
 43
1.290871
 10
188.69128
 20
22.460592
 10
11.779821
 20
22.460592
  0
LWPOLYLINE
  5
183E
100
AcDbEntity
  8
BORDER
 62
     5
100
AcDbPolyline
 90
        2
 70
     0
 43
0.516348
 10
6.616337
 20
46.681325
 10
6.616337
 20
264.100928
  0
LWPOLYLINE
  5
1842
100
AcDbEntity
  8
BORDER
 62
     5
100
AcDbPolyline
 90
        2
 70
     0
 43
0.516348
 10
193.854764
 20
46.681325
 10
193.854764
 20
264.100928
  0
LWPOLYLINE
  5
1846
100
AcDbEntity
  8
BORDER
 62
     5
100
AcDbPolyline
 90
        6
 70
     0
 43
0.92
 10
6.616337
 20
46.681325
 10
6.616337
 20
264.100928
 42
-0.414214
 10
8.681731
 20
266.166322
 10
191.78937
 20
266.166322
 42
-0.414214
 10
193.854764
 20
264.100928
 10
193.854764
 20
46.681325
  0
LINE
  5
184E
100
AcDbEntity
  8
BORDER
100
AcDbLine
 10
50.505948
 20
37.152286
 30
0.0
 11
89.857951
 21
37.152286
 31
0.0
  0
TEXT
  5
184F
100
AcDbEntity
  8
BORDER
 62
     6
100
AcDbText
 10
101.017711
 20
38.52226
 30
0.0
 40
1.579905
  1
RM
  7
COUNTRYBLUEPRINT
100
AcDbText
  0
TEXT
  5
1851
100
AcDbEntity
  8
BORDER
 62
     6
100
AcDbText
 10
109.340809
 20
41.340143
 30
0.0
 40
0.969008
  1
This print is and contains confidential proprietary information owned exclusively
 41
0.656934
  7
ROMANS
 72
     5
 11
149.263089
 21
41.340143
 31
0.0
100
AcDbText
  0
TEXT
  5
1852
100
AcDbEntity
  8
BORDER
 62
     6
100
AcDbText
 10
109.340809
 20
39.771273
 30
0.0
 40
0.969008
  1
by TOPP INDUSTRIES, INC. It is furnished on a strictly confidential basis.  This
 41
0.659437
  7
ROMANS
 72
     5
 11
149.263089
 21
39.771273
 31
0.0
100
AcDbText
  0
TEXT
  5
1853
100
AcDbEntity
  8
BORDER
 62
     6
100
AcDbText
 10
109.340809
 20
38.202403
 30
0.0
 40
0.969008
  1
restriction includes, but is not limited to the condition that this print will not only
 41
0.626489
  7
ROMANS
 72
     5
 11
149.263089
 21
38.202403
 31
0.0
100
AcDbText
  0
TEXT
  5
1854
100
AcDbEntity
  8
BORDER
 62
     6
100
AcDbText
 10
109.340809
 20
36.633534
 30
0.0
 40
0.969008
  1
be used as a record or to identify or inspect parts or for other information purposes
 41
0.596266
  7
ROMANS
 72
     5
 11
149.263089
 21
36.633534
 31
0.0
100
AcDbText
  0
TEXT
  5
1855
100
AcDbEntity
  8
BORDER
 62
     6
100
AcDbText
 10
109.340809
 20
35.064664
 30
0.0
 40
0.969008
  1
and will not be used to manufacture or procure the manufacture of the items shown
 41
0.600404
  7
ROMANS
 72
     5
 11
149.263089
 21
35.064664
 31
0.0
100
AcDbText
  0
TEXT
  5
1856
100
AcDbEntity
  8
BORDER
 62
     6
100
AcDbText
 10
109.340809
 20
33.495795
 30
0.0
 40
0.969008
  1
in this print by any other source than TOPP INDUSTRIES, INC.
 41
0.839168
  7
ROMANS
 72
     5
 11
149.263089
 21
33.495795
 31
0.0
100
AcDbText
  0
TEXT
  5
1857
100
AcDbEntity
  8
BORDER
 62
     6
100
AcDbText
 10
56.970679
 20
29.200046
 30
0.0
 40
0.984611
  1
Highway 25 North P.O. Box 420
  7
ROMANC
100
AcDbText
  0
TEXT
  5
1858
100
AcDbEntity
  8
BORDER
 62
     6
100
AcDbText
 10
61.210691
 20
27.451466
 30
0.0
 40
0.984611
  1
Rochester, IN  46975
  7
ROMANC
100
AcDbText
  0
TEXT
  5
1859
100
AcDbEntity
  8
BORDER
 62
     6
100
AcDbText
 10
52.320966
 20
25.471212
 30
0.0
 40
0.984611
  1
Phone: 800/354-4534  Fax: 574/223-6106
  7
ROMANC
100
AcDbText
  0
TEXT
  5
185A
100
AcDbEntity
  8
BORDER
 62
     6
100
AcDbText
 10
57.657124
 20
40.465139
 30
0.0
 40
1.332121
  1
Prefabricated Fiberglass
  7
ROMANC
100
AcDbText
  0
TEXT
  5
185B
100
AcDbEntity
  8
BORDER
 62
     6
100
AcDbText
 10
65.179229
 20
38.205713
 30
0.0
 40
1.332121
  1
Lift Station
  7
ROMANC
100
AcDbText
  0
TEXT
  5
185C
100
AcDbEntity
  8
BORDER
 62
     6
100
AcDbText
 10
50.880035
 20
35.432329
 30
0.0
 40
1.158366
  1
Reference:
  7
ROMANC
100
AcDbText
  0
TEXT
  5
185D
100
AcDbEntity
  8
BORDER
 62
     6
100
AcDbText
 10
67.488137
 20
35.194638
 30
0.0
 40
1.158366
  1
Simplex SGR
  7
ROMANC
100
AcDbText
  0
TEXT
  5
185E
100
AcDbEntity
  8
BORDER
 62
     6
100
AcDbText
 10
90.387113
 20
41.405626
 30
0.0
 40
1.158366
  1
Scale: None
  7
ROMANC
100
AcDbText
  0
TEXT
  5
185F
100
AcDbEntity
  8
BORDER
 62
     6
100
AcDbText
 10
90.387113
 20
38.645626
 30
0.0
 40
1.158366
  1
Drawn By:
  7
ROMANC
100
AcDbText
  0
TEXT
  5
1860
100
AcDbEntity
  8
BORDER
 62
     6
100
AcDbText
 10
90.387113
 20
35.885626
 30
0.0
 40
1.158366
  1
Appv'd By: .
  7
ROMANC
100
AcDbText
  0
TEXT
  5
1861
100
AcDbEntity
  8
BORDER
 62
     6
100
AcDbText
 10
90.387113
 20
33.125626
 30
0.0
 40
1.158366
  1
Date: 05/30/03
  7
ROMANC
100
AcDbText
  0
TEXT
  5
1862
100
AcDbEntity
  8
BORDER
 62
     6
100
AcDbText
 10
90.453145
 20
28.917342
 30
0.0
 40
1.158366
  1
Supersedes Prints
  7
ROMANC
100
AcDbText
  0
TEXT
  5
1863
100
AcDbEntity
  8
BORDER
 62
     6
100
AcDbText
 10
90.453145
 20
27.041893
 30
0.0
 40
1.158366
  1
Prior To:
  7
ROMANC
100
AcDbText
  0
TEXT
  5
1864
100
AcDbEntity
  8
BORDER
 62
     6
100
AcDbText
 10
121.448477
 20
29.045704
 30
0.0
 40
1.158366
  1
Reference
  7
ROMANC
100
AcDbText
  0
TEXT
  5
1865
100
AcDbEntity
  8
BORDER
 62
     6
100
AcDbText
 10
121.448477
 20
27.170255
 30
0.0
 40
1.158366
  1
No:
  7
ROMANC
100
AcDbText
  0
TEXT
  5
1866
100
AcDbEntity
  8
BORDER
 62
     6
100
AcDbText
 10
131.356081
 20
26.359195
 30
0.0
 40
3.475098
  1
16838
  7
ROMANC
100
AcDbText
  0
TEXT
  5
1867
100
AcDbEntity
  8
BORDER
 62
     6
100
AcDbText
 10
167.60599
 20
39.663375
 30
0.0
 40
1.737549
  1
Revisions
  7
ROMANC
100
AcDbText
  0
HATCH
  5
1A65
100
AcDbEntity
  8
BORDER
100
AcDbHatch
 10
0.0
 20
0.0
 30
0.0
210
0.0
220
0.0
230
1.0
  2
ANSI37
 70
     0
 71
     1
 91
        1
 92
        7
 72
     1
 73
     1
 93
       18
 10
18.0226652762894
 20
32.36972923886205
 42
-0.414213562373052
 10
16.6226540762894
 20
30.96971803886225
 42
0.0
 10
16.1717856928611
 20
30.96971803886225
 42
0.0
 10
16.17178569286111
 20
30.67769382486014
 42
0.0
 10
22.29313641875151
 20
30.67769382486014
 42
0.0
 10
22.29313641875151
 20
30.96971803886225
 42
0.0
 10
21.8422680353224
 20
30.96971803886225
 42
-0.4142135623730446
 10
20.44225683532264
 20
32.36972923886225
 42
0.0
 10
20.44225683532264
 20
40.07485923867074
 42
0.0
 10
21.6745236594113
 20
40.07485923867074
 42
-0.4138200196737705
 10
24.46872953642641
 20
37.28440576673534
 42
0.0
 10
24.76097586332335
 20
37.28440576673534
 42
0.0
 10
24.76097586332392
 20
40.7886963347538
 42
0.0
 10
13.70394624828868
 20
40.7886963347538
 42
0.0
 10
13.70394624828868
 20
37.28440576673534
 42
0.0
 10
13.99619257518619
 20
37.28440576673534
 42
-0.4138200196737712
 10
16.7903984522013
 20
40.07485923867074
 42
0.0
 10
18.0226652762894
 20
40.07485923867075
 42
0.0
 97
       18
330
1AB7
330
1AB5
330
1AB8
330
1AB6
330
1A66
330
1A79
330
1A7B
330
1A7A
330
1A7C
330
1A6C
330
1A71
330
1A78
330
1A70
330
1A6A
330
1A8D
330
1A97
330
1A8E
330
1A82
 75
     0
 76
     1
 52
0.0
 41
0.0425
 77
     0
 78
     2
 53
45.0
 43
3.750106
 44
-122.756393
 45
-0.0037565047750535
 46
0.0037565047750535
 79
     0
 53
135.0
 43
3.750106
 44
-122.756393
 45
-0.0037565047750535
 46
-0.0037565047750535
 79
     0
 47
0.049862
 98
        1
 10
18.935526
 20
36.07282
  0
LINE
  5
1A66
102
{ACAD_REACTORS
330
1A65
102
}
100
AcDbEntity
  8
BORDER
100
AcDbLine
 10
13.703946
 20
40.788696
 30
0.0
 11
24.760976
 21
40.788696
 31
0.0
  0
LINE
  5
1A67
100
AcDbEntity
  8
BORDER
100
AcDbLine
 10
12.269866
 20
30.29707
 30
0.0
 11
39.842937
 21
30.29707
 31
0.0
  0
LINE
  5
1A68
100
AcDbEntity
  8
BORDER
100
AcDbLine
 10
12.269866
 20
30.29707
 30
0.0
 11
39.842937
 21
30.29707
 31
0.0
  0
LINE
  5
1A69
100
AcDbEntity
  8
BORDER
100
AcDbLine
 10
11.81069
 20
43.094883
 30
0.0
 11
40.148112
 21
43.094883
 31
0.0
  0
LINE
  5
1A6A
102
{ACAD_REACTORS
330
1A65
102
}
100
AcDbEntity
  8
BORDER
100
AcDbLine
 10
16.171786
 20
30.677694
 30
0.0
 11
22.293136
 21
30.677694
 31
0.0
  0
SPLINE
  5
1A6B
100
AcDbEntity
  8
BORDER
100
AcDbSpline
210
0.0
220
0.0
230
1.0
 70
    11
 71
     3
 72
    24
 73
    20
 74
     0
 42
0.0000001
 43
0.0000001
 40
0.0
 40
0.0
 40
0.0
 40
0.0
 40
0.474866629778075
 40
0.474866629778075
 40
1.277791044886493
 40
1.277791044886493
 40
2.080715459994911
 40
2.080715459994911
 40
2.883639875103329
 40
2.883639875103329
 40
3.686564290211747
 40
3.686564290211747
 40
4.489488705320165
 40
4.489488705320165
 40
5.292413120428583
 40
5.292413120428583
 40
6.095337535537001
 40
6.095337535537001
 40
6.283185307179586
 40
6.283185307179586
 40
6.283185307179586
 40
6.283185307179586
 10
20.10981262975799
 20
29.60186534936653
 30
0.0
 10
19.92695756787888
 20
29.60186534936653
 30
0.0
 10
19.74425653370228
 20
29.55751078330573
 30
0.0
 10
19.30668731992497
 20
29.33184194996424
 30
0.0
 10
19.09321351604397
 20
29.07470410102101
 30
0.0
 10
18.91465385069436
 20
28.48096084384687
 30
0.0
 10
18.95075507576665
 20
28.14833341926014
 30
0.0
 10
19.25252191446952
 20
27.60703367843982
 30
0.0
 10
19.51617660950636
 20
27.40199660130102
 30
0.0
 10
20.11406594787155
 20
27.24375513082209
 30
0.0
 10
20.44427280623453
 20
27.29162514192402
 30
0.0
 10
20.9730208298203
 20
27.61317226768719
 30
0.0
 10
21.16801145595864
 20
27.8846732581613
 30
0.0
 10
21.30467245050742
 20
28.48950017885131
 30
0.0
 10
21.24543475520202
 20
28.81877600119727
 30
0.0
 10
20.90660694475091
 20
29.33754914441257
 30
0.0
 10
20.62927686569925
 20
29.52355916989636
 30
0.0
 10
20.25447875765352
 20
29.59502994377812
 30
0.0
 10
20.18214644677867
 20
29.60186534936653
 30
0.0
 10
20.10981262975799
 20
29.60186534936653
 30
0.0
  0
LINE
  5
1A6C
102
{ACAD_REACTORS
330
1A65
102
}
100
AcDbEntity
  8
BORDER
100
AcDbLine
 10
18.022665
 20
32.369729
 30
0.0
 11
18.022665
 21
40.074859
 31
0.0
  0
LINE
  5
1A6D
100
AcDbEntity
  8
BORDER
100
AcDbLine
 10
14.270803
 20
25.251565
 30
0.0
 11
14.270803
 21
25.251565
 31
0.0
  0
LINE
  5
1A6E
100
AcDbEntity
  8
BORDER
100
AcDbLine
 10
13.017689
 20
29.571265
 30
0.0
 11
13.941644
 21
29.571265
 31
0.0
  0
LINE
  5
1A6F
100
AcDbEntity
  8
BORDER
100
AcDbLine
 10
13.017689
 20
27.315134
 30
0.0
 11
13.941644
 21
27.315134
 31
0.0
  0
LINE
  5
1A70
102
{ACAD_REACTORS
330
1A65
102
}
100
AcDbEntity
  8
BORDER
100
AcDbLine
 10
16.171786
 20
30.969718
 30
0.0
 11
16.171786
 21
30.677694
 31
0.0
  0
ARC
  5
1A71
102
{ACAD_REACTORS
330
1A65
102
}
100
AcDbEntity
  8
BORDER
100
AcDbCircle
 10
16.622654
 20
32.369729
 30
0.0
 40
1.400011
100
AcDbArc
 50
270.0
 51
0.0
  0
LINE
  5
1A72
100
AcDbEntity
  8
BORDER
100
AcDbLine
 10
16.196119
 20
29.571265
 30
0.0
 11
16.196119
 21
27.315134
 31
0.0
  0
LINE
  5
1A73
100
AcDbEntity
  8
BORDER
100
AcDbLine
 10
13.479666
 20
29.571265
 30
0.0
 11
13.479666
 21
27.315134
 31
0.0
  0
LINE
  5
1A74
100
AcDbEntity
  8
BORDER
100
AcDbLine
 10
14.467467
 20
29.571265
 30
0.0
 11
14.467467
 21
27.315134
 31
0.0
  0
LINE
  5
1A75
100
AcDbEntity
  8
BORDER
100
AcDbLine
 10
16.196119
 20
27.315134
 30
0.0
 11
14.467467
 21
29.571265
 31
0.0
  0
ARC
  5
1A76
100
AcDbEntity
  8
BORDER
100
AcDbCircle
 10
17.755572
 20
28.348309
 30
0.0
 40
1.034636
100
AcDbArc
 50
174.737783
 51
327.723969
  0
ARC
  5
1A77
100
AcDbEntity
  8
BORDER
100
AcDbCircle
 10
17.83577
 20
28.460937
 30
0.0
 40
1.110615
100
AcDbArc
 50
44.321228
 51
180.91508
  0
LINE
  5
1A78
102
{ACAD_REACTORS
330
1A65
102
}
100
AcDbEntity
  8
BORDER
100
AcDbLine
 10
16.171786
 20
30.969718
 30
0.0
 11
16.622654
 21
30.969718
 31
0.0
  0
LINE
  5
1A79
102
{ACAD_REACTORS
330
1A65
102
}
100
AcDbEntity
  8
BORDER
100
AcDbLine
 10
13.703946
 20
37.284406
 30
0.0
 11
13.703946
 21
40.788696
 31
0.0
  0
ARC
  5
1A7A
102
{ACAD_REACTORS
330
1A65
102
}
100
AcDbEntity
  8
BORDER
100
AcDbCircle
 10
16.790398
 20
37.280651
 30
0.0
 40
2.794208
100
AcDbArc
 50
90.0
 51
179.923004
  0
LINE
  5
1A7B
102
{ACAD_REACTORS
330
1A65
102
}
100
AcDbEntity
  8
BORDER
100
AcDbLine
 10
13.703946
 20
37.284406
 30
0.0
 11
13.99619
 21
37.284406
 31
0.0
  0
LINE
  5
1A7C
102
{ACAD_REACTORS
330
1A65
102
}
100
AcDbEntity
  8
BORDER
100
AcDbLine
 10
16.790398
 20
40.074859
 30
0.0
 11
18.022665
 21
40.074859
 31
0.0
  0
HATCH
  5
1A7E
100
AcDbEntity
  8
BORDER
100
AcDbHatch
 10
0.0
 20
0.0
 30
0.0
210
0.0
220
0.0
230
1.0
  2
ANSI37
 70
     0
 71
     1
 91
        2
 92
        5
 93
        1
 72
     3
 10
26.697482
 20
33.670677
 11
0.0
 21
3.064007
 40
0.93822
 50
0.0
 51
360.0
 73
     1
 97
        1
330
1A81
 92
       20
 93
        1
 72
     3
 10
26.697482
 20
33.688135
 11
0.0
 21
2.74975
 40
0.683214
 50
0.0
 51
360.0
 73
     1
 97
        1
330
1A83
 75
     0
 76
     1
 52
0.0
 41
0.0425
 77
     0
 78
     2
 53
45.0
 43
3.750106
 44
-122.756393
 45
-0.0037565047750535
 46
0.0037565047750535
 79
     0
 53
135.0
 43
3.750106
 44
-122.756393
 45
-0.0037565047750535
 46
-0.0037565047750535
 79
     0
 47
0.027301
 98
        2
 10
24.629919
 20
34.917781
 10
24.629919
 20
34.917781
  0
HATCH
  5
1A7F
100
AcDbEntity
  8
BORDER
100
AcDbHatch
 10
0.0
 20
0.0
 30
0.0
210
0.0
220
0.0
230
1.0
  2
ANSI37
 70
     0
 71
     1
 91
        2
 92
        7
 72
     1
 73
     1
 93
       16
 10
30.89715303249289
 20
31.47669207237857
 42
-0.4142135623730942
 10
30.3192414324932
 20
30.89878047237887
 42
0.0
 10
30.05180128913932
 20
30.89878047237887
 42
0.0
 10
30.05180128913932
 20
30.74645446274603
 42
0.0
 10
32.56013946195236
 20
30.74645446274603
 42
0.0
 10
32.56013946195236
 20
30.89878047237887
 42
0.0
 10
32.29269931859848
 20
30.89878047237887
 42
-0.4142135623730951
 10
31.71478771859878
 20
31.47669207237857
 42
0.0
 10
31.71478771859878
 20
33.50216440873569
 42
0.0609117558023494
 10
32.72643810489831
 20
33.37753466815169
 42
0.4291497434370789
 10
34.51414851656622
 20
34.98387836641731
 42
0.3951020987305442
 10
32.74277784672387
 20
36.62267703949548
 42
0.0
 10
30.05614665021729
 20
36.62267703949549
 42
0.0
 10
30.0561466502173
 20
36.46137900719153
 42
0.0
 10
30.3192414324932
 20
36.46137900719153
 42
-0.4142135623730951
 10
30.89715303249289
 20
35.88346740719184
 42
0.0
 97
        1
330
1A89
 92
       22
 72
     1
 73
     1
 93
        3
 10
31.71478771859878
 20
36.18863568756887
 42
-0.5287425889467257
 10
33.53021426237977
 20
34.91463942886287
 42
-0.5439228899217258
 10
31.71478771859878
 20
33.72372935592186
 42
0.0
 97
        1
330
1A88
 75
     0
 76
     1
 52
0.0
 41
0.0425
 77
     0
 78
     2
 53
45.0
 43
3.750106
 44
-122.756393
 45
-0.0037565047750535
 46
0.0037565047750535
 79
     0
 53
135.0
 43
3.750106
 44
-122.756393
 45
-0.0037565047750535
 46
-0.0037565047750535
 79
     0
 47
0.027301
 98
        2
 10
31.225312
 20
35.126635
 10
31.225312
 20
35.126635
  0
HATCH
  5
1A80
100
AcDbEntity
  8
BORDER
100
AcDbHatch
 10
0.0
 20
0.0
 30
0.0
210
0.0
220
0.0
230
1.0
  2
ANSI37
 70
     0
 71
     1
 91
        2
 92
        7
 72
     1
 73
     1
 93
       16
 10
35.83119258166911
 20
31.45443060620886
 42
-0.414213562372941
 10
35.25328098166911
 20
30.87651900620916
 42
0.0
 10
34.98584083831553
 20
30.87651900620915
 42
0.0
 10
34.98584083831554
 20
30.72419299657748
 42
0.0
 10
37.49417901112801
 20
30.72419299657748
 42
0.0
 10
37.49417901112801
 20
30.87651900620916
 42
0.0
 10
37.22673886777528
 20
30.87651900620916
 42
-0.4142135623735308
 10
36.64882726777442
 20
31.45443060620916
 42
0.0
 10
36.64882726777442
 20
33.47990294256698
 42
0.0609117558027647
 10
37.66047765408078
 20
33.35527320198291
 42
0.4291497434353583
 10
39.44818806574274
 20
34.96161690024504
 42
0.3916311771497147
 10
37.69804181835348
 20
36.60041557332694
 42
0.0
 10
34.99018619939352
 20
36.60041557332694
 42
0.0
 10
34.99018619939352
 20
36.43911754102184
 42
0.0
 10
35.25328098166942
 20
36.43911754102184
 42
-0.4142135623729402
 10
35.83119258166911
 20
35.86120594102184
 42
0.0
 97
       16
330
1A85
330
1ACA
330
1ADA
330
1AD9
330
1ADD
330
1A87
330
1AAD
330
1AAC
330
1AA2
330
1AA1
330
1AAE
330
1AA0
330
1AAB
330
1AAA
330
1A9E
330
1AB3
 92
       22
 72
     1
 73
     1
 93
        3
 10
36.64882726777442
 20
36.16637422140064
 42
-0.5287425889420439
 10
38.46425381155565
 20
34.89237796271423
 42
-0.5439228899270726
 10
36.64882726777442
 20
33.70146788975243
 42
0.0
 97
        3
330
1A84
330
1A9F
330
1A86
 75
     0
 76
     1
 52
0.0
 41
0.0425
 77
     0
 78
     2
 53
45.0
 43
3.750106
 44
-122.756393
 45
-0.0037565047750535
 46
0.0037565047750535
 79
     0
 53
135.0
 43
3.750106
 44
-122.756393
 45
-0.0037565047750535
 46
-0.0037565047750535
 79
     0
 47
0.027301
 98
        2
 10
36.171858
 20
34.616104
 10
36.171858
 20
34.616104
  0
ELLIPSE
  5
1A81
102
{ACAD_REACTORS
330
1A7E
102
}
100
AcDbEntity
  8
BORDER
100
AcDbEllipse
 10
26.697482
 20
33.670677
 30
0.0
 11
0.0000000000000207
 21
3.064007337450976
 31
0.0
210
0.0
220
0.0
230
1.0
 40
0.93822
 41
0.0
 42
6.283185307179586
  0
LINE
  5
1A82
102
{ACAD_REACTORS
330
1A65
102
}
100
AcDbEntity
  8
BORDER
100
AcDbLine
 10
20.442257
 20
32.369729
 30
0.0
 11
20.442257
 21
40.074859
 31
0.0
  0
ELLIPSE
  5
1A83
102
{ACAD_REACTORS
330
1A7E
102
}
100
AcDbEntity
  8
BORDER
100
AcDbEllipse
 10
26.697482
 20
33.688135
 30
0.0
 11
0.0000000000000207
 21
2.749750285857652
 31
0.0
210
0.0
220
0.0
230
1.0
 40
0.683214
 41
0.0
 42
6.283185307179586
  0
ARC
  5
1A84
102
{ACAD_REACTORS
330
1A80
102
}
100
AcDbEntity
  8
BORDER
100
AcDbCircle
 10
37.122574
 20
34.91098
 30
0.0
 40
1.341809
100
AcDbArc
 50
359.205673
 51
110.674935
  0
ARC
  5
1A85
102
{ACAD_REACTORS
330
1A80
102
}
100
AcDbEntity
  8
BORDER
100
AcDbCircle
 10
37.68743
 20
34.835153
 30
0.0
 40
1.765294
100
AcDbArc
 50
4.10812
 51
90.34444
  0
LINE
  5
1A86
102
{ACAD_REACTORS
330
1A80
102
}
100
AcDbEntity
  8
BORDER
100
AcDbLine
 10
36.648827
 20
36.166374
 30
0.0
 11
36.648827
 21
33.701468
 31
0.0
  0
LINE
  5
1A87
102
{ACAD_REACTORS
330
1A80
102
}
100
AcDbEntity
  8
BORDER
100
AcDbLine
 10
35.831193
 20
31.454431
 30
0.0
 11
35.831193
 21
35.861206
 31
0.0
  0
LWPOLYLINE
  5
1A88
102
{ACAD_REACTORS
330
1A7F
102
}
100
AcDbEntity
  8
BORDER
100
AcDbPolyline
 90
        3
 70
     1
 43
0.0
 10
31.714788
 20
33.723729
 42
0.543923
 10
33.530214
 20
34.914639
 42
0.528743
 10
31.714788
 20
36.188636
  0
LWPOLYLINE
  5
1A89
102
{ACAD_REACTORS
330
1A7F
102
}
100
AcDbEntity
  8
BORDER
100
AcDbPolyline
 90
       17
 70
     0
 43
0.0
 10
32.726438
 20
33.377535
 42
-0.060912
 10
31.714788
 20
33.502164
 10
31.714788
 20
31.476692
 42
0.414214
 10
32.292699
 20
30.89878
 10
32.560139
 20
30.89878
 10
32.560139
 20
30.746454
 10
30.051801
 20
30.746454
 10
30.051801
 20
30.89878
 10
30.319241
 20
30.89878
 42
0.414214
 10
30.897153
 20
31.476692
 10
30.897153
 20
35.883467
 42
0.414214
 10
30.319241
 20
36.461379
 10
30.056147
 20
36.461379
 10
30.056147
 20
36.622677
 10
32.742778
 20
36.622677
 42
-0.395102
 10
34.514149
 20
34.983878
 42
-0.42915
 10
32.726438
 20
33.377535
  0
LINE
  5
1A8A
100
AcDbEntity
  8
BORDER
100
AcDbLine
 10
31.597072
 20
29.571265
 30
0.0
 11
30.73294
 21
27.315134
 31
0.0
  0
LINE
  5
1A8B
100
AcDbEntity
  8
BORDER
100
AcDbLine
 10
31.048024
 20
28.137775
 30
0.0
 11
32.165591
 21
28.137775
 31
0.0
  0
ARC
  5
1A8C
100
AcDbEntity
  8
BORDER
100
AcDbCircle
 10
24.766693
 20
28.992853
 30
0.0
 40
0.578413
100
AcDbArc
 50
270.0
 51
90.0
  0
LINE
  5
1A8D
102
{ACAD_REACTORS
330
1A65
102
}
100
AcDbEntity
  8
BORDER
100
AcDbLine
 10
22.293136
 20
30.969718
 30
0.0
 11
22.293136
 21
30.677694
 31
0.0
  0
ARC
  5
1A8E
102
{ACAD_REACTORS
330
1A65
102
}
100
AcDbEntity
  8
BORDER
100
AcDbCircle
 10
21.842268
 20
32.369729
 30
0.0
 40
1.400011
100
AcDbArc
 50
180.0
 51
270.0
  0
LINE
  5
1A8F
100
AcDbEntity
  8
BORDER
100
AcDbLine
 10
22.57776
 20
29.571265
 30
0.0
 11
21.797806
 21
29.571265
 31
0.0
  0
LINE
  5
1A90
100
AcDbEntity
  8
BORDER
100
AcDbLine
 10
21.797806
 20
28.41444
 30
0.0
 11
22.57776
 21
28.41444
 31
0.0
  0
LINE
  5
1A91
100
AcDbEntity
  8
BORDER
100
AcDbLine
 10
21.797806
 20
29.571265
 30
0.0
 11
21.797806
 21
27.315134
 31
0.0
  0
LINE
  5
1A92
100
AcDbEntity
  8
BORDER
100
AcDbLine
 10
24.766693
 20
29.571265
 30
0.0
 11
24.181125
 21
29.571265
 31
0.0
  0
LINE
  5
1A93
100
AcDbEntity
  8
BORDER
100
AcDbLine
 10
24.181125
 20
29.571265
 30
0.0
 11
24.181125
 21
27.315134
 31
0.0
  0
LINE
  5
1A94
100
AcDbEntity
  8
BORDER
100
AcDbLine
 10
24.181125
 20
28.41444
 30
0.0
 11
24.766693
 21
28.41444
 31
0.0
  0
LINE
  5
1A95
100
AcDbEntity
  8
BORDER
100
AcDbLine
 10
22.415331
 20
28.41444
 30
0.0
 11
23.311015
 21
27.315134
 31
0.0
  0
ARC
  5
1A96
100
AcDbEntity
  8
BORDER
100
AcDbCircle
 10
22.57776
 20
28.992853
 30
0.0
 40
0.578413
100
AcDbArc
 50
270.0
 51
90.0
  0
LINE
  5
1A97
102
{ACAD_REACTORS
330
1A65
102
}
100
AcDbEntity
  8
BORDER
100
AcDbLine
 10
22.293136
 20
30.969718
 30
0.0
 11
21.842268
 21
30.969718
 31
0.0
  0
SPLINE
  5
1A98
100
AcDbEntity
  8
BORDER
100
AcDbSpline
210
0.0
220
0.0
230
1.0
 70
    11
 71
     3
 72
    24
 73
    20
 74
     0
 42
0.0000001
 43
0.0000001
 40
0.0
 40
0.0
 40
0.0
 40
0.0
 40
0.474866629778075
 40
0.474866629778075
 40
1.277791044886493
 40
1.277791044886493
 40
2.080715459994911
 40
2.080715459994911
 40
2.883639875103329
 40
2.883639875103329
 40
3.686564290211747
 40
3.686564290211747
 40
4.489488705320165
 40
4.489488705320165
 40
5.292413120428583
 40
5.292413120428583
 40
6.095337535537001
 40
6.095337535537001
 40
6.283185307179586
 40
6.283185307179586
 40
6.283185307179586
 40
6.283185307179586
 10
26.82282178069887
 20
29.60186534936653
 30
0.0
 10
26.63996671881918
 20
29.60186534936653
 30
0.0
 10
26.45726568464259
 20
29.55751078330573
 30
0.0
 10
26.01969647086527
 20
29.33184194996424
 30
0.0
 10
25.80622266698485
 20
29.07470410102101
 30
0.0
 10
25.62766300163524
 20
28.48096084384687
 30
0.0
 10
25.66376422670753
 20
28.14833341926014
 30
0.0
 10
25.96553106540982
 20
27.60703367843982
 30
0.0
 10
26.22918576044666
 20
27.40199660130102
 30
0.0
 10
26.82707509881185
 20
27.24375513082209
 30
0.0
 10
27.15728195717484
 20
27.29162514192402
 30
0.0
 10
27.68602998076059
 20
27.61317226768719
 30
0.0
 10
27.88102060689894
 20
27.8846732581613
 30
0.0
 10
28.0176816014483
 20
28.48950017885131
 30
0.0
 10
27.9584439061429
 20
28.81877600119727
 30
0.0
 10
27.61961609569179
 20
29.33754914441257
 30
0.0
 10
27.34228601663954
 20
29.52355916989636
 30
0.0
 10
26.96748790859384
 20
29.59502994377812
 30
0.0
 10
26.89515559771955
 20
29.60186534936653
 30
0.0
 10
26.82282178069887
 20
29.60186534936653
 30
0.0
  0
LINE
  5
1A99
100
AcDbEntity
  8
BORDER
100
AcDbLine
 10
28.600507
 20
28.41444
 30
0.0
 11
29.380461
 21
28.41444
 31
0.0
  0
LINE
  5
1A9A
100
AcDbEntity
  8
BORDER
100
AcDbLine
 10
29.380461
 20
29.571265
 30
0.0
 11
28.600507
 21
29.571265
 31
0.0
  0
LINE
  5
1A9B
100
AcDbEntity
  8
BORDER
100
AcDbLine
 10
28.600507
 20
29.571265
 30
0.0
 11
28.600507
 21
27.315134
 31
0.0
  0
LINE
  5
1A9C
100
AcDbEntity
  8
BORDER
100
AcDbLine
 10
29.218032
 20
28.41444
 30
0.0
 11
30.113715
 21
27.315134
 31
0.0
  0
ARC
  5
1A9D
100
AcDbEntity
  8
BORDER
100
AcDbCircle
 10
29.380461
 20
28.992853
 30
0.0
 40
0.578413
100
AcDbArc
 50
270.0
 51
90.0
  0
ARC
  5
1A9E
102
{ACAD_REACTORS
330
1A80
102
}
100
AcDbEntity
  8
BORDER
100
AcDbCircle
 10
37.664272
 20
37.554297
 30
0.0
 40
4.199026
100
AcDbArc
 50
256.005504
 51
269.948223
  0
ARC
  5
1A9F
102
{ACAD_REACTORS
330
1A80
102
}
100
AcDbEntity
  8
BORDER
100
AcDbCircle
 10
37.171111
 20
34.884473
 30
0.0
 40
1.293167
100
AcDbArc
 50
246.179097
 51
0.350223
  0
LINE
  5
1AA0
102
{ACAD_REACTORS
330
1A80
102
}
100
AcDbEntity
  8
BORDER
100
AcDbLine
 10
37.226739
 20
30.876519
 30
0.0
 11
37.494179
 21
30.876519
 31
0.0
  0
LINE
  5
1AA1
102
{ACAD_REACTORS
330
1A80
102
}
100
AcDbEntity
  8
BORDER
100
AcDbLine
 10
34.985841
 20
30.724193
 30
0.0
 11
37.494179
 21
30.724193
 31
0.0
  0
LINE
  5
1AA2
102
{ACAD_REACTORS
330
1A80
102
}
100
AcDbEntity
  8
BORDER
100
AcDbLine
 10
34.985841
 20
30.876519
 30
0.0
 11
34.985841
 21
30.724193
 31
0.0
  0
LINE
  5
1AA3
100
AcDbEntity
  8
BORDER
100
AcDbLine
 10
32.950678
 20
29.571265
 30
0.0
 11
34.862418
 21
29.571265
 31
0.0
  0
LINE
  5
1AA4
100
AcDbEntity
  8
BORDER
100
AcDbLine
 10
33.906548
 20
29.571265
 30
0.0
 11
33.906548
 21
27.315134
 31
0.0
  0
LINE
  5
1AA5
100
AcDbEntity
  8
BORDER
100
AcDbLine
 10
32.491848
 20
27.315134
 30
0.0
 11
31.597072
 21
29.571265
 31
0.0
  0
LINE
  5
1AA6
100
AcDbEntity
  8
BORDER
100
AcDbLine
 10
35.361133
 20
27.315134
 30
0.0
 11
35.361133
 21
29.571265
 31
0.0
  0
LINE
  5
1AA7
100
AcDbEntity
  8
BORDER
100
AcDbLine
 10
36.816722
 20
27.315134
 30
0.0
 11
35.361133
 21
27.315134
 31
0.0
  0
LINE
  5
1AA8
100
AcDbEntity
  8
BORDER
100
AcDbLine
 10
35.361133
 20
29.571265
 30
0.0
 11
36.816722
 21
29.571265
 31
0.0
  0
LINE
  5
1AA9
100
AcDbEntity
  8
BORDER
100
AcDbLine
 10
35.361133
 20
28.4432
 30
0.0
 11
36.329116
 21
28.4432
 31
0.0
  0
LINE
  5
1AAA
102
{ACAD_REACTORS
330
1A80
102
}
100
AcDbEntity
  8
BORDER
100
AcDbLine
 10
36.648827
 20
33.479903
 30
0.0
 11
36.648827
 21
31.454431
 31
0.0
  0
ARC
  5
1AAB
102
{ACAD_REACTORS
330
1A80
102
}
100
AcDbEntity
  8
BORDER
100
AcDbCircle
 10
37.226739
 20
31.454431
 30
0.0
 40
0.577912
100
AcDbArc
 50
180.0
 51
270.0
  0
LINE
  5
1AAC
102
{ACAD_REACTORS
330
1A80
102
}
100
AcDbEntity
  8
BORDER
100
AcDbLine
 10
34.985841
 20
30.876519
 30
0.0
 11
35.253281
 21
30.876519
 31
0.0
  0
ARC
  5
1AAD
102
{ACAD_REACTORS
330
1A80
102
}
100
AcDbEntity
  8
BORDER
100
AcDbCircle
 10
35.253281
 20
31.454431
 30
0.0
 40
0.577912
100
AcDbArc
 50
270.0
 51
360.0
  0
LINE
  5
1AAE
102
{ACAD_REACTORS
330
1A80
102
}
100
AcDbEntity
  8
BORDER
100
AcDbLine
 10
37.494179
 20
30.876519
 30
0.0
 11
37.494179
 21
30.724193
 31
0.0
  0
ARC
  5
1AAF
100
AcDbEntity
  8
BORDER
100
AcDbCircle
 10
38.296975
 20
28.4432
 30
0.0
 40
1.128065
100
AcDbArc
 50
270.0
 51
90.0
  0
LINE
  5
1AB0
100
AcDbEntity
  8
BORDER
100
AcDbLine
 10
37.445478
 20
29.571265
 30
0.0
 11
37.445478
 21
27.315134
 31
0.0
  0
LINE
  5
1AB1
100
AcDbEntity
  8
BORDER
100
AcDbLine
 10
37.445478
 20
27.315134
 30
0.0
 11
38.296975
 21
27.315134
 31
0.0
  0
LINE
  5
1AB2
100
AcDbEntity
  8
BORDER
100
AcDbLine
 10
38.296975
 20
29.571265
 30
0.0
 11
37.445478
 21
29.571265
 31
0.0
  0
ARC
  5
1AB3
102
{ACAD_REACTORS
330
1A80
102
}
100
AcDbEntity
  8
BORDER
100
AcDbCircle
 10
37.790902
 20
35.008072
 30
0.0
 40
1.657937
100
AcDbArc
 50
265.488062
 51
358.394374
  0
LINE
  5
1AB4
100
AcDbEntity
  8
BORDER
100
AcDbLine
 10
25.136757
 20
37.30878
 30
0.0
 11
39.194173
 21
37.30878
 31
0.0
  0
ARC
  5
1AB5
102
{ACAD_REACTORS
330
1A65
102
}
100
AcDbEntity
  8
BORDER
100
AcDbCircle
 10
21.674524
 20
37.280651
 30
0.0
 40
2.794208
100
AcDbArc
 50
0.076996
 51
90.0
  0
LINE
  5
1AB6
102
{ACAD_REACTORS
330
1A65
102
}
100
AcDbEntity
  8
BORDER
100
AcDbLine
 10
24.760976
 20
37.284406
 30
0.0
 11
24.760976
 21
40.788696
 31
0.0
  0
LINE
  5
1AB7
102
{ACAD_REACTORS
330
1A65
102
}
100
AcDbEntity
  8
BORDER
100
AcDbLine
 10
21.674524
 20
40.074859
 30
0.0
 11
20.442257
 21
40.074859
 31
0.0
  0
LINE
  5
1AB8
102
{ACAD_REACTORS
330
1A65
102
}
100
AcDbEntity
  8
BORDER
100
AcDbLine
 10
24.760976
 20
37.284406
 30
0.0
 11
24.468732
 21
37.284406
 31
0.0
  0
LINE
  5
1AB9
100
AcDbEntity
  8
BORDER
100
AcDbLine
 10
28.450744
 20
39.714344
 30
0.0
 11
28.100179
 21
39.714344
 31
0.0
  0
LINE
  5
1ABA
100
AcDbEntity
  8
BORDER
100
AcDbLine
 10
28.100179
 20
38.067457
 30
0.0
 11
28.450744
 21
38.067457
 31
0.0
  0
LINE
  5
1ABB
100
AcDbEntity
  8
BORDER
100
AcDbLine
 10
25.52639
 20
39.714344
 30
0.0
 11
25.779919
 21
39.714344
 31
0.0
  0
LINE
  5
1ABC
100
AcDbEntity
  8
BORDER
100
AcDbLine
 10
27.400289
 20
39.714344
 30
0.0
 11
27.400289
 21
38.067457
 31
0.0
  0
LINE
  5
1ABD
100
AcDbEntity
  8
BORDER
100
AcDbLine
 10
27.400289
 20
38.067457
 30
0.0
 11
26.271434
 21
39.748775
 31
0.0
  0
LINE
  5
1ABE
100
AcDbEntity
  8
BORDER
100
AcDbLine
 10
26.271434
 20
39.748775
 30
0.0
 11
26.271434
 21
38.067457
 31
0.0
  0
LINE
  5
1ABF
100
AcDbEntity
  8
BORDER
100
AcDbLine
 10
25.52639
 20
39.714344
 30
0.0
 11
25.52639
 21
38.067457
 31
0.0
  0
LINE
  5
1AC0
100
AcDbEntity
  8
BORDER
100
AcDbLine
 10
28.100179
 20
39.714344
 30
0.0
 11
28.100179
 21
38.067457
 31
0.0
  0
LINE
  5
1AC1
100
AcDbEntity
  8
BORDER
100
AcDbLine
 10
25.272862
 20
39.714344
 30
0.0
 11
25.52639
 21
39.714344
 31
0.0
  0
LINE
  5
1AC2
100
AcDbEntity
  8
BORDER
100
AcDbLine
 10
25.272862
 20
38.067457
 30
0.0
 11
25.779919
 21
38.067457
 31
0.0
  0
LINE
  5
1AC3
100
AcDbEntity
  8
BORDER
100
AcDbLine
 10
30.967471
 20
39.714344
 30
0.0
 11
30.967471
 21
38.620596
 31
0.0
  0
ARC
  5
1AC4
100
AcDbEntity
  8
BORDER
100
AcDbCircle
 10
28.450744
 20
38.890901
 30
0.0
 40
0.823444
100
AcDbArc
 50
270.0
 51
90.0
  0
LINE
  5
1AC5
100
AcDbEntity
  8
BORDER
100
AcDbLine
 10
29.861193
 20
38.620596
 30
0.0
 11
29.861193
 21
39.714344
 31
0.0
  0
ARC
  5
1AC6
100
AcDbEntity
  8
BORDER
100
AcDbCircle
 10
30.414332
 20
38.620596
 30
0.0
 40
0.553139
100
AcDbArc
 50
180.0
 51
0.0
  0
LINE
  5
1AC7
100
AcDbEntity
  8
BORDER
100
AcDbLine
 10
36.996758
 20
39.714344
 30
0.0
 11
37.988088
 21
39.714344
 31
0.0
  0
LINE
  5
1AC8
100
AcDbEntity
  8
BORDER
100
AcDbLine
 10
36.996758
 20
38.890901
 30
0.0
 11
37.771933
 21
38.890901
 31
0.0
  0
LINE
  5
1AC9
100
AcDbEntity
  8
BORDER
100
AcDbLine
 10
37.988088
 20
38.067457
 30
0.0
 11
36.996758
 21
38.067457
 31
0.0
  0
LINE
  5
1ACA
102
{ACAD_REACTORS
330
1A80
102
}
100
AcDbEntity
  8
BORDER
100
AcDbLine
 10
34.990186
 20
36.600416
 30
0.0
 11
37.698042
 21
36.600416
 31
0.0
  0
LINE
  5
1ACB
100
AcDbEntity
  8
BORDER
100
AcDbLine
 10
32.756049
 20
39.714344
 30
0.0
 11
34.109233
 21
39.714344
 31
0.0
  0
ARC
  5
1ACC
100
AcDbEntity
  8
BORDER
100
AcDbCircle
 10
31.698486
 20
39.363253
 30
0.0
 40
0.23256
100
AcDbArc
 50
140.101426
 51
236.383068
  0
ARC
  5
1ACD
100
AcDbEntity
  8
BORDER
100
AcDbCircle
 10
39.191947
 20
50.634591
 30
0.0
 40
13.767515
100
AcDbArc
 50
236.383068
 51
240.315223
  0
ARC
  5
1ACE
100
AcDbEntity
  8
BORDER
100
AcDbCircle
 10
32.25872
 20
38.471842
 30
0.0
 40
0.23256
100
AcDbArc
 50
331.630608
 51
60.315223
  0
ARC
  5
1ACF
100
AcDbEntity
  8
BORDER
100
AcDbCircle
 10
31.994593
 20
38.589703
 30
0.0
 40
0.521423
100
AcDbArc
 50
200.502447
 51
334.026213
  0
ARC
  5
1AD0
100
AcDbEntity
  8
BORDER
100
AcDbCircle
 10
31.928296
 20
39.205338
 30
0.0
 40
0.510833
100
AcDbArc
 50
25.379638
 51
143.047804
  0
LINE
  5
1AD1
100
AcDbEntity
  8
BORDER
100
AcDbLine
 10
33.432641
 20
39.714344
 30
0.0
 11
33.432641
 21
38.067457
 31
0.0
  0
LINE
  5
1AD2
100
AcDbEntity
  8
BORDER
100
AcDbLine
 10
35.979953
 20
39.714344
 30
0.0
 11
36.487011
 21
39.714344
 31
0.0
  0
LINE
  5
1AD3
100
AcDbEntity
  8
BORDER
100
AcDbLine
 10
35.979953
 20
38.067457
 30
0.0
 11
36.487011
 21
38.067457
 31
0.0
  0
LINE
  5
1AD4
100
AcDbEntity
  8
BORDER
100
AcDbLine
 10
36.233482
 20
39.714344
 30
0.0
 11
36.233482
 21
38.067457
 31
0.0
  0
LINE
  5
1AD5
100
AcDbEntity
  8
BORDER
100
AcDbLine
 10
36.996758
 20
38.067457
 30
0.0
 11
36.996758
 21
39.714344
 31
0.0
  0
LINE
  5
1AD6
100
AcDbEntity
  8
BORDER
100
AcDbLine
 10
35.057844
 20
39.714344
 30
0.0
 11
34.458804
 21
39.714344
 31
0.0
  0
LINE
  5
1AD7
100
AcDbEntity
  8
BORDER
100
AcDbLine
 10
34.943013
 20
38.882965
 30
0.0
 11
35.465332
 21
38.067457
 31
0.0
  0
LINE
  5
1AD8
100
AcDbEntity
  8
BORDER
100
AcDbLine
 10
34.458804
 20
38.882965
 30
0.0
 11
35.057844
 21
38.882965
 31
0.0
  0
LINE
  5
1AD9
102
{ACAD_REACTORS
330
1A80
102
}
100
AcDbEntity
  8
BORDER
100
AcDbLine
 10
34.990186
 20
36.439118
 30
0.0
 11
35.253281
 21
36.439118
 31
0.0
  0
LINE
  5
1ADA
102
{ACAD_REACTORS
330
1A80
102
}
100
AcDbEntity
  8
BORDER
100
AcDbLine
 10
34.990186
 20
36.600416
 30
0.0
 11
34.990186
 21
36.439118
 31
0.0
  0
LINE
  5
1ADB
100
AcDbEntity
  8
BORDER
100
AcDbLine
 10
34.458804
 20
39.714344
 30
0.0
 11
34.458804
 21
38.067457
 31
0.0
  0
ARC
  5
1ADC
100
AcDbEntity
  8
BORDER
100
AcDbCircle
 10
35.057844
 20
39.298655
 30
0.0
 40
0.41569
100
AcDbArc
 50
270.0
 51
90.0
  0
ARC
  5
1ADD
102
{ACAD_REACTORS
330
1A80
102
}
100
AcDbEntity
  8
BORDER
100
AcDbCircle
 10
35.253281
 20
35.861206
 30
0.0
 40
0.577912
100
AcDbArc
 50
0.0
 51
90.0
  0
ARC
  5
1ADE
100
AcDbEntity
  8
BORDER
100
AcDbCircle
 10
38.548918
 20
39.363253
 30
0.0
 40
0.23256
100
AcDbArc
 50
140.101426
 51
236.383068
  0
ARC
  5
1ADF
100
AcDbEntity
  8
BORDER
100
AcDbCircle
 10
46.042379
 20
50.634591
 30
0.0
 40
13.767515
100
AcDbArc
 50
236.383068
 51
240.315223
  0
ARC
  5
1AE0
100
AcDbEntity
  8
BORDER
100
AcDbCircle
 10
39.109152
 20
38.471842
 30
0.0
 40
0.23256
100
AcDbArc
 50
331.630608
 51
60.315223
  0
ARC
  5
1AE1
100
AcDbEntity
  8
BORDER
100
AcDbCircle
 10
38.845025
 20
38.589703
 30
0.0
 40
0.521423
100
AcDbArc
 50
200.502447
 51
334.026213
  0
ARC
  5
1AE2
100
AcDbEntity
  8
BORDER
100
AcDbCircle
 10
38.778728
 20
39.205338
 30
0.0
 40
0.510833
100
AcDbArc
 50
25.379638
 51
143.047804
  0
CIRCLE
  5
1B41
100
AcDbEntity
  8
OBJECT
100
AcDbCircle
 10
153.501927
 20
202.995952
 30
0.0
 40
13.5
  0
LINE
  5
1B42
100
AcDbEntity
  8
CENTER
100
AcDbLine
 10
138.501927
 20
202.995952
 30
0.0
 11
168.501927
 21
202.995952
 31
0.0
  0
LINE
  5
1B43
100
AcDbEntity
  8
OBJECT
100
AcDbLine
 10
147.251927
 20
193.745952
 30
0.0
 11
159.751927
 21
193.745952
 31
0.0
  0
LINE
  5
1B44
100
AcDbEntity
  8
OBJECT
100
AcDbLine
 10
147.251927
 20
212.245952
 30
0.0
 11
159.751927
 21
212.245952
 31
0.0
  0
LINE
  5
1B45
100
AcDbEntity
  8
OBJECT
100
AcDbLine
 10
147.251927
 20
193.745952
 30
0.0
 11
147.251927
 21
212.245952
 31
0.0
  0
LWPOLYLINE
  5
1B46
100
AcDbEntity
  8
OBJECT
100
AcDbPolyline
 90
        6
 70
     1
 43
0.0
 10
147.126927
 20
192.242803
 10
146.876927
 20
192.098465
 10
146.876927
 20
191.80979
 10
147.126927
 20
191.665453
 10
147.376927
 20
191.80979
 10
147.376927
 20
192.098465
  0
LWPOLYLINE
  5
1B4F
100
AcDbEntity
  8
OBJECT
100
AcDbPolyline
 90
        6
 70
     1
 43
0.0
 10
141.001927
 20
203.140289
 10
140.751927
 20
203.284627
 10
140.501927
 20
203.140289
 10
140.501927
 20
202.851614
 10
140.751927
 20
202.707277
 10
141.001927
 20
202.851614
  0
LINE
  5
1B50
100
AcDbEntity
  8
CENTER
100
AcDbLine
 10
153.501927
 20
217.995952
 30
0.0
 11
153.501927
 21
187.995952
 31
0.0
  0
LINE
  5
1B51
100
AcDbEntity
  8
DIM
 62
     2
100
AcDbLine
 39
10.0
 10
160.814427
 20
208.995137
 30
0.0
 11
160.814427
 21
210.995137
 31
0.0
  0
LINE
  5
1B52
100
AcDbEntity
  8
DIM
 62
     2
100
AcDbLine
 39
10.0
 10
159.876927
 20
210.995137
 30
0.0
 11
159.751927
 21
210.995137
 31
0.0
  0
LINE
  5
1B53
100
AcDbEntity
  8
DIM
 62
     2
100
AcDbLine
 39
10.0
 10
159.876927
 20
208.995137
 30
0.0
 11
159.751927
 21
208.995137
 31
0.0
  0
LINE
  5
1B54
100
AcDbEntity
  8
DIM
 62
     2
100
AcDbLine
 39
10.0
 10
159.751927
 20
210.995137
 30
0.0
 11
159.751927
 21
208.995137
 31
0.0
  0
LINE
  5
1B55
100
AcDbEntity
  8
DIM
 62
     2
100
AcDbLine
 39
10.0
 10
159.876927
 20
210.995137
 30
0.0
 11
159.876927
 21
208.995137
 31
0.0
  0
LINE
  5
1B56
100
AcDbEntity
  8
DIM
 62
     2
100
AcDbLine
 39
10.0
 10
158.814427
 20
208.995137
 30
0.0
 11
158.814427
 21
210.995137
 31
0.0
  0
LINE
  5
1B57
100
AcDbEntity
  8
DIM
 62
     2
100
AcDbLine
 39
10.0
 10
160.814427
 20
196.996766
 30
0.0
 11
160.814427
 21
194.996766
 31
0.0
  0
LINE
  5
1B58
100
AcDbEntity
  8
DIM
 62
     2
100
AcDbLine
 39
10.0
 10
159.876927
 20
194.996766
 30
0.0
 11
159.751927
 21
194.996766
 31
0.0
  0
LINE
  5
1B59
100
AcDbEntity
  8
DIM
 62
     2
100
AcDbLine
 39
10.0
 10
159.876927
 20
196.996766
 30
0.0
 11
159.751927
 21
196.996766
 31
0.0
  0
LINE
  5
1B5A
100
AcDbEntity
  8
DIM
 62
     2
100
AcDbLine
 39
10.0
 10
159.751927
 20
194.996766
 30
0.0
 11
159.751927
 21
196.996766
 31
0.0
  0
LINE
  5
1B5B
100
AcDbEntity
  8
DIM
 62
     2
100
AcDbLine
 39
10.0
 10
159.876927
 20
194.996766
 30
0.0
 11
159.876927
 21
196.996766
 31
0.0
  0
LINE
  5
1B5C
100
AcDbEntity
  8
DIM
 62
     2
100
AcDbLine
 39
10.0
 10
158.814427
 20
196.996766
 30
0.0
 11
158.814427
 21
194.996766
 31
0.0
  0
LINE
  5
1B5D
100
AcDbEntity
  8
OBJECT
100
AcDbLine
 10
159.751927
 20
193.745952
 30
0.0
 11
159.751927
 21
212.245952
 31
0.0
  0
LWPOLYLINE
  5
1B5E
100
AcDbEntity
  8
OBJECT
100
AcDbPolyline
 90
        6
 70
     1
 43
0.0
 10
159.626927
 20
192.098465
 10
159.626927
 20
191.80979
 10
159.876927
 20
191.665453
 10
160.126927
 20
191.80979
 10
160.126927
 20
192.098465
 10
159.876927
 20
192.242803
  0
LINE
  5
1B5F
100
AcDbEntity
  8
OBJECT
100
AcDbLine
 10
159.876927
 20
194.996766
 30
0.0
 11
160.814427
 21
194.996766
 31
0.0
  0
LINE
  5
1B60
100
AcDbEntity
  8
OBJECT
100
AcDbLine
 10
158.814427
 20
194.996766
 30
0.0
 11
159.751927
 21
194.996766
 31
0.0
  0
LINE
  5
1B61
100
AcDbEntity
  8
15
 62
     2
100
AcDbLine
 10
159.876927
 20
195.401914
 30
0.0
 11
159.751927
 21
195.401914
 31
0.0
  0
LINE
  5
1B82
100
AcDbEntity
  8
OBJECT
100
AcDbLine
 10
159.876927
 20
196.996766
 30
0.0
 11
160.814427
 21
196.996766
 31
0.0
  0
LINE
  5
1B83
100
AcDbEntity
  8
OBJECT
100
AcDbLine
 10
158.814427
 20
196.996766
 30
0.0
 11
159.751927
 21
196.996766
 31
0.0
  0
LINE
  5
1B84
100
AcDbEntity
  8
15
 62
     2
100
AcDbLine
 10
159.876927
 20
196.560369
 30
0.0
 11
159.751927
 21
196.560369
 31
0.0
  0
LINE
  5
1B85
100
AcDbEntity
  8
15
 62
     2
100
AcDbLine
 10
159.876927
 20
196.591619
 30
0.0
 11
159.751927
 21
196.591619
 31
0.0
  0
LINE
  5
1B86
100
AcDbEntity
  8
15
 62
     2
100
AcDbLine
 10
159.876927
 20
196.184622
 30
0.0
 11
159.751927
 21
196.184622
 31
0.0
  0
LINE
  5
1B87
100
AcDbEntity
  8
15
 62
     2
100
AcDbLine
 10
159.876927
 20
196.153372
 30
0.0
 11
159.751927
 21
196.153372
 31
0.0
  0
LINE
  5
1B88
100
AcDbEntity
  8
15
 62
     2
100
AcDbLine
 10
159.876927
 20
195.433164
 30
0.0
 11
159.751927
 21
195.433164
 31
0.0
  0
LINE
  5
1B89
100
AcDbEntity
  8
15
 62
     2
100
AcDbLine
 10
159.876927
 20
195.840872
 30
0.0
 11
159.751927
 21
195.840872
 31
0.0
  0
LINE
  5
1B8A
100
AcDbEntity
  8
15
 62
     2
100
AcDbLine
 10
159.876927
 20
195.809622
 30
0.0
 11
159.751927
 21
195.809622
 31
0.0
  0
LINE
  5
1B8B
100
AcDbEntity
  8
OBJECT
100
AcDbLine
 10
158.814427
 20
208.995137
 30
0.0
 11
159.751927
 21
208.995137
 31
0.0
  0
LINE
  5
1B8C
100
AcDbEntity
  8
OBJECT
100
AcDbLine
 10
159.876927
 20
208.995137
 30
0.0
 11
160.814427
 21
208.995137
 31
0.0
  0
LINE
  5
1B8D
100
AcDbEntity
  8
15
 62
     2
100
AcDbLine
 10
159.876927
 20
209.431535
 30
0.0
 11
159.751927
 21
209.431535
 31
0.0
  0
LINE
  5
1B8E
100
AcDbEntity
  8
15
 62
     2
100
AcDbLine
 10
159.876927
 20
209.400285
 30
0.0
 11
159.751927
 21
209.400285
 31
0.0
  0
LINE
  5
1B8F
100
AcDbEntity
  8
15
 62
     2
100
AcDbLine
 10
159.876927
 20
210.151031
 30
0.0
 11
159.751927
 21
210.151031
 31
0.0
  0
LINE
  5
1B90
100
AcDbEntity
  8
15
 62
     2
100
AcDbLine
 10
159.876927
 20
210.182281
 30
0.0
 11
159.751927
 21
210.182281
 31
0.0
  0
LINE
  5
1B91
100
AcDbEntity
  8
15
 62
     2
100
AcDbLine
 10
159.876927
 20
209.807281
 30
0.0
 11
159.751927
 21
209.807281
 31
0.0
  0
LINE
  5
1B92
100
AcDbEntity
  8
15
 62
     2
100
AcDbLine
 10
159.876927
 20
209.838531
 30
0.0
 11
159.751927
 21
209.838531
 31
0.0
  0
LINE
  5
1B93
100
AcDbEntity
  8
OBJECT
100
AcDbLine
 10
158.814427
 20
210.995137
 30
0.0
 11
159.751927
 21
210.995137
 31
0.0
  0
LINE
  5
1B94
100
AcDbEntity
  8
OBJECT
100
AcDbLine
 10
159.876927
 20
210.995137
 30
0.0
 11
160.814427
 21
210.995137
 31
0.0
  0
LINE
  5
1B95
100
AcDbEntity
  8
15
 62
     2
100
AcDbLine
 10
159.876927
 20
210.589989
 30
0.0
 11
159.751927
 21
210.589989
 31
0.0
  0
LINE
  5
1B96
100
AcDbEntity
  8
15
 62
     2
100
AcDbLine
 10
159.876927
 20
210.558739
 30
0.0
 11
159.751927
 21
210.558739
 31
0.0
  0
LWPOLYLINE
  5
1B97
100
AcDbEntity
  8
OBJECT
100
AcDbPolyline
 90
        6
 70
     1
 43
0.0
 10
166.001927
 20
202.851614
 10
166.251927
 20
202.707277
 10
166.501927
 20
202.851614
 10
166.501927
 20
203.140289
 10
166.251927
 20
203.284627
 10
166.001927
 20
203.140289
  0
LWPOLYLINE
  5
1B98
100
AcDbEntity
  8
OBJECT
100
AcDbPolyline
 90
        6
 70
     1
 43
0.0
 10
159.876927
 20
213.749101
 10
160.126927
 20
213.893438
 10
160.126927
 20
214.182113
 10
159.876927
 20
214.326451
 10
159.626927
 20
214.182113
 10
159.626927
 20
213.893438
  0
LWPOLYLINE
  5
1B99
100
AcDbEntity
  8
OBJECT
100
AcDbPolyline
 90
        6
 70
     1
 43
0.0
 10
147.376927
 20
213.893438
 10
147.376927
 20
214.182113
 10
147.126927
 20
214.326451
 10
146.876927
 20
214.182113
 10
146.876927
 20
213.893438
 10
147.126927
 20
213.749101
  0
TEXT
  5
1B9A
100
AcDbEntity
  8
DIM
100
AcDbText
 10
143.147695
 20
227.863304
 30
0.0
 40
2.55
  1
Solid Cover
  7
ROMAND
100
AcDbText
  0
LINE
  5
1B9C
100
AcDbEntity
  8
DIM
100
AcDbLine
 10
141.064965
 20
226.992757
 30
0.0
 11
166.956071
 21
226.992757
 31
0.0
  0
TEXT
  5
1BA1
100
AcDbEntity
  8
DIM
100
AcDbText
 10
149.113465
 20
224.219628
 30
0.0
 40
1.7
  1
FIberglass
  7
ROMAND
100
AcDbText
  0
TEXT
  5
1BA2
100
AcDbEntity
  8
DIM
100
AcDbText
 10
149.113465
 20
220.805177
 30
0.0
 40
1.7
  1
Steel
  7
ROMAND
100
AcDbText
  0
LWPOLYLINE
  5
1BA3
100
AcDbEntity
  8
DIM
100
AcDbPolyline
 90
        4
 70
     1
 43
0.0
 10
148.396105
 20
224.063787
 10
148.396105
 20
225.804862
 10
146.65503
 20
225.804862
 10
146.65503
 20
224.063787
  0
LWPOLYLINE
  5
1BA4
100
AcDbEntity
  8
DIM
100
AcDbPolyline
 90
        4
 70
     1
 43
0.0
 10
148.396105
 20
220.750027
 10
148.396105
 20
222.491102
 10
146.65503
 20
222.491102
 10
146.65503
 20
220.750027
  0
TEXT
  5
23AF
100
AcDbEntity
  8
BORDER
 62
     6
100
AcDbText
 10
67.54801
 20
33.162404
 30
0.0
 40
1.158366
  1
Standard Discharge
  7
ROMANC
100
AcDbText
  0
INSERT
  5
23D6
100
AcDbEntity
  8
0
100
AcDbBlockReference
  2
150PF
 10
161.386518
 20
201.368955
 30
0.0
 41
0.5
 42
0.5
 43
0.5
  0
LEADER
  5
23D8
100
AcDbEntity
  8
DIM
100
AcDbLeader
  3
STANDARD
 76
     3
 10
162.892326
 20
204.152202
 30
0.0
 10
170.004662
 20
211.264535
 30
0.0
 10
171.776746
 20
211.264533
 30
0.0
 77
   256
1001
ACAD
1000
DSTYLE
1002
{
1070
   340
1005
2F
1070
   272
1070
     2
1070
   147
1040
1.7
1070
   287
1070
     5
1070
    44
1040
1.7
1070
   271
1070
     2
1070
    41
1040
1.6
1002
}
  0
TEXT
  5
23D9
100
AcDbEntity
  8
DIM
100
AcDbText
 10
171.681286
 20
210.414533
 30
0.0
 40
1.7
  1
   NPT Vent
  7
ROMAND
 11
171.681286
 21
211.264533
 31
0.0
100
AcDbText
 73
     2
  0
LINE
  5
23DA
100
AcDbEntity
  8
DIM
100
AcDbLine
 10
171.498878
 20
209.935063
 30
0.0
 11
176.843028
 21
209.935063
 31
0.0
  0
TEXT
  5
3B2B
100
AcDbEntity
  8
BORDER
 62
     6
100
AcDbText
 10
8.49129
 20
258.505579
 30
0.0
 40
1.513413
  1
Type:
  7
ROMANT
100
AcDbText
  0
LINE
  5
3B2C
100
AcDbEntity
  8
BORDER
 62
     6
100
AcDbLine
 10
9.322446
 20
262.171271
 30
0.0
 11
35.402815
 21
262.171271
 31
0.0
  0
LINE
  5
3B2D
100
AcDbEntity
  8
BORDER
 62
     6
100
AcDbLine
 10
9.322446
 20
262.55442
 30
0.0
 11
35.402815
 21
262.55442
 31
0.0
  0
TEXT
  5
3B2E
100
AcDbEntity
  8
BORDER
 62
     6
100
AcDbText
 10
9.370981
 20
263.017266
 30
0.0
 40
1.563018
  1
PUMP INFORMATION
  7
ITALICT
100
AcDbText
  0
TEXT
  5
3B2F
100
AcDbEntity
  8
BORDER
 62
     6
100
AcDbText
 10
19.007051
 20
250.09297
 30
0.0
 40
1.513413
  1
Non-Clog Pump(s)
  7
ROMANT
100
AcDbText
  0
TEXT
  5
3B30
100
AcDbEntity
  8
BORDER
 62
     6
100
AcDbText
 10
19.007051
 20
254.299274
 30
0.0
 40
1.513413
  1
Grinder Pump(s)
  7
ROMANT
100
AcDbText
  0
TEXT
  5
3B31
100
AcDbEntity
  8
BORDER
 62
     6
100
AcDbText
 10
19.007051
 20
258.505579
 30
0.0
 40
1.513413
  1
Sump Pump(s)
  7
ROMANT
100
AcDbText
  0
LWPOLYLINE
  5
3B32
100
AcDbEntity
  8
BORDER
 62
     6
100
AcDbPolyline
 90
        4
 70
     1
 43
0.0
 10
18.267831
 20
258.36905
 10
18.267831
 20
260.119572
 10
16.517308
 20
260.119572
 10
16.517308
 20
258.36905
  0
LWPOLYLINE
  5
3B33
100
AcDbEntity
  8
BORDER
 62
     6
100
AcDbPolyline
 90
        4
 70
     1
 43
0.0
 10
18.267831
 20
254.367855
 10
18.267831
 20
256.118378
 10
16.517308
 20
256.118378
 10
16.517308
 20
254.367855
  0
LWPOLYLINE
  5
3B34
100
AcDbEntity
  8
BORDER
 62
     6
100
AcDbPolyline
 90
        4
 70
     1
 43
0.0
 10
18.267831
 20
249.991549
 10
18.267831
 20
251.742071
 10
16.517308
 20
251.742071
 10
16.517308
 20
249.991549
  0
TEXT
  5
3B35
100
AcDbEntity
  8
BORDER
 62
     6
100
AcDbText
 10
8.49129
 20
239.577208
 30
0.0
 40
1.513413
  1
Rating:
  7
ROMANT
100
AcDbText
  0
TEXT
  5
3B36
100
AcDbEntity
  8
BORDER
 62
     6
100
AcDbText
 10
8.49129
 20
243.783513
 30
0.0
 40
1.513413
  1
Model NO:
  7
ROMANT
100
AcDbText
  0
TEXT
  5
3B37
100
AcDbEntity
  8
BORDER
 62
     6
100
AcDbText
 10
8.49129
 20
226.958294
 30
0.0
 40
1.513413
  1
Elec:
  7
ROMANT
100
AcDbText
  0
TEXT
  5
3B38
100
AcDbEntity
  8
BORDER
 62
     6
100
AcDbText
 10
8.49129
 20
231.164599
 30
0.0
 40
1.513413
  1
Elec:
  7
ROMANT
100
AcDbText
  0
TEXT
  5
3B39
100
AcDbEntity
  8
BORDER
 62
     6
100
AcDbText
 10
8.49129
 20
235.370903
 30
0.0
 40
1.513413
  1
Motor:
  7
ROMANT
100
AcDbText
  0
LWPOLYLINE
  5
3B3A
100
AcDbEntity
  8
BORDER
 62
     6
100
AcDbPolyline
 90
        4
 70
     1
 43
0.0
 10
11.120622
 20
216.187214
 10
9.395632
 20
216.187214
 10
9.395632
 20
217.912204
 10
11.120622
 20
217.912204
  0
LWPOLYLINE
  5
3B3B
100
AcDbEntity
  8
BORDER
 62
     6
100
AcDbPolyline
 90
        4
 70
     1
 43
0.0
 10
11.120622
 20
212.731161
 10
9.395632
 20
212.731161
 10
9.395632
 20
211.006172
 10
11.120622
 20
211.006172
  0
LWPOLYLINE
  5
3B3C
100
AcDbEntity
  8
BORDER
 62
     6
100
AcDbPolyline
 90
        4
 70
     1
 43
0.0
 10
11.120622
 20
215.321682
 10
9.395632
 20
215.321682
 10
9.395632
 20
213.596693
 10
11.120622
 20
213.596693
  0
TEXT
  5
3B3D
100
AcDbEntity
  8
BORDER
 62
     6
100
AcDbText
 10
9.370981
 20
220.749583
 30
0.0
 40
1.563018
  1
DISCHARGE PIPE
  7
ITALICT
100
AcDbText
  0
LINE
  5
3B3E
100
AcDbEntity
  8
BORDER
 62
     6
100
AcDbLine
 10
9.322446
 20
220.286738
 30
0.0
 11
31.45598
 21
220.286738
 31
0.0
  0
LINE
  5
3B3F
100
AcDbEntity
  8
BORDER
 62
     6
100
AcDbLine
 10
9.322446
 20
219.903588
 30
0.0
 11
31.45598
 21
219.903588
 31
0.0
  0
TEXT
  5
3B40
100
AcDbEntity
  8
BORDER
 62
     6
100
AcDbText
 10
12.012424
 20
213.634139
 30
0.0
 40
1.525377
  1
Sch40 Galvanized Steel
  7
ROMANT
100
AcDbText
  0
TEXT
  5
3B41
100
AcDbEntity
  8
BORDER
 62
     6
100
AcDbText
 10
12.012424
 20
211.043618
 30
0.0
 40
1.525377
  1
Sch80 PVC Pipe
  7
ROMANT
100
AcDbText
  0
TEXT
  5
3B42
100
AcDbEntity
  8
BORDER
 62
     6
100
AcDbText
 10
12.012424
 20
216.265096
 30
0.0
 40
1.525377
  1
304 Stainless Steel
  7
ROMANT
100
AcDbText
  0
LINE
  5
3B43
100
AcDbEntity
  8
BORDER
 62
     6
100
AcDbLine
 10
22.124519
 20
243.783513
 30
0.0
 11
43.846247
 21
243.783513
 31
0.0
  0
TEXT
  5
3B44
100
AcDbEntity
  8
BORDER
 62
     6
100
AcDbText
 10
40.038575
 20
231.164599
 30
0.0
 40
1.513413
  1
HZ
  7
ROMANT
100
AcDbText
  0
TEXT
  5
3B45
100
AcDbEntity
  8
BORDER
 62
     6
100
AcDbText
 10
40.038575
 20
235.370903
 30
0.0
 40
1.513413
  1
RPM
  7
ROMANT
100
AcDbText
  0
TEXT
  5
3B46
100
AcDbEntity
  8
BORDER
 62
     6
100
AcDbText
 10
40.038575
 20
239.577208
 30
0.0
 40
1.513413
  1
TDH
  7
ROMANT
100
AcDbText
  0
LINE
  5
3B47
100
AcDbEntity
  8
BORDER
 62
     6
100
AcDbLine
 10
14.804
 20
226.958294
 30
0.0
 11
24.84661
 21
226.958294
 31
0.0
  0
LINE
  5
3B48
100
AcDbEntity
  8
BORDER
 62
     6
100
AcDbLine
 10
15.037323
 20
231.164599
 30
0.0
 11
24.535515
 21
231.164599
 31
0.0
  0
LINE
  5
3B49
100
AcDbEntity
  8
BORDER
 62
     6
100
AcDbLine
 10
16.903899
 20
235.370903
 30
0.0
 11
24.613288
 21
235.370903
 31
0.0
  0
LINE
  5
3B4A
100
AcDbEntity
  8
BORDER
 62
     6
100
AcDbLine
 10
17.840442
 20
239.577208
 30
0.0
 11
24.768837
 21
239.577208
 31
0.0
  0
LINE
  5
3B4B
100
AcDbEntity
  8
BORDER
 62
     6
100
AcDbLine
 10
31.081547
 20
239.577208
 30
0.0
 11
39.64645
 21
239.577208
 31
0.0
  0
LINE
  5
3B4C
100
AcDbEntity
  8
BORDER
 62
     6
100
AcDbLine
 10
29.367266
 20
231.164599
 30
0.0
 11
39.179807
 21
231.164599
 31
0.0
  0
LINE
  5
3B4D
100
AcDbEntity
  8
BORDER
 62
     6
100
AcDbLine
 10
29.367264
 20
235.370903
 30
0.0
 11
39.102032
 21
235.370903
 31
0.0
  0
TEXT
  5
3B4E
100
AcDbEntity
  8
BORDER
 62
     6
100
AcDbText
 10
25.316508
 20
226.958294
 30
0.0
 40
1.513413
  1
FL AMPS
  7
ROMANT
100
AcDbText
  0
TEXT
  5
3B4F
100
AcDbEntity
  8
BORDER
 62
     6
100
AcDbText
 10
25.316508
 20
231.164599
 30
0.0
 40
1.513413
  1
PH
  7
ROMANT
100
AcDbText
  0
TEXT
  5
3B50
100
AcDbEntity
  8
BORDER
 62
     6
100
AcDbText
 10
25.316508
 20
239.577208
 30
0.0
 40
1.513413
  1
GPM
  7
ROMANT
100
AcDbText
  0
TEXT
  5
3B51
100
AcDbEntity
  8
BORDER
 62
     6
100
AcDbText
 10
25.316508
 20
235.370903
 30
0.0
 40
1.513413
  1
HP
  7
ROMANT
100
AcDbText
  0
LINE
  5
3B52
100
AcDbEntity
  8
BORDER
 62
     6
100
AcDbLine
 10
43.700461
 20
231.164599
 30
0.0
 11
50.554336
 21
231.164599
 31
0.0
  0
TEXT
  5
3B53
100
AcDbEntity
  8
BORDER
 62
     6
100
AcDbText
 10
50.554336
 20
231.164599
 30
0.0
 40
1.513413
  1
v
  7
ROMANT
100
AcDbText
  0
LWPOLYLINE
  5
3B54
100
AcDbEntity
  8
BORDER
 62
     6
100
AcDbPolyline
 90
        4
 70
     1
 43
0.0
 10
11.107092
 20
205.083087
 10
9.395632
 20
205.083087
 10
9.395632
 20
203.371627
 10
11.107092
 20
203.371627
  0
LWPOLYLINE
  5
3B55
100
AcDbEntity
  8
BORDER
 62
     6
100
AcDbPolyline
 90
        4
 70
     1
 43
0.0
 10
11.107092
 20
208.212031
 10
9.395632
 20
208.212031
 10
9.395632
 20
206.500571
 10
11.107092
 20
206.500571
  0
TEXT
  5
3B56
100
AcDbEntity
  8
BORDER
 62
     6
100
AcDbText
 10
11.991901
 20
203.467677
 30
0.0
 40
1.513413
  1
2"
  7
ROMANT
100
AcDbText
  0
TEXT
  5
3B57
100
AcDbEntity
  8
BORDER
 62
     6
100
AcDbText
 10
11.991901
 20
206.556501
 30
0.0
 40
1.513413
  1
1 1/4"
  7
ROMANT
100
AcDbText
  0
TEXT
  5
3B58
100
AcDbEntity
  8
DIM
100
AcDbText
 10
171.729355
 20
207.554356
 30
0.0
 40
1.7
  1
   Flange
  7
ROMAND
 11
171.729355
 21
208.404356
 31
0.0
100
AcDbText
 73
     2
  0
ARC
  5
5947
100
AcDbEntity
  8
OBJECT
100
AcDbCircle
 10
203.957049
 20
112.926744
 30
0.0
 40
100.464204
100
AcDbArc
 50
166.749261
 51
179.09375
  0
ARC
  5
5948
100
AcDbEntity
  8
OBJECT
100
AcDbCircle
 10
203.957049
 20
112.926744
 30
0.0
 40
100.714204
100
AcDbArc
 50
166.158229
 51
179.094754
  0
LINE
  5
5949
100
AcDbEntity
  8
OBJECT
100
AcDbLine
 10
114.63275
 20
110.158316
 30
0.0
 11
114.63275
 21
148.790816
 31
0.0
  0
LINE
  5
594A
100
AcDbEntity
  8
OBJECT
100
AcDbLine
 10
115.00775
 20
110.158316
 30
0.0
 11
115.00775
 21
148.790816
 31
0.0
  0
LINE
  5
594D
100
AcDbEntity
  8
OBJECT
 62
     4
100
AcDbLine
 39
50.0
 10
102.214727
 20
106.090246
 30
0.0
 11
104.589727
 21
106.090246
 31
0.0
  0
LINE
  5
594E
100
AcDbEntity
  8
OBJECT
 62
     4
100
AcDbLine
 39
50.0
 10
102.214727
 20
105.890246
 30
0.0
 11
104.589727
 21
105.890246
 31
0.0
  0
LINE
  5
594F
100
AcDbEntity
  8
OBJECT
 62
     4
100
AcDbLine
 39
50.0
 10
102.214727
 20
105.690246
 30
0.0
 11
104.589727
 21
105.690246
 31
0.0
  0
LINE
  5
5950
100
AcDbEntity
  8
OBJECT
 62
     4
100
AcDbLine
 39
50.0
 10
102.214727
 20
99.991816
 30
0.0
 11
104.589727
 21
99.991816
 31
0.0
  0
LINE
  5
5951
100
AcDbEntity
  8
OBJECT
 62
     4
100
AcDbLine
 39
50.0
 10
102.214727
 20
100.191816
 30
0.0
 11
104.589727
 21
100.191816
 31
0.0
  0
LINE
  5
5952
100
AcDbEntity
  8
OBJECT
 62
     4
100
AcDbLine
 39
50.0
 10
102.214727
 20
100.391816
 30
0.0
 11
104.589727
 21
100.391816
 31
0.0
  0
LINE
  5
5953
100
AcDbEntity
  8
OBJECT
 62
     4
100
AcDbLine
 39
50.0
 10
102.214727
 20
100.591816
 30
0.0
 11
104.589727
 21
100.591816
 31
0.0
  0
LINE
  5
5954
100
AcDbEntity
  8
OBJECT
 62
     4
100
AcDbLine
 39
50.0
 10
102.214727
 20
95.560991
 30
0.0
 11
104.589727
 21
95.560991
 31
0.0
  0
LINE
  5
5955
100
AcDbEntity
  8
OBJECT
 62
     4
100
AcDbLine
 39
50.0
 10
102.214727
 20
95.360991
 30
0.0
 11
104.589727
 21
95.360991
 31
0.0
  0
LINE
  5
5956
100
AcDbEntity
  8
OBJECT
 62
     4
100
AcDbLine
 39
50.0
 10
102.214727
 20
95.160991
 30
0.0
 11
104.589727
 21
95.160991
 31
0.0
  0
LINE
  5
5957
100
AcDbEntity
  8
OBJECT
 62
     4
100
AcDbLine
 39
50.0
 10
102.214727
 20
94.960991
 30
0.0
 11
104.589727
 21
94.960991
 31
0.0
  0
LINE
  5
5958
100
AcDbEntity
  8
OBJECT
 62
     2
100
AcDbLine
 39
50.0
 10
105.800405
 20
104.244816
 30
0.0
 11
106.167574
 21
104.244816
 31
0.0
  0
LINE
  5
5959
100
AcDbEntity
  8
OBJECT
 62
     2
100
AcDbLine
 39
50.0
 10
105.010574
 20
105.604816
 30
0.0
 11
105.838574
 21
105.604816
 31
0.0
  0
LINE
  5
595A
100
AcDbEntity
  8
OBJECT
 62
     2
100
AcDbLine
 39
50.0
 10
101.948574
 20
105.416816
 30
0.0
 11
105.010574
 21
105.416816
 31
0.0
  0
LINE
  5
595B
100
AcDbEntity
  8
OBJECT
 62
     2
100
AcDbLine
 39
50.0
 10
104.792074
 20
103.908816
 30
0.0
 11
104.845468
 21
103.908816
 31
0.0
  0
LINE
  5
595C
100
AcDbEntity
  8
OBJECT
 62
     2
100
AcDbLine
 39
50.0
 10
101.948574
 20
104.947816
 30
0.0
 11
104.854574
 21
104.947816
 31
0.0
  0
LINE
  5
595D
100
AcDbEntity
  8
OBJECT
 62
     2
100
AcDbLine
 39
50.0
 10
104.792074
 20
101.642816
 30
0.0
 11
104.845468
 21
101.642816
 31
0.0
  0
LINE
  5
595E
100
AcDbEntity
  8
OBJECT
 62
     2
100
AcDbLine
 39
50.0
 10
105.673468
 20
101.306816
 30
0.0
 11
106.167574
 21
101.306816
 31
0.0
  0
LINE
  5
595F
100
AcDbEntity
  8
OBJECT
 62
     2
100
AcDbLine
 39
50.0
 10
101.948574
 20
101.260816
 30
0.0
 11
104.855881
 21
101.260816
 31
0.0
  0
LINE
  5
5960
100
AcDbEntity
  8
OBJECT
 62
     2
100
AcDbLine
 39
50.0
 10
101.948574
 20
100.791816
 30
0.0
 11
104.855881
 21
100.791816
 31
0.0
  0
LINE
  5
5961
100
AcDbEntity
  8
OBJECT
100
AcDbLine
 10
102.214727
 20
88.041816
 30
0.0
 11
102.214727
 21
74.275816
 31
0.0
  0
LINE
  5
5962
100
AcDbEntity
  8
OBJECT
100
AcDbLine
 10
104.589727
 20
88.041816
 30
0.0
 11
104.589727
 21
74.275816
 31
0.0
  0
LINE
  5
5963
100
AcDbEntity
  8
OBJECT
100
AcDbLine
 10
107.667574
 20
67.025816
 30
0.0
 11
107.667574
 21
89.719096
 31
0.0
  0
LINE
  5
5964
100
AcDbEntity
  8
OBJECT
100
AcDbLine
 10
106.167574
 20
67.025816
 30
0.0
 11
106.167574
 21
89.719096
 31
0.0
  0
LINE
  5
5965
100
AcDbEntity
  8
OBJECT
100
AcDbLine
 10
105.617574
 20
66.775816
 30
0.0
 11
108.217574
 21
66.775816
 31
0.0
  0
LINE
  5
5966
100
AcDbEntity
  8
OBJECT
100
AcDbLine
 10
105.617574
 20
67.025816
 30
0.0
 11
108.217574
 21
67.025816
 31
0.0
  0
LINE
  5
5968
100
AcDbEntity
  8
OBJECT
100
AcDbLine
 10
105.617574
 20
67.025816
 30
0.0
 11
105.617574
 21
66.775816
 31
0.0
  0
LINE
  5
5969
100
AcDbEntity
  8
OBJECT
100
AcDbLine
 10
108.217574
 20
67.025816
 30
0.0
 11
108.217574
 21
66.775816
 31
0.0
  0
LINE
  5
596A
100
AcDbEntity
  8
OBJECT
100
AcDbLine
 10
102.214727
 20
74.275816
 30
0.0
 11
104.589727
 21
74.275816
 31
0.0
  0
LINE
  5
596B
100
AcDbEntity
  8
OBJECT
 62
     4
100
AcDbLine
 10
102.214727
 20
74.875816
 30
0.0
 11
104.589727
 21
74.875816
 31
0.0
  0
LINE
  5
596C
100
AcDbEntity
  8
OBJECT
 62
     4
100
AcDbLine
 10
102.214727
 20
74.675816
 30
0.0
 11
104.589727
 21
74.675816
 31
0.0
  0
LINE
  5
596D
100
AcDbEntity
  8
OBJECT
 62
     4
100
AcDbLine
 10
102.214727
 20
75.075816
 30
0.0
 11
104.589727
 21
75.075816
 31
0.0
  0
LINE
  5
596E
100
AcDbEntity
  8
OBJECT
 62
     4
100
AcDbLine
 10
102.214727
 20
74.475816
 30
0.0
 11
104.589727
 21
74.475816
 31
0.0
  0
ARC
  5
596F
100
AcDbEntity
  8
OBJECT
 62
     2
100
AcDbCircle
 39
20.0
 10
109.117018
 20
101.150816
 30
0.0
 40
0.634607
100
AcDbArc
 50
143.777902
 51
161.629789
  0
LWPOLYLINE
  5
5970
100
AcDbEntity
  8
OBJECT
 62
     2
100
AcDbPolyline
 90
        2
 70
     0
 43
0.0
 39
20.0
 10
108.60506
 20
101.525816
 10
109.30506
 20
101.525816
  0
ARC
  5
5971
100
AcDbEntity
  8
OBJECT
 62
     2
100
AcDbCircle
 39
20.0
 10
109.117018
 20
101.900816
 30
0.0
 40
0.634607
100
AcDbArc
 50
143.777902
 51
216.222098
  0
LWPOLYLINE
  5
5972
100
AcDbEntity
  8
OBJECT
 62
     2
100
AcDbPolyline
 90
        2
 70
     0
 43
0.0
 39
20.0
 10
109.30506
 20
102.275816
 10
108.60506
 20
102.275816
  0
ARC
  5
5973
100
AcDbEntity
  8
OBJECT
 62
     2
100
AcDbCircle
 39
20.0
 10
109.603932
 20
102.775816
 30
0.0
 40
1.117025
100
AcDbArc
 50
153.409081
 51
206.590919
  0
LWPOLYLINE
  5
5974
100
AcDbEntity
  8
OBJECT
 62
     2
100
AcDbPolyline
 90
        2
 70
     0
 43
0.0
 39
20.0
 10
109.30506
 20
103.275816
 10
108.60506
 20
103.275816
  0
ARC
  5
5975
100
AcDbEntity
  8
OBJECT
 62
     2
100
AcDbCircle
 39
20.0
 10
109.117018
 20
103.650816
 30
0.0
 40
0.634607
100
AcDbArc
 50
143.777902
 51
216.222098
  0
ARC
  5
5976
100
AcDbEntity
  8
OBJECT
 62
     2
100
AcDbCircle
 39
20.0
 10
109.117018
 20
104.400816
 30
0.0
 40
0.634607
100
AcDbArc
 50
198.370211
 51
216.222098
  0
LWPOLYLINE
  5
5977
100
AcDbEntity
  8
OBJECT
 62
     2
100
AcDbPolyline
 90
        2
 70
     0
 43
0.0
 39
20.0
 10
109.30506
 20
104.025816
 10
108.60506
 20
104.025816
  0
ARC
  5
5978
100
AcDbEntity
  8
OBJECT
 62
     2
100
AcDbCircle
 39
20.0
 10
110.893102
 20
101.150816
 30
0.0
 40
0.634607
100
AcDbArc
 50
18.370211
 51
36.222098
  0
ARC
  5
5979
100
AcDbEntity
  8
OBJECT
 62
     2
100
AcDbCircle
 39
20.0
 10
110.893102
 20
101.900816
 30
0.0
 40
0.634607
100
AcDbArc
 50
323.777902
 51
36.222098
  0
ARC
  5
597A
100
AcDbEntity
  8
OBJECT
 62
     2
100
AcDbCircle
 39
20.0
 10
110.406187
 20
102.775816
 30
0.0
 40
1.117025
100
AcDbArc
 50
333.409081
 51
26.590919
  0
ARC
  5
597B
100
AcDbEntity
  8
OBJECT
 62
     2
100
AcDbCircle
 39
20.0
 10
110.893102
 20
104.400816
 30
0.0
 40
0.634607
100
AcDbArc
 50
323.777902
 51
341.629789
  0
ARC
  5
597C
100
AcDbEntity
  8
OBJECT
 62
     2
100
AcDbCircle
 39
20.0
 10
110.893102
 20
103.650816
 30
0.0
 40
0.634607
100
AcDbArc
 50
323.777902
 51
36.222098
  0
ARC
  5
597D
100
AcDbEntity
  8
OBJECT
 62
     2
100
AcDbCircle
 39
20.0
 10
111.421333
 20
102.775816
 30
0.0
 40
2.087053
100
AcDbArc
 50
162.574512
 51
197.425488
  0
ARC
  5
597E
100
AcDbEntity
  8
OBJECT
 62
     2
100
AcDbCircle
 39
20.0
 10
108.588787
 20
102.775816
 30
0.0
 40
2.087053
100
AcDbArc
 50
342.574512
 51
17.425488
  0
LWPOLYLINE
  5
597F
100
AcDbEntity
  8
OBJECT
 62
     2
100
AcDbPolyline
 90
        2
 70
     0
 43
0.0
 39
20.0
 10
110.58006
 20
101.300816
 10
109.43006
 20
101.300816
  0
LWPOLYLINE
  5
5980
100
AcDbEntity
  8
OBJECT
 62
     2
100
AcDbPolyline
 90
        2
 70
     0
 43
0.0
 39
20.0
 10
110.58006
 20
102.150816
 10
109.43006
 20
102.150816
  0
ARC
  5
5981
100
AcDbEntity
  8
OBJECT
 62
     2
100
AcDbCircle
 39
20.0
 10
109.481643
 20
100.879265
 30
0.0
 40
1.17653
100
AcDbArc
 50
0.319
 51
20.995811
  0
ARC
  5
5982
100
AcDbEntity
  8
OBJECT
 62
     2
100
AcDbCircle
 39
20.0
 10
110.528476
 20
100.879265
 30
0.0
 40
1.17653
100
AcDbArc
 50
159.004189
 51
179.681
  0
ARC
  5
5983
100
AcDbEntity
  8
OBJECT
 62
     2
100
AcDbCircle
 39
20.0
 10
110.408304
 20
101.725816
 30
0.0
 40
1.066577
100
AcDbArc
 50
156.517373
 51
203.482627
  0
ARC
  5
5984
100
AcDbEntity
  8
OBJECT
 62
     2
100
AcDbCircle
 39
20.0
 10
109.601816
 20
101.725816
 30
0.0
 40
1.066577
100
AcDbArc
 50
336.517373
 51
23.482627
  0
ARC
  5
5985
100
AcDbEntity
  8
OBJECT
 62
     2
100
AcDbCircle
 39
20.0
 10
110.408304
 20
103.825816
 30
0.0
 40
1.066577
100
AcDbArc
 50
156.517373
 51
203.482627
  0
ARC
  5
5986
100
AcDbEntity
  8
OBJECT
 62
     2
100
AcDbCircle
 39
20.0
 10
109.601816
 20
103.825816
 30
0.0
 40
1.066577
100
AcDbArc
 50
336.517373
 51
23.482627
  0
ARC
  5
5987
100
AcDbEntity
  8
OBJECT
 62
     2
100
AcDbCircle
 39
20.0
 10
110.528476
 20
104.672366
 30
0.0
 40
1.17653
100
AcDbArc
 50
180.319
 51
200.995811
  0
ARC
  5
5988
100
AcDbEntity
  8
OBJECT
 62
     2
100
AcDbCircle
 39
20.0
 10
109.481643
 20
104.672366
 30
0.0
 40
1.17653
100
AcDbArc
 50
339.004189
 51
359.681
  0
LWPOLYLINE
  5
5989
100
AcDbEntity
  8
OBJECT
 62
     2
100
AcDbPolyline
 90
        2
 70
     0
 43
0.0
 39
20.0
 10
109.30506
 20
104.025816
 10
108.60506
 20
104.025816
  0
LWPOLYLINE
  5
598A
100
AcDbEntity
  8
OBJECT
 62
     2
100
AcDbPolyline
 90
        2
 70
     0
 43
0.0
 39
20.0
 10
109.30506
 20
103.275816
 10
108.60506
 20
103.275816
  0
LWPOLYLINE
  5
598B
100
AcDbEntity
  8
OBJECT
 62
     2
100
AcDbPolyline
 90
        2
 70
     0
 43
0.0
 39
20.0
 10
110.58006
 20
103.400816
 10
109.43006
 20
103.400816
  0
LWPOLYLINE
  5
598C
100
AcDbEntity
  8
OBJECT
 62
     2
100
AcDbPolyline
 90
        2
 70
     0
 43
0.0
 39
20.0
 10
110.58006
 20
104.250816
 10
109.43006
 20
104.250816
  0
LWPOLYLINE
  5
598D
100
AcDbEntity
  8
OBJECT
 62
     2
100
AcDbPolyline
 90
        2
 70
     0
 43
0.0
 39
20.0
 10
111.40506
 20
101.525816
 10
110.70506
 20
101.525816
  0
LWPOLYLINE
  5
598E
100
AcDbEntity
  8
OBJECT
 62
     2
100
AcDbPolyline
 90
        2
 70
     0
 43
0.0
 39
20.0
 10
110.70506
 20
102.275816
 10
111.40506
 20
102.275816
  0
LWPOLYLINE
  5
598F
100
AcDbEntity
  8
OBJECT
 62
     2
100
AcDbPolyline
 90
        2
 70
     0
 43
0.0
 39
20.0
 10
110.70506
 20
103.275816
 10
111.40506
 20
103.275816
  0
LWPOLYLINE
  5
5990
100
AcDbEntity
  8
OBJECT
 62
     2
100
AcDbPolyline
 90
        2
 70
     0
 43
0.0
 39
20.0
 10
110.70506
 20
104.025816
 10
111.40506
 20
104.025816
  0
LWPOLYLINE
  5
5991
100
AcDbEntity
  8
OBJECT
 62
     2
100
AcDbPolyline
 90
        4
 70
     0
 43
0.0
 39
20.0
 10
110.70506
 20
104.200816
 10
111.55506
 20
104.200816
 10
111.55506
 20
101.350816
 10
110.70506
 20
101.350816
  0
LWPOLYLINE
  5
5992
100
AcDbEntity
  8
OBJECT
 62
     2
100
AcDbPolyline
 90
        5
 70
     0
 43
0.0
 39
20.0
 10
109.30506
 20
104.665816
 10
109.30506
 20
100.885816
 10
110.70506
 20
100.885816
 10
110.70506
 20
104.665816
 10
109.30506
 20
104.665816
  0
LWPOLYLINE
  5
5993
100
AcDbEntity
  8
OBJECT
 62
     2
100
AcDbPolyline
 90
        4
 70
     0
 43
0.0
 39
20.0
 10
109.30506
 20
104.200816
 10
108.45506
 20
104.200816
 10
108.45506
 20
101.350816
 10
109.30506
 20
101.350816
  0
LINE
  5
5994
100
AcDbEntity
  8
15
 62
     2
100
AcDbLine
 39
20.0
 10
99.791627
 20
94.066058
 30
0.0
 11
100.321957
 21
93.535728
 31
0.0
  0
LINE
  5
5995
100
AcDbEntity
  8
15
 62
     2
100
AcDbLine
 39
20.0
 10
101.293365
 20
94.507136
 30
0.0
 11
99.267504
 21
92.481275
 31
0.0
  0
LINE
  5
5996
100
AcDbEntity
  8
15
 62
     2
100
AcDbLine
 39
20.0
 10
100.506708
 20
94.78114
 30
0.0
 11
98.9935
 21
93.267931
 31
0.0
  0
LINE
  5
5997
100
AcDbEntity
  8
15
 62
     2
100
AcDbLine
 39
20.0
 10
101.694018
 20
94.426956
 30
0.0
 11
99.136631
 21
91.869569
 31
0.0
  0
LINE
  5
5998
100
AcDbEntity
  8
15
 62
     2
100
AcDbLine
 39
20.0
 10
101.622227
 20
94.638009
 30
0.0
 11
102.618009
 21
91.710581
 31
0.0
  0
LINE
  5
5999
100
AcDbEntity
  8
15
 62
     2
100
AcDbLine
 39
20.0
 10
101.622227
 20
94.638009
 30
0.0
 11
99.136631
 21
92.152412
 31
0.0
  0
LINE
  5
599A
100
AcDbEntity
  8
15
 62
     2
100
AcDbLine
 39
20.0
 10
102.452227
 20
93.743994
 30
0.0
 11
102.452227
 21
94.651816
 31
0.0
  0
LINE
  5
599B
100
AcDbEntity
  8
15
 62
     2
100
AcDbLine
 39
20.0
 10
104.352227
 20
93.743994
 30
0.0
 11
104.352227
 21
94.651816
 31
0.0
  0
LINE
  5
599C
100
AcDbEntity
  8
15
 62
     2
100
AcDbLine
 39
20.0
 10
105.182227
 20
93.591816
 30
0.0
 11
105.182227
 21
94.791816
 31
0.0
  0
LINE
  5
59A8
100
AcDbEntity
  8
15
 62
     2
100
AcDbLine
 39
20.0
 10
99.267504
 20
92.481275
 30
0.0
 11
99.366499
 21
92.38228
 31
0.0
  0
LINE
  5
59A9
100
AcDbEntity
  8
15
 62
     2
100
AcDbLine
 39
20.0
 10
98.9935
 20
93.267931
 30
0.0
 11
99.52383
 21
92.737601
 31
0.0
  0
LINE
  5
59AA
100
AcDbEntity
  8
15
 62
     2
100
AcDbLine
 39
20.0
 10
102.035023
 20
93.424459
 30
0.0
 11
99.808382
 21
91.197818
 31
0.0
  0
LINE
  5
59AB
100
AcDbEntity
  8
15
 62
     2
100
AcDbLine
 39
20.0
 10
102.106814
 20
93.213407
 30
0.0
 11
100.091225
 21
91.197818
 31
0.0
  0
ARC
  5
59AC
100
AcDbEntity
  8
15
 62
     2
100
AcDbCircle
 39
20.0
 10
103.402227
 20
90.415695
 30
0.0
 40
1.826856
100
AcDbArc
 50
213.19054
 51
213.33355
  0
ARC
  5
59AD
100
AcDbEntity
  8
15
 62
     2
100
AcDbCircle
 39
20.0
 10
103.402227
 20
85.776087
 30
0.0
 40
5.838413
100
AcDbArc
 50
74.858655
 51
84.808564
  0
LINE
  5
59AE
100
AcDbEntity
  8
15
 62
     2
100
AcDbLine
 39
20.0
 10
105.182227
 20
93.591816
 30
0.0
 11
101.978096
 21
93.591816
 31
0.0
  0
ARC
  5
59AF
100
AcDbEntity
  8
15
 62
     2
100
AcDbCircle
 39
20.0
 10
101.502227
 20
96.838723
 30
0.0
 40
3.237259
100
AcDbArc
 50
278.193211
 51
287.065104
  0
LINE
  5
59B0
100
AcDbEntity
  8
15
 62
     2
100
AcDbLine
 39
20.0
 10
101.877227
 20
89.411816
 30
0.0
 11
100.091225
 21
91.197818
 31
0.0
  0
LINE
  5
59B1
100
AcDbEntity
  8
15
 62
     2
100
AcDbLine
 39
20.0
 10
99.808382
 20
91.197818
 30
0.0
 11
99.136631
 21
91.869569
 31
0.0
  0
LINE
  5
59B2
100
AcDbEntity
  8
15
 62
     2
100
AcDbLine
 39
20.0
 10
99.136631
 20
92.152412
 30
0.0
 11
99.136631
 21
91.869569
 31
0.0
  0
LINE
  5
59B3
100
AcDbEntity
  8
15
 62
     2
100
AcDbLine
 39
20.0
 10
99.808382
 20
91.197818
 30
0.0
 11
100.091225
 21
91.197818
 31
0.0
  0
ARC
  5
59B4
100
AcDbEntity
  8
15
 62
     2
100
AcDbCircle
 39
20.0
 10
105.311134
 20
96.826507
 30
0.0
 40
3.237259
100
AcDbArc
 50
252.934896
 51
267.717893
  0
ARC
  5
59B5
100
AcDbEntity
  8
15
 62
     2
100
AcDbCircle
 39
20.0
 10
103.402227
 20
96.838723
 30
0.0
 40
3.237259
100
AcDbArc
 50
252.934896
 51
287.065104
  0
LINE
  5
59B6
100
AcDbEntity
  8
OBJECT
 62
     2
100
AcDbLine
 39
20.0
 10
104.927227
 20
91.411816
 30
0.0
 11
104.927227
 21
93.591816
 31
0.0
  0
LINE
  5
59B7
100
AcDbEntity
  8
OBJECT
 62
     2
100
AcDbLine
 39
20.0
 10
101.877227
 20
88.881816
 30
0.0
 11
101.877227
 21
89.411816
 31
0.0
  0
LINE
  5
59B8
100
AcDbEntity
  8
OBJECT
 62
     2
100
AcDbLine
 39
20.0
 10
104.927227
 20
88.881816
 30
0.0
 11
104.927227
 21
89.411816
 31
0.0
  0
ARC
  5
59B9
100
AcDbEntity
  8
15
 62
     2
100
AcDbCircle
 39
20.0
 10
103.402227
 20
90.415695
 30
0.0
 40
1.826856
100
AcDbArc
 50
326.66645
 51
337.585124
  0
ARC
  5
59BA
100
AcDbEntity
  8
15
 62
     2
100
AcDbCircle
 39
20.0
 10
103.402227
 20
95.047544
 30
0.0
 40
5.838413
100
AcDbArc
 50
254.858655
 51
285.141345
  0
LINE
  5
59BB
100
AcDbEntity
  8
OBJECT
 62
     2
100
AcDbLine
 39
20.0
 10
104.352227
 20
88.241816
 30
0.0
 11
104.352227
 21
88.741816
 31
0.0
  0
LINE
  5
59BC
100
AcDbEntity
  8
OBJECT
 62
     2
100
AcDbLine
 39
20.0
 10
102.452227
 20
88.241816
 30
0.0
 11
102.452227
 21
88.741816
 31
0.0
  0
ARC
  5
59BD
100
AcDbEntity
  8
15
 62
     2
100
AcDbCircle
 39
20.0
 10
101.502227
 20
91.336544
 30
0.0
 40
3.237259
100
AcDbArc
 50
272.124349
 51
287.065104
  0
ARC
  5
59BE
100
AcDbEntity
  8
15
 62
     2
100
AcDbCircle
 39
20.0
 10
101.502227
 20
85.647087
 30
0.0
 40
3.237259
100
AcDbArc
 50
72.934896
 51
87.73451
  0
ARC
  5
59BF
100
AcDbEntity
  8
15
 62
     2
100
AcDbCircle
 39
20.0
 10
105.311134
 20
91.324329
 30
0.0
 40
3.237259
100
AcDbArc
 50
252.934896
 51
267.717893
  0
ARC
  5
59C0
100
AcDbEntity
  8
15
 62
     2
100
AcDbCircle
 39
20.0
 10
105.311134
 20
85.634871
 30
0.0
 40
3.237259
100
AcDbArc
 50
92.282107
 51
107.065104
  0
LINE
  5
59C1
100
AcDbEntity
  8
OBJECT
 62
     2
100
AcDbLine
 39
20.0
 10
101.622227
 20
88.041816
 30
0.0
 11
101.622227
 21
88.881816
 31
0.0
  0
LINE
  5
59C2
100
AcDbEntity
  8
OBJECT
 62
     2
100
AcDbLine
 39
20.0
 10
105.182227
 20
88.041816
 30
0.0
 11
105.182227
 21
88.881816
 31
0.0
  0
ARC
  5
59C3
100
AcDbEntity
  8
15
 62
     2
100
AcDbCircle
 39
20.0
 10
103.402227
 20
91.336544
 30
0.0
 40
3.237259
100
AcDbArc
 50
252.934896
 51
287.065104
  0
ARC
  5
59C4
100
AcDbEntity
  8
15
 62
     2
100
AcDbCircle
 39
20.0
 10
103.402227
 20
85.647087
 30
0.0
 40
3.237259
100
AcDbArc
 50
72.934896
 51
107.065104
  0
LINE
  5
59C5
100
AcDbEntity
  8
15
 62
     2
100
AcDbLine
 39
20.0
 10
105.182227
 20
88.881816
 30
0.0
 11
101.622227
 21
88.881816
 31
0.0
  0
LINE
  5
59C6
100
AcDbEntity
  8
15
 62
     2
100
AcDbLine
 39
20.0
 10
101.293365
 20
94.507136
 30
0.0
 11
101.39236
 21
94.408141
 31
0.0
  0
LINE
  5
59C7
100
AcDbEntity
  8
15
 62
     2
100
AcDbLine
 39
20.0
 10
100.506708
 20
94.78114
 30
0.0
 11
101.037039
 21
94.25081
 31
0.0
  0
LINE
  5
59C8
100
AcDbEntity
  8
15
 62
     2
100
AcDbLine
 39
20.0
 10
101.622227
 20
94.638009
 30
0.0
 11
101.622227
 21
94.791816
 31
0.0
  0
ARC
  5
59C9
100
AcDbEntity
  8
15
 62
     2
100
AcDbCircle
 39
20.0
 10
101.502227
 20
91.557087
 30
0.0
 40
3.237259
100
AcDbArc
 50
72.934896
 51
87.73451
  0
ARC
  5
59CA
100
AcDbEntity
  8
15
 62
     2
100
AcDbCircle
 39
20.0
 10
105.311134
 20
91.544871
 30
0.0
 40
3.237259
100
AcDbArc
 50
92.282107
 51
107.065104
  0
ARC
  5
59CB
100
AcDbEntity
  8
15
 62
     2
100
AcDbCircle
 39
20.0
 10
103.402227
 20
91.557087
 30
0.0
 40
3.237259
100
AcDbArc
 50
72.934896
 51
107.065104
  0
LINE
  5
59CC
100
AcDbEntity
  8
15
 62
     2
100
AcDbLine
 39
20.0
 10
105.182227
 20
94.791816
 30
0.0
 11
101.622227
 21
94.791816
 31
0.0
  0
LINE
  5
59CE
100
AcDbEntity
  8
CENTER
 62
     3
100
AcDbLine
 10
111.838456
 20
102.775816
 30
0.0
 11
127.276694
 21
102.775816
 31
0.0
  0
LINE
  5
59CF
100
AcDbEntity
  8
OBJECT
100
AcDbLine
 10
104.589727
 20
108.934547
 30
0.0
 11
104.589727
 21
105.416816
 31
0.0
  0
LINE
  5
59D0
100
AcDbEntity
  8
OBJECT
100
AcDbLine
 10
102.214727
 20
108.934547
 30
0.0
 11
102.214727
 21
105.416816
 31
0.0
  0
LINE
  5
59D1
100
AcDbEntity
  8
OBJECT
100
AcDbLine
 10
102.214727
 20
100.791816
 30
0.0
 11
102.214727
 21
94.791816
 31
0.0
  0
LINE
  5
59D2
100
AcDbEntity
  8
OBJECT
100
AcDbLine
 10
104.589727
 20
100.791816
 30
0.0
 11
104.589727
 21
94.791816
 31
0.0
  0
LINE
  5
59D8
100
AcDbEntity
  8
OBJECT
 62
     4
100
AcDbLine
 10
102.214727
 20
87.841816
 30
0.0
 11
104.589727
 21
87.841816
 31
0.0
  0
LINE
  5
59D9
100
AcDbEntity
  8
OBJECT
 62
     4
100
AcDbLine
 10
102.214727
 20
87.641816
 30
0.0
 11
104.589727
 21
87.641816
 31
0.0
  0
LINE
  5
59DA
100
AcDbEntity
  8
OBJECT
 62
     4
100
AcDbLine
 10
102.214727
 20
87.441816
 30
0.0
 11
104.589727
 21
87.441816
 31
0.0
  0
LINE
  5
59DB
100
AcDbEntity
  8
OBJECT
 62
     4
100
AcDbLine
 10
102.214727
 20
87.241816
 30
0.0
 11
104.589727
 21
87.241816
 31
0.0
  0
LINE
  5
59DC
100
AcDbEntity
  8
OBJECT
100
AcDbLine
 10
101.622227
 20
88.041816
 30
0.0
 11
105.182227
 21
88.041816
 31
0.0
  0
ARC
  5
59DE
100
AcDbEntity
  8
OBJECT
100
AcDbCircle
 10
107.934235
 20
103.296262
 30
0.0
 40
2.335163
100
AcDbArc
 50
139.160754
 51
165.498505
  0
ARC
  5
59DF
100
AcDbEntity
  8
OBJECT
100
AcDbCircle
 10
109.021151
 20
102.775816
 30
0.0
 40
3.363343
100
AcDbArc
 50
154.102166
 51
174.468806
  0
LINE
  5
59E0
100
AcDbEntity
  8
OBJECT
100
AcDbLine
 10
105.673468
 20
104.823316
 30
0.0
 11
106.167574
 21
104.823316
 31
0.0
  0
LINE
  5
59E1
100
AcDbEntity
  8
OBJECT
100
AcDbLine
 10
105.673468
 20
105.135316
 30
0.0
 11
106.167574
 21
105.135316
 31
0.0
  0
ARC
  5
59E2
100
AcDbEntity
  8
OBJECT
100
AcDbCircle
 10
107.934235
 20
102.25537
 30
0.0
 40
2.335163
100
AcDbArc
 50
194.501495
 51
220.839246
  0
ARC
  5
59E3
100
AcDbEntity
  8
OBJECT
100
AcDbCircle
 10
109.021151
 20
102.775816
 30
0.0
 40
3.363343
100
AcDbArc
 50
185.531194
 51
205.897834
  0
LINE
  5
59E4
100
AcDbEntity
  8
OBJECT
100
AcDbLine
 10
105.673468
 20
100.728316
 30
0.0
 11
106.167574
 21
100.728316
 31
0.0
  0
LINE
  5
59E5
100
AcDbEntity
  8
OBJECT
100
AcDbLine
 10
105.673468
 20
100.416316
 30
0.0
 11
106.167574
 21
100.416316
 31
0.0
  0
LINE
  5
59E6
100
AcDbEntity
  8
OBJECT
100
AcDbLine
 10
105.673468
 20
100.416316
 30
0.0
 11
105.673468
 21
105.135316
 31
0.0
  0
LINE
  5
59E7
100
AcDbEntity
  8
OBJECT
100
AcDbLine
 10
104.845468
 20
101.205316
 30
0.0
 11
104.845468
 21
104.346316
 31
0.0
  0
ARC
  5
59E8
100
AcDbEntity
  8
OBJECT
100
AcDbCircle
 10
105.520337
 20
102.775816
 30
0.0
 40
1.346869
100
AcDbArc
 50
122.731857
 51
237.268143
  0
LINE
  5
59E9
100
AcDbEntity
  8
OBJECT
100
AcDbLine
 10
102.011074
 20
101.260816
 30
0.0
 11
102.011074
 21
104.947816
 31
0.0
  0
LINE
  5
59EA
100
AcDbEntity
  8
OBJECT
100
AcDbLine
 10
101.948574
 20
100.791816
 30
0.0
 11
101.948574
 21
101.260816
 31
0.0
  0
LINE
  5
59EB
100
AcDbEntity
  8
OBJECT
 62
     2
100
AcDbLine
 10
104.792074
 20
101.260816
 30
0.0
 11
104.792074
 21
101.642816
 31
0.0
  0
LINE
  5
59EC
100
AcDbEntity
  8
OBJECT
 62
     2
100
AcDbLine
 10
104.854574
 20
100.791816
 30
0.0
 11
104.854574
 21
101.260816
 31
0.0
  0
LINE
  5
59ED
100
AcDbEntity
  8
OBJECT
100
AcDbLine
 10
105.673468
 20
100.416316
 30
0.0
 11
104.854574
 21
101.205316
 31
0.0
  0
LINE
  5
59EE
100
AcDbEntity
  8
OBJECT
100
AcDbLine
 10
101.948574
 20
104.947816
 30
0.0
 11
101.948574
 21
105.416816
 31
0.0
  0
LINE
  5
59EF
100
AcDbEntity
  8
OBJECT
 62
     2
100
AcDbLine
 10
105.838574
 20
105.182816
 30
0.0
 11
105.838574
 21
105.604816
 31
0.0
  0
LINE
  5
59F0
100
AcDbEntity
  8
OBJECT
 62
     2
100
AcDbLine
 10
104.792074
 20
103.908816
 30
0.0
 11
104.792074
 21
104.947816
 31
0.0
  0
LINE
  5
59F1
100
AcDbEntity
  8
OBJECT
100
AcDbLine
 10
105.673468
 20
105.135316
 30
0.0
 11
104.845468
 21
104.346316
 31
0.0
  0
LINE
  5
59F2
100
AcDbEntity
  8
OBJECT
 62
     2
100
AcDbLine
 10
105.010574
 20
104.503645
 30
0.0
 11
105.010574
 21
105.604816
 31
0.0
  0
LINE
  5
59F3
100
AcDbEntity
  8
OBJECT
 62
     2
100
AcDbLine
 10
105.432574
 20
104.905768
 30
0.0
 11
105.432574
 21
105.082816
 31
0.0
  0
LINE
  5
59F4
100
AcDbEntity
  8
OBJECT
100
AcDbLine
 10
105.432574
 20
105.054175
 30
0.0
 11
105.010574
 21
105.054175
 31
0.0
  0
LINE
  5
59F5
100
AcDbEntity
  8
OBJECT
 62
     2
100
AcDbLine
 10
104.854574
 20
104.947816
 30
0.0
 11
104.854574
 21
105.416816
 31
0.0
  0
LINE
  5
59F6
100
AcDbEntity
  8
OBJECT
100
AcDbLine
 10
105.432574
 20
105.082816
 30
0.0
 11
105.838574
 21
105.182816
 31
0.0
  0
LINE
  5
59F7
100
AcDbEntity
  8
OBJECT
 62
     4
100
AcDbLine
 10
107.691645
 20
103.963316
 30
0.0
 11
107.691645
 21
101.588316
 31
0.0
  0
LINE
  5
59F8
100
AcDbEntity
  8
OBJECT
 62
     4
100
AcDbLine
 10
107.891645
 20
103.963316
 30
0.0
 11
107.891645
 21
101.588316
 31
0.0
  0
LINE
  5
59F9
100
AcDbEntity
  8
OBJECT
 62
     4
100
AcDbLine
 10
108.291645
 20
103.963316
 30
0.0
 11
108.291645
 21
101.588316
 31
0.0
  0
LINE
  5
59FA
100
AcDbEntity
  8
OBJECT
 62
     4
100
AcDbLine
 10
108.091645
 20
103.963316
 30
0.0
 11
108.091645
 21
101.588316
 31
0.0
  0
LINE
  5
59FB
100
AcDbEntity
  8
OBJECT
100
AcDbLine
 10
106.167574
 20
105.135316
 30
0.0
 11
106.167574
 21
100.416316
 31
0.0
  0
LINE
  5
59FC
100
AcDbEntity
  8
OBJECT
100
AcDbLine
 10
108.45506
 20
101.588316
 30
0.0
 11
107.667574
 21
101.588316
 31
0.0
  0
LINE
  5
59FD
100
AcDbEntity
  8
OBJECT
100
AcDbLine
 10
108.45506
 20
103.963316
 30
0.0
 11
107.667574
 21
103.963316
 31
0.0
  0
LINE
  5
59FE
100
AcDbEntity
  8
OBJECT
 62
     4
100
AcDbLine
 10
111.963549
 20
103.963316
 30
0.0
 11
111.963549
 21
101.588316
 31
0.0
  0
LINE
  5
59FF
100
AcDbEntity
  8
OBJECT
 62
     4
100
AcDbLine
 10
111.763549
 20
103.963316
 30
0.0
 11
111.763549
 21
101.588316
 31
0.0
  0
LINE
  5
5A00
100
AcDbEntity
  8
OBJECT
100
AcDbLine
 10
111.55506
 20
101.588316
 30
0.0
 11
113.388267
 21
101.588316
 31
0.0
  0
LINE
  5
5A01
100
AcDbEntity
  8
OBJECT
100
AcDbLine
 10
111.55506
 20
103.963316
 30
0.0
 11
113.388267
 21
103.963316
 31
0.0
  0
LINE
  5
5A02
100
AcDbEntity
  8
OBJECT
100
AcDbLine
 10
102.109163
 20
108.934547
 30
0.0
 11
108.17869
 21
108.934547
 31
0.0
  0
LINE
  5
5A03
100
AcDbEntity
  8
OBJECT
100
AcDbLine
 10
102.109163
 20
109.184547
 30
0.0
 11
108.17869
 21
109.184547
 31
0.0
  0
LINE
  5
5A04
100
AcDbEntity
  8
OBJECT
100
AcDbLine
 10
104.262984
 20
111.109896
 30
0.0
 11
104.262984
 21
109.184547
 31
0.0
  0
ARC
  5
5A05
100
AcDbEntity
  8
OBJECT
100
AcDbCircle
 10
203.957049
 20
112.926744
 30
0.0
 40
100.464204
100
AcDbArc
 50
179.498431
 51
181.33429
  0
LINE
  5
5A06
100
AcDbEntity
  8
OBJECT
100
AcDbLine
 10
102.541471
 20
111.109896
 30
0.0
 11
102.541471
 21
109.184547
 31
0.0
  0
ARC
  5
5A07
100
AcDbEntity
  8
OBJECT
100
AcDbCircle
 10
203.957049
 20
112.926744
 30
0.0
 40
100.714204
100
AcDbArc
 50
179.498431
 51
181.33429
  0
ARC
  5
5A08
100
AcDbEntity
  8
OBJECT
100
AcDbCircle
 10
103.402227
 20
110.296954
 30
0.0
 40
0.418788
100
AcDbArc
 50
108.750643
 51
74.017895
  0
LINE
  5
5A09
100
AcDbEntity
  8
OBJECT
100
AcDbLine
 10
102.109163
 20
109.184547
 30
0.0
 11
102.109163
 21
108.934547
 31
0.0
  0
ARC
  5
5A0A
100
AcDbEntity
  8
OBJECT
100
AcDbCircle
 10
102.136269
 20
111.91387
 30
0.0
 40
2.166913
100
AcDbArc
 50
316.211488
 51
319.025926
  0
ARC
  5
5A0B
100
AcDbEntity
  8
OBJECT
100
AcDbCircle
 10
102.136269
 20
111.91387
 30
0.0
 40
1.916913
100
AcDbArc
 50
316.211488
 51
319.510111
  0
ARC
  5
5A0C
100
AcDbEntity
  8
OBJECT
100
AcDbCircle
 10
103.520086
 20
110.587369
 30
0.0
 40
0.25
100
AcDbArc
 50
181.33429
 51
316.211488
  0
ARC
  5
5A0D
100
AcDbEntity
  8
OBJECT
100
AcDbCircle
 10
203.957049
 20
112.926744
 30
0.0
 40
100.214204
100
AcDbArc
 50
179.498431
 51
179.748344
  0
LINE
  5
5A0E
100
AcDbEntity
  8
OBJECT
100
AcDbLine
 10
102.541471
 20
111.109896
 30
0.0
 11
103.259234
 21
111.109896
 31
0.0
  0
LINE
  5
5A0F
100
AcDbEntity
  8
OBJECT
100
AcDbLine
 10
103.509275
 20
111.109896
 30
0.0
 11
104.262984
 21
111.109896
 31
0.0
  0
ARC
  5
5A10
100
AcDbEntity
  8
OBJECT
100
AcDbCircle
 10
102.136269
 20
111.91387
 30
0.0
 40
1.916913
100
AcDbArc
 50
335.202623
 51
44.928387
  0
ARC
  5
5A11
100
AcDbEntity
  8
OBJECT
100
AcDbCircle
 10
102.136269
 20
111.91387
 30
0.0
 40
2.166913
100
AcDbArc
 50
338.221309
 51
42.109997
  0
LINE
  5
5A12
100
AcDbEntity
  8
OBJECT
100
AcDbLine
 10
103.529167
 20
115.627988
 30
0.0
 11
103.779076
 21
115.621267
 31
0.0
  0
ARC
  5
5A13
100
AcDbEntity
  8
OBJECT
100
AcDbCircle
 10
203.957049
 20
112.926744
 30
0.0
 40
100.214204
100
AcDbArc
 50
179.233263
 51
179.355639
  0
ARC
  5
5A14
100
AcDbEntity
  8
OBJECT
100
AcDbCircle
 10
203.957049
 20
112.926744
 30
0.0
 40
100.464204
100
AcDbArc
 50
179.23633
 51
179.355853
  0
ARC
  5
5A15
100
AcDbEntity
  8
OBJECT
100
AcDbCircle
 10
103.648546
 20
114.389467
 30
0.0
 40
0.159603
100
AcDbArc
 50
307.944442
 51
51.052421
  0
ARC
  5
5A16
100
AcDbEntity
  8
OBJECT
100
AcDbCircle
 10
103.648546
 20
113.929874
 30
0.0
 40
0.159603
100
AcDbArc
 50
307.944442
 51
51.052421
  0
ARC
  5
5A17
100
AcDbEntity
  8
OBJECT
100
AcDbCircle
 10
203.957049
 20
112.926744
 30
0.0
 40
100.714204
100
AcDbArc
 50
179.236981
 51
179.356207
  0
ARC
  5
5A18
100
AcDbEntity
  8
OBJECT
100
AcDbCircle
 10
103.363614
 20
114.391961
 30
0.0
 40
0.170409
100
AcDbArc
 50
132.315395
 51
226.681467
  0
ARC
  5
5A19
100
AcDbEntity
  8
OBJECT
100
AcDbCircle
 10
103.363614
 20
113.932369
 30
0.0
 40
0.170409
100
AcDbArc
 50
132.315395
 51
226.681467
  0
LINE
  5
5A1A
100
AcDbEntity
  8
OBJECT
100
AcDbLine
 10
103.746685
 20
114.263603
 30
0.0
 11
103.246704
 21
114.26798
 31
0.0
  0
LINE
  5
5A1B
100
AcDbEntity
  8
OBJECT
100
AcDbLine
 10
103.748873
 20
114.513593
 30
0.0
 11
103.248893
 21
114.51797
 31
0.0
  0
LINE
  5
5A1C
100
AcDbEntity
  8
OBJECT
100
AcDbLine
 10
103.748873
 20
114.054001
 30
0.0
 11
103.248893
 21
114.058378
 31
0.0
  0
LINE
  5
5A1D
100
AcDbEntity
  8
OBJECT
100
AcDbLine
 10
103.746685
 20
113.80401
 30
0.0
 11
103.246704
 21
113.808387
 31
0.0
  0
ARC
  5
5A1E
100
AcDbEntity
  8
OBJECT
100
AcDbCircle
 10
203.957049
 20
112.926744
 30
0.0
 40
100.214204
100
AcDbArc
 50
178.459266
 51
179.095854
  0
LINE
  5
5A1F
100
AcDbEntity
  8
OBJECT
100
AcDbLine
 10
108.17869
 20
109.184547
 30
0.0
 11
108.17869
 21
108.934547
 31
0.0
  0
LINE
  5
5A21
100
AcDbEntity
  8
OBJECT
 62
     4
100
AcDbLine
 10
117.041279
 20
101.588316
 30
0.0
 11
117.041279
 21
103.963316
 31
0.0
  0
LINE
  5
5A22
100
AcDbEntity
  8
OBJECT
 62
     4
100
AcDbLine
 10
116.841279
 20
101.588316
 30
0.0
 11
116.841279
 21
103.963316
 31
0.0
  0
LINE
  5
5A23
100
AcDbEntity
  8
OBJECT
 62
     4
100
AcDbLine
 10
116.641279
 20
101.588316
 30
0.0
 11
116.641279
 21
103.963316
 31
0.0
  0
LINE
  5
5A24
100
AcDbEntity
  8
OBJECT
 62
     4
100
AcDbLine
 10
116.441279
 20
101.588316
 30
0.0
 11
116.441279
 21
103.963316
 31
0.0
  0
LINE
  5
5A25
100
AcDbEntity
  8
OBJECT
 62
     2
100
AcDbLine
 10
116.232267
 20
101.588316
 30
0.0
 11
123.32298
 21
101.588316
 31
0.0
  0
LINE
  5
5A26
100
AcDbEntity
  8
OBJECT
 62
     2
100
AcDbLine
 10
116.232267
 20
103.963316
 30
0.0
 11
123.32298
 21
103.963316
 31
0.0
  0
LINE
  5
5A27
100
AcDbEntity
  8
OBJECT
100
AcDbLine
 10
106.042574
 20
220.686407
 30
0.0
 11
106.042574
 21
213.186407
 31
0.0
  0
LINE
  5
5A28
100
AcDbEntity
  8
CENTER
 62
     5
100
AcDbLine
 10
106.917574
 20
220.686407
 30
0.0
 11
106.917574
 21
213.186407
 31
0.0
  0
LINE
  5
5A29
100
AcDbEntity
  8
OBJECT
100
AcDbLine
 10
102.438845
 20
216.076042
 30
0.0
 11
105.414728
 21
212.076042
 31
0.0
  0
LINE
  5
5A2A
100
AcDbEntity
  8
OBJECT
100
AcDbLine
 10
107.667574
 20
149.040816
 30
0.0
 11
123.185307
 21
149.040816
 31
0.0
  0
LINE
  5
5A2B
100
AcDbEntity
  8
OBJECT
100
AcDbLine
 10
107.667574
 20
148.790816
 30
0.0
 11
123.185307
 21
148.790816
 31
0.0
  0
ARC
  5
5A2C
100
AcDbEntity
  8
OBJECT
100
AcDbCircle
 10
203.957049
 20
111.066744
 30
0.0
 40
100.714204
100
AcDbArc
 50
158.002536
 51
162.953369
  0
ARC
  5
5A2D
100
AcDbEntity
  8
OBJECT
100
AcDbCircle
 10
203.957049
 20
111.066744
 30
0.0
 40
100.464204
100
AcDbArc
 50
157.944926
 51
163.424694
  0
ARC
  5
5A2E
100
AcDbEntity
  8
OBJECT
100
AcDbCircle
 10
203.957049
 20
111.066744
 30
0.0
 40
100.214204
100
AcDbArc
 50
155.721326
 51
155.994726
  0
ARC
  5
5A2F
100
AcDbEntity
  8
OBJECT
100
AcDbCircle
 10
112.076237
 20
151.868389
 30
0.0
 40
0.229906
100
AcDbArc
 50
123.496879
 51
189.368604
  0
LINE
  5
5A30
100
AcDbEntity
  8
OBJECT
100
AcDbLine
 10
112.407649
 20
151.860199
 30
0.0
 11
111.949353
 21
152.060112
 31
0.0
  0
LINE
  5
5A31
100
AcDbEntity
  8
OBJECT
100
AcDbLine
 10
115.00775
 20
149.040816
 30
0.0
 11
115.00775
 21
154.915816
 31
0.0
  0
LINE
  5
5A32
100
AcDbEntity
  8
OBJECT
100
AcDbLine
 10
114.63275
 20
149.040816
 30
0.0
 11
114.63275
 21
154.540816
 31
0.0
  0
ARC
  5
5A33
100
AcDbEntity
  8
OBJECT
100
AcDbCircle
 10
203.957049
 20
111.066744
 30
0.0
 40
100.464204
100
AcDbArc
 50
156.432741
 51
157.791008
  0
ARC
  5
5A34
100
AcDbEntity
  8
OBJECT
100
AcDbCircle
 10
203.957049
 20
111.066744
 30
0.0
 40
100.714204
100
AcDbArc
 50
156.432741
 51
157.849062
  0
ARC
  5
5A35
100
AcDbEntity
  8
OBJECT
100
AcDbCircle
 10
112.184786
 20
151.821039
 30
0.0
 40
0.226277
100
AcDbArc
 50
302.8996
 51
9.965883
  0
ARC
  5
5A36
100
AcDbEntity
  8
OBJECT
100
AcDbCircle
 10
203.957049
 20
111.066744
 30
0.0
 40
100.714204
100
AcDbArc
 50
156.127152
 51
156.290517
  0
ARC
  5
5A37
100
AcDbEntity
  8
OBJECT
100
AcDbCircle
 10
203.957049
 20
111.066744
 30
0.0
 40
100.464204
100
AcDbArc
 50
156.126392
 51
156.290164
  0
ARC
  5
5A38
100
AcDbEntity
  8
OBJECT
100
AcDbCircle
 10
111.87012
 20
151.372257
 30
0.0
 40
0.229906
100
AcDbArc
 50
123.496879
 51
189.368604
  0
LINE
  5
5A39
100
AcDbEntity
  8
OBJECT
100
AcDbLine
 10
112.201532
 20
151.364067
 30
0.0
 11
111.743237
 21
151.56398
 31
0.0
  0
ARC
  5
5A3A
100
AcDbEntity
  8
OBJECT
100
AcDbCircle
 10
203.957049
 20
111.066744
 30
0.0
 40
100.214204
100
AcDbArc
 50
156.115103
 51
156.290077
  0
LINE
  5
5A3B
100
AcDbEntity
  8
OBJECT
100
AcDbLine
 10
112.307693
 20
151.631051
 30
0.0
 11
111.849397
 21
151.830964
 31
0.0
  0
ARC
  5
5A3C
100
AcDbEntity
  8
OBJECT
100
AcDbCircle
 10
203.957049
 20
111.066744
 30
0.0
 40
100.214204
100
AcDbArc
 50
156.432741
 51
156.700553
  0
LINE
  5
5A3D
100
AcDbEntity
  8
OBJECT
100
AcDbLine
 10
111.915293
 20
150.705132
 30
0.0
 11
111.685681
 21
150.804017
 31
0.0
  0
ARC
  5
5A3E
100
AcDbEntity
  8
OBJECT
100
AcDbCircle
 10
111.978669
 20
151.324907
 30
0.0
 40
0.226277
100
AcDbArc
 50
302.8996
 51
9.965883
  0
LINE
  5
5A3F
100
AcDbEntity
  8
OBJECT
100
AcDbLine
 10
112.101576
 20
151.134919
 30
0.0
 11
111.64328
 21
151.334832
 31
0.0
  0
LINE
  5
5A40
100
AcDbEntity
  8
OBJECT
100
AcDbLine
 10
106.167574
 20
154.915816
 30
0.0
 11
107.667574
 21
154.915816
 31
0.0
  0
ARC
  5
5A41
100
AcDbEntity
  8
OBJECT
100
AcDbCircle
 10
112.166962
 20
154.093845
 30
0.0
 40
1.623715
100
AcDbArc
 50
279.356914
 51
30.412906
  0
ARC
  5
5A42
100
AcDbEntity
  8
OBJECT
100
AcDbCircle
 10
112.166962
 20
154.093845
 30
0.0
 40
1.873715
100
AcDbArc
 50
283.555984
 51
30.412906
  0
LINE
  5
5A43
100
AcDbEntity
  8
OBJECT
100
AcDbLine
 10
112.00775
 20
154.540816
 30
0.0
 11
112.00775
 21
154.915816
 31
0.0
  0
ARC
  5
5A44
100
AcDbEntity
  8
OBJECT
100
AcDbCircle
 10
203.957049
 20
111.066744
 30
0.0
 40
100.714204
100
AcDbArc
 50
154.427185
 51
155.984925
  0
ARC
  5
5A45
100
AcDbEntity
  8
OBJECT
100
AcDbCircle
 10
203.957049
 20
111.066744
 30
0.0
 40
100.464204
100
AcDbArc
 50
154.358937
 51
155.983811
  0
LINE
  5
5A46
100
AcDbEntity
  8
OBJECT
100
AcDbLine
 10
112.00775
 20
154.540816
 30
0.0
 11
113.727945
 21
154.540816
 31
0.0
  0
LINE
  5
5A47
100
AcDbEntity
  8
OBJECT
100
AcDbLine
 10
113.986585
 20
154.540816
 30
0.0
 11
114.63275
 21
154.540816
 31
0.0
  0
LINE
  5
5A48
100
AcDbEntity
  8
OBJECT
100
AcDbLine
 10
113.850759
 20
154.915816
 30
0.0
 11
115.00775
 21
154.915816
 31
0.0
  0
ARC
  5
5A49
100
AcDbEntity
  8
OBJECT
100
AcDbCircle
 10
203.957049
 20
111.066744
 30
0.0
 40
100.714204
100
AcDbArc
 50
154.121472
 51
154.190447
  0
ARC
  5
5A4A
100
AcDbEntity
  8
OBJECT
100
AcDbCircle
 10
113.567253
 20
154.915816
 30
0.0
 40
0.25
100
AcDbArc
 50
30.412906
 51
154.121472
  0
LINE
  5
5A4B
100
AcDbEntity
  8
OBJECT
100
AcDbLine
 10
112.00775
 20
154.915816
 30
0.0
 11
113.567253
 21
154.915816
 31
0.0
  0
ARC
  5
5A4C
100
AcDbEntity
  8
OBJECT
100
AcDbCircle
 10
106.643456
 20
212.936407
 30
0.0
 40
1.5
100
AcDbArc
 50
215.0
 51
270.0
  0
ARC
  5
5A4D
100
AcDbEntity
  8
OBJECT
100
AcDbCircle
 10
108.155069
 20
212.749074
 30
0.0
 40
0.4375
100
AcDbArc
 50
340.536503
 51
160.536503
  0
ARC
  5
5A4E
100
AcDbEntity
  8
OBJECT
100
AcDbCircle
 10
106.917574
 20
213.186407
 30
0.0
 40
1.75
100
AcDbArc
 50
270.0
 51
340.536503
  0
ARC
  5
5A4F
100
AcDbEntity
  8
OBJECT
100
AcDbCircle
 10
106.917574
 20
213.186407
 30
0.0
 40
0.875
100
AcDbArc
 50
180.0
 51
342.390977
  0
LINE
  5
5A50
100
AcDbEntity
  8
OBJECT
100
AcDbLine
 10
106.917574
 20
211.436407
 30
0.0
 11
106.643456
 21
211.436407
 31
0.0
  0
CIRCLE
  5
5A51
100
AcDbEntity
  8
OBJECT
100
AcDbCircle
 10
106.917574
 20
213.186407
 30
0.0
 40
0.75
  0
ARC
  5
5A52
100
AcDbEntity
  8
OBJECT
100
AcDbCircle
 10
123.185307
 20
149.290816
 30
0.0
 40
0.25
100
AcDbArc
 50
270.0
 51
0.0
  0
ARC
  5
5A53
100
AcDbEntity
  8
OBJECT
100
AcDbCircle
 10
123.185307
 20
149.290816
 30
0.0
 40
0.5
100
AcDbArc
 50
270.0
 51
0.0
  0
LINE
  5
5A54
100
AcDbEntity
  8
OBJECT
100
AcDbLine
 10
123.685307
 20
151.790816
 30
0.0
 11
123.435307
 21
151.790816
 31
0.0
  0
LINE
  5
5A55
100
AcDbEntity
  8
OBJECT
100
AcDbLine
 10
123.435307
 20
151.790816
 30
0.0
 11
123.435307
 21
149.290816
 31
0.0
  0
LINE
  5
5A56
100
AcDbEntity
  8
OBJECT
100
AcDbLine
 10
123.685307
 20
149.290816
 30
0.0
 11
123.685307
 21
151.790816
 31
0.0
  0
ARC
  5
5A57
100
AcDbEntity
  8
OBJECT
 62
     2
100
AcDbCircle
 39
20.0
 10
108.917018
 20
215.311407
 30
0.0
 40
0.634607
100
AcDbArc
 50
143.777902
 51
161.629789
  0
LWPOLYLINE
  5
5A58
100
AcDbEntity
  8
OBJECT
 62
     2
100
AcDbPolyline
 90
        2
 70
     0
 43
0.0
 39
20.0
 10
108.40506
 20
215.686407
 10
109.10506
 20
215.686407
  0
ARC
  5
5A59
100
AcDbEntity
  8
OBJECT
 62
     2
100
AcDbCircle
 39
20.0
 10
108.917018
 20
216.061407
 30
0.0
 40
0.634607
100
AcDbArc
 50
143.777902
 51
216.222098
  0
LWPOLYLINE
  5
5A5A
100
AcDbEntity
  8
OBJECT
 62
     2
100
AcDbPolyline
 90
        2
 70
     0
 43
0.0
 39
20.0
 10
109.10506
 20
216.436407
 10
108.40506
 20
216.436407
  0
ARC
  5
5A5B
100
AcDbEntity
  8
OBJECT
 62
     2
100
AcDbCircle
 39
20.0
 10
109.403932
 20
216.936407
 30
0.0
 40
1.117025
100
AcDbArc
 50
153.409081
 51
206.590919
  0
LWPOLYLINE
  5
5A5C
100
AcDbEntity
  8
OBJECT
 62
     2
100
AcDbPolyline
 90
        2
 70
     0
 43
0.0
 39
20.0
 10
109.10506
 20
217.436407
 10
108.40506
 20
217.436407
  0
ARC
  5
5A5D
100
AcDbEntity
  8
OBJECT
 62
     2
100
AcDbCircle
 39
20.0
 10
108.917018
 20
217.811407
 30
0.0
 40
0.634607
100
AcDbArc
 50
143.777902
 51
216.222098
  0
ARC
  5
5A5E
100
AcDbEntity
  8
OBJECT
 62
     2
100
AcDbCircle
 39
20.0
 10
108.917018
 20
218.561407
 30
0.0
 40
0.634607
100
AcDbArc
 50
198.370211
 51
216.222098
  0
LWPOLYLINE
  5
5A5F
100
AcDbEntity
  8
OBJECT
 62
     2
100
AcDbPolyline
 90
        2
 70
     0
 43
0.0
 39
20.0
 10
109.10506
 20
218.186407
 10
108.40506
 20
218.186407
  0
ARC
  5
5A60
100
AcDbEntity
  8
OBJECT
 62
     2
100
AcDbCircle
 39
20.0
 10
110.693102
 20
215.311407
 30
0.0
 40
0.634607
100
AcDbArc
 50
18.370211
 51
36.222098
  0
ARC
  5
5A61
100
AcDbEntity
  8
OBJECT
 62
     2
100
AcDbCircle
 39
20.0
 10
110.693102
 20
216.061407
 30
0.0
 40
0.634607
100
AcDbArc
 50
323.777902
 51
36.222098
  0
ARC
  5
5A62
100
AcDbEntity
  8
OBJECT
 62
     2
100
AcDbCircle
 39
20.0
 10
110.206187
 20
216.936407
 30
0.0
 40
1.117025
100
AcDbArc
 50
333.409081
 51
26.590919
  0
ARC
  5
5A63
100
AcDbEntity
  8
OBJECT
 62
     2
100
AcDbCircle
 39
20.0
 10
110.693102
 20
218.561407
 30
0.0
 40
0.634607
100
AcDbArc
 50
323.777902
 51
341.629789
  0
ARC
  5
5A64
100
AcDbEntity
  8
OBJECT
 62
     2
100
AcDbCircle
 39
20.0
 10
110.693102
 20
217.811407
 30
0.0
 40
0.634607
100
AcDbArc
 50
323.777902
 51
36.222098
  0
ARC
  5
5A65
100
AcDbEntity
  8
OBJECT
 62
     2
100
AcDbCircle
 39
20.0
 10
111.221333
 20
216.936407
 30
0.0
 40
2.087053
100
AcDbArc
 50
162.574512
 51
197.425488
  0
ARC
  5
5A66
100
AcDbEntity
  8
OBJECT
 62
     2
100
AcDbCircle
 39
20.0
 10
108.388787
 20
216.936407
 30
0.0
 40
2.087053
100
AcDbArc
 50
342.574512
 51
17.425488
  0
LWPOLYLINE
  5
5A67
100
AcDbEntity
  8
OBJECT
 62
     2
100
AcDbPolyline
 90
        2
 70
     0
 43
0.0
 39
20.0
 10
110.38006
 20
215.461407
 10
109.23006
 20
215.461407
  0
LWPOLYLINE
  5
5A68
100
AcDbEntity
  8
OBJECT
 62
     2
100
AcDbPolyline
 90
        2
 70
     0
 43
0.0
 39
20.0
 10
110.38006
 20
216.311407
 10
109.23006
 20
216.311407
  0
ARC
  5
5A69
100
AcDbEntity
  8
OBJECT
 62
     2
100
AcDbCircle
 39
20.0
 10
109.281643
 20
215.039857
 30
0.0
 40
1.17653
100
AcDbArc
 50
0.319
 51
20.995811
  0
ARC
  5
5A6A
100
AcDbEntity
  8
OBJECT
 62
     2
100
AcDbCircle
 39
20.0
 10
110.328476
 20
215.039857
 30
0.0
 40
1.17653
100
AcDbArc
 50
159.004189
 51
179.681
  0
ARC
  5
5A6B
100
AcDbEntity
  8
OBJECT
 62
     2
100
AcDbCircle
 39
20.0
 10
110.208304
 20
215.886407
 30
0.0
 40
1.066577
100
AcDbArc
 50
156.517373
 51
203.482627
  0
ARC
  5
5A6C
100
AcDbEntity
  8
OBJECT
 62
     2
100
AcDbCircle
 39
20.0
 10
109.401816
 20
215.886407
 30
0.0
 40
1.066577
100
AcDbArc
 50
336.517373
 51
23.482627
  0
ARC
  5
5A6D
100
AcDbEntity
  8
OBJECT
 62
     2
100
AcDbCircle
 39
20.0
 10
110.208304
 20
217.986407
 30
0.0
 40
1.066577
100
AcDbArc
 50
156.517373
 51
203.482627
  0
ARC
  5
5A6E
100
AcDbEntity
  8
OBJECT
 62
     2
100
AcDbCircle
 39
20.0
 10
109.401816
 20
217.986407
 30
0.0
 40
1.066577
100
AcDbArc
 50
336.517373
 51
23.482627
  0
ARC
  5
5A6F
100
AcDbEntity
  8
OBJECT
 62
     2
100
AcDbCircle
 39
20.0
 10
110.328476
 20
218.832957
 30
0.0
 40
1.17653
100
AcDbArc
 50
180.319
 51
200.995811
  0
ARC
  5
5A70
100
AcDbEntity
  8
OBJECT
 62
     2
100
AcDbCircle
 39
20.0
 10
109.281643
 20
218.832957
 30
0.0
 40
1.17653
100
AcDbArc
 50
339.004189
 51
359.681
  0
LWPOLYLINE
  5
5A71
100
AcDbEntity
  8
OBJECT
 62
     2
100
AcDbPolyline
 90
        2
 70
     0
 43
0.0
 39
20.0
 10
109.10506
 20
218.186407
 10
108.40506
 20
218.186407
  0
LWPOLYLINE
  5
5A72
100
AcDbEntity
  8
OBJECT
 62
     2
100
AcDbPolyline
 90
        2
 70
     0
 43
0.0
 39
20.0
 10
109.10506
 20
217.436407
 10
108.40506
 20
217.436407
  0
LWPOLYLINE
  5
5A73
100
AcDbEntity
  8
OBJECT
 62
     2
100
AcDbPolyline
 90
        2
 70
     0
 43
0.0
 39
20.0
 10
110.38006
 20
217.561407
 10
109.23006
 20
217.561407
  0
LWPOLYLINE
  5
5A74
100
AcDbEntity
  8
OBJECT
 62
     2
100
AcDbPolyline
 90
        2
 70
     0
 43
0.0
 39
20.0
 10
110.38006
 20
218.411407
 10
109.23006
 20
218.411407
  0
LWPOLYLINE
  5
5A75
100
AcDbEntity
  8
OBJECT
 62
     2
100
AcDbPolyline
 90
        2
 70
     0
 43
0.0
 39
20.0
 10
111.20506
 20
215.686407
 10
110.50506
 20
215.686407
  0
LWPOLYLINE
  5
5A76
100
AcDbEntity
  8
OBJECT
 62
     2
100
AcDbPolyline
 90
        2
 70
     0
 43
0.0
 39
20.0
 10
110.50506
 20
216.436407
 10
111.20506
 20
216.436407
  0
LWPOLYLINE
  5
5A77
100
AcDbEntity
  8
OBJECT
 62
     2
100
AcDbPolyline
 90
        2
 70
     0
 43
0.0
 39
20.0
 10
110.50506
 20
217.436407
 10
111.20506
 20
217.436407
  0
LWPOLYLINE
  5
5A78
100
AcDbEntity
  8
OBJECT
 62
     2
100
AcDbPolyline
 90
        2
 70
     0
 43
0.0
 39
20.0
 10
110.50506
 20
218.186407
 10
111.20506
 20
218.186407
  0
LWPOLYLINE
  5
5A79
100
AcDbEntity
  8
OBJECT
 62
     2
100
AcDbPolyline
 90
        4
 70
     0
 43
0.0
 39
20.0
 10
110.50506
 20
218.361407
 10
111.35506
 20
218.361407
 10
111.35506
 20
215.511407
 10
110.50506
 20
215.511407
  0
LWPOLYLINE
  5
5A7A
100
AcDbEntity
  8
OBJECT
 62
     2
100
AcDbPolyline
 90
        5
 70
     0
 43
0.0
 39
20.0
 10
109.10506
 20
218.826407
 10
109.10506
 20
215.046407
 10
110.50506
 20
215.046407
 10
110.50506
 20
218.826407
 10
109.10506
 20
218.826407
  0
LWPOLYLINE
  5
5A7B
100
AcDbEntity
  8
OBJECT
 62
     2
100
AcDbPolyline
 90
        4
 70
     0
 43
0.0
 39
20.0
 10
109.10506
 20
218.361407
 10
108.25506
 20
218.361407
 10
108.25506
 20
215.511407
 10
109.10506
 20
215.511407
  0
ARC
  5
5A7C
100
AcDbEntity
  8
OBJECT
100
AcDbCircle
 10
106.643456
 20
220.936407
 30
0.0
 40
1.5
100
AcDbArc
 50
90.0
 51
145.0
  0
LINE
  5
5A7D
100
AcDbEntity
  8
CENTER
 62
     5
100
AcDbLine
 10
109.286751
 20
215.686407
 30
0.0
 11
104.548396
 21
215.686407
 31
0.0
  0
LINE
  5
5A7E
100
AcDbEntity
  8
OBJECT
100
AcDbLine
 10
102.438845
 20
217.796772
 30
0.0
 11
105.414728
 21
221.796772
 31
0.0
  0
ARC
  5
5A7F
100
AcDbEntity
  8
OBJECT
100
AcDbCircle
 10
103.667574
 20
216.936407
 30
0.0
 40
1.5
100
AcDbArc
 50
145.0
 51
215.0
  0
LINE
  5
5A80
100
AcDbEntity
  8
OBJECT
100
AcDbLine
 10
104.741726
 20
216.811407
 30
0.0
 11
104.741726
 21
217.061407
 31
0.0
  0
LINE
  5
5A81
100
AcDbEntity
  8
OBJECT
100
AcDbLine
 10
103.241726
 20
217.061407
 30
0.0
 11
103.241726
 21
216.811407
 31
0.0
  0
LINE
  5
5A82
100
AcDbEntity
  8
OBJECT
100
AcDbLine
 10
103.241726
 20
217.061407
 30
0.0
 11
104.741726
 21
217.061407
 31
0.0
  0
LINE
  5
5A83
100
AcDbEntity
  8
OBJECT
100
AcDbLine
 10
103.241726
 20
216.811407
 30
0.0
 11
104.741726
 21
216.811407
 31
0.0
  0
LINE
  5
5A84
100
AcDbEntity
  8
OBJECT
 62
     2
100
AcDbLine
 10
113.343259
 20
215.490907
 30
0.0
 11
113.853113
 21
215.490907
 31
0.0
  0
ARC
  5
5A85
100
AcDbEntity
  8
OBJECT
 62
     2
100
AcDbCircle
 10
113.547173
 20
216.281272
 30
0.0
 40
0.1
100
AcDbArc
 50
31.523843
 51
135.0
  0
ARC
  5
5A86
100
AcDbEntity
  8
OBJECT
 62
     2
100
AcDbCircle
 10
113.623863
 20
215.945011
 30
0.0
 40
0.159049
100
AcDbArc
 50
177.640293
 51
272.359707
  0
ARC
  5
5A87
100
AcDbEntity
  8
OBJECT
 62
     2
100
AcDbCircle
 10
114.615259
 20
216.936407
 30
0.0
 40
1.333
100
AcDbArc
 50
211.301025
 51
219.964559
  0
LINE
  5
5A88
100
AcDbEntity
  8
OBJECT
 62
     2
100
AcDbLine
 10
113.863752
 20
216.350363
 30
0.0
 11
113.464949
 21
215.95156
 31
0.0
  0
ARC
  5
5A89
100
AcDbEntity
  8
OBJECT
 62
     2
100
AcDbCircle
 10
113.547173
 20
217.591542
 30
0.0
 40
0.1
100
AcDbArc
 50
225.0
 51
328.476157
  0
ARC
  5
5A8A
100
AcDbEntity
  8
OBJECT
 62
     2
100
AcDbCircle
 10
114.615259
 20
216.936407
 30
0.0
 40
1.333
100
AcDbArc
 50
140.035441
 51
148.698975
  0
LINE
  5
5A8B
100
AcDbEntity
  8
OBJECT
 62
     2
100
AcDbLine
 10
113.669468
 20
217.053407
 30
0.0
 11
113.105474
 21
217.053407
 31
0.0
  0
LINE
  5
5A8C
100
AcDbEntity
  8
OBJECT
 62
     2
100
AcDbLine
 10
113.669468
 20
216.819407
 30
0.0
 11
113.105474
 21
216.819407
 31
0.0
  0
LINE
  5
5A8D
100
AcDbEntity
  8
OBJECT
 62
     2
100
AcDbLine
 10
113.863752
 20
217.52245
 30
0.0
 11
113.464949
 21
217.921254
 31
0.0
  0
LINE
  5
5A8E
100
AcDbEntity
  8
OBJECT
 62
     2
100
AcDbLine
 10
113.343259
 20
218.381907
 30
0.0
 11
113.853113
 21
218.381907
 31
0.0
  0
ARC
  5
5A8F
100
AcDbEntity
  8
OBJECT
 62
     2
100
AcDbCircle
 10
113.623863
 20
217.927803
 30
0.0
 40
0.159049
100
AcDbArc
 50
87.640293
 51
182.359707
  0
CIRCLE
  5
5A90
100
AcDbEntity
  8
OBJECT
100
AcDbCircle
 10
106.917574
 20
220.686407
 30
0.0
 40
0.75
  0
LINE
  5
5A91
100
AcDbEntity
  8
OBJECT
 62
     4
100
AcDbLine
 10
107.331106
 20
215.748907
 30
0.0
 11
107.331106
 21
218.123907
 31
0.0
  0
LINE
  5
5A92
100
AcDbEntity
  8
OBJECT
 62
     4
100
AcDbLine
 10
107.131106
 20
215.748907
 30
0.0
 11
107.131106
 21
218.123907
 31
0.0
  0
LINE
  5
5A93
100
AcDbEntity
  8
OBJECT
 62
     4
100
AcDbLine
 10
107.491645
 20
218.123907
 30
0.0
 11
107.491645
 21
215.748907
 31
0.0
  0
LINE
  5
5A94
100
AcDbEntity
  8
OBJECT
 62
     4
100
AcDbLine
 10
107.691645
 20
218.123907
 30
0.0
 11
107.691645
 21
215.748907
 31
0.0
  0
LINE
  5
5A95
100
AcDbEntity
  8
OBJECT
 62
     4
100
AcDbLine
 10
108.091645
 20
218.123907
 30
0.0
 11
108.091645
 21
215.748907
 31
0.0
  0
LINE
  5
5A96
100
AcDbEntity
  8
OBJECT
 62
     4
100
AcDbLine
 10
107.891645
 20
218.123907
 30
0.0
 11
107.891645
 21
215.748907
 31
0.0
  0
LINE
  5
5A97
100
AcDbEntity
  8
OBJECT
100
AcDbLine
 10
106.931106
 20
215.396985
 30
0.0
 11
106.931106
 21
218.475829
 31
0.0
  0
LINE
  5
5A99
100
AcDbEntity
  8
OBJECT
100
AcDbLine
 10
108.25506
 20
215.748907
 30
0.0
 11
107.467574
 21
215.748907
 31
0.0
  0
LINE
  5
5A9B
100
AcDbEntity
  8
OBJECT
100
AcDbLine
 10
106.931106
 20
215.748907
 30
0.0
 11
108.25506
 21
215.748907
 31
0.0
  0
LINE
  5
5A9C
100
AcDbEntity
  8
OBJECT
100
AcDbLine
 10
106.042574
 20
216.436407
 30
0.0
 11
106.931106
 21
216.436407
 31
0.0
  0
LINE
  5
5A9D
100
AcDbEntity
  8
OBJECT
100
AcDbLine
 10
106.042574
 20
217.436407
 30
0.0
 11
106.931106
 21
217.436407
 31
0.0
  0
LINE
  5
5A9E
100
AcDbEntity
  8
OBJECT
100
AcDbLine
 10
106.042574
 20
215.396985
 30
0.0
 11
106.931106
 21
215.396985
 31
0.0
  0
LINE
  5
5A9F
100
AcDbEntity
  8
OBJECT
100
AcDbLine
 10
108.25506
 20
218.123907
 30
0.0
 11
107.467574
 21
218.123907
 31
0.0
  0
LINE
  5
5AA0
100
AcDbEntity
  8
OBJECT
100
AcDbLine
 10
106.931106
 20
218.123907
 30
0.0
 11
108.25506
 21
218.123907
 31
0.0
  0
LINE
  5
5AA1
100
AcDbEntity
  8
OBJECT
100
AcDbLine
 10
106.042574
 20
218.475829
 30
0.0
 11
106.931106
 21
218.475829
 31
0.0
  0
LINE
  5
5AA2
100
AcDbEntity
  8
OBJECT
 62
     4
100
AcDbLine
 10
111.88008
 20
218.123907
 30
0.0
 11
111.88008
 21
215.748907
 31
0.0
  0
LINE
  5
5AA3
100
AcDbEntity
  8
OBJECT
 62
     4
100
AcDbLine
 10
111.68008
 20
218.123907
 30
0.0
 11
111.68008
 21
215.748907
 31
0.0
  0
LINE
  5
5AA4
100
AcDbEntity
  8
OBJECT
 62
     4
100
AcDbLine
 10
111.48008
 20
218.123907
 30
0.0
 11
111.48008
 21
215.748907
 31
0.0
  0
LINE
  5
5AA5
100
AcDbEntity
  8
CENTER
 62
     3
100
AcDbLine
 10
100.530712
 20
216.936407
 30
0.0
 11
114.615259
 21
216.936407
 31
0.0
  0
LINE
  5
5AA6
100
AcDbEntity
  8
OBJECT
100
AcDbLine
 10
111.35506
 20
215.748907
 30
0.0
 11
113.193259
 21
215.748907
 31
0.0
  0
ARC
  5
5AA7
100
AcDbEntity
  8
OBJECT
 62
     2
100
AcDbCircle
 10
110.704834
 20
218.556158
 30
0.0
 40
2.832197
100
AcDbArc
 50
327.954292
 51
347.045708
  0
LINE
  5
5AA8
100
AcDbEntity
  8
OBJECT
 62
     2
100
AcDbLine
 10
113.193259
 20
217.203724
 30
0.0
 11
113.193259
 21
218.231907
 31
0.0
  0
LINE
  5
5AA9
100
AcDbEntity
  8
OBJECT
 62
     2
100
AcDbLine
 10
113.457429
 20
217.889407
 30
0.0
 11
113.193259
 21
217.889407
 31
0.0
  0
ARC
  5
5AAA
100
AcDbEntity
  8
OBJECT
 62
     2
100
AcDbCircle
 10
113.343259
 20
218.231907
 30
0.0
 40
0.15
100
AcDbArc
 50
90.0
 51
180.0
  0
LINE
  5
5AAB
100
AcDbEntity
  8
OBJECT
100
AcDbLine
 10
111.35506
 20
218.123907
 30
0.0
 11
113.193259
 21
218.123907
 31
0.0
  0
ARC
  5
5AAC
100
AcDbEntity
  8
OBJECT
 62
     2
100
AcDbCircle
 10
113.343259
 20
215.640907
 30
0.0
 40
0.15
100
AcDbArc
 50
180.0
 51
270.0
  0
LINE
  5
5AAD
100
AcDbEntity
  8
OBJECT
 62
     2
100
AcDbLine
 10
113.396758
 20
216.544407
 30
0.0
 11
113.417333
 21
216.544407
 31
0.0
  0
ARC
  5
5AAE
100
AcDbEntity
  8
OBJECT
 62
     2
100
AcDbCircle
 10
113.417333
 20
216.644407
 30
0.0
 40
0.1
100
AcDbArc
 50
193.698975
 51
270.0
  0
LINE
  5
5AAF
100
AcDbEntity
  8
OBJECT
 62
     2
100
AcDbLine
 10
113.457429
 20
215.983407
 30
0.0
 11
113.193259
 21
215.983407
 31
0.0
  0
LINE
  5
5AB0
100
AcDbEntity
  8
OBJECT
 62
     2
100
AcDbLine
 10
113.356589
 20
216.311407
 30
0.0
 11
113.193259
 21
216.311407
 31
0.0
  0
ARC
  5
5AB1
100
AcDbEntity
  8
OBJECT
 62
     2
100
AcDbCircle
 10
113.561722
 20
216.295821
 30
0.0
 40
0.1
100
AcDbArc
 50
135.0
 51
211.301025
  0
LINE
  5
5AB2
100
AcDbEntity
  8
OBJECT
 62
     2
100
AcDbLine
 10
113.476462
 20
216.351982
 30
0.0
 11
113.491012
 21
216.366532
 31
0.0
  0
LINE
  5
5AB3
100
AcDbEntity
  8
OBJECT
 62
     2
100
AcDbLine
 10
113.356589
 20
217.561407
 30
0.0
 11
113.193259
 21
217.561407
 31
0.0
  0
LINE
  5
5AB4
100
AcDbEntity
  8
OBJECT
 62
     2
100
AcDbLine
 10
113.476462
 20
217.520832
 30
0.0
 11
113.491012
 21
217.506282
 31
0.0
  0
ARC
  5
5AB5
100
AcDbEntity
  8
OBJECT
 62
     2
100
AcDbCircle
 10
113.561722
 20
217.576993
 30
0.0
 40
0.1
100
AcDbArc
 50
148.698975
 51
225.0
  0
ARC
  5
5AB6
100
AcDbEntity
  8
OBJECT
 62
     2
100
AcDbCircle
 10
113.417333
 20
217.228407
 30
0.0
 40
0.1
100
AcDbArc
 50
90.0
 51
166.301025
  0
LINE
  5
5AB7
100
AcDbEntity
  8
OBJECT
 62
     2
100
AcDbLine
 10
113.396758
 20
217.328407
 30
0.0
 11
113.417333
 21
217.328407
 31
0.0
  0
ARC
  5
5AB8
100
AcDbEntity
  8
OBJECT
 62
     2
100
AcDbCircle
 10
113.396758
 20
217.228407
 30
0.0
 40
0.1
100
AcDbArc
 50
346.523843
 51
90.0
  0
ARC
  5
5AB9
100
AcDbEntity
  8
OBJECT
 62
     2
100
AcDbCircle
 10
114.615259
 20
216.936407
 30
0.0
 40
1.333
100
AcDbArc
 50
166.301025
 51
174.964559
  0
ARC
  5
5ABA
100
AcDbEntity
  8
OBJECT
 62
     2
100
AcDbCircle
 10
114.615259
 20
216.936407
 30
0.0
 40
1.153
100
AcDbArc
 50
166.523843
 51
174.17592
  0
ARC
  5
5ABB
100
AcDbEntity
  8
OBJECT
 62
     2
100
AcDbCircle
 10
114.615259
 20
216.936407
 30
0.0
 40
1.153
100
AcDbArc
 50
185.82408
 51
193.476157
  0
ARC
  5
5ABC
100
AcDbEntity
  8
OBJECT
 62
     2
100
AcDbCircle
 10
113.213213
 20
216.936407
 30
0.0
 40
0.159049
100
AcDbArc
 50
132.640293
 51
227.359707
  0
ARC
  5
5ABD
100
AcDbEntity
  8
OBJECT
 62
     2
100
AcDbCircle
 10
110.704834
 20
215.316656
 30
0.0
 40
2.832197
100
AcDbArc
 50
12.954292
 51
32.045708
  0
ARC
  5
5ABE
100
AcDbEntity
  8
OBJECT
 62
     2
100
AcDbCircle
 10
113.396758
 20
216.644407
 30
0.0
 40
0.1
100
AcDbArc
 50
270.0
 51
13.476157
  0
ARC
  5
5ABF
100
AcDbEntity
  8
OBJECT
 62
     2
100
AcDbCircle
 10
114.615259
 20
216.936407
 30
0.0
 40
1.333
100
AcDbArc
 50
185.035441
 51
193.698975
  0
LINE
  5
5AC0
100
AcDbEntity
  8
OBJECT
 62
     2
100
AcDbLine
 10
113.193259
 20
215.640907
 30
0.0
 11
113.193259
 21
216.66909
 31
0.0
  0
ARC
  5
5AC1
100
AcDbEntity
  8
OBJECT
100
AcDbCircle
 10
108.155069
 20
221.12374
 30
0.0
 40
0.4375
100
AcDbArc
 50
199.463497
 51
19.463497
  0
ARC
  5
5AC2
100
AcDbEntity
  8
OBJECT
100
AcDbCircle
 10
106.917574
 20
220.686407
 30
0.0
 40
1.75
100
AcDbArc
 50
19.463497
 51
90.0
  0
LINE
  5
5AC3
100
AcDbEntity
  8
OBJECT
100
AcDbLine
 10
106.917574
 20
222.436407
 30
0.0
 11
106.643456
 21
222.436407
 31
0.0
  0
ARC
  5
5AC4
100
AcDbEntity
  8
OBJECT
100
AcDbCircle
 10
106.917574
 20
220.686407
 30
0.0
 40
0.875
100
AcDbArc
 50
17.609023
 51
180.0
  0
ARC
  5
5AC5
100
AcDbEntity
  8
OBJECT
 62
     2
100
AcDbCircle
 10
114.615259
 20
216.936407
 30
0.0
 40
1.333
100
AcDbArc
 50
31.301025
 51
39.964559
  0
LINE
  5
5AC6
100
AcDbEntity
  8
OBJECT
 62
     2
100
AcDbLine
 10
114.818259
 20
217.139407
 30
0.0
 11
114.818259
 21
217.867535
 31
0.0
  0
LINE
  5
5AC7
100
AcDbEntity
  8
OBJECT
 62
     2
100
AcDbLine
 10
114.412259
 20
217.139407
 30
0.0
 11
114.412259
 21
217.867535
 31
0.0
  0
ARC
  5
5AC8
100
AcDbEntity
  8
OBJECT
 62
     2
100
AcDbCircle
 10
118.525684
 20
218.556158
 30
0.0
 40
2.832197
100
AcDbArc
 50
192.954292
 51
212.045708
  0
LINE
  5
5AC9
100
AcDbEntity
  8
OBJECT
 62
     2
100
AcDbLine
 10
115.366765
 20
217.52245
 30
0.0
 11
115.765569
 21
217.921254
 31
0.0
  0
LINE
  5
5ACA
100
AcDbEntity
  8
OBJECT
 62
     2
100
AcDbLine
 10
114.029215
 20
217.687913
 30
0.0
 11
113.630412
 21
218.086717
 31
0.0
  0
LINE
  5
5ACB
100
AcDbEntity
  8
OBJECT
 62
     2
100
AcDbLine
 10
116.037259
 20
217.203724
 30
0.0
 11
116.037259
 21
218.231907
 31
0.0
  0
LINE
  5
5ACC
100
AcDbEntity
  8
OBJECT
 62
     2
100
AcDbLine
 10
115.201302
 20
217.687913
 30
0.0
 11
115.600106
 21
218.086717
 31
0.0
  0
CIRCLE
  5
5ACD
100
AcDbEntity
  8
OBJECT
 62
     2
100
AcDbCircle
 10
114.615259
 20
216.936407
 30
0.0
 40
0.953
  0
ARC
  5
5ACE
100
AcDbEntity
  8
OBJECT
 62
     2
100
AcDbCircle
 10
114.615259
 20
216.936407
 30
0.0
 40
1.153
100
AcDbArc
 50
121.523843
 51
129.17592
  0
LINE
  5
5ACF
100
AcDbEntity
  8
OBJECT
 62
     2
100
AcDbLine
 10
115.773089
 20
217.889407
 30
0.0
 11
116.037259
 21
217.889407
 31
0.0
  0
ARC
  5
5AD0
100
AcDbEntity
  8
OBJECT
 62
     2
100
AcDbCircle
 10
114.615259
 20
216.936407
 30
0.0
 40
1.153
100
AcDbArc
 50
50.82408
 51
58.476157
  0
ARC
  5
5AD1
100
AcDbEntity
  8
OBJECT
 62
     2
100
AcDbCircle
 10
112.995508
 20
220.846832
 30
0.0
 40
2.832197
100
AcDbArc
 50
282.954292
 51
302.045708
  0
ARC
  5
5AD2
100
AcDbEntity
  8
OBJECT
 62
     2
100
AcDbCircle
 10
114.323259
 20
218.154908
 30
0.0
 40
0.1
100
AcDbArc
 50
180.0
 51
283.476157
  0
ARC
  5
5AD3
100
AcDbEntity
  8
OBJECT
 62
     2
100
AcDbCircle
 10
114.323259
 20
218.134332
 30
0.0
 40
0.1
100
AcDbArc
 50
103.698975
 51
180.0
  0
LINE
  5
5AD4
100
AcDbEntity
  8
OBJECT
 62
     2
100
AcDbLine
 10
113.853113
 20
218.147601
 30
0.0
 11
113.853113
 21
218.381907
 31
0.0
  0
ARC
  5
5AD5
100
AcDbEntity
  8
OBJECT
 62
     2
100
AcDbCircle
 10
111.173613
 20
218.514407
 30
0.0
 40
2.596005
100
AcDbArc
 50
351.123665
 51
357.074354
  0
ARC
  5
5AD6
100
AcDbEntity
  8
OBJECT
 62
     2
100
AcDbCircle
 10
113.974673
 20
217.989943
 30
0.0
 40
0.1
100
AcDbArc
 50
45.0
 51
121.301025
  0
LINE
  5
5AD7
100
AcDbEntity
  8
OBJECT
 62
     2
100
AcDbLine
 10
114.030834
 20
218.075203
 30
0.0
 11
114.045383
 21
218.060654
 31
0.0
  0
ARC
  5
5AD8
100
AcDbEntity
  8
OBJECT
 62
     2
100
AcDbCircle
 10
114.615259
 20
216.936407
 30
0.0
 40
1.333
100
AcDbArc
 50
95.035441
 51
103.698975
  0
ARC
  5
5AD9
100
AcDbEntity
  8
OBJECT
 62
     2
100
AcDbCircle
 10
114.615259
 20
216.936407
 30
0.0
 40
1.153
100
AcDbArc
 50
95.82408
 51
103.476157
  0
LINE
  5
5ADA
100
AcDbEntity
  8
OBJECT
 62
     2
100
AcDbLine
 10
114.223259
 20
218.154908
 30
0.0
 11
114.223259
 21
218.134332
 31
0.0
  0
ARC
  5
5ADB
100
AcDbEntity
  8
OBJECT
 62
     2
100
AcDbCircle
 10
114.615259
 20
218.338452
 30
0.0
 40
0.159049
100
AcDbArc
 50
42.640293
 51
137.359707
  0
ARC
  5
5ADC
100
AcDbEntity
  8
OBJECT
 62
     2
100
AcDbCircle
 10
114.615259
 20
216.936407
 30
0.0
 40
1.333
100
AcDbArc
 50
76.301025
 51
84.964559
  0
ARC
  5
5ADD
100
AcDbEntity
  8
OBJECT
 62
     2
100
AcDbCircle
 10
118.056904
 20
218.514407
 30
0.0
 40
2.596005
100
AcDbArc
 50
182.925646
 51
188.876335
  0
LINE
  5
5ADE
100
AcDbEntity
  8
OBJECT
 62
     2
100
AcDbLine
 10
115.377405
 20
218.147601
 30
0.0
 11
115.377405
 21
218.381907
 31
0.0
  0
ARC
  5
5ADF
100
AcDbEntity
  8
OBJECT
 62
     2
100
AcDbCircle
 10
116.23501
 20
220.846832
 30
0.0
 40
2.832197
100
AcDbArc
 50
237.954292
 51
257.045708
  0
LINE
  5
5AE0
100
AcDbEntity
  8
OBJECT
 62
     2
100
AcDbLine
 10
115.199683
 20
218.075203
 30
0.0
 11
115.185134
 21
218.060654
 31
0.0
  0
ARC
  5
5AE1
100
AcDbEntity
  8
OBJECT
 62
     2
100
AcDbCircle
 10
115.255845
 20
217.989943
 30
0.0
 40
0.1
100
AcDbArc
 50
58.698975
 51
135.0
  0
LINE
  5
5AE2
100
AcDbEntity
  8
OBJECT
 62
     2
100
AcDbLine
 10
115.007259
 20
218.154908
 30
0.0
 11
115.007259
 21
218.134332
 31
0.0
  0
ARC
  5
5AE3
100
AcDbEntity
  8
OBJECT
 62
     2
100
AcDbCircle
 10
114.907259
 20
218.154908
 30
0.0
 40
0.1
100
AcDbArc
 50
256.523843
 51
0.0
  0
ARC
  5
5AE4
100
AcDbEntity
  8
OBJECT
 62
     2
100
AcDbCircle
 10
114.615259
 20
216.936407
 30
0.0
 40
1.153
100
AcDbArc
 50
76.523843
 51
84.17592
  0
ARC
  5
5AE5
100
AcDbEntity
  8
OBJECT
 62
     2
100
AcDbCircle
 10
114.907259
 20
218.134332
 30
0.0
 40
0.1
100
AcDbArc
 50
0.0
 51
76.301025
  0
LINE
  5
5AE6
100
AcDbEntity
  8
OBJECT
 62
     2
100
AcDbLine
 10
115.887259
 20
218.381907
 30
0.0
 11
115.377405
 21
218.381907
 31
0.0
  0
ARC
  5
5AE7
100
AcDbEntity
  8
OBJECT
 62
     2
100
AcDbCircle
 10
115.887259
 20
218.231907
 30
0.0
 40
0.15
100
AcDbArc
 50
0.0
 51
90.0
  0
ARC
  5
5AE8
100
AcDbEntity
  8
OBJECT
 62
     2
100
AcDbCircle
 10
114.615259
 20
216.936407
 30
0.0
 40
1.333
100
AcDbArc
 50
121.301025
 51
129.964559
  0
ARC
  5
5AE9
100
AcDbEntity
  8
OBJECT
 62
     2
100
AcDbCircle
 10
113.960123
 20
218.004493
 30
0.0
 40
0.1
100
AcDbArc
 50
301.523843
 51
45.0
  0
LINE
  5
5AEA
100
AcDbEntity
  8
OBJECT
 62
     2
100
AcDbLine
 10
114.498259
 20
217.882198
 30
0.0
 11
114.498259
 21
218.446191
 31
0.0
  0
LINE
  5
5AEB
100
AcDbEntity
  8
OBJECT
 62
     2
100
AcDbLine
 10
114.732259
 20
217.882198
 30
0.0
 11
114.732259
 21
218.446191
 31
0.0
  0
ARC
  5
5AEC
100
AcDbEntity
  8
OBJECT
 62
     2
100
AcDbCircle
 10
115.606654
 20
217.927803
 30
0.0
 40
0.159049
100
AcDbArc
 50
357.640293
 51
92.359707
  0
ARC
  5
5AED
100
AcDbEntity
  8
OBJECT
 62
     2
100
AcDbCircle
 10
115.270394
 20
218.004493
 30
0.0
 40
0.1
100
AcDbArc
 50
135.0
 51
238.476157
  0
ARC
  5
5AEE
100
AcDbEntity
  8
OBJECT
 62
     2
100
AcDbCircle
 10
114.615259
 20
216.936407
 30
0.0
 40
1.333
100
AcDbArc
 50
50.035441
 51
58.698975
  0
ARC
  5
5AEF
100
AcDbEntity
  8
OBJECT
 62
     2
100
AcDbCircle
 10
114.615259
 20
216.936407
 30
0.0
 40
1.333
100
AcDbArc
 50
256.301025
 51
264.964559
  0
ARC
  5
5AF0
100
AcDbEntity
  8
OBJECT
 62
     2
100
AcDbCircle
 10
115.887259
 20
215.640907
 30
0.0
 40
0.15
100
AcDbArc
 50
270.0
 51
0.0
  0
ARC
  5
5AF1
100
AcDbEntity
  8
OBJECT
 62
     2
100
AcDbCircle
 10
114.615259
 20
216.936407
 30
0.0
 40
1.333
100
AcDbArc
 50
275.035441
 51
283.698975
  0
ARC
  5
5AF2
100
AcDbEntity
  8
OBJECT
 62
     2
100
AcDbCircle
 10
114.615259
 20
215.534362
 30
0.0
 40
0.159049
100
AcDbArc
 50
222.640293
 51
317.359707
  0
LINE
  5
5AF3
100
AcDbEntity
  8
OBJECT
 62
     2
100
AcDbLine
 10
115.887259
 20
215.490907
 30
0.0
 11
115.377405
 21
215.490907
 31
0.0
  0
ARC
  5
5AF4
100
AcDbEntity
  8
OBJECT
 62
     2
100
AcDbCircle
 10
115.683344
 20
216.281272
 30
0.0
 40
0.1
100
AcDbArc
 50
45.0
 51
148.476157
  0
ARC
  5
5AF5
100
AcDbEntity
  8
OBJECT
 62
     2
100
AcDbCircle
 10
115.813184
 20
216.644407
 30
0.0
 40
0.1
100
AcDbArc
 50
270.0
 51
346.301025
  0
LINE
  5
5AF6
100
AcDbEntity
  8
OBJECT
 62
     2
100
AcDbLine
 10
115.83376
 20
216.544407
 30
0.0
 11
115.813184
 21
216.544407
 31
0.0
  0
ARC
  5
5AF7
100
AcDbEntity
  8
OBJECT
 62
     2
100
AcDbCircle
 10
114.323259
 20
215.717906
 30
0.0
 40
0.1
100
AcDbArc
 50
76.523843
 51
180.0
  0
ARC
  5
5AF8
100
AcDbEntity
  8
OBJECT
 62
     2
100
AcDbCircle
 10
114.615259
 20
216.936407
 30
0.0
 40
1.153
100
AcDbArc
 50
230.82408
 51
238.476157
  0
ARC
  5
5AF9
100
AcDbEntity
  8
OBJECT
 62
     2
100
AcDbCircle
 10
114.615259
 20
216.936407
 30
0.0
 40
1.333
100
AcDbArc
 50
230.035441
 51
238.698975
  0
LINE
  5
5AFA
100
AcDbEntity
  8
OBJECT
 62
     2
100
AcDbLine
 10
114.029215
 20
216.1849
 30
0.0
 11
113.630412
 21
215.786097
 31
0.0
  0
ARC
  5
5AFB
100
AcDbEntity
  8
OBJECT
 62
     2
100
AcDbCircle
 10
114.615259
 20
216.936407
 30
0.0
 40
1.153
100
AcDbArc
 50
211.523843
 51
219.17592
  0
ARC
  5
5AFC
100
AcDbEntity
  8
OBJECT
 62
     2
100
AcDbCircle
 10
113.960123
 20
215.868321
 30
0.0
 40
0.1
100
AcDbArc
 50
315.0
 51
58.476157
  0
LINE
  5
5AFD
100
AcDbEntity
  8
OBJECT
 62
     2
100
AcDbLine
 10
114.030834
 20
215.797611
 30
0.0
 11
114.045383
 21
215.81216
 31
0.0
  0
ARC
  5
5AFE
100
AcDbEntity
  8
OBJECT
 62
     2
100
AcDbCircle
 10
113.974673
 20
215.882871
 30
0.0
 40
0.1
100
AcDbArc
 50
238.698975
 51
315.0
  0
ARC
  5
5AFF
100
AcDbEntity
  8
OBJECT
 62
     2
100
AcDbCircle
 10
114.615259
 20
216.936407
 30
0.0
 40
1.153
100
AcDbArc
 50
256.523843
 51
264.17592
  0
LINE
  5
5B00
100
AcDbEntity
  8
OBJECT
 62
     2
100
AcDbLine
 10
114.223259
 20
215.717906
 30
0.0
 11
114.223259
 21
215.738482
 31
0.0
  0
ARC
  5
5B01
100
AcDbEntity
  8
OBJECT
 62
     2
100
AcDbCircle
 10
115.606654
 20
215.945011
 30
0.0
 40
0.159049
100
AcDbArc
 50
267.640293
 51
2.359707
  0
LINE
  5
5B02
100
AcDbEntity
  8
OBJECT
 62
     2
100
AcDbLine
 10
115.754055
 20
216.351982
 30
0.0
 11
115.739506
 21
216.366532
 31
0.0
  0
ARC
  5
5B03
100
AcDbEntity
  8
OBJECT
 62
     2
100
AcDbCircle
 10
114.615259
 20
216.936407
 30
0.0
 40
1.333
100
AcDbArc
 50
320.035441
 51
328.698975
  0
ARC
  5
5B04
100
AcDbEntity
  8
OBJECT
 62
     2
100
AcDbCircle
 10
115.668795
 20
216.295821
 30
0.0
 40
0.1
100
AcDbArc
 50
328.698975
 51
45.0
  0
LINE
  5
5B05
100
AcDbEntity
  8
OBJECT
 62
     2
100
AcDbLine
 10
115.007259
 20
215.717906
 30
0.0
 11
115.007259
 21
215.738482
 31
0.0
  0
ARC
  5
5B06
100
AcDbEntity
  8
OBJECT
 62
     2
100
AcDbCircle
 10
114.907259
 20
215.717906
 30
0.0
 40
0.1
100
AcDbArc
 50
0.0
 51
103.476157
  0
ARC
  5
5B07
100
AcDbEntity
  8
OBJECT
 62
     2
100
AcDbCircle
 10
114.615259
 20
216.936407
 30
0.0
 40
1.153
100
AcDbArc
 50
275.82408
 51
283.476157
  0
ARC
  5
5B08
100
AcDbEntity
  8
OBJECT
 62
     2
100
AcDbCircle
 10
115.255845
 20
215.882871
 30
0.0
 40
0.1
100
AcDbArc
 50
225.0
 51
301.301025
  0
LINE
  5
5B09
100
AcDbEntity
  8
OBJECT
 62
     2
100
AcDbLine
 10
115.199683
 20
215.797611
 30
0.0
 11
115.185134
 21
215.81216
 31
0.0
  0
ARC
  5
5B0A
100
AcDbEntity
  8
OBJECT
 62
     2
100
AcDbCircle
 10
115.270394
 20
215.868321
 30
0.0
 40
0.1
100
AcDbArc
 50
121.523843
 51
225.0
  0
ARC
  5
5B0B
100
AcDbEntity
  8
OBJECT
 62
     2
100
AcDbCircle
 10
114.615259
 20
216.936407
 30
0.0
 40
1.153
100
AcDbArc
 50
301.523843
 51
309.17592
  0
ARC
  5
5B0C
100
AcDbEntity
  8
OBJECT
 62
     2
100
AcDbCircle
 10
114.615259
 20
216.936407
 30
0.0
 40
1.333
100
AcDbArc
 50
301.301025
 51
309.964559
  0
LINE
  5
5B0D
100
AcDbEntity
  8
OBJECT
 62
     2
100
AcDbLine
 10
115.366765
 20
216.350363
 30
0.0
 11
115.765569
 21
215.95156
 31
0.0
  0
LINE
  5
5B0E
100
AcDbEntity
  8
OBJECT
 62
     2
100
AcDbLine
 10
115.201302
 20
216.1849
 30
0.0
 11
115.600106
 21
215.786097
 31
0.0
  0
ARC
  5
5B0F
100
AcDbEntity
  8
OBJECT
 62
     2
100
AcDbCircle
 10
114.615259
 20
216.936407
 30
0.0
 40
1.153
100
AcDbArc
 50
320.82408
 51
328.476157
  0
LINE
  5
5B10
100
AcDbEntity
  8
OBJECT
 62
     2
100
AcDbLine
 10
115.773089
 20
215.983407
 30
0.0
 11
116.037259
 21
215.983407
 31
0.0
  0
LINE
  5
5B11
100
AcDbEntity
  8
OBJECT
 62
     2
100
AcDbLine
 10
115.873928
 20
216.311407
 30
0.0
 11
116.037259
 21
216.311407
 31
0.0
  0
ARC
  5
5B12
100
AcDbEntity
  8
OBJECT
 62
     2
100
AcDbCircle
 10
112.995508
 20
213.025982
 30
0.0
 40
2.832197
100
AcDbArc
 50
57.954292
 51
77.045708
  0
ARC
  5
5B13
100
AcDbEntity
  8
OBJECT
 62
     2
100
AcDbCircle
 10
114.323259
 20
215.738482
 30
0.0
 40
0.1
100
AcDbArc
 50
180.0
 51
256.301025
  0
LINE
  5
5B14
100
AcDbEntity
  8
OBJECT
 62
     2
100
AcDbLine
 10
113.853113
 20
215.490907
 30
0.0
 11
113.853113
 21
215.725213
 31
0.0
  0
ARC
  5
5B15
100
AcDbEntity
  8
OBJECT
 62
     2
100
AcDbCircle
 10
111.173613
 20
215.358407
 30
0.0
 40
2.596005
100
AcDbArc
 50
2.925646
 51
8.876335
  0
LINE
  5
5B16
100
AcDbEntity
  8
OBJECT
 62
     2
100
AcDbLine
 10
114.498259
 20
215.990616
 30
0.0
 11
114.498259
 21
215.426623
 31
0.0
  0
ARC
  5
5B17
100
AcDbEntity
  8
OBJECT
 62
     2
100
AcDbCircle
 10
118.056904
 20
215.358407
 30
0.0
 40
2.596005
100
AcDbArc
 50
171.123665
 51
177.074354
  0
LINE
  5
5B18
100
AcDbEntity
  8
OBJECT
 62
     2
100
AcDbLine
 10
115.377405
 20
215.490907
 30
0.0
 11
115.377405
 21
215.725213
 31
0.0
  0
LINE
  5
5B19
100
AcDbEntity
  8
OBJECT
 62
     2
100
AcDbLine
 10
114.732259
 20
215.990616
 30
0.0
 11
114.732259
 21
215.426623
 31
0.0
  0
ARC
  5
5B1A
100
AcDbEntity
  8
OBJECT
 62
     2
100
AcDbCircle
 10
116.23501
 20
213.025982
 30
0.0
 40
2.832197
100
AcDbArc
 50
102.954292
 51
122.045708
  0
ARC
  5
5B1B
100
AcDbEntity
  8
OBJECT
 62
     2
100
AcDbCircle
 10
114.907259
 20
215.738482
 30
0.0
 40
0.1
100
AcDbArc
 50
283.698975
 51
0.0
  0
LINE
  5
5B1C
100
AcDbEntity
  8
OBJECT
 62
     2
100
AcDbLine
 10
114.412259
 20
217.139407
 30
0.0
 11
113.68413
 21
217.139407
 31
0.0
  0
LINE
  5
5B1D
100
AcDbEntity
  8
OBJECT
 62
     2
100
AcDbLine
 10
114.412259
 20
216.733407
 30
0.0
 11
113.68413
 21
216.733407
 31
0.0
  0
ARC
  5
5B1E
100
AcDbEntity
  8
OBJECT
 62
     2
100
AcDbCircle
 10
114.615259
 20
216.936407
 30
0.0
 40
1.153
100
AcDbArc
 50
140.82408
 51
148.476157
  0
ARC
  5
5B1F
100
AcDbEntity
  8
OBJECT
 62
     2
100
AcDbCircle
 10
115.668795
 20
217.576993
 30
0.0
 40
0.1
100
AcDbArc
 50
315.0
 51
31.301025
  0
LINE
  5
5B20
100
AcDbEntity
  8
OBJECT
 62
     2
100
AcDbLine
 10
115.754055
 20
217.520832
 30
0.0
 11
115.739506
 21
217.506282
 31
0.0
  0
ARC
  5
5B21
100
AcDbEntity
  8
OBJECT
 62
     2
100
AcDbCircle
 10
115.683344
 20
217.591542
 30
0.0
 40
0.1
100
AcDbArc
 50
211.523843
 51
315.0
  0
ARC
  5
5B22
100
AcDbEntity
  8
OBJECT
 62
     2
100
AcDbCircle
 10
114.615259
 20
216.936407
 30
0.0
 40
1.153
100
AcDbArc
 50
31.523843
 51
39.17592
  0
LINE
  5
5B23
100
AcDbEntity
  8
OBJECT
 62
     2
100
AcDbLine
 10
115.873928
 20
217.561407
 30
0.0
 11
116.037259
 21
217.561407
 31
0.0
  0
LWPOLYLINE
  5
5B24
100
AcDbEntity
  8
OBJECT
 62
     2
100
AcDbPolyline
 90
        6
 70
     1
 43
0.0
 10
114.470921
 20
217.186407
 10
114.326584
 20
216.936407
 10
114.470921
 20
216.686407
 10
114.759596
 20
216.686407
 10
114.903934
 20
216.936407
 10
114.759596
 20
217.186407
  0
CIRCLE
  5
5B25
100
AcDbEntity
  8
OBJECT
 62
     2
100
AcDbCircle
 10
114.615259
 20
216.936407
 30
0.0
 40
0.156
  0
ARC
  5
5B26
100
AcDbEntity
  8
OBJECT
 62
     2
100
AcDbCircle
 10
114.615259
 20
216.936407
 30
0.0
 40
1.153
100
AcDbArc
 50
5.82408
 51
13.476157
  0
ARC
  5
5B27
100
AcDbEntity
  8
OBJECT
 62
     2
100
AcDbCircle
 10
115.83376
 20
217.228407
 30
0.0
 40
0.1
100
AcDbArc
 50
90.0
 51
193.476157
  0
LINE
  5
5B28
100
AcDbEntity
  8
OBJECT
 62
     2
100
AcDbLine
 10
115.83376
 20
217.328407
 30
0.0
 11
115.813184
 21
217.328407
 31
0.0
  0
ARC
  5
5B29
100
AcDbEntity
  8
OBJECT
 62
     2
100
AcDbCircle
 10
115.813184
 20
217.228407
 30
0.0
 40
0.1
100
AcDbArc
 50
13.698975
 51
90.0
  0
ARC
  5
5B2A
100
AcDbEntity
  8
OBJECT
 62
     2
100
AcDbCircle
 10
114.615259
 20
216.936407
 30
0.0
 40
1.333
100
AcDbArc
 50
5.035441
 51
13.698975
  0
LINE
  5
5B2B
100
AcDbEntity
  8
OBJECT
 62
     2
100
AcDbLine
 10
114.818259
 20
217.139407
 30
0.0
 11
115.546387
 21
217.139407
 31
0.0
  0
LINE
  5
5B2C
100
AcDbEntity
  8
OBJECT
 62
     2
100
AcDbLine
 10
115.561049
 20
217.053407
 30
0.0
 11
116.125043
 21
217.053407
 31
0.0
  0
ARC
  5
5B2D
100
AcDbEntity
  8
OBJECT
 62
     2
100
AcDbCircle
 10
114.615259
 20
216.936407
 30
0.0
 40
1.153
100
AcDbArc
 50
346.523843
 51
354.17592
  0
LINE
  5
5B2E
100
AcDbEntity
  8
OBJECT
 62
     2
100
AcDbLine
 10
114.818259
 20
216.733407
 30
0.0
 11
115.546387
 21
216.733407
 31
0.0
  0
LINE
  5
5B2F
100
AcDbEntity
  8
OBJECT
 62
     2
100
AcDbLine
 10
115.561049
 20
216.819407
 30
0.0
 11
116.125043
 21
216.819407
 31
0.0
  0
ARC
  5
5B30
100
AcDbEntity
  8
OBJECT
 62
     2
100
AcDbCircle
 10
116.017304
 20
216.936407
 30
0.0
 40
0.159049
100
AcDbArc
 50
312.640293
 51
47.359707
  0
LINE
  5
5B31
100
AcDbEntity
  8
OBJECT
 62
     2
100
AcDbLine
 10
114.412259
 20
216.733407
 30
0.0
 11
114.412259
 21
216.005279
 31
0.0
  0
LINE
  5
5B32
100
AcDbEntity
  8
OBJECT
 62
     2
100
AcDbLine
 10
114.818259
 20
216.733407
 30
0.0
 11
114.818259
 21
216.005279
 31
0.0
  0
ARC
  5
5B33
100
AcDbEntity
  8
OBJECT
 62
     2
100
AcDbCircle
 10
118.525684
 20
215.316656
 30
0.0
 40
2.832197
100
AcDbArc
 50
147.954292
 51
167.045708
  0
ARC
  5
5B34
100
AcDbEntity
  8
OBJECT
 62
     2
100
AcDbCircle
 10
115.83376
 20
216.644407
 30
0.0
 40
0.1
100
AcDbArc
 50
166.523843
 51
270.0
  0
ARC
  5
5B35
100
AcDbEntity
  8
OBJECT
 62
     2
100
AcDbCircle
 10
114.615259
 20
216.936407
 30
0.0
 40
1.333
100
AcDbArc
 50
346.301025
 51
354.964559
  0
LINE
  5
5B36
100
AcDbEntity
  8
OBJECT
 62
     2
100
AcDbLine
 10
116.037259
 20
215.640907
 30
0.0
 11
116.037259
 21
216.66909
 31
0.0
  0
LINE
  5
5B37
100
AcDbEntity
  8
OBJECT
 62
     4
100
AcDbLine
 10
116.291704
 20
218.123907
 30
0.0
 11
116.291704
 21
215.748907
 31
0.0
  0
LINE
  5
5B38
100
AcDbEntity
  8
OBJECT
 62
     4
100
AcDbLine
 10
116.491704
 20
218.123907
 30
0.0
 11
116.491704
 21
215.748907
 31
0.0
  0
LINE
  5
5B39
100
AcDbEntity
  8
OBJECT
 62
     4
100
AcDbLine
 10
116.691704
 20
218.123907
 30
0.0
 11
116.691704
 21
215.748907
 31
0.0
  0
LINE
  5
5B3A
100
AcDbEntity
  8
OBJECT
 62
     4
100
AcDbLine
 10
112.544833
 20
218.123907
 30
0.0
 11
112.544833
 21
215.748907
 31
0.0
  0
LINE
  5
5B3B
100
AcDbEntity
  8
OBJECT
 62
     4
100
AcDbLine
 10
112.744833
 20
218.123907
 30
0.0
 11
112.744833
 21
215.748907
 31
0.0
  0
LINE
  5
5B3C
100
AcDbEntity
  8
OBJECT
 62
     4
100
AcDbLine
 10
112.944833
 20
218.123907
 30
0.0
 11
112.944833
 21
215.748907
 31
0.0
  0
LINE
  5
5B3D
100
AcDbEntity
  8
OBJECT
100
AcDbLine
 10
116.037259
 20
218.123907
 30
0.0
 11
123.32298
 21
218.123907
 31
0.0
  0
LINE
  5
5B3E
100
AcDbEntity
  8
OBJECT
100
AcDbLine
 10
116.037259
 20
215.748907
 30
0.0
 11
123.32298
 21
215.748907
 31
0.0
  0
LINE
  5
5B3F
100
AcDbEntity
  8
OBJECT
 62
     2
100
AcDbLine
 10
116.232267
 20
101.480316
 30
0.0
 11
116.232267
 21
104.071316
 31
0.0
  0
LINE
  5
5B40
100
AcDbEntity
  8
OBJECT
 62
     2
100
AcDbLine
 10
115.572414
 20
101.330316
 30
0.0
 11
115.572414
 21
104.221316
 31
0.0
  0
LINE
  5
5B41
100
AcDbEntity
  8
OBJECT
 62
     2
100
AcDbLine
 10
114.048121
 20
101.330316
 30
0.0
 11
114.048121
 21
104.221316
 31
0.0
  0
LINE
  5
5B42
100
AcDbEntity
  8
OBJECT
 62
     2
100
AcDbLine
 10
113.388267
 20
101.480316
 30
0.0
 11
113.388267
 21
104.071316
 31
0.0
  0
ARC
  5
5B43
100
AcDbEntity
  8
OBJECT
 62
     2
100
AcDbCircle
 10
111.368622
 20
102.775816
 30
0.0
 40
2.596005
100
AcDbArc
 50
346.068919
 51
13.931081
  0
ARC
  5
5B44
100
AcDbEntity
  8
OBJECT
 62
     2
100
AcDbCircle
 10
118.251913
 20
102.775816
 30
0.0
 40
2.596005
100
AcDbArc
 50
166.068919
 51
193.931081
  0
ARC
  5
5B45
100
AcDbEntity
  8
OBJECT
 62
     2
100
AcDbCircle
 10
115.326267
 20
101.286588
 30
0.0
 40
0.25
100
AcDbArc
 50
10.073387
 51
106.993739
  0
LINE
  5
5B46
100
AcDbEntity
  8
OBJECT
 62
     2
100
AcDbLine
 10
115.572414
 20
101.330316
 30
0.0
 11
116.082267
 21
101.330316
 31
0.0
  0
ARC
  5
5B47
100
AcDbEntity
  8
OBJECT
 62
     2
100
AcDbCircle
 10
114.810267
 20
101.963826
 30
0.0
 40
0.623032
100
AcDbArc
 50
224.689189
 51
315.310811
  0
ARC
  5
5B48
100
AcDbEntity
  8
OBJECT
 62
     2
100
AcDbCircle
 10
114.294267
 20
101.286588
 30
0.0
 40
0.25
100
AcDbArc
 50
73.006261
 51
169.926613
  0
ARC
  5
5B49
100
AcDbEntity
  8
OBJECT
 62
     2
100
AcDbCircle
 10
111.368622
 20
101.197816
 30
0.0
 40
2.596005
100
AcDbArc
 50
2.925646
 51
13.931081
  0
LINE
  5
5B4A
100
AcDbEntity
  8
OBJECT
 62
     2
100
AcDbLine
 10
113.888267
 20
101.822816
 30
0.0
 11
113.888267
 21
102.150816
 31
0.0
  0
ARC
  5
5B4B
100
AcDbEntity
  8
OBJECT
 62
     2
100
AcDbCircle
 10
113.538267
 20
101.480316
 30
0.0
 40
0.15
100
AcDbArc
 50
180.0
 51
270.0
  0
LINE
  5
5B4C
100
AcDbEntity
  8
OBJECT
 62
     2
100
AcDbLine
 10
113.888267
 20
102.150816
 30
0.0
 11
113.388267
 21
102.150816
 31
0.0
  0
LINE
  5
5B4D
100
AcDbEntity
  8
OBJECT
 62
     2
100
AcDbLine
 10
113.888267
 20
101.822816
 30
0.0
 11
113.388267
 21
101.822816
 31
0.0
  0
LINE
  5
5B4E
100
AcDbEntity
  8
OBJECT
 62
     2
100
AcDbLine
 10
113.538267
 20
101.330316
 30
0.0
 11
114.048121
 21
101.330316
 31
0.0
  0
ARC
  5
5B4F
100
AcDbEntity
  8
OBJECT
 62
     2
100
AcDbCircle
 10
116.082267
 20
101.480316
 30
0.0
 40
0.15
100
AcDbArc
 50
270.0
 51
0.0
  0
LINE
  5
5B50
100
AcDbEntity
  8
OBJECT
 62
     2
100
AcDbLine
 10
115.732267
 20
101.822816
 30
0.0
 11
116.232267
 21
101.822816
 31
0.0
  0
LINE
  5
5B51
100
AcDbEntity
  8
OBJECT
 62
     2
100
AcDbLine
 10
115.732267
 20
102.150816
 30
0.0
 11
116.232267
 21
102.150816
 31
0.0
  0
LINE
  5
5B52
100
AcDbEntity
  8
OBJECT
 62
     2
100
AcDbLine
 10
115.732267
 20
101.822816
 30
0.0
 11
115.732267
 21
102.150816
 31
0.0
  0
ARC
  5
5B53
100
AcDbEntity
  8
OBJECT
 62
     2
100
AcDbCircle
 10
118.251913
 20
101.197816
 30
0.0
 40
2.596005
100
AcDbArc
 50
166.068919
 51
177.074354
  0
LINE
  5
5B54
100
AcDbEntity
  8
OBJECT
 62
     2
100
AcDbLine
 10
114.377259
 20
107.159434
 30
0.0
 11
114.377259
 21
107.686233
 31
0.0
  0
LINE
  5
5B55
100
AcDbEntity
  8
OBJECT
 62
     2
100
AcDbLine
 10
114.286767
 20
107.159434
 30
0.0
 11
114.286767
 21
107.737434
 31
0.0
  0
LINE
  5
5B56
100
AcDbEntity
  8
OBJECT
 62
     2
100
AcDbLine
 10
114.815259
 20
107.159434
 30
0.0
 11
114.815259
 21
107.686233
 31
0.0
  0
LINE
  5
5B57
100
AcDbEntity
  8
OBJECT
 62
     2
100
AcDbLine
 10
115.253259
 20
107.159434
 30
0.0
 11
115.253259
 21
107.686233
 31
0.0
  0
LINE
  5
5B58
100
AcDbEntity
  8
OBJECT
 62
     2
100
AcDbLine
 10
115.333767
 20
107.159434
 30
0.0
 11
115.333767
 21
107.737434
 31
0.0
  0
LINE
  5
5B59
100
AcDbEntity
  8
OBJECT
 62
     2
100
AcDbLine
 10
114.239767
 20
103.253526
 30
0.0
 11
114.239767
 21
104.799316
 31
0.0
  0
ARC
  5
5B5A
100
AcDbEntity
  8
OBJECT
 62
     2
100
AcDbCircle
 10
111.368622
 20
104.353816
 30
0.0
 40
2.596005
100
AcDbArc
 50
346.068919
 51
357.074354
  0
LINE
  5
5B5B
100
AcDbEntity
  8
OBJECT
 62
     2
100
AcDbLine
 10
115.380767
 20
103.253526
 30
0.0
 11
115.380767
 21
104.799316
 31
0.0
  0
ARC
  5
5B5C
100
AcDbEntity
  8
OBJECT
 62
     2
100
AcDbCircle
 10
118.251913
 20
104.353816
 30
0.0
 40
2.596005
100
AcDbArc
 50
182.925646
 51
193.931081
  0
LINE
  5
5B5D
100
AcDbEntity
  8
OBJECT
 62
     2
100
AcDbLine
 10
114.239767
 20
103.253526
 30
0.0
 11
114.174926
 21
103.05011
 31
0.0
  0
LINE
  5
5B5E
100
AcDbEntity
  8
OBJECT
 62
     2
100
AcDbLine
 10
113.888267
 20
103.400816
 30
0.0
 11
113.888267
 21
103.728816
 31
0.0
  0
LINE
  5
5B5F
100
AcDbEntity
  8
OBJECT
 62
     2
100
AcDbLine
 10
115.380767
 20
103.253526
 30
0.0
 11
115.445608
 21
103.05011
 31
0.0
  0
LINE
  5
5B60
100
AcDbEntity
  8
OBJECT
 62
     2
100
AcDbLine
 10
113.888267
 20
103.728816
 30
0.0
 11
113.388267
 21
103.728816
 31
0.0
  0
LINE
  5
5B61
100
AcDbEntity
  8
OBJECT
 62
     2
100
AcDbLine
 10
113.888267
 20
103.400816
 30
0.0
 11
113.388267
 21
103.400816
 31
0.0
  0
LINE
  5
5B62
100
AcDbEntity
  8
OBJECT
 62
     2
100
AcDbLine
 10
115.732267
 20
103.400816
 30
0.0
 11
116.232267
 21
103.400816
 31
0.0
  0
LINE
  5
5B63
100
AcDbEntity
  8
OBJECT
 62
     2
100
AcDbLine
 10
115.732267
 20
103.728816
 30
0.0
 11
116.232267
 21
103.728816
 31
0.0
  0
LINE
  5
5B64
100
AcDbEntity
  8
OBJECT
 62
     2
100
AcDbLine
 10
115.732267
 20
103.400816
 30
0.0
 11
115.732267
 21
103.728816
 31
0.0
  0
ARC
  5
5B65
100
AcDbEntity
  8
OBJECT
 62
     2
100
AcDbCircle
 10
115.630767
 20
104.799316
 30
0.0
 40
0.25
100
AcDbArc
 50
90.0
 51
180.0
  0
LINE
  5
5B66
100
AcDbEntity
  8
OBJECT
 62
     2
100
AcDbLine
 10
115.572414
 20
104.221316
 30
0.0
 11
116.082267
 21
104.221316
 31
0.0
  0
ARC
  5
5B67
100
AcDbEntity
  8
OBJECT
 62
     2
100
AcDbCircle
 10
114.815259
 20
104.570576
 30
0.0
 40
2.003544
100
AcDbArc
 50
57.074971
 51
75.696007
  0
ARC
  5
5B68
100
AcDbEntity
  8
OBJECT
 62
     2
100
AcDbCircle
 10
115.951267
 20
103.305461
 30
0.0
 40
2.940724
100
AcDbArc
 50
90.915767
 51
101.186305
  0
LINE
  5
5B69
100
AcDbEntity
  8
OBJECT
 62
     2
100
AcDbLine
 10
113.435267
 20
105.893316
 30
0.0
 11
116.185267
 21
105.893316
 31
0.0
  0
LINE
  5
5B6A
100
AcDbEntity
  8
OBJECT
 62
     2
100
AcDbLine
 10
113.435267
 20
105.737316
 30
0.0
 11
116.185267
 21
105.737316
 31
0.0
  0
LINE
  5
5B6B
100
AcDbEntity
  8
OBJECT
 62
     2
100
AcDbLine
 10
114.286767
 20
107.159434
 30
0.0
 11
115.333767
 21
107.159434
 31
0.0
  0
LINE
  5
5B6C
100
AcDbEntity
  8
OBJECT
 62
     2
100
AcDbLine
 10
114.310267
 20
107.059434
 30
0.0
 11
115.310267
 21
107.059434
 31
0.0
  0
LINE
  5
5B6D
100
AcDbEntity
  8
OBJECT
 62
     2
100
AcDbLine
 10
114.310267
 20
106.959434
 30
0.0
 11
115.310267
 21
106.959434
 31
0.0
  0
LINE
  5
5B6E
100
AcDbEntity
  8
OBJECT
 62
     2
100
AcDbLine
 10
114.310267
 20
106.859434
 30
0.0
 11
115.310267
 21
106.859434
 31
0.0
  0
LINE
  5
5B6F
100
AcDbEntity
  8
OBJECT
 62
     2
100
AcDbLine
 10
114.310267
 20
106.759434
 30
0.0
 11
115.310267
 21
106.759434
 31
0.0
  0
LINE
  5
5B70
100
AcDbEntity
  8
OBJECT
 62
     2
100
AcDbLine
 10
114.310267
 20
106.509434
 30
0.0
 11
115.32025
 21
106.509434
 31
0.0
  0
ARC
  5
5B71
100
AcDbEntity
  8
OBJECT
 62
     2
100
AcDbCircle
 10
114.810267
 20
103.305461
 30
0.0
 40
2.940724
100
AcDbArc
 50
78.813695
 51
101.186305
  0
LINE
  5
5B72
100
AcDbEntity
  8
OBJECT
 62
     2
100
AcDbLine
 10
114.4438
 20
105.049316
 30
0.0
 11
114.810267
 21
105.049316
 31
0.0
  0
LINE
  5
5B73
100
AcDbEntity
  8
OBJECT
 62
     2
100
AcDbLine
 10
114.060267
 20
104.221316
 30
0.0
 11
114.060267
 21
105.039169
 31
0.0
  0
ARC
  5
5B74
100
AcDbEntity
  8
OBJECT
 62
     2
100
AcDbCircle
 10
113.989767
 20
104.799316
 30
0.0
 40
0.25
100
AcDbArc
 50
0.0
 51
90.0
  0
LINE
  5
5B75
100
AcDbEntity
  8
OBJECT
 62
     2
100
AcDbLine
 10
113.826267
 20
104.221316
 30
0.0
 11
113.826267
 21
104.799316
 31
0.0
  0
LINE
  5
5B76
100
AcDbEntity
  8
OBJECT
 62
     2
100
AcDbLine
 10
114.310267
 20
106.509434
 30
0.0
 11
114.310267
 21
107.159437
 31
0.0
  0
LINE
  5
5B77
100
AcDbEntity
  8
OBJECT
 62
     2
100
AcDbLine
 10
114.239767
 20
105.893316
 30
0.0
 11
114.239767
 21
106.190316
 31
0.0
  0
LINE
  5
5B78
100
AcDbEntity
  8
OBJECT
 62
     2
100
AcDbLine
 10
113.716267
 20
105.893316
 30
0.0
 11
113.716267
 21
106.252316
 31
0.0
  0
ARC
  5
5B79
100
AcDbEntity
  8
OBJECT
 62
     2
100
AcDbCircle
 10
114.815259
 20
104.570576
 30
0.0
 40
2.003544
100
AcDbArc
 50
104.598795
 51
123.265788
  0
ARC
  5
5B7A
100
AcDbEntity
  8
OBJECT
 62
     2
100
AcDbCircle
 10
113.669267
 20
103.305461
 30
0.0
 40
2.940724
100
AcDbArc
 50
78.813695
 51
89.084233
  0
LINE
  5
5B7B
100
AcDbEntity
  8
OBJECT
 62
     2
100
AcDbLine
 10
115.560267
 20
104.221316
 30
0.0
 11
115.560267
 21
105.039169
 31
0.0
  0
LINE
  5
5B7C
100
AcDbEntity
  8
OBJECT
 62
     2
100
AcDbLine
 10
115.176735
 20
105.049316
 30
0.0
 11
114.810267
 21
105.049316
 31
0.0
  0
LINE
  5
5B7D
100
AcDbEntity
  8
OBJECT
 62
     2
100
AcDbLine
 10
115.310267
 20
106.512007
 30
0.0
 11
115.310267
 21
107.162009
 31
0.0
  0
LINE
  5
5B7E
100
AcDbEntity
  8
OBJECT
 62
     2
100
AcDbLine
 10
115.380767
 20
105.893316
 30
0.0
 11
115.380767
 21
106.190316
 31
0.0
  0
LINE
  5
5B7F
100
AcDbEntity
  8
OBJECT
 62
     2
100
AcDbLine
 10
113.435267
 20
105.149316
 30
0.0
 11
113.435267
 21
105.893316
 31
0.0
  0
ARC
  5
5B80
100
AcDbEntity
  8
OBJECT
 62
     2
100
AcDbCircle
 10
113.538267
 20
104.071316
 30
0.0
 40
0.15
100
AcDbArc
 50
90.0
 51
180.0
  0
ARC
  5
5B81
100
AcDbEntity
  8
OBJECT
 62
     2
100
AcDbCircle
 10
113.535267
 20
105.149316
 30
0.0
 40
0.1
100
AcDbArc
 50
180.0
 51
270.0
  0
LINE
  5
5B82
100
AcDbEntity
  8
OBJECT
 62
     2
100
AcDbLine
 10
113.538267
 20
105.049316
 30
0.0
 11
113.576267
 21
105.049316
 31
0.0
  0
LINE
  5
5B83
100
AcDbEntity
  8
OBJECT
 62
     2
100
AcDbLine
 10
113.538267
 20
104.221316
 30
0.0
 11
114.048121
 21
104.221316
 31
0.0
  0
LINE
  5
5B84
100
AcDbEntity
  8
OBJECT
 62
     2
100
AcDbLine
 10
113.535267
 20
105.049316
 30
0.0
 11
113.989767
 21
105.049316
 31
0.0
  0
ARC
  5
5B85
100
AcDbEntity
  8
OBJECT
 62
     2
100
AcDbCircle
 10
113.576267
 20
104.799316
 30
0.0
 40
0.25
100
AcDbArc
 50
0.0
 51
90.0
  0
LINE
  5
5B86
100
AcDbEntity
  8
OBJECT
 62
     2
100
AcDbLine
 10
116.185267
 20
105.149316
 30
0.0
 11
116.185267
 21
105.893316
 31
0.0
  0
ARC
  5
5B87
100
AcDbEntity
  8
OBJECT
 62
     2
100
AcDbCircle
 10
116.085267
 20
105.149316
 30
0.0
 40
0.1
100
AcDbArc
 50
270.0
 51
0.0
  0
ARC
  5
5B88
100
AcDbEntity
  8
OBJECT
 62
     2
100
AcDbCircle
 10
116.082267
 20
104.071316
 30
0.0
 40
0.15
100
AcDbArc
 50
0.0
 51
90.0
  0
ARC
  5
5B89
100
AcDbEntity
  8
OBJECT
 62
     2
100
AcDbCircle
 10
116.044267
 20
104.799316
 30
0.0
 40
0.25
100
AcDbArc
 50
90.0
 51
180.0
  0
LINE
  5
5B8A
100
AcDbEntity
  8
OBJECT
 62
     2
100
AcDbLine
 10
115.794267
 20
104.221316
 30
0.0
 11
115.794267
 21
104.799316
 31
0.0
  0
LINE
  5
5B8B
100
AcDbEntity
  8
OBJECT
 62
     2
100
AcDbLine
 10
115.630767
 20
105.049316
 30
0.0
 11
116.085267
 21
105.049316
 31
0.0
  0
LINE
  5
5B8C
100
AcDbEntity
  8
OBJECT
 62
     2
100
AcDbLine
 10
115.904267
 20
105.893316
 30
0.0
 11
115.904267
 21
106.252316
 31
0.0
  0
ARC
  5
5B8F
100
AcDbEntity
  8
OBJECT
 62
     2
100
AcDbCircle
 10
114.596259
 20
107.198606
 30
0.0
 40
0.534548
100
AcDbArc
 50
65.814499
 51
114.185501
  0
LINE
  5
5B90
100
AcDbEntity
  8
OBJECT
 62
     2
100
AcDbLine
 10
114.286767
 20
107.737434
 30
0.0
 11
115.333767
 21
107.737434
 31
0.0
  0
LINE
  5
5B91
100
AcDbEntity
  8
OBJECT
 62
     2
100
AcDbLine
 10
114.596259
 20
107.737434
 30
0.0
 11
114.596259
 21
108.158316
 31
0.0
  0
ARC
  5
5B92
100
AcDbEntity
  8
OBJECT
 62
     2
100
AcDbCircle
 10
114.158259
 20
107.198606
 30
0.0
 40
0.534548
100
AcDbArc
 50
65.814499
 51
76.08947
  0
LINE
  5
5B93
100
AcDbEntity
  8
OBJECT
 62
     2
100
AcDbLine
 10
115.034259
 20
107.737434
 30
0.0
 11
115.034259
 21
108.158316
 31
0.0
  0
ARC
  5
5B94
100
AcDbEntity
  8
OBJECT
 62
     2
100
AcDbCircle
 10
115.472259
 20
107.198606
 30
0.0
 40
0.534548
100
AcDbArc
 50
105.015557
 51
114.185501
  0
ARC
  5
5B95
100
AcDbEntity
  8
OBJECT
 62
     2
100
AcDbCircle
 10
115.034259
 20
107.198606
 30
0.0
 40
0.534548
100
AcDbArc
 50
65.814499
 51
114.185501
  0
LINE
  5
5BAB
100
AcDbEntity
  8
OBJECT
 62
     4
100
AcDbLine
 10
112.163549
 20
103.963316
 30
0.0
 11
112.163549
 21
101.588316
 31
0.0
  0
LINE
  5
5BAC
100
AcDbEntity
  8
OBJECT
 62
     4
100
AcDbLine
 10
113.01225
 20
103.963316
 30
0.0
 11
113.01225
 21
101.588316
 31
0.0
  0
LINE
  5
5BAD
100
AcDbEntity
  8
OBJECT
 62
     4
100
AcDbLine
 10
112.81225
 20
103.963316
 30
0.0
 11
112.81225
 21
101.588316
 31
0.0
  0
LINE
  5
5BAE
100
AcDbEntity
  8
OBJECT
 62
     4
100
AcDbLine
 10
113.21225
 20
103.963316
 30
0.0
 11
113.21225
 21
101.588316
 31
0.0
  0
LINE
  5
5BB5
100
AcDbEntity
  8
CENTER
 62
     5
100
AcDbLine
 10
109.286751
 20
218.186407
 30
0.0
 11
104.548396
 21
218.186407
 31
0.0
  0
LINE
  5
5BB9
100
AcDbEntity
  8
PUMP
 62
     4
100
AcDbLine
 10
100.949588
 20
77.113928
 30
0.0
 11
100.325058
 21
77.113928
 31
0.0
  0
LINE
  5
5BBA
100
AcDbEntity
  8
PUMP
 62
     4
100
AcDbLine
 10
100.949588
 20
76.170752
 30
0.0
 11
100.325058
 21
76.170752
 31
0.0
  0
LINE
  5
5BBB
100
AcDbEntity
  8
PUMP
 62
     4
100
AcDbLine
 10
100.949588
 20
76.720932
 30
0.0
 11
100.325058
 21
76.720932
 31
0.0
  0
LINE
  5
5BBC
100
AcDbEntity
  8
PUMP
 62
     4
100
AcDbLine
 10
100.949588
 20
77.664108
 30
0.0
 11
100.325058
 21
77.664108
 31
0.0
  0
LINE
  5
5BBD
100
AcDbEntity
  8
PUMP
 62
     4
100
AcDbLine
 10
100.949588
 20
75.777755
 30
0.0
 11
100.325058
 21
75.777755
 31
0.0
  0
LINE
  5
5BBE
100
AcDbEntity
  8
PUMP
 62
     4
100
AcDbLine
 10
100.949588
 20
75.227575
 30
0.0
 11
100.325058
 21
75.227575
 31
0.0
  0
ARC
  5
5BBF
100
AcDbEntity
  8
PUMP
 62
     4
100
AcDbCircle
 10
100.325058
 20
72.32495
 30
0.0
 40
0.5
100
AcDbArc
 50
270.0
 51
288.059913
  0
LINE
  5
5BC0
100
AcDbEntity
  8
PUMP
 62
     4
100
AcDbLine
 39
50.0
 10
93.107034
 20
69.386289
 30
0.0
 11
103.77318
 21
69.386289
 31
0.0
  0
LINE
  5
5BC1
100
AcDbEntity
  8
PUMP
 62
     4
100
AcDbLine
 39
50.0
 10
93.107034
 20
76.170752
 30
0.0
 11
93.107034
 21
75.777755
 31
0.0
  0
LINE
  5
5BC2
100
AcDbEntity
  8
PUMP
 62
     4
100
AcDbLine
 39
50.0
 10
93.107034
 20
79.000333
 30
0.0
 11
93.107034
 21
77.664108
 31
0.0
  0
LINE
  5
5BC3
100
AcDbEntity
  8
PUMP
 62
     4
100
AcDbLine
 39
50.0
 10
93.107034
 20
77.113928
 30
0.0
 11
93.107034
 21
76.720932
 31
0.0
  0
LINE
  5
5BC4
100
AcDbEntity
  8
PUMP
 62
     4
100
AcDbLine
 39
50.0
 10
93.107034
 20
75.227575
 30
0.0
 11
93.107034
 21
71.82495
 31
0.0
  0
LINE
  5
5BC5
100
AcDbEntity
  8
PUMP
 62
     4
100
AcDbLine
 39
50.0
 10
100.325058
 20
77.113928
 30
0.0
 11
100.325058
 21
76.720932
 31
0.0
  0
LINE
  5
5BC6
100
AcDbEntity
  8
PUMP
 62
     4
100
AcDbLine
 39
50.0
 10
100.325058
 20
79.000333
 30
0.0
 11
100.325058
 21
77.664108
 31
0.0
  0
LINE
  5
5BC7
100
AcDbEntity
  8
PUMP
 62
     4
100
AcDbLine
 39
50.0
 10
100.325058
 20
76.170752
 30
0.0
 11
100.325058
 21
75.777755
 31
0.0
  0
LINE
  5
5BC8
100
AcDbEntity
  8
PUMP
 62
     4
100
AcDbLine
 39
50.0
 10
100.325058
 20
75.227575
 30
0.0
 11
100.325058
 21
71.82495
 31
0.0
  0
LINE
  5
5BC9
100
AcDbEntity
  8
PUMP
 62
     4
100
AcDbLine
 10
100.325058
 20
79.000333
 30
0.0
 11
99.325058
 21
86.016157
 31
0.0
  0
LINE
  5
5BCA
100
AcDbEntity
  8
PUMP
 62
     4
100
AcDbLine
 10
93.107034
 20
79.000333
 30
0.0
 11
94.107034
 21
86.016157
 31
0.0
  0
ARC
  5
5BCB
100
AcDbEntity
  8
PUMP
 62
     4
100
AcDbCircle
 10
93.863714
 20
70.605619
 30
0.0
 40
1.435037
100
AcDbArc
 50
121.822467
 51
238.177533
  0
LINE
  5
5BCC
100
AcDbEntity
  8
PUMP
 62
     4
100
AcDbLine
 10
92.482504
 20
75.227575
 30
0.0
 11
93.107034
 21
75.227575
 31
0.0
  0
LINE
  5
5BCD
100
AcDbEntity
  8
PUMP
 62
     4
100
AcDbLine
 10
92.482504
 20
75.777755
 30
0.0
 11
93.107034
 21
75.777755
 31
0.0
  0
LINE
  5
5BCE
100
AcDbEntity
  8
PUMP
 62
     4
100
AcDbLine
 10
92.482504
 20
76.720932
 30
0.0
 11
93.107034
 21
76.720932
 31
0.0
  0
LINE
  5
5BCF
100
AcDbEntity
  8
PUMP
 62
     4
100
AcDbLine
 10
92.482504
 20
76.170752
 30
0.0
 11
93.107034
 21
76.170752
 31
0.0
  0
LINE
  5
5BD0
100
AcDbEntity
  8
PUMP
 62
     4
100
AcDbLine
 10
92.482504
 20
77.113928
 30
0.0
 11
93.107034
 21
77.113928
 31
0.0
  0
LINE
  5
5BD1
100
AcDbEntity
  8
PUMP
 62
     4
100
AcDbLine
 10
92.482504
 20
77.664108
 30
0.0
 11
93.107034
 21
77.664108
 31
0.0
  0
LINE
  5
5BD2
100
AcDbEntity
  8
PUMP
 62
     4
100
AcDbLine
 10
92.482504
 20
77.113928
 30
0.0
 11
92.482504
 21
77.664108
 31
0.0
  0
LINE
  5
5BD3
100
AcDbEntity
  8
PUMP
 62
     4
100
AcDbLine
 10
92.482504
 20
76.170752
 30
0.0
 11
92.482504
 21
76.720932
 31
0.0
  0
LINE
  5
5BD4
100
AcDbEntity
  8
PUMP
 62
     4
100
AcDbLine
 10
92.482504
 20
75.227575
 30
0.0
 11
92.482504
 21
75.777755
 31
0.0
  0
LINE
  5
5BD5
100
AcDbEntity
  8
PUMP
 62
     4
100
AcDbLine
 10
96.366383
 20
87.467406
 30
0.0
 11
97.39291
 21
87.467406
 31
0.0
  0
LINE
  5
5BD6
100
AcDbEntity
  8
PUMP
 62
     4
100
AcDbLine
 10
94.649276
 20
87.467406
 30
0.0
 11
94.902496
 21
87.467406
 31
0.0
  0
LINE
  5
5BD7
100
AcDbEntity
  8
PUMP
 62
     4
100
AcDbLine
 10
94.107034
 20
86.016157
 30
0.0
 11
94.649276
 21
86.016157
 31
0.0
  0
LINE
  5
5BD8
100
AcDbEntity
  8
PUMP
 62
     4
100
AcDbLine
 10
94.649276
 20
86.016157
 30
0.0
 11
94.649276
 21
87.467406
 31
0.0
  0
LINE
  5
5BD9
100
AcDbEntity
  8
PUMP
 62
     4
100
AcDbLine
 10
96.366383
 20
87.467406
 30
0.0
 11
96.366383
 21
88.049724
 31
0.0
  0
LINE
  5
5BDA
100
AcDbEntity
  8
PUMP
 62
     4
100
AcDbLine
 10
94.902496
 20
87.467406
 30
0.0
 11
94.902496
 21
88.049724
 31
0.0
  0
LINE
  5
5BDB
100
AcDbEntity
  8
PUMP
 62
     4
100
AcDbLine
 10
94.902496
 20
88.049724
 30
0.0
 11
95.107596
 21
88.536319
 31
0.0
  0
LINE
  5
5BDC
100
AcDbEntity
  8
PUMP
 62
     4
100
AcDbLine
 10
95.107596
 20
88.536319
 30
0.0
 11
96.161283
 21
88.536319
 31
0.0
  0
LINE
  5
5BDD
100
AcDbEntity
  8
PUMP
 62
     4
100
AcDbLine
 10
96.366383
 20
88.049724
 30
0.0
 11
96.161283
 21
88.536319
 31
0.0
  0
CIRCLE
  5
5BDE
100
AcDbEntity
  8
PUMP
 62
     4
100
AcDbCircle
 10
97.51791
 20
88.792423
 30
0.0
 40
0.409756
  0
ARC
  5
5BDF
100
AcDbEntity
  8
PUMP
 62
     4
100
AcDbCircle
 10
97.51791
 20
88.792423
 30
0.0
 40
0.659756
100
AcDbArc
 50
294.342998
 51
245.657002
  0
LINE
  5
5BE0
100
AcDbEntity
  8
PUMP
 62
     4
100
AcDbLine
 10
97.64291
 20
87.467406
 30
0.0
 11
98.782816
 21
87.467406
 31
0.0
  0
LINE
  5
5BE1
100
AcDbEntity
  8
PUMP
 62
     4
100
AcDbLine
 10
97.64291
 20
87.963549
 30
0.0
 11
97.64291
 21
87.467406
 31
0.0
  0
LINE
  5
5BE2
100
AcDbEntity
  8
PUMP
 62
     4
100
AcDbLine
 10
97.39291
 20
87.963549
 30
0.0
 11
97.39291
 21
87.467406
 31
0.0
  0
ARC
  5
5BE3
100
AcDbEntity
  8
PUMP
 62
     4
100
AcDbCircle
 10
97.14291
 20
87.963549
 30
0.0
 40
0.25
100
AcDbArc
 50
0.0
 51
65.657002
  0
ARC
  5
5BE4
100
AcDbEntity
  8
PUMP
 62
     4
100
AcDbCircle
 10
97.89291
 20
87.963549
 30
0.0
 40
0.25
100
AcDbArc
 50
114.342998
 51
180.0
  0
LINE
  5
5BE5
100
AcDbEntity
  8
PUMP
 62
     4
100
AcDbLine
 10
99.325058
 20
86.016157
 30
0.0
 11
98.782816
 21
86.016157
 31
0.0
  0
LINE
  5
5BE6
100
AcDbEntity
  8
PUMP
 62
     4
100
AcDbLine
 10
98.782816
 20
86.016157
 30
0.0
 11
98.782816
 21
87.467406
 31
0.0
  0
ARC
  5
5BE8
100
AcDbEntity
  8
PUMP
 62
     4
100
AcDbCircle
 10
103.77318
 20
70.386289
 30
0.0
 40
1.0
100
AcDbArc
 50
270.0
 51
0.0
  0
LINE
  5
5BE9
100
AcDbEntity
  8
PUMP
 62
     4
100
AcDbLine
 10
101.8899
 20
74.275816
 30
0.0
 11
104.914555
 21
74.275816
 31
0.0
  0
LINE
  5
5BEA
100
AcDbEntity
  8
PUMP
 62
     4
100
AcDbLine
 10
101.763034
 20
72.895238
 30
0.0
 11
101.763034
 21
72.26793
 31
0.0
  0
ARC
  5
5BEB
100
AcDbEntity
  8
PUMP
 62
     4
100
AcDbCircle
 10
101.8899
 20
74.025816
 30
0.0
 40
0.25
100
AcDbArc
 50
90.0
 51
180.0
  0
ARC
  5
5BEC
100
AcDbEntity
  8
PUMP
 62
     4
100
AcDbCircle
 10
101.8899
 20
73.110656
 30
0.0
 40
0.25
100
AcDbArc
 50
180.0
 51
239.50498
  0
LINE
  5
5BED
100
AcDbEntity
  8
PUMP
 62
     4
100
AcDbLine
 10
101.6399
 20
74.025816
 30
0.0
 11
101.6399
 21
73.110656
 31
0.0
  0
LINE
  5
5BEE
100
AcDbEntity
  8
PUMP
 62
     4
100
AcDbLine
 10
101.763034
 20
72.26793
 30
0.0
 11
100.480063
 21
71.849584
 31
0.0
  0
LINE
  5
5BEF
100
AcDbEntity
  8
PUMP
 62
     4
100
AcDbLine
 10
102.572227
 20
74.275816
 30
0.0
 11
104.232227
 21
74.275816
 31
0.0
  0
LINE
  5
5BF1
100
AcDbEntity
  8
PUMP
 62
     4
100
AcDbLine
 10
104.914555
 20
72.860656
 30
0.0
 11
104.77318
 21
72.860656
 31
0.0
  0
ARC
  5
5BF2
100
AcDbEntity
  8
PUMP
 62
     4
100
AcDbCircle
 10
104.914555
 20
73.110656
 30
0.0
 40
0.25
100
AcDbArc
 50
270.0
 51
0.0
  0
LINE
  5
5BF3
100
AcDbEntity
  8
PUMP
 62
     4
100
AcDbLine
 10
105.164555
 20
74.025816
 30
0.0
 11
105.164555
 21
73.110656
 31
0.0
  0
ARC
  5
5BF4
100
AcDbEntity
  8
PUMP
 62
     4
100
AcDbCircle
 10
104.914555
 20
74.025816
 30
0.0
 40
0.25
100
AcDbArc
 50
0.0
 51
90.0
  0
LINE
  5
5BF5
100
AcDbEntity
  8
PUMP
 62
     4
100
AcDbLine
 10
104.77318
 20
72.860656
 30
0.0
 11
104.77318
 21
70.386289
 31
0.0
  0
LINE
  5
5BF9
100
AcDbEntity
  8
PUMP
 62
     4
100
AcDbLine
 10
100.949588
 20
77.113928
 30
0.0
 11
100.949588
 21
77.664108
 31
0.0
  0
LINE
  5
5BFA
100
AcDbEntity
  8
PUMP
 62
     4
100
AcDbLine
 10
100.949588
 20
76.170752
 30
0.0
 11
100.949588
 21
76.720932
 31
0.0
  0
LINE
  5
5BFB
100
AcDbEntity
  8
PUMP
 62
     4
100
AcDbLine
 10
100.949588
 20
75.227575
 30
0.0
 11
100.949588
 21
75.777755
 31
0.0
  0
CIRCLE
  5
5BFD
100
AcDbEntity
  8
OBJECT
100
AcDbCircle
 10
96.516046
 20
216.936407
 30
0.0
 40
4.233542
  0
ARC
  5
5BFE
100
AcDbEntity
  8
OBJECT
100
AcDbCircle
 10
96.277841
 20
210.830004
 30
0.0
 40
10.250958
100
AcDbArc
 50
48.962105
 51
81.352922
  0
ARC
  5
5BFF
100
AcDbEntity
  8
OBJECT
100
AcDbCircle
 10
96.277841
 20
207.516448
 30
0.0
 40
10.250958
100
AcDbArc
 50
47.946732
 51
64.164107
  0
LINE
  5
5C00
100
AcDbEntity
  8
HIDDEN
100
AcDbLine
 10
87.685307
 20
234.936407
 30
0.0
 11
111.685307
 21
234.936407
 31
0.0
  0
LINE
  5
5C01
100
AcDbEntity
  8
HIDDEN
100
AcDbLine
 10
87.685307
 20
198.936407
 30
0.0
 11
111.685307
 21
198.936407
 31
0.0
  0
LINE
  5
5C02
100
AcDbEntity
  8
CENTER
100
AcDbLine
 10
69.685307
 20
216.936407
 30
0.0
 11
129.685307
 21
216.936407
 31
0.0
  0
CIRCLE
  5
5C04
100
AcDbEntity
  8
OBJECT
100
AcDbCircle
 10
99.685307
 20
216.936407
 30
0.0
 40
24.0
  0
CIRCLE
  5
5C05
100
AcDbEntity
  8
OBJECT
100
AcDbCircle
 10
99.685307
 20
216.936407
 30
0.0
 40
27.0
  0
ARC
  5
5C08
100
AcDbEntity
  8
OBJECT
100
AcDbCircle
 10
65.971511
 20
234.389006
 30
0.0
 40
20.501397
100
AcDbArc
 50
300.869552
 51
358.40989
  0
ARC
  5
5C09
100
AcDbEntity
  8
OBJECT
100
AcDbCircle
 10
65.771024
 20
234.476404
 30
0.0
 40
20.454777
100
AcDbArc
 50
305.698942
 51
358.14503
  0
ARC
  5
5C0A
100
AcDbEntity
  8
OBJECT
100
AcDbCircle
 10
61.565731
 20
234.63549
 30
0.0
 40
23.276263
100
AcDbArc
 50
309.881372
 51
353.602852
  0
ARC
  5
5C0B
100
AcDbEntity
  8
OBJECT
100
AcDbCircle
 10
61.391238
 20
234.7219
 30
0.0
 40
23.209779
100
AcDbArc
 50
312.428727
 51
353.406392
  0
ARC
  5
5C0C
100
AcDbEntity
  8
OBJECT
100
AcDbCircle
 10
35.514669
 20
244.475688
 30
0.0
 40
49.498948
100
AcDbArc
 50
325.874592
 51
343.299522
  0
ARC
  5
5C0D
100
AcDbEntity
  8
OBJECT
100
AcDbCircle
 10
35.316168
 20
244.598073
 30
0.0
 40
49.474559
100
AcDbArc
 50
326.328697
 51
343.21661
  0
LINE
  5
5C0E
100
AcDbEntity
  8
CENTER
100
AcDbLine
 10
78.472104
 20
238.14961
 30
0.0
 11
99.685307
 21
216.936407
 31
0.0
  0
LINE
  5
5C0F
100
AcDbEntity
  8
HIDDEN
100
AcDbLine
 10
87.685307
 20
198.936407
 30
0.0
 11
87.685307
 21
234.936407
 31
0.0
  0
LINE
  5
5C10
100
AcDbEntity
  8
CENTER
100
AcDbLine
 10
99.685307
 20
246.936407
 30
0.0
 11
99.685307
 21
186.936407
 31
0.0
  0
LINE
  5
5C12
100
AcDbEntity
  8
OBJECT
100
AcDbLine
 10
76.490475
 20
218.115907
 30
0.0
 11
76.490475
 21
215.756907
 31
0.0
  0
LINE
  5
5C13
100
AcDbEntity
  8
OBJECT
100
AcDbLine
 10
76.490475
 20
218.311407
 30
0.0
 11
76.490475
 21
215.561407
 31
0.0
  0
CIRCLE
  5
5C14
100
AcDbEntity
  8
OBJECT
100
AcDbCircle
 10
74.185307
 20
216.936407
 30
0.0
 40
0.3125
  0
LINE
  5
5C15
100
AcDbEntity
  8
OBJECT
100
AcDbLine
 10
75.724728
 20
215.561407
 30
0.0
 11
76.490475
 21
215.561407
 31
0.0
  0
LINE
  5
5C16
100
AcDbEntity
  8
OBJECT
100
AcDbLine
 10
75.724728
 20
218.311407
 30
0.0
 11
76.490475
 21
218.311407
 31
0.0
  0
CIRCLE
  5
5C17
100
AcDbEntity
  8
OBJECT
100
AcDbCircle
 10
86.935307
 20
194.852759
 30
0.0
 40
0.3125
  0
ARC
  5
5C19
100
AcDbEntity
  8
OBJECT
100
AcDbCircle
 10
84.660669
 20
231.961045
 30
0.0
 40
0.425
100
AcDbArc
 50
343.072396
 51
231.163415
  0
LINE
  5
5C1A
100
AcDbEntity
  8
OBJECT
100
AcDbLine
 10
84.551197
 20
230.967689
 30
0.0
 11
84.961189
 21
231.377681
 31
0.0
  0
LINE
  5
5C1B
100
AcDbEntity
  8
OBJECT
100
AcDbLine
 10
84.961189
 20
231.377681
 30
0.0
 11
84.784412
 21
231.554458
 31
0.0
  0
LINE
  5
5C1C
100
AcDbEntity
  8
OBJECT
100
AcDbLine
 10
81.567077
 20
229.751336
 30
0.0
 11
86.870378
 21
235.054637
 31
0.0
  0
LINE
  5
5C1D
100
AcDbEntity
  8
OBJECT
100
AcDbLine
 10
81.3903
 20
229.928113
 30
0.0
 11
86.693601
 21
235.231414
 31
0.0
  0
LINE
  5
5C1E
100
AcDbEntity
  8
OBJECT
100
AcDbLine
 10
83.287187
 20
231.825
 30
0.0
 11
81.976773
 21
233.135414
 31
0.0
  0
LINE
  5
5C1F
100
AcDbEntity
  8
OBJECT
100
AcDbLine
 10
82.506935
 20
228.923428
 30
0.0
 11
83.193422
 21
229.609914
 31
0.0
  0
LINE
  5
5C20
100
AcDbEntity
  8
OBJECT
100
AcDbLine
 10
83.193422
 20
229.609914
 30
0.0
 11
83.016645
 21
229.786691
 31
0.0
  0
ARC
  5
5C21
100
AcDbEntity
  8
OBJECT
100
AcDbCircle
 10
82.892902
 20
230.193278
 30
0.0
 40
0.425
100
AcDbArc
 50
343.072396
 51
222.451975
  0
LINE
  5
5C22
100
AcDbEntity
  8
OBJECT
100
AcDbLine
 10
81.3903
 20
229.928113
 30
0.0
 11
82.280219
 21
229.038194
 31
0.0
  0
ARC
  5
5C23
100
AcDbEntity
  8
OBJECT
100
AcDbCircle
 10
82.804514
 20
230.281667
 30
0.0
 40
0.125
100
AcDbArc
 50
342.072399
 51
162.072399
  0
ARC
  5
5C24
100
AcDbEntity
  8
OBJECT
100
AcDbCircle
 10
82.892902
 20
230.193278
 30
0.0
 40
0.425
100
AcDbArc
 50
257.925016
 51
286.927423
  0
ARC
  5
5C25
100
AcDbEntity
  8
OBJECT
100
AcDbCircle
 10
84.660669
 20
231.961045
 30
0.0
 40
0.425
100
AcDbArc
 50
266.512626
 51
286.927423
  0
LINE
  5
5C26
100
AcDbEntity
  8
OBJECT
100
AcDbLine
 10
83.476265
 20
229.892757
 30
0.0
 11
84.242672
 21
230.659165
 31
0.0
  0
ARC
  5
5C27
100
AcDbEntity
  8
OBJECT
100
AcDbCircle
 10
84.572281
 20
232.049434
 30
0.0
 40
0.125
100
AcDbArc
 50
358.311522
 51
178.311522
  0
LINE
  5
5C28
100
AcDbEntity
  8
OBJECT
100
AcDbLine
 10
83.476265
 20
229.892757
 30
0.0
 11
83.299488
 21
230.069534
 31
0.0
  0
LINE
  5
5C29
100
AcDbEntity
  8
OBJECT
100
AcDbLine
 10
83.567763
 20
234.372851
 30
0.0
 11
82.15355
 21
232.958637
 31
0.0
  0
LINE
  5
5C2A
100
AcDbEntity
  8
OBJECT
100
AcDbLine
 10
84.701401
 20
233.239213
 30
0.0
 11
83.390987
 21
234.549627
 31
0.0
  0
LINE
  5
5C2B
100
AcDbEntity
  8
OBJECT
100
AcDbLine
 10
85.244032
 20
231.660524
 30
0.0
 11
86.135029
 21
232.551522
 31
0.0
  0
LINE
  5
5C2C
100
AcDbEntity
  8
OBJECT
100
AcDbLine
 10
85.244032
 20
231.660524
 30
0.0
 11
85.067255
 21
231.837301
 31
0.0
  0
LINE
  5
5C2D
100
AcDbEntity
  8
OBJECT
100
AcDbLine
 10
86.693601
 20
235.231414
 30
0.0
 11
87.754261
 21
234.170754
 31
0.0
  0
LINE
  5
5C2E
100
AcDbEntity
  8
OBJECT
100
AcDbLine
 10
87.011798
 20
233.428291
 30
0.0
 11
86.835022
 21
233.605068
 31
0.0
  0
LINE
  5
5C2F
100
AcDbEntity
  8
OBJECT
100
AcDbLine
 10
86.413549
 20
232.830042
 30
0.0
 11
86.728956
 21
233.145448
 31
0.0
  0
ARC
  5
5C30
100
AcDbEntity
  8
OBJECT
100
AcDbCircle
 10
86.428436
 20
233.728812
 30
0.0
 40
0.425
100
AcDbArc
 50
343.072396
 51
236.847719
  0
ARC
  5
5C31
100
AcDbEntity
  8
OBJECT
100
AcDbCircle
 10
86.428436
 20
233.728812
 30
0.0
 40
0.425
100
AcDbArc
 50
272.123366
 51
286.927423
  0
ARC
  5
5C32
100
AcDbEntity
  8
OBJECT
100
AcDbCircle
 10
86.340048
 20
233.8172
 30
0.0
 40
0.125
100
AcDbArc
 50
0.338835
 51
180.338835
  0
LINE
  5
5C33
100
AcDbEntity
  8
OBJECT
100
AcDbLine
 10
86.728956
 20
233.145448
 30
0.0
 11
86.552179
 21
233.322225
 31
0.0
  0
LINE
  5
5C34
100
AcDbEntity
  8
OBJECT
100
AcDbLine
 10
87.011798
 20
233.428291
 30
0.0
 11
87.754261
 21
234.170754
 31
0.0
  0
CIRCLE
  5
5C35
100
AcDbEntity
  8
OBJECT
100
AcDbCircle
 10
86.935307
 20
239.020055
 30
0.0
 40
0.3125
  0
LINE
  5
5C36
100
AcDbEntity
  8
HIDDEN
100
AcDbLine
 10
111.685307
 20
198.936407
 30
0.0
 11
111.685307
 21
234.936407
 31
0.0
  0
CIRCLE
  5
5C3A
100
AcDbEntity
  8
OBJECT
100
AcDbCircle
 10
112.435307
 20
194.852759
 30
0.0
 40
0.3125
  0
CIRCLE
  5
5D0A
100
AcDbEntity
  8
OBJECT
100
AcDbCircle
 10
125.185307
 20
216.936407
 30
0.0
 40
0.3125
  0
CIRCLE
  5
5D0C
100
AcDbEntity
  8
OBJECT
100
AcDbCircle
 10
112.435307
 20
239.020055
 30
0.0
 40
0.3125
  0
LINE
  5
5D15
100
AcDbEntity
  8
OBJECT
100
AcDbLine
 10
101.603335
 20
160.919863
 30
0.0
 11
75.435307
 21
160.919863
 31
0.0
  0
LINE
  5
5D16
100
AcDbEntity
  8
OBJECT
100
AcDbLine
 10
101.799994
 20
161.294863
 30
0.0
 11
72.685307
 21
161.294863
 31
0.0
  0
LINE
  5
5D18
100
AcDbEntity
  8
OBJECT
100
AcDbLine
 10
101.01495
 20
155.760726
 30
0.0
 11
99.465137
 21
156.573485
 31
0.0
  0
LINE
  5
5D19
100
AcDbEntity
  8
OBJECT
100
AcDbLine
 10
103.998775
 20
165.487618
 30
0.0
 11
99.41249
 21
156.742241
 31
0.0
  0
LINE
  5
5D1A
100
AcDbEntity
  8
OBJECT
  6
CONTINUOUS
 62
     2
100
AcDbLine
 10
87.685307
 20
157.919863
 30
0.0
 11
100.030063
 21
157.919863
 31
0.0
  0
LINE
  5
5D1B
100
AcDbEntity
  8
OBJECT
  6
CONTINUOUS
 62
     2
100
AcDbLine
 10
112.185307
 20
160.919863
 30
0.0
 11
94.507632
 21
178.597526
 31
0.0
  0
LINE
  5
5D1C
100
AcDbEntity
  8
OBJECT
  6
CONTINUOUS
 62
     2
100
AcDbLine
 10
112.538823
 20
161.273439
 30
0.0
 11
94.86472
 21
178.947543
 31
0.0
  0
LINE
  5
5D1E
100
AcDbEntity
  8
OBJECT
100
AcDbLine
 10
72.685307
 20
65.775816
 30
0.0
 11
126.685307
 21
65.775816
 31
0.0
  0
LINE
  5
5D27
100
AcDbEntity
  8
OBJECT
100
AcDbLine
 10
88.34045
 20
149.256751
 30
0.0
 11
88.34045
 21
113.256223
 31
0.0
  0
LINE
  5
5D28
100
AcDbEntity
  8
OBJECT
100
AcDbLine
 10
88.09045
 20
149.256751
 30
0.0
 11
88.09045
 21
113.256224
 31
0.0
  0
LINE
  5
5D2A
100
AcDbEntity
  8
OBJECT
100
AcDbLine
 10
85.09045
 20
149.256751
 30
0.0
 11
85.09045
 21
91.097243
 31
0.0
  0
LINE
  5
5D2B
100
AcDbEntity
  8
OBJECT
100
AcDbLine
 10
84.84045
 20
149.256751
 30
0.0
 11
84.84045
 21
91.097244
 31
0.0
  0
LINE
  5
5D2C
100
AcDbEntity
  8
OBJECT
100
AcDbLine
 10
81.84045
 20
149.256751
 30
0.0
 11
81.84045
 21
78.580659
 31
0.0
  0
LINE
  5
5D2D
100
AcDbEntity
  8
OBJECT
100
AcDbLine
 10
81.59045
 20
149.256751
 30
0.0
 11
81.59045
 21
78.58066
 31
0.0
  0
LINE
  5
5D2E
100
AcDbEntity
  8
OBJECT
100
AcDbLine
 10
75.185307
 20
67.025816
 30
0.0
 11
75.185307
 21
160.169863
 31
0.0
  0
LINE
  5
5D2F
100
AcDbEntity
  8
OBJECT
100
AcDbLine
 10
75.685307
 20
67.275816
 30
0.0
 11
75.685307
 21
160.669863
 31
0.0
  0
LINE
  5
5D30
100
AcDbEntity
  8
OBJECT
  6
CONTINUOUS
 62
     2
100
AcDbLine
 39
50.0
 10
89.700619
 20
110.35349
 30
0.0
 11
86.730282
 21
110.35349
 31
0.0
  0
LINE
  5
5D31
100
AcDbEntity
  8
OBJECT
  6
CONTINUOUS
 62
     2
100
AcDbLine
 39
50.0
 10
88.21545
 20
113.522985
 30
0.0
 11
86.719723
 21
110.330968
 31
0.0
  0
LINE
  5
5D32
100
AcDbEntity
  8
OBJECT
  6
CONTINUOUS
 62
     2
100
AcDbLine
 39
50.0
 10
88.21545
 20
113.522985
 30
0.0
 11
89.700619
 21
110.35349
 31
0.0
  0
ARC
  5
5D33
100
AcDbEntity
  8
OBJECT
  6
CONTINUOUS
 62
     2
100
AcDbCircle
 39
50.0
 10
88.21545
 20
110.353551
 30
0.0
 40
1.485168
100
AcDbArc
 50
180.002355
 51
359.997645
  0
LINE
  5
5D34
100
AcDbEntity
  8
OBJECT
  6
CONTINUOUS
 62
     2
100
AcDbLine
 39
50.0
 10
89.21545
 20
114.93601
 30
0.0
 11
87.21545
 21
114.93601
 31
0.0
  0
LINE
  5
5D35
100
AcDbEntity
  8
OBJECT
  6
CONTINUOUS
 62
     2
100
AcDbLine
 39
50.0
 10
87.21545
 20
113.999731
 30
0.0
 11
89.21545
 21
113.999731
 31
0.0
  0
LINE
  5
5D36
100
AcDbEntity
  8
OBJECT
  6
CONTINUOUS
 62
     2
100
AcDbLine
 39
50.0
 10
87.21545
 20
114.93601
 30
0.0
 11
87.21545
 21
113.999731
 31
0.0
  0
LINE
  5
5D37
100
AcDbEntity
  8
OBJECT
  6
CONTINUOUS
 62
     2
100
AcDbLine
 39
50.0
 10
89.21545
 20
113.999731
 30
0.0
 11
89.21545
 21
114.93601
 31
0.0
  0
LINE
  5
5D3E
100
AcDbEntity
  8
OBJECT
  6
CONTINUOUS
 62
     2
100
AcDbLine
 39
50.0
 10
85.96545
 20
91.840751
 30
0.0
 11
85.96545
 21
92.77703
 31
0.0
  0
LINE
  5
5D3F
100
AcDbEntity
  8
OBJECT
  6
CONTINUOUS
 62
     2
100
AcDbLine
 39
50.0
 10
83.96545
 20
92.77703
 30
0.0
 11
83.96545
 21
91.840751
 31
0.0
  0
LINE
  5
5D40
100
AcDbEntity
  8
OBJECT
  6
CONTINUOUS
 62
     2
100
AcDbLine
 39
50.0
 10
83.96545
 20
91.840751
 30
0.0
 11
85.96545
 21
91.840751
 31
0.0
  0
LINE
  5
5D41
100
AcDbEntity
  8
OBJECT
  6
CONTINUOUS
 62
     2
100
AcDbLine
 39
50.0
 10
85.96545
 20
92.77703
 30
0.0
 11
83.96545
 21
92.77703
 31
0.0
  0
ARC
  5
5D42
100
AcDbEntity
  8
OBJECT
  6
CONTINUOUS
 62
     2
100
AcDbCircle
 39
50.0
 10
84.96545
 20
88.194571
 30
0.0
 40
1.485168
100
AcDbArc
 50
180.002355
 51
359.997645
  0
LINE
  5
5D43
100
AcDbEntity
  8
OBJECT
  6
CONTINUOUS
 62
     2
100
AcDbLine
 39
50.0
 10
84.96545
 20
91.364005
 30
0.0
 11
86.450619
 21
88.19451
 31
0.0
  0
LINE
  5
5D44
100
AcDbEntity
  8
OBJECT
  6
CONTINUOUS
 62
     2
100
AcDbLine
 39
50.0
 10
84.96545
 20
91.364005
 30
0.0
 11
83.469723
 21
88.171988
 31
0.0
  0
LINE
  5
5D45
100
AcDbEntity
  8
OBJECT
  6
CONTINUOUS
 62
     2
100
AcDbLine
 39
50.0
 10
86.450619
 20
88.19451
 30
0.0
 11
83.480282
 21
88.19451
 31
0.0
  0
LINE
  5
5D46
100
AcDbEntity
  8
OBJECT
  6
CONTINUOUS
 62
     2
100
AcDbLine
 39
50.0
 10
82.71545
 20
79.324167
 30
0.0
 11
82.71545
 21
80.260446
 31
0.0
  0
LINE
  5
5D47
100
AcDbEntity
  8
OBJECT
  6
CONTINUOUS
 62
     2
100
AcDbLine
 39
50.0
 10
80.71545
 20
80.260446
 30
0.0
 11
80.71545
 21
79.324167
 31
0.0
  0
LINE
  5
5D48
100
AcDbEntity
  8
OBJECT
  6
CONTINUOUS
 62
     2
100
AcDbLine
 39
50.0
 10
80.71545
 20
79.324167
 30
0.0
 11
82.71545
 21
79.324167
 31
0.0
  0
LINE
  5
5D49
100
AcDbEntity
  8
OBJECT
  6
CONTINUOUS
 62
     2
100
AcDbLine
 39
50.0
 10
83.200619
 20
75.677926
 30
0.0
 11
80.230282
 21
75.677926
 31
0.0
  0
ARC
  5
5D4A
100
AcDbEntity
  8
OBJECT
  6
CONTINUOUS
 62
     2
100
AcDbCircle
 39
50.0
 10
81.71545
 20
75.677987
 30
0.0
 40
1.485168
100
AcDbArc
 50
180.002355
 51
359.997645
  0
LINE
  5
5D4B
100
AcDbEntity
  8
OBJECT
  6
CONTINUOUS
 62
     2
100
AcDbLine
 39
50.0
 10
81.71545
 20
78.847421
 30
0.0
 11
80.219723
 21
75.655404
 31
0.0
  0
LINE
  5
5D4C
100
AcDbEntity
  8
OBJECT
  6
CONTINUOUS
 62
     2
100
AcDbLine
 39
50.0
 10
81.71545
 20
78.847421
 30
0.0
 11
83.200619
 21
75.677926
 31
0.0
  0
LINE
  5
5D4D
100
AcDbEntity
  8
OBJECT
  6
CONTINUOUS
 62
     2
100
AcDbLine
 39
50.0
 10
82.71545
 20
80.260446
 30
0.0
 11
80.71545
 21
80.260446
 31
0.0
  0
INSERT
  5
5D5A
100
AcDbEntity
  8
HATCH
100
AcDbBlockReference
  2
*X2
 10
-80.212457
 20
-5.353113
 30
0.0
1001
ACAD
1000
HATCH
1002
{
1070
    16
1000
ANSI37
1040
0.5
1040
0.0
1002
}
  0
LINE
  5
5D5B
100
AcDbEntity
  8
OBJECT
100
AcDbLine
 10
72.685307
 20
66.525816
 30
0.0
 11
74.685307
 21
66.525816
 31
0.0
  0
LINE
  5
5D5C
100
AcDbEntity
  8
OBJECT
100
AcDbLine
 10
72.685307
 20
65.775816
 30
0.0
 11
72.685307
 21
66.525816
 31
0.0
  0
ARC
  5
5D5D
100
AcDbEntity
  8
OBJECT
100
AcDbCircle
 10
74.685307
 20
67.025816
 30
0.0
 40
0.5
100
AcDbArc
 50
270.0
 51
0.0
  0
ARC
  5
5D5E
100
AcDbEntity
  8
OBJECT
100
AcDbCircle
 10
76.185307
 20
67.275816
 30
0.0
 40
0.5
100
AcDbArc
 50
180.0
 51
270.0
  0
INSERT
  5
5D5F
100
AcDbEntity
  8
HATCH
100
AcDbBlockReference
  2
*X2
 10
-83.462457
 20
-17.869697
 30
0.0
1001
ACAD
1000
HATCH
1002
{
1070
    16
1000
ANSI37
1040
0.5
1040
0.0
1002
}
  0
LINE
  5
5D7E
100
AcDbEntity
  8
OBJECT
100
AcDbLine
 10
74.826307
 20
116.139648
 30
0.0
 11
74.826307
 21
113.389648
 31
0.0
  0
LINE
  5
5D7F
100
AcDbEntity
  8
OBJECT
100
AcDbLine
 10
72.248307
 20
113.748648
 30
0.0
 11
72.248307
 21
122.498648
 31
0.0
  0
LINE
  5
5D80
100
AcDbEntity
  8
OBJECT
100
AcDbLine
 10
75.185307
 20
122.857648
 30
0.0
 11
75.185307
 21
113.389648
 31
0.0
  0
LINE
  5
5D81
100
AcDbEntity
  8
OBJECT
100
AcDbLine
 10
72.248307
 20
113.748648
 30
0.0
 11
74.826307
 21
113.748648
 31
0.0
  0
LINE
  5
5D82
100
AcDbEntity
  8
OBJECT
100
AcDbLine
 10
74.826307
 20
113.389648
 30
0.0
 11
75.185307
 21
113.389648
 31
0.0
  0
LINE
  5
5D83
100
AcDbEntity
  8
OBJECT
100
AcDbLine
 10
72.248307
 20
122.498648
 30
0.0
 11
74.826307
 21
122.498648
 31
0.0
  0
LINE
  5
5D85
100
AcDbEntity
  8
OBJECT
100
AcDbLine
 10
74.826307
 20
116.139648
 30
0.0
 11
75.185307
 21
116.139648
 31
0.0
  0
LINE
  5
5D86
100
AcDbEntity
  8
OBJECT
100
AcDbLine
 10
74.826307
 20
115.717648
 30
0.0
 11
75.185307
 21
115.717648
 31
0.0
  0
LINE
  5
5D87
100
AcDbEntity
  8
OBJECT
100
AcDbLine
 10
74.826307
 20
122.857648
 30
0.0
 11
75.185307
 21
122.857648
 31
0.0
  0
LINE
  5
5D88
100
AcDbEntity
  8
OBJECT
100
AcDbLine
 10
74.826307
 20
120.107648
 30
0.0
 11
75.185307
 21
120.107648
 31
0.0
  0
LINE
  5
5D89
100
AcDbEntity
  8
OBJECT
100
AcDbLine
 10
74.826307
 20
120.529648
 30
0.0
 11
75.185307
 21
120.529648
 31
0.0
  0
LINE
  5
5D8A
100
AcDbEntity
  8
OBJECT
100
AcDbLine
 10
74.826307
 20
122.857648
 30
0.0
 11
74.826307
 21
120.107648
 31
0.0
  0
INSERT
  5
5D8B
100
AcDbEntity
  8
HATCH
100
AcDbBlockReference
  2
*X2
 10
-76.962457
 20
16.805867
 30
0.0
1001
ACAD
1000
HATCH
1002
{
1070
    16
1000
ANSI37
1040
0.5
1040
0.0
1002
}
  0
LINE
  5
5D8C
100
AcDbEntity
  8
OBJECT
  6
CONTINUOUS
 62
     2
100
AcDbLine
 39
50.0
 10
84.740341
 20
151.242484
 30
0.0
 11
84.84045
 21
151.415868
 31
0.0
  0
LINE
  5
5D8D
100
AcDbEntity
  8
OBJECT
  6
CONTINUOUS
 62
     2
100
AcDbLine
 39
50.0
 10
85.09045
 20
150.982823
 30
0.0
 11
84.976203
 21
150.982823
 31
0.0
  0
LINE
  5
5D8E
100
AcDbEntity
  8
OBJECT
  6
CONTINUOUS
 62
     2
100
AcDbLine
 39
50.0
 10
84.84045
 20
152.48575
 30
0.0
 11
84.734509
 21
152.669285
 31
0.0
  0
LINE
  5
5D8F
100
AcDbEntity
  8
OBJECT
  6
CONTINUOUS
 62
     2
100
AcDbLine
 39
50.0
 10
85.09045
 20
152.918795
 30
0.0
 11
85.145167
 21
152.824029
 31
0.0
  0
LINE
  5
5D90
100
AcDbEntity
  8
OBJECT
  6
CONTINUOUS
 62
     2
100
AcDbLine
 39
50.0
 10
85.135478
 20
152.563757
 30
0.0
 11
85.09045
 21
152.48575
 31
0.0
  0
LINE
  5
5D91
100
AcDbEntity
  8
OBJECT
  6
CONTINUOUS
 62
     2
100
AcDbLine
 39
50.0
 10
84.831221
 20
152.902809
 30
0.0
 11
84.84045
 21
152.918795
 31
0.0
  0
LINE
  5
5D92
100
AcDbEntity
  8
OBJECT
 62
     2
100
AcDbLine
 39
20.0
 10
83.96545
 20
153.308751
 30
0.0
 11
85.96545
 21
153.308751
 31
0.0
  0
LINE
  5
5D93
100
AcDbEntity
  8
OBJECT
  6
CONTINUOUS
 62
     2
100
AcDbLine
 39
50.0
 10
84.84045
 20
152.918795
 30
0.0
 11
85.09045
 21
152.918795
 31
0.0
  0
LINE
  5
5D94
100
AcDbEntity
  8
OBJECT
  6
CONTINUOUS
 62
     2
100
AcDbLine
 39
50.0
 10
85.09045
 20
152.48575
 30
0.0
 11
84.84045
 21
152.48575
 31
0.0
  0
LINE
  5
5D95
100
AcDbEntity
  8
OBJECT
  6
CONTINUOUS
 62
     2
100
AcDbLine
 39
50.0
 10
85.21545
 20
151.199376
 30
0.0
 11
85.09045
 21
150.982823
 31
0.0
  0
LINE
  5
5D96
100
AcDbEntity
  8
OBJECT
  6
CONTINUOUS
 62
     2
100
AcDbLine
 39
50.0
 10
84.84045
 20
151.415868
 30
0.0
 11
85.09045
 21
151.415868
 31
0.0
  0
LINE
  5
5D97
100
AcDbEntity
  8
OBJECT
  6
CONTINUOUS
 62
     2
100
AcDbLine
 39
50.0
 10
85.09045
 20
151.415868
 30
0.0
 11
85.21545
 21
151.199376
 31
0.0
  0
LINE
  5
5D98
100
AcDbEntity
  8
OBJECT
 62
     2
100
AcDbLine
 39
20.0
 10
81.39045
 20
150.308751
 30
0.0
 11
81.39045
 21
150.058751
 31
0.0
  0
LINE
  5
5D99
100
AcDbEntity
  8
OBJECT
 62
     2
100
AcDbLine
 39
20.0
 10
81.49045
 20
150.308751
 30
0.0
 11
81.49045
 21
150.058751
 31
0.0
  0
LINE
  5
5D9A
100
AcDbEntity
  8
OBJECT
 62
     2
100
AcDbLine
 39
20.0
 10
81.94045
 20
150.308751
 30
0.0
 11
81.94045
 21
150.058751
 31
0.0
  0
LINE
  5
5D9B
100
AcDbEntity
  8
OBJECT
 62
     2
100
AcDbLine
 39
20.0
 10
82.04045
 20
150.308751
 30
0.0
 11
82.04045
 21
150.058751
 31
0.0
  0
LINE
  5
5D9C
100
AcDbEntity
  8
OBJECT
 62
     2
100
AcDbLine
 39
20.0
 10
82.04045
 20
149.858751
 30
0.0
 11
82.04045
 21
149.473751
 31
0.0
  0
LINE
  5
5D9D
100
AcDbEntity
  8
OBJECT
 62
     2
100
AcDbLine
 39
20.0
 10
81.94045
 20
149.858751
 30
0.0
 11
81.94045
 21
149.473751
 31
0.0
  0
LINE
  5
5D9E
100
AcDbEntity
  8
OBJECT
 62
     2
100
AcDbLine
 39
20.0
 10
81.49045
 20
149.858751
 30
0.0
 11
81.49045
 21
149.473751
 31
0.0
  0
LINE
  5
5D9F
100
AcDbEntity
  8
OBJECT
 62
     2
100
AcDbLine
 39
20.0
 10
81.39045
 20
149.858751
 30
0.0
 11
81.39045
 21
149.473751
 31
0.0
  0
ARC
  5
5DA0
100
AcDbEntity
  8
OBJECT
 62
     2
100
AcDbCircle
 39
20.0
 10
81.71545
 20
150.130494
 30
0.0
 40
0.694216
100
AcDbArc
 50
251.088553
 51
288.911447
  0
LINE
  5
5DA1
100
AcDbEntity
  8
OBJECT
 62
     2
100
AcDbLine
 39
20.0
 10
82.17795
 20
149.423751
 30
0.0
 11
82.17795
 21
149.406751
 31
0.0
  0
LINE
  5
5DA2
100
AcDbEntity
  8
OBJECT
 62
     2
100
AcDbLine
 39
20.0
 10
81.25295
 20
149.423751
 30
0.0
 11
81.25295
 21
149.406751
 31
0.0
  0
LINE
  5
5DA3
100
AcDbEntity
  8
OBJECT
 62
     2
100
AcDbLine
 39
20.0
 10
82.14045
 20
150.058751
 30
0.0
 11
82.14045
 21
149.858751
 31
0.0
  0
LINE
  5
5DA4
100
AcDbEntity
  8
OBJECT
 62
     2
100
AcDbLine
 39
20.0
 10
81.29045
 20
150.058751
 30
0.0
 11
81.29045
 21
149.858751
 31
0.0
  0
LINE
  5
5DA5
100
AcDbEntity
  8
OBJECT
 62
     2
100
AcDbLine
 39
20.0
 10
82.14045
 20
150.766251
 30
0.0
 11
82.14045
 21
150.808751
 31
0.0
  0
LINE
  5
5DA6
100
AcDbEntity
  8
OBJECT
 62
     2
100
AcDbLine
 39
20.0
 10
81.29045
 20
150.766251
 30
0.0
 11
81.29045
 21
150.808751
 31
0.0
  0
ARC
  5
5DA7
100
AcDbEntity
  8
OBJECT
 62
     2
100
AcDbCircle
 39
20.0
 10
81.71545
 20
150.373117
 30
0.0
 40
0.38748
100
AcDbArc
 50
62.319552
 51
117.680448
  0
LINE
  5
5DA8
100
AcDbEntity
  8
OBJECT
 62
     2
100
AcDbLine
 39
20.0
 10
81.53545
 20
150.716251
 30
0.0
 11
81.53545
 21
150.546251
 31
0.0
  0
LINE
  5
5DA9
100
AcDbEntity
  8
OBJECT
 62
     2
100
AcDbLine
 39
20.0
 10
81.30045
 20
150.716251
 30
0.0
 11
81.30045
 21
150.546251
 31
0.0
  0
LINE
  5
5DAA
100
AcDbEntity
  8
OBJECT
 62
     2
100
AcDbLine
 39
20.0
 10
81.89545
 20
150.716251
 30
0.0
 11
81.89545
 21
150.546251
 31
0.0
  0
LINE
  5
5DAB
100
AcDbEntity
  8
OBJECT
 62
     2
100
AcDbLine
 39
20.0
 10
82.13045
 20
150.716251
 30
0.0
 11
82.13045
 21
150.546251
 31
0.0
  0
LINE
  5
5DAC
100
AcDbEntity
  8
OBJECT
 62
     2
100
AcDbLine
 39
20.0
 10
81.15545
 20
150.716251
 30
0.0
 11
81.15545
 21
150.496251
 31
0.0
  0
LINE
  5
5DAD
100
AcDbEntity
  8
OBJECT
 62
     2
100
AcDbLine
 39
20.0
 10
82.27545
 20
150.716251
 30
0.0
 11
82.27545
 21
150.496251
 31
0.0
  0
LINE
  5
5DAE
100
AcDbEntity
  8
OBJECT
 62
     2
100
AcDbLine
 39
20.0
 10
82.22545
 20
150.766251
 30
0.0
 11
82.27545
 21
150.716251
 31
0.0
  0
ARC
  5
5DAF
100
AcDbEntity
  8
OBJECT
 62
     2
100
AcDbCircle
 39
20.0
 10
82.31045
 20
150.373117
 30
0.0
 40
0.38748
100
AcDbArc
 50
100.784369
 51
117.680448
  0
ARC
  5
5DB0
100
AcDbEntity
  8
OBJECT
 62
     2
100
AcDbCircle
 39
20.0
 10
81.12045
 20
150.373117
 30
0.0
 40
0.38748
100
AcDbArc
 50
62.319552
 51
79.215631
  0
LINE
  5
5DB1
100
AcDbEntity
  8
OBJECT
 62
     2
100
AcDbLine
 39
20.0
 10
81.04045
 20
149.858751
 30
0.0
 11
81.04045
 21
149.473751
 31
0.0
  0
LINE
  5
5DB2
100
AcDbEntity
  8
OBJECT
 62
     2
100
AcDbLine
 39
20.0
 10
82.39045
 20
149.858751
 30
0.0
 11
82.39045
 21
149.473751
 31
0.0
  0
ARC
  5
5DB3
100
AcDbEntity
  8
OBJECT
 62
     2
100
AcDbCircle
 39
20.0
 10
82.26545
 20
150.130494
 30
0.0
 40
0.694216
100
AcDbArc
 50
251.088553
 51
277.774298
  0
ARC
  5
5DB4
100
AcDbEntity
  8
OBJECT
 62
     2
100
AcDbCircle
 39
20.0
 10
81.16545
 20
150.130494
 30
0.0
 40
0.694216
100
AcDbArc
 50
262.225702
 51
288.911447
  0
LINE
  5
5DB5
100
AcDbEntity
  8
OBJECT
 62
     2
100
AcDbLine
 39
20.0
 10
81.06545
 20
150.308751
 30
0.0
 11
81.06545
 21
150.083751
 31
0.0
  0
LINE
  5
5DB6
100
AcDbEntity
  8
OBJECT
 62
     2
100
AcDbLine
 39
20.0
 10
82.36545
 20
150.308751
 30
0.0
 11
82.36545
 21
150.083751
 31
0.0
  0
LINE
  5
5DB7
100
AcDbEntity
  8
OBJECT
 62
     2
100
AcDbLine
 39
20.0
 10
88.09045
 20
149.256751
 30
0.0
 11
88.34045
 21
149.256751
 31
0.0
  0
LINE
  5
5DB8
100
AcDbEntity
  8
OBJECT
 62
     2
100
AcDbLine
 39
20.0
 10
84.84045
 20
149.256751
 30
0.0
 11
85.09045
 21
149.256751
 31
0.0
  0
LINE
  5
5DB9
100
AcDbEntity
  8
OBJECT
 62
     2
100
AcDbLine
 39
20.0
 10
85.61545
 20
150.308751
 30
0.0
 11
85.61545
 21
150.083751
 31
0.0
  0
LINE
  5
5DBA
100
AcDbEntity
  8
OBJECT
 62
     2
100
AcDbLine
 39
20.0
 10
84.31545
 20
150.308751
 30
0.0
 11
84.31545
 21
150.083751
 31
0.0
  0
ARC
  5
5DBB
100
AcDbEntity
  8
OBJECT
 62
     2
100
AcDbCircle
 39
20.0
 10
84.41545
 20
150.130494
 30
0.0
 40
0.694216
100
AcDbArc
 50
262.225702
 51
288.911447
  0
ARC
  5
5DBC
100
AcDbEntity
  8
OBJECT
 62
     2
100
AcDbCircle
 39
20.0
 10
85.51545
 20
150.130494
 30
0.0
 40
0.694216
100
AcDbArc
 50
251.088553
 51
277.774298
  0
LINE
  5
5DBD
100
AcDbEntity
  8
OBJECT
 62
     2
100
AcDbLine
 39
20.0
 10
85.64045
 20
149.858751
 30
0.0
 11
85.64045
 21
149.473751
 31
0.0
  0
LINE
  5
5DBE
100
AcDbEntity
  8
OBJECT
 62
     2
100
AcDbLine
 39
20.0
 10
84.29045
 20
149.858751
 30
0.0
 11
84.29045
 21
149.473751
 31
0.0
  0
ARC
  5
5DBF
100
AcDbEntity
  8
OBJECT
 62
     2
100
AcDbCircle
 39
20.0
 10
84.37045
 20
150.373117
 30
0.0
 40
0.38748
100
AcDbArc
 50
62.319552
 51
79.215631
  0
ARC
  5
5DC0
100
AcDbEntity
  8
OBJECT
 62
     2
100
AcDbCircle
 39
20.0
 10
85.56045
 20
150.373117
 30
0.0
 40
0.38748
100
AcDbArc
 50
100.784369
 51
117.680448
  0
LINE
  5
5DC1
100
AcDbEntity
  8
OBJECT
 62
     2
100
AcDbLine
 39
20.0
 10
85.47545
 20
150.766251
 30
0.0
 11
85.52545
 21
150.716251
 31
0.0
  0
LINE
  5
5DC2
100
AcDbEntity
  8
OBJECT
 62
     2
100
AcDbLine
 39
20.0
 10
85.52545
 20
150.716251
 30
0.0
 11
85.52545
 21
150.496251
 31
0.0
  0
LINE
  5
5DC3
100
AcDbEntity
  8
OBJECT
 62
     2
100
AcDbLine
 39
20.0
 10
84.40545
 20
150.716251
 30
0.0
 11
84.40545
 21
150.496251
 31
0.0
  0
LINE
  5
5DC4
100
AcDbEntity
  8
OBJECT
 62
     2
100
AcDbLine
 39
20.0
 10
85.38045
 20
150.716251
 30
0.0
 11
85.38045
 21
150.546251
 31
0.0
  0
LINE
  5
5DC5
100
AcDbEntity
  8
OBJECT
 62
     2
100
AcDbLine
 39
20.0
 10
85.14545
 20
150.716251
 30
0.0
 11
85.14545
 21
150.546251
 31
0.0
  0
LINE
  5
5DC6
100
AcDbEntity
  8
OBJECT
 62
     2
100
AcDbLine
 39
20.0
 10
84.55045
 20
150.716251
 30
0.0
 11
84.55045
 21
150.546251
 31
0.0
  0
LINE
  5
5DC7
100
AcDbEntity
  8
OBJECT
 62
     2
100
AcDbLine
 39
20.0
 10
84.78545
 20
150.716251
 30
0.0
 11
84.78545
 21
150.546251
 31
0.0
  0
ARC
  5
5DC8
100
AcDbEntity
  8
OBJECT
 62
     2
100
AcDbCircle
 39
20.0
 10
84.96545
 20
150.373117
 30
0.0
 40
0.38748
100
AcDbArc
 50
62.319552
 51
117.680448
  0
LINE
  5
5DC9
100
AcDbEntity
  8
OBJECT
 62
     2
100
AcDbLine
 39
20.0
 10
84.54045
 20
150.766251
 30
0.0
 11
84.54045
 21
150.808751
 31
0.0
  0
LINE
  5
5DCA
100
AcDbEntity
  8
OBJECT
 62
     2
100
AcDbLine
 39
20.0
 10
85.39045
 20
150.766251
 30
0.0
 11
85.39045
 21
150.808751
 31
0.0
  0
LINE
  5
5DCB
100
AcDbEntity
  8
OBJECT
 62
     2
100
AcDbLine
 39
20.0
 10
84.54045
 20
150.058751
 30
0.0
 11
84.54045
 21
149.858751
 31
0.0
  0
LINE
  5
5DCC
100
AcDbEntity
  8
OBJECT
 62
     2
100
AcDbLine
 39
20.0
 10
85.39045
 20
150.058751
 30
0.0
 11
85.39045
 21
149.858751
 31
0.0
  0
LINE
  5
5DCD
100
AcDbEntity
  8
OBJECT
 62
     2
100
AcDbLine
 39
20.0
 10
84.50295
 20
149.423751
 30
0.0
 11
84.50295
 21
149.406751
 31
0.0
  0
LINE
  5
5DCE
100
AcDbEntity
  8
OBJECT
 62
     2
100
AcDbLine
 39
20.0
 10
85.42795
 20
149.423751
 30
0.0
 11
85.42795
 21
149.406751
 31
0.0
  0
ARC
  5
5DCF
100
AcDbEntity
  8
OBJECT
 62
     2
100
AcDbCircle
 39
20.0
 10
84.96545
 20
150.130494
 30
0.0
 40
0.694216
100
AcDbArc
 50
251.088553
 51
288.911447
  0
LINE
  5
5DD0
100
AcDbEntity
  8
OBJECT
 62
     2
100
AcDbLine
 39
20.0
 10
84.64045
 20
149.858751
 30
0.0
 11
84.64045
 21
149.473751
 31
0.0
  0
LINE
  5
5DD1
100
AcDbEntity
  8
OBJECT
 62
     2
100
AcDbLine
 39
20.0
 10
84.74045
 20
149.858751
 30
0.0
 11
84.74045
 21
149.473751
 31
0.0
  0
LINE
  5
5DD2
100
AcDbEntity
  8
OBJECT
 62
     2
100
AcDbLine
 39
20.0
 10
85.19045
 20
149.858751
 30
0.0
 11
85.19045
 21
149.473751
 31
0.0
  0
LINE
  5
5DD3
100
AcDbEntity
  8
OBJECT
 62
     2
100
AcDbLine
 39
20.0
 10
85.29045
 20
149.858751
 30
0.0
 11
85.29045
 21
149.473751
 31
0.0
  0
LINE
  5
5DD4
100
AcDbEntity
  8
OBJECT
 62
     2
100
AcDbLine
 39
20.0
 10
85.29045
 20
150.308751
 30
0.0
 11
85.29045
 21
150.058751
 31
0.0
  0
LINE
  5
5DD5
100
AcDbEntity
  8
OBJECT
 62
     2
100
AcDbLine
 39
20.0
 10
85.19045
 20
150.308751
 30
0.0
 11
85.19045
 21
150.058751
 31
0.0
  0
LINE
  5
5DD6
100
AcDbEntity
  8
OBJECT
 62
     2
100
AcDbLine
 39
20.0
 10
84.74045
 20
150.308751
 30
0.0
 11
84.74045
 21
150.058751
 31
0.0
  0
LINE
  5
5DD7
100
AcDbEntity
  8
OBJECT
 62
     2
100
AcDbLine
 39
20.0
 10
84.64045
 20
150.308751
 30
0.0
 11
84.64045
 21
150.058751
 31
0.0
  0
LINE
  5
5DD8
100
AcDbEntity
  8
OBJECT
 62
     2
100
AcDbLine
 39
20.0
 10
88.86545
 20
150.308751
 30
0.0
 11
88.86545
 21
150.083751
 31
0.0
  0
LINE
  5
5DD9
100
AcDbEntity
  8
OBJECT
 62
     2
100
AcDbLine
 39
20.0
 10
87.56545
 20
150.308751
 30
0.0
 11
87.56545
 21
150.083751
 31
0.0
  0
ARC
  5
5DDA
100
AcDbEntity
  8
OBJECT
 62
     2
100
AcDbCircle
 39
20.0
 10
87.66545
 20
150.130494
 30
0.0
 40
0.694216
100
AcDbArc
 50
262.225702
 51
288.911447
  0
ARC
  5
5DDB
100
AcDbEntity
  8
OBJECT
 62
     2
100
AcDbCircle
 39
20.0
 10
88.76545
 20
150.130494
 30
0.0
 40
0.694216
100
AcDbArc
 50
251.088553
 51
277.774298
  0
LINE
  5
5DDC
100
AcDbEntity
  8
OBJECT
 62
     2
100
AcDbLine
 39
20.0
 10
88.89045
 20
149.858751
 30
0.0
 11
88.89045
 21
149.473751
 31
0.0
  0
LINE
  5
5DDD
100
AcDbEntity
  8
OBJECT
 62
     2
100
AcDbLine
 39
20.0
 10
87.54045
 20
149.858751
 30
0.0
 11
87.54045
 21
149.473751
 31
0.0
  0
ARC
  5
5DDE
100
AcDbEntity
  8
OBJECT
 62
     2
100
AcDbCircle
 39
20.0
 10
87.62045
 20
150.373117
 30
0.0
 40
0.38748
100
AcDbArc
 50
62.319552
 51
79.215631
  0
ARC
  5
5DDF
100
AcDbEntity
  8
OBJECT
 62
     2
100
AcDbCircle
 39
20.0
 10
88.81045
 20
150.373117
 30
0.0
 40
0.38748
100
AcDbArc
 50
100.784369
 51
117.680448
  0
LINE
  5
5DE0
100
AcDbEntity
  8
OBJECT
 62
     2
100
AcDbLine
 39
20.0
 10
88.72545
 20
150.766251
 30
0.0
 11
88.77545
 21
150.716251
 31
0.0
  0
LINE
  5
5DE1
100
AcDbEntity
  8
OBJECT
 62
     2
100
AcDbLine
 39
20.0
 10
88.77545
 20
150.716251
 30
0.0
 11
88.77545
 21
150.496251
 31
0.0
  0
LINE
  5
5DE2
100
AcDbEntity
  8
OBJECT
 62
     2
100
AcDbLine
 39
20.0
 10
87.65545
 20
150.716251
 30
0.0
 11
87.65545
 21
150.496251
 31
0.0
  0
LINE
  5
5DE3
100
AcDbEntity
  8
OBJECT
 62
     2
100
AcDbLine
 39
20.0
 10
88.63045
 20
150.716251
 30
0.0
 11
88.63045
 21
150.546251
 31
0.0
  0
LINE
  5
5DE4
100
AcDbEntity
  8
OBJECT
 62
     2
100
AcDbLine
 39
20.0
 10
88.39545
 20
150.716251
 30
0.0
 11
88.39545
 21
150.546251
 31
0.0
  0
LINE
  5
5DE5
100
AcDbEntity
  8
OBJECT
 62
     2
100
AcDbLine
 39
20.0
 10
87.80045
 20
150.716251
 30
0.0
 11
87.80045
 21
150.546251
 31
0.0
  0
LINE
  5
5DE6
100
AcDbEntity
  8
OBJECT
 62
     2
100
AcDbLine
 39
20.0
 10
88.03545
 20
150.716251
 30
0.0
 11
88.03545
 21
150.546251
 31
0.0
  0
ARC
  5
5DE7
100
AcDbEntity
  8
OBJECT
 62
     2
100
AcDbCircle
 39
20.0
 10
88.21545
 20
150.373117
 30
0.0
 40
0.38748
100
AcDbArc
 50
62.319552
 51
117.680448
  0
LINE
  5
5DE8
100
AcDbEntity
  8
OBJECT
 62
     2
100
AcDbLine
 39
20.0
 10
87.79045
 20
150.766251
 30
0.0
 11
87.79045
 21
150.808751
 31
0.0
  0
LINE
  5
5DE9
100
AcDbEntity
  8
OBJECT
 62
     2
100
AcDbLine
 39
20.0
 10
88.64045
 20
150.766251
 30
0.0
 11
88.64045
 21
150.808751
 31
0.0
  0
LINE
  5
5DEA
100
AcDbEntity
  8
OBJECT
 62
     2
100
AcDbLine
 39
20.0
 10
87.79045
 20
150.058751
 30
0.0
 11
87.79045
 21
149.858751
 31
0.0
  0
LINE
  5
5DEB
100
AcDbEntity
  8
OBJECT
 62
     2
100
AcDbLine
 39
20.0
 10
88.64045
 20
150.058751
 30
0.0
 11
88.64045
 21
149.858751
 31
0.0
  0
LINE
  5
5DEC
100
AcDbEntity
  8
OBJECT
 62
     2
100
AcDbLine
 39
20.0
 10
87.75295
 20
149.423751
 30
0.0
 11
87.75295
 21
149.406751
 31
0.0
  0
LINE
  5
5DED
100
AcDbEntity
  8
OBJECT
 62
     2
100
AcDbLine
 39
20.0
 10
88.67795
 20
149.423751
 30
0.0
 11
88.67795
 21
149.406751
 31
0.0
  0
ARC
  5
5DEE
100
AcDbEntity
  8
OBJECT
 62
     2
100
AcDbCircle
 39
20.0
 10
88.21545
 20
150.130494
 30
0.0
 40
0.694216
100
AcDbArc
 50
251.088553
 51
288.911447
  0
LINE
  5
5DEF
100
AcDbEntity
  8
OBJECT
 62
     2
100
AcDbLine
 39
20.0
 10
87.89045
 20
149.858751
 30
0.0
 11
87.89045
 21
149.473751
 31
0.0
  0
LINE
  5
5DF0
100
AcDbEntity
  8
OBJECT
 62
     2
100
AcDbLine
 39
20.0
 10
87.99045
 20
149.858751
 30
0.0
 11
87.99045
 21
149.473751
 31
0.0
  0
LINE
  5
5DF1
100
AcDbEntity
  8
OBJECT
 62
     2
100
AcDbLine
 39
20.0
 10
88.44045
 20
149.858751
 30
0.0
 11
88.44045
 21
149.473751
 31
0.0
  0
LINE
  5
5DF2
100
AcDbEntity
  8
OBJECT
 62
     2
100
AcDbLine
 39
20.0
 10
88.54045
 20
149.858751
 30
0.0
 11
88.54045
 21
149.473751
 31
0.0
  0
LINE
  5
5DF3
100
AcDbEntity
  8
OBJECT
 62
     2
100
AcDbLine
 39
20.0
 10
88.54045
 20
150.308751
 30
0.0
 11
88.54045
 21
150.058751
 31
0.0
  0
LINE
  5
5DF4
100
AcDbEntity
  8
OBJECT
 62
     2
100
AcDbLine
 39
20.0
 10
88.44045
 20
150.308751
 30
0.0
 11
88.44045
 21
150.058751
 31
0.0
  0
LINE
  5
5DF5
100
AcDbEntity
  8
OBJECT
 62
     2
100
AcDbLine
 39
20.0
 10
87.99045
 20
150.308751
 30
0.0
 11
87.99045
 21
150.058751
 31
0.0
  0
LINE
  5
5DF6
100
AcDbEntity
  8
OBJECT
 62
     2
100
AcDbLine
 39
20.0
 10
87.89045
 20
150.308751
 30
0.0
 11
87.89045
 21
150.058751
 31
0.0
  0
LINE
  5
5DF7
100
AcDbEntity
  8
OBJECT
  6
CONTINUOUS
 62
     2
100
AcDbLine
 39
50.0
 10
82.14045
 20
149.996713
 30
0.0
 11
81.29045
 21
149.996713
 31
0.0
  0
LINE
  5
5DF8
100
AcDbEntity
  8
OBJECT
  6
CONTINUOUS
 62
     2
100
AcDbLine
 39
50.0
 10
82.14045
 20
149.913935
 30
0.0
 11
81.29045
 21
149.913935
 31
0.0
  0
LINE
  5
5DF9
100
AcDbEntity
  8
OBJECT
  6
CONTINUOUS
 62
     2
100
AcDbLine
 39
50.0
 10
81.49045
 20
149.473751
 30
0.0
 11
81.39045
 21
149.473751
 31
0.0
  0
LINE
  5
5DFA
100
AcDbEntity
  8
OBJECT
  6
CONTINUOUS
 62
     2
100
AcDbLine
 39
50.0
 10
82.04045
 20
149.473751
 30
0.0
 11
81.94045
 21
149.473751
 31
0.0
  0
ARC
  5
5DFB
100
AcDbEntity
  8
OBJECT
 62
     2
100
AcDbCircle
 39
50.0
 10
82.02795
 20
149.406751
 30
0.0
 40
0.15
100
AcDbArc
 50
270.0
 51
0.0
  0
LINE
  5
5DFC
100
AcDbEntity
  8
OBJECT
  6
CONTINUOUS
 62
     2
100
AcDbLine
 39
50.0
 10
82.02795
 20
149.256751
 30
0.0
 11
81.40295
 21
149.256751
 31
0.0
  0
ARC
  5
5DFD
100
AcDbEntity
  8
OBJECT
 62
     2
100
AcDbCircle
 39
50.0
 10
81.40295
 20
149.406751
 30
0.0
 40
0.15
100
AcDbArc
 50
180.0
 51
270.0
  0
LINE
  5
5DFE
100
AcDbEntity
  8
OBJECT
  6
CONTINUOUS
 62
     2
100
AcDbLine
 39
50.0
 10
82.39045
 20
149.858751
 30
0.0
 11
81.04045
 21
149.858751
 31
0.0
  0
LINE
  5
5DFF
100
AcDbEntity
  8
OBJECT
  6
CONTINUOUS
 62
     2
100
AcDbLine
 39
50.0
 10
82.36545
 20
150.308751
 30
0.0
 11
81.06545
 21
150.308751
 31
0.0
  0
LINE
  5
5E00
100
AcDbEntity
  8
OBJECT
  6
CONTINUOUS
 62
     2
100
AcDbLine
 39
50.0
 10
82.14045
 20
150.808751
 30
0.0
 11
81.29045
 21
150.808751
 31
0.0
  0
LINE
  5
5E01
100
AcDbEntity
  8
OBJECT
  6
CONTINUOUS
 62
     2
100
AcDbLine
 39
50.0
 10
81.89545
 20
150.546251
 30
0.0
 11
81.53545
 21
150.546251
 31
0.0
  0
LINE
  5
5E02
100
AcDbEntity
  8
OBJECT
  6
CONTINUOUS
 62
     2
100
AcDbLine
 39
50.0
 10
82.13045
 20
150.716251
 30
0.0
 11
81.89545
 21
150.716251
 31
0.0
  0
LINE
  5
5E03
100
AcDbEntity
  8
OBJECT
  6
CONTINUOUS
 62
     2
100
AcDbLine
 39
50.0
 10
81.53545
 20
150.716251
 30
0.0
 11
81.30045
 21
150.716251
 31
0.0
  0
LINE
  5
5E04
100
AcDbEntity
  8
OBJECT
  6
CONTINUOUS
 62
     2
100
AcDbLine
 39
50.0
 10
82.14045
 20
150.786374
 30
0.0
 11
81.29045
 21
150.786374
 31
0.0
  0
LINE
  5
5E05
100
AcDbEntity
  8
OBJECT
  6
CONTINUOUS
 62
     2
100
AcDbLine
 39
50.0
 10
81.30045
 20
150.546251
 30
0.0
 11
81.15545
 21
150.546251
 31
0.0
  0
LINE
  5
5E06
100
AcDbEntity
  8
OBJECT
  6
CONTINUOUS
 62
     2
100
AcDbLine
 39
50.0
 10
82.27545
 20
150.546251
 30
0.0
 11
82.13045
 21
150.546251
 31
0.0
  0
LINE
  5
5E07
100
AcDbEntity
  8
OBJECT
 62
     2
100
AcDbLine
 39
50.0
 10
81.15545
 20
150.716251
 30
0.0
 11
81.20545
 21
150.766251
 31
0.0
  0
LINE
  5
5E08
100
AcDbEntity
  8
OBJECT
  6
CONTINUOUS
 62
     2
100
AcDbLine
 39
50.0
 10
82.22545
 20
150.766251
 30
0.0
 11
81.20545
 21
150.766251
 31
0.0
  0
LINE
  5
5E09
100
AcDbEntity
  8
OBJECT
 62
     2
100
AcDbLine
 39
50.0
 10
81.04045
 20
149.473751
 30
0.0
 11
81.09045
 21
149.423751
 31
0.0
  0
LINE
  5
5E0A
100
AcDbEntity
  8
OBJECT
  6
CONTINUOUS
 62
     2
100
AcDbLine
 39
50.0
 10
82.34045
 20
149.423751
 30
0.0
 11
81.09045
 21
149.423751
 31
0.0
  0
LINE
  5
5E0B
100
AcDbEntity
  8
OBJECT
 62
     2
100
AcDbLine
 39
50.0
 10
82.39045
 20
149.473751
 30
0.0
 11
82.34045
 21
149.423751
 31
0.0
  0
LINE
  5
5E0C
100
AcDbEntity
  8
OBJECT
 62
     2
100
AcDbLine
 39
50.0
 10
81.06545
 20
150.083751
 30
0.0
 11
81.09045
 21
150.058751
 31
0.0
  0
LINE
  5
5E0D
100
AcDbEntity
  8
OBJECT
  6
CONTINUOUS
 62
     2
100
AcDbLine
 39
50.0
 10
82.34045
 20
150.058751
 30
0.0
 11
81.09045
 21
150.058751
 31
0.0
  0
LINE
  5
5E0E
100
AcDbEntity
  8
OBJECT
 62
     2
100
AcDbLine
 39
50.0
 10
82.36545
 20
150.083751
 30
0.0
 11
82.34045
 21
150.058751
 31
0.0
  0
LINE
  5
5E0F
100
AcDbEntity
  8
OBJECT
 62
     2
100
AcDbLine
 39
50.0
 10
85.61545
 20
150.083751
 30
0.0
 11
85.59045
 21
150.058751
 31
0.0
  0
LINE
  5
5E10
100
AcDbEntity
  8
OBJECT
  6
CONTINUOUS
 62
     2
100
AcDbLine
 39
50.0
 10
85.59045
 20
150.058751
 30
0.0
 11
84.34045
 21
150.058751
 31
0.0
  0
LINE
  5
5E11
100
AcDbEntity
  8
OBJECT
 62
     2
100
AcDbLine
 39
50.0
 10
84.31545
 20
150.083751
 30
0.0
 11
84.34045
 21
150.058751
 31
0.0
  0
LINE
  5
5E12
100
AcDbEntity
  8
OBJECT
 62
     2
100
AcDbLine
 39
50.0
 10
85.64045
 20
149.473751
 30
0.0
 11
85.59045
 21
149.423751
 31
0.0
  0
LINE
  5
5E13
100
AcDbEntity
  8
OBJECT
  6
CONTINUOUS
 62
     2
100
AcDbLine
 39
50.0
 10
85.59045
 20
149.423751
 30
0.0
 11
84.34045
 21
149.423751
 31
0.0
  0
LINE
  5
5E14
100
AcDbEntity
  8
OBJECT
 62
     2
100
AcDbLine
 39
50.0
 10
84.29045
 20
149.473751
 30
0.0
 11
84.34045
 21
149.423751
 31
0.0
  0
LINE
  5
5E15
100
AcDbEntity
  8
OBJECT
  6
CONTINUOUS
 62
     2
100
AcDbLine
 39
50.0
 10
85.47545
 20
150.766251
 30
0.0
 11
84.45545
 21
150.766251
 31
0.0
  0
LINE
  5
5E16
100
AcDbEntity
  8
OBJECT
 62
     2
100
AcDbLine
 39
50.0
 10
84.40545
 20
150.716251
 30
0.0
 11
84.45545
 21
150.766251
 31
0.0
  0
LINE
  5
5E17
100
AcDbEntity
  8
OBJECT
  6
CONTINUOUS
 62
     2
100
AcDbLine
 39
50.0
 10
85.52545
 20
150.546251
 30
0.0
 11
85.38045
 21
150.546251
 31
0.0
  0
LINE
  5
5E18
100
AcDbEntity
  8
OBJECT
  6
CONTINUOUS
 62
     2
100
AcDbLine
 39
50.0
 10
84.55045
 20
150.546251
 30
0.0
 11
84.40545
 21
150.546251
 31
0.0
  0
LINE
  5
5E19
100
AcDbEntity
  8
OBJECT
  6
CONTINUOUS
 62
     2
100
AcDbLine
 39
50.0
 10
85.39045
 20
150.786374
 30
0.0
 11
84.54045
 21
150.786374
 31
0.0
  0
LINE
  5
5E1A
100
AcDbEntity
  8
OBJECT
  6
CONTINUOUS
 62
     2
100
AcDbLine
 39
50.0
 10
84.78545
 20
150.716251
 30
0.0
 11
84.55045
 21
150.716251
 31
0.0
  0
LINE
  5
5E1B
100
AcDbEntity
  8
OBJECT
  6
CONTINUOUS
 62
     2
100
AcDbLine
 39
50.0
 10
85.38045
 20
150.716251
 30
0.0
 11
85.14545
 21
150.716251
 31
0.0
  0
LINE
  5
5E1C
100
AcDbEntity
  8
OBJECT
  6
CONTINUOUS
 62
     2
100
AcDbLine
 39
50.0
 10
85.14545
 20
150.546251
 30
0.0
 11
84.78545
 21
150.546251
 31
0.0
  0
LINE
  5
5E1D
100
AcDbEntity
  8
OBJECT
  6
CONTINUOUS
 62
     2
100
AcDbLine
 39
50.0
 10
85.39045
 20
150.808751
 30
0.0
 11
84.54045
 21
150.808751
 31
0.0
  0
LINE
  5
5E1E
100
AcDbEntity
  8
OBJECT
  6
CONTINUOUS
 62
     2
100
AcDbLine
 39
50.0
 10
85.61545
 20
150.308751
 30
0.0
 11
84.31545
 21
150.308751
 31
0.0
  0
LINE
  5
5E1F
100
AcDbEntity
  8
OBJECT
  6
CONTINUOUS
 62
     2
100
AcDbLine
 39
50.0
 10
85.64045
 20
149.858751
 30
0.0
 11
84.29045
 21
149.858751
 31
0.0
  0
ARC
  5
5E20
100
AcDbEntity
  8
OBJECT
 62
     2
100
AcDbCircle
 39
50.0
 10
84.65295
 20
149.406751
 30
0.0
 40
0.15
100
AcDbArc
 50
180.0
 51
270.0
  0
LINE
  5
5E21
100
AcDbEntity
  8
OBJECT
  6
CONTINUOUS
 62
     2
100
AcDbLine
 39
50.0
 10
85.27795
 20
149.256751
 30
0.0
 11
84.65295
 21
149.256751
 31
0.0
  0
ARC
  5
5E22
100
AcDbEntity
  8
OBJECT
 62
     2
100
AcDbCircle
 39
50.0
 10
85.27795
 20
149.406751
 30
0.0
 40
0.15
100
AcDbArc
 50
270.0
 51
0.0
  0
LINE
  5
5E23
100
AcDbEntity
  8
OBJECT
  6
CONTINUOUS
 62
     2
100
AcDbLine
 39
50.0
 10
85.29045
 20
149.473751
 30
0.0
 11
85.19045
 21
149.473751
 31
0.0
  0
LINE
  5
5E24
100
AcDbEntity
  8
OBJECT
  6
CONTINUOUS
 62
     2
100
AcDbLine
 39
50.0
 10
84.74045
 20
149.473751
 30
0.0
 11
84.64045
 21
149.473751
 31
0.0
  0
LINE
  5
5E25
100
AcDbEntity
  8
OBJECT
  6
CONTINUOUS
 62
     2
100
AcDbLine
 39
50.0
 10
85.39045
 20
149.913935
 30
0.0
 11
84.54045
 21
149.913935
 31
0.0
  0
LINE
  5
5E26
100
AcDbEntity
  8
OBJECT
  6
CONTINUOUS
 62
     2
100
AcDbLine
 39
50.0
 10
85.39045
 20
149.996713
 30
0.0
 11
84.54045
 21
149.996713
 31
0.0
  0
LINE
  5
5E27
100
AcDbEntity
  8
OBJECT
 62
     2
100
AcDbLine
 39
50.0
 10
88.86545
 20
150.083751
 30
0.0
 11
88.84045
 21
150.058751
 31
0.0
  0
LINE
  5
5E28
100
AcDbEntity
  8
OBJECT
  6
CONTINUOUS
 62
     2
100
AcDbLine
 39
50.0
 10
88.84045
 20
150.058751
 30
0.0
 11
87.59045
 21
150.058751
 31
0.0
  0
LINE
  5
5E29
100
AcDbEntity
  8
OBJECT
 62
     2
100
AcDbLine
 39
50.0
 10
87.56545
 20
150.083751
 30
0.0
 11
87.59045
 21
150.058751
 31
0.0
  0
LINE
  5
5E2A
100
AcDbEntity
  8
OBJECT
 62
     2
100
AcDbLine
 39
50.0
 10
88.89045
 20
149.473751
 30
0.0
 11
88.84045
 21
149.423751
 31
0.0
  0
LINE
  5
5E2B
100
AcDbEntity
  8
OBJECT
  6
CONTINUOUS
 62
     2
100
AcDbLine
 39
50.0
 10
88.84045
 20
149.423751
 30
0.0
 11
87.59045
 21
149.423751
 31
0.0
  0
LINE
  5
5E2C
100
AcDbEntity
  8
OBJECT
 62
     2
100
AcDbLine
 39
50.0
 10
87.54045
 20
149.473751
 30
0.0
 11
87.59045
 21
149.423751
 31
0.0
  0
LINE
  5
5E2D
100
AcDbEntity
  8
OBJECT
  6
CONTINUOUS
 62
     2
100
AcDbLine
 39
50.0
 10
88.72545
 20
150.766251
 30
0.0
 11
87.70545
 21
150.766251
 31
0.0
  0
LINE
  5
5E2E
100
AcDbEntity
  8
OBJECT
 62
     2
100
AcDbLine
 39
50.0
 10
87.65545
 20
150.716251
 30
0.0
 11
87.70545
 21
150.766251
 31
0.0
  0
LINE
  5
5E2F
100
AcDbEntity
  8
OBJECT
  6
CONTINUOUS
 62
     2
100
AcDbLine
 39
50.0
 10
88.77545
 20
150.546251
 30
0.0
 11
88.63045
 21
150.546251
 31
0.0
  0
LINE
  5
5E30
100
AcDbEntity
  8
OBJECT
  6
CONTINUOUS
 62
     2
100
AcDbLine
 39
50.0
 10
87.80045
 20
150.546251
 30
0.0
 11
87.65545
 21
150.546251
 31
0.0
  0
LINE
  5
5E31
100
AcDbEntity
  8
OBJECT
  6
CONTINUOUS
 62
     2
100
AcDbLine
 39
50.0
 10
88.64045
 20
150.786374
 30
0.0
 11
87.79045
 21
150.786374
 31
0.0
  0
LINE
  5
5E32
100
AcDbEntity
  8
OBJECT
  6
CONTINUOUS
 62
     2
100
AcDbLine
 39
50.0
 10
88.03545
 20
150.716251
 30
0.0
 11
87.80045
 21
150.716251
 31
0.0
  0
LINE
  5
5E33
100
AcDbEntity
  8
OBJECT
  6
CONTINUOUS
 62
     2
100
AcDbLine
 39
50.0
 10
88.63045
 20
150.716251
 30
0.0
 11
88.39545
 21
150.716251
 31
0.0
  0
LINE
  5
5E34
100
AcDbEntity
  8
OBJECT
  6
CONTINUOUS
 62
     2
100
AcDbLine
 39
50.0
 10
88.39545
 20
150.546251
 30
0.0
 11
88.03545
 21
150.546251
 31
0.0
  0
LINE
  5
5E35
100
AcDbEntity
  8
OBJECT
  6
CONTINUOUS
 62
     2
100
AcDbLine
 39
50.0
 10
88.64045
 20
150.808751
 30
0.0
 11
87.79045
 21
150.808751
 31
0.0
  0
LINE
  5
5E36
100
AcDbEntity
  8
OBJECT
  6
CONTINUOUS
 62
     2
100
AcDbLine
 39
50.0
 10
88.86545
 20
150.308751
 30
0.0
 11
87.56545
 21
150.308751
 31
0.0
  0
LINE
  5
5E37
100
AcDbEntity
  8
OBJECT
  6
CONTINUOUS
 62
     2
100
AcDbLine
 39
50.0
 10
88.89045
 20
149.858751
 30
0.0
 11
87.54045
 21
149.858751
 31
0.0
  0
ARC
  5
5E38
100
AcDbEntity
  8
OBJECT
 62
     2
100
AcDbCircle
 39
50.0
 10
87.90295
 20
149.406751
 30
0.0
 40
0.15
100
AcDbArc
 50
180.0
 51
270.0
  0
LINE
  5
5E39
100
AcDbEntity
  8
OBJECT
  6
CONTINUOUS
 62
     2
100
AcDbLine
 39
50.0
 10
88.52795
 20
149.256751
 30
0.0
 11
87.90295
 21
149.256751
 31
0.0
  0
ARC
  5
5E3A
100
AcDbEntity
  8
OBJECT
 62
     2
100
AcDbCircle
 39
50.0
 10
88.52795
 20
149.406751
 30
0.0
 40
0.15
100
AcDbArc
 50
270.0
 51
0.0
  0
LINE
  5
5E3B
100
AcDbEntity
  8
OBJECT
  6
CONTINUOUS
 62
     2
100
AcDbLine
 39
50.0
 10
88.54045
 20
149.473751
 30
0.0
 11
88.44045
 21
149.473751
 31
0.0
  0
LINE
  5
5E3C
100
AcDbEntity
  8
OBJECT
  6
CONTINUOUS
 62
     2
100
AcDbLine
 39
50.0
 10
87.99045
 20
149.473751
 30
0.0
 11
87.89045
 21
149.473751
 31
0.0
  0
LINE
  5
5E3D
100
AcDbEntity
  8
OBJECT
  6
CONTINUOUS
 62
     2
100
AcDbLine
 39
50.0
 10
88.64045
 20
149.913935
 30
0.0
 11
87.79045
 21
149.913935
 31
0.0
  0
LINE
  5
5E3E
100
AcDbEntity
  8
OBJECT
  6
CONTINUOUS
 62
     2
100
AcDbLine
 39
50.0
 10
88.64045
 20
149.996713
 30
0.0
 11
87.79045
 21
149.996713
 31
0.0
  0
LINE
  5
5E3F
100
AcDbEntity
  8
OBJECT
 62
     2
100
AcDbLine
 39
50.0
 10
72.685307
 20
161.294863
 30
0.0
 11
72.685307
 21
160.922635
 31
0.0
  0
ARC
  5
5E40
100
AcDbEntity
  8
OBJECT
 62
     2
100
AcDbCircle
 39
50.0
 10
75.435307
 20
160.669863
 30
0.0
 40
0.25
100
AcDbArc
 50
0.0
 51
90.0
  0
ARC
  5
5E41
100
AcDbEntity
  8
OBJECT
 62
     2
100
AcDbCircle
 39
50.0
 10
74.935307
 20
160.169863
 30
0.0
 40
0.25
100
AcDbArc
 50
0.0
 51
90.0
  0
LINE
  5
5E42
100
AcDbEntity
  8
OBJECT
 62
     2
100
AcDbLine
 39
50.0
 10
74.935307
 20
160.419863
 30
0.0
 11
72.742034
 21
160.419863
 31
0.0
  0
LINE
  5
5E43
100
AcDbEntity
  8
OBJECT
 62
     2
100
AcDbLine
 39
50.0
 10
75.435307
 20
160.919863
 30
0.0
 11
72.722436
 21
160.919863
 31
0.0
  0
ARC
  5
5E44
100
AcDbEntity
  8
OBJECT
 62
     2
100
AcDbCircle
 39
50.0
 10
72.722436
 20
161.169863
 30
0.0
 40
0.25
100
AcDbArc
 50
253.105145
 51
270.0
  0
ARC
  5
5E45
100
AcDbEntity
  8
OBJECT
 62
     2
100
AcDbCircle
 39
50.0
 10
72.742034
 20
160.669863
 30
0.0
 40
0.25
100
AcDbArc
 50
244.431316
 51
270.0
  0
ARC
  5
5E46
100
AcDbEntity
  8
OBJECT
 62
     2
100
AcDbCircle
 39
50.0
 10
71.992809
 20
160.963178
 30
0.0
 40
0.193233
100
AcDbArc
 50
107.312204
 51
252.687796
  0
LINE
  5
5E47
100
AcDbEntity
  8
OBJECT
 62
     2
100
AcDbLine
 39
50.0
 10
72.649782
 20
160.930653
 30
0.0
 11
71.935307
 21
161.147657
 31
0.0
  0
LINE
  5
5E48
100
AcDbEntity
  8
OBJECT
 62
     2
100
AcDbLine
 39
50.0
 10
72.634136
 20
160.444346
 30
0.0
 11
71.935307
 21
160.778699
 31
0.0
  0
LINE
  5
5E49
100
AcDbEntity
  8
CENTER
100
AcDbLine
 10
89.34045
 20
150.308751
 30
0.0
 11
72.69228
 21
150.308751
 31
0.0
  0
LWPOLYLINE
  5
5E4E
100
AcDbEntity
  8
OBJECT
100
AcDbPolyline
 90
       13
 70
     0
 43
0.0
 10
88.045212
 20
150.808751
 10
87.370791
 20
151.538215
 10
86.164908
 20
152.220924
 10
85.070905
 20
152.585262
 10
83.933991
 20
152.869235
 10
83.006238
 20
152.949837
 10
82.034832
 20
152.909392
 10
81.024993
 20
152.747975
 10
79.964882
 20
152.381344
 10
79.061906
 20
152.094292
 10
78.080562
 20
151.726622
 10
77.041411
 20
151.287387
 10
76.924051
 20
151.148991
  0
LINE
  5
5E4F
100
AcDbEntity
  8
OBJECT
100
AcDbLine
 10
80.59045
 20
150.308751
 30
0.0
 11
89.34045
 21
150.308751
 31
0.0
  0
LINE
  5
5E50
100
AcDbEntity
  8
OBJECT
100
AcDbLine
 10
80.59045
 20
150.496251
 30
0.0
 11
89.34045
 21
150.496251
 31
0.0
  0
LWPOLYLINE
  5
5E51
100
AcDbEntity
  8
OBJECT
100
AcDbPolyline
 90
       13
 70
     0
 43
0.0
 10
88.385688
 20
150.808751
 10
87.527889
 20
151.73656
 10
86.266942
 20
152.450443
 10
85.140795
 20
152.825485
 10
83.975359
 20
153.116582
 10
83.011881
 20
153.200289
 10
82.009816
 20
153.158568
 10
80.963944
 20
152.99139
 10
79.886144
 20
152.618642
 10
78.980128
 20
152.330623
 10
77.988
 20
151.958913
 10
76.889242
 20
151.494483
 10
76.349233
 20
150.85768
  0
LWPOLYLINE
  5
5E52
100
AcDbEntity
  8
OBJECT
100
AcDbPolyline
 90
        9
 70
     0
 43
0.0
 10
85.13432
 20
150.808751
 10
84.398714
 20
151.618582
 10
83.29123
 20
152.086712
 10
82.320901
 20
152.255303
 10
80.405661
 20
152.255303
 10
79.238835
 20
152.005505
 10
78.281171
 20
151.755901
 10
77.324601
 20
151.340381
 10
76.355315
 20
150.877239
  0
ARC
  5
5E53
100
AcDbEntity
  8
OBJECT
  6
CONTINUOUS
 62
     2
100
AcDbCircle
 10
84.997261
 20
161.069867
 30
0.0
 40
0.49998
100
AcDbArc
 50
197.458835
 51
270.004889
  0
LWPOLYLINE
  5
5E54
100
AcDbEntity
  8
OBJECT
100
AcDbPolyline
 90
        6
 70
     0
 43
0.0
 10
81.452252
 20
150.808751
 10
80.765499
 20
151.179373
 10
79.617027
 20
151.021103
 10
78.348145
 20
150.775744
 10
77.120277
 20
150.489502
 10
76.047635
 20
150.178606
  0
LWPOLYLINE
  5
5E55
100
AcDbEntity
  8
OBJECT
100
AcDbPolyline
 90
       10
 70
     0
 43
0.0
 10
84.79658
 20
150.808751
 10
84.250673
 20
151.409741
 10
83.220247
 20
151.845299
 10
82.299344
 20
152.005303
 10
80.432121
 20
152.005303
 10
79.296557
 20
151.762197
 10
78.362989
 20
151.518874
 10
77.428328
 20
151.112871
 10
76.509776
 20
150.67397
 10
76.144186
 20
150.22936
  0
LWPOLYLINE
  5
5E56
100
AcDbEntity
  8
OBJECT
100
AcDbPolyline
 90
        6
 70
     0
 43
0.0
 10
81.978649
 20
150.808751
 10
80.812319
 20
151.438188
 10
79.576202
 20
151.26784
 10
78.296016
 20
151.020295
 10
77.057055
 20
150.731467
 10
76.400603
 20
150.5412
  0
LINE
  5
5E57
100
AcDbEntity
  8
OBJECT
100
AcDbLine
 10
75.109307
 20
154.308751
 30
0.0
 11
75.109307
 21
146.308751
 31
0.0
  0
LINE
  5
5E59
100
AcDbEntity
  8
OBJECT
100
AcDbLine
 10
73.885846
 20
151.683751
 30
0.0
 11
73.885846
 21
148.933751
 31
0.0
  0
LINE
  5
5E5A
100
AcDbEntity
  8
OBJECT
100
AcDbLine
 10
73.885846
 20
151.683751
 30
0.0
 11
75.185307
 21
151.683751
 31
0.0
  0
LINE
  5
5E5B
100
AcDbEntity
  8
OBJECT
100
AcDbLine
 10
73.885846
 20
148.933751
 30
0.0
 11
75.185307
 21
148.933751
 31
0.0
  0
LINE
  5
5E5C
100
AcDbEntity
  8
OBJECT
100
AcDbLine
 10
76.047635
 20
151.488251
 30
0.0
 11
76.047635
 21
149.129251
 31
0.0
  0
LINE
  5
5E5D
100
AcDbEntity
  8
OBJECT
100
AcDbLine
 10
76.047635
 20
151.683751
 30
0.0
 11
76.047635
 21
148.933751
 31
0.0
  0
LINE
  5
5E5E
100
AcDbEntity
  8
OBJECT
100
AcDbLine
 10
75.685307
 20
151.683751
 30
0.0
 11
76.047635
 21
151.683751
 31
0.0
  0
LINE
  5
5E5F
100
AcDbEntity
  8
OBJECT
100
AcDbLine
 10
75.685307
 20
148.933751
 30
0.0
 11
76.047635
 21
148.933751
 31
0.0
  0
LINE
  5
5E60
100
AcDbEntity
  8
OBJECT
100
AcDbLine
 10
75.109307
 20
154.308751
 30
0.0
 11
75.185307
 21
154.308751
 31
0.0
  0
LINE
  5
5E62
100
AcDbEntity
  8
OBJECT
100
AcDbLine
 10
80.59045
 20
150.308751
 30
0.0
 11
80.59045
 21
150.496251
 31
0.0
  0
LINE
  5
5E63
100
AcDbEntity
  8
OBJECT
 62
     2
100
AcDbLine
 10
83.96545
 20
151.801721
 30
0.0
 11
83.96545
 21
152.861377
 31
0.0
  0
LINE
  5
5E64
100
AcDbEntity
  8
OBJECT
 62
     2
100
AcDbLine
 10
83.96545
 20
150.496251
 30
0.0
 11
83.96545
 21
151.530304
 31
0.0
  0
LINE
  5
5E65
100
AcDbEntity
  8
OBJECT
 62
     2
100
AcDbLine
 10
83.96545
 20
153.117443
 30
0.0
 11
83.96545
 21
153.308751
 31
0.0
  0
ARC
  5
5E66
100
AcDbEntity
  8
OBJECT
  6
PHANTOM
100
AcDbCircle
 10
112.185307
 20
160.919863
 30
0.0
 40
25.0
100
AcDbArc
 50
133.854031
 51
180.0
  0
LINE
  5
5E67
100
AcDbEntity
  8
OBJECT
 62
     2
100
AcDbLine
 10
85.96545
 20
152.550849
 30
0.0
 11
85.96545
 21
153.308751
 31
0.0
  0
LINE
  5
5E68
100
AcDbEntity
  8
OBJECT
 62
     2
100
AcDbLine
 10
85.96545
 20
150.496251
 30
0.0
 11
85.96545
 21
152.28735
 31
0.0
  0
LINE
  5
5E69
100
AcDbEntity
  8
OBJECT
100
AcDbLine
 10
89.34045
 20
150.308751
 30
0.0
 11
89.34045
 21
150.496251
 31
0.0
  0
LINE
  5
5E6A
100
AcDbEntity
  8
OBJECT
  6
CONTINUOUS
 62
     2
100
AcDbLine
 10
87.685307
 20
160.919863
 30
0.0
 11
87.685307
 21
157.919863
 31
0.0
  0
LINE
  5
5E6B
100
AcDbEntity
  8
OBJECT
  6
CONTINUOUS
 62
     2
100
AcDbLine
 10
87.335301
 20
159.819887
 30
0.0
 11
87.335301
 21
158.554323
 31
0.0
  0
ARC
  5
5E6C
100
AcDbEntity
  8
OBJECT
  6
CONTINUOUS
 62
     2
100
AcDbCircle
 10
88.08535
 20
158.554322
 30
0.0
 40
0.750049
100
AcDbArc
 50
179.99993
 51
237.767551
  0
LINE
  5
5E6D
100
AcDbEntity
  8
OBJECT
  6
CONTINUOUS
 62
     2
100
AcDbLine
 10
84.997304
 20
160.569887
 30
0.0
 11
86.585316
 21
160.569887
 31
0.0
  0
LINE
  5
5E6E
100
AcDbEntity
  8
OBJECT
100
AcDbLine
 10
84.520314
 20
160.919863
 30
0.0
 11
87.685307
 21
160.919863
 31
0.0
  0
ARC
  5
5E6F
100
AcDbEntity
  8
OBJECT
  6
CONTINUOUS
 62
     2
100
AcDbCircle
 10
86.585212
 20
159.819798
 30
0.0
 40
0.750089
100
AcDbArc
 50
0.006816
 51
89.992019
  0
ARC
  5
5E70
100
AcDbEntity
  8
OBJECT
100
AcDbCircle
 10
99.523191
 20
156.684186
 30
0.0
 40
0.125
100
AcDbArc
 50
152.32641
 51
242.32641
  0
LINE
  5
5E78
100
AcDbEntity
  8
OBJECT
100
AcDbLine
 10
124.185307
 20
67.025816
 30
0.0
 11
124.185307
 21
160.169863
 31
0.0
  0
LINE
  5
5E79
100
AcDbEntity
  8
OBJECT
100
AcDbLine
 10
123.685307
 20
67.275816
 30
0.0
 11
123.685307
 21
160.669863
 31
0.0
  0
LINE
  5
5F55
100
AcDbEntity
  8
OBJECT
100
AcDbLine
 10
126.685307
 20
66.525816
 30
0.0
 11
124.685307
 21
66.525816
 31
0.0
  0
ARC
  5
5F56
100
AcDbEntity
  8
OBJECT
100
AcDbCircle
 10
124.685307
 20
67.025816
 30
0.0
 40
0.5
100
AcDbArc
 50
180.0
 51
270.0
  0
ARC
  5
5F57
100
AcDbEntity
  8
OBJECT
100
AcDbCircle
 10
123.185307
 20
67.275816
 30
0.0
 40
0.5
100
AcDbArc
 50
270.0
 51
0.0
  0
LINE
  5
5F58
100
AcDbEntity
  8
OBJECT
100
AcDbLine
 10
126.685307
 20
65.775816
 30
0.0
 11
126.685307
 21
66.525816
 31
0.0
  0
LINE
  5
6026
100
AcDbEntity
  8
OBJECT
 62
     2
100
AcDbLine
 39
50.0
 10
126.685307
 20
161.294863
 30
0.0
 11
126.685307
 21
160.922635
 31
0.0
  0
LINE
  5
6027
100
AcDbEntity
  8
OBJECT
 62
     2
100
AcDbLine
 39
50.0
 10
126.736479
 20
160.444346
 30
0.0
 11
127.435307
 21
160.778699
 31
0.0
  0
LINE
  5
6028
100
AcDbEntity
  8
OBJECT
 62
     2
100
AcDbLine
 39
50.0
 10
126.720833
 20
160.930653
 30
0.0
 11
127.435307
 21
161.147657
 31
0.0
  0
ARC
  5
6029
100
AcDbEntity
  8
OBJECT
 62
     2
100
AcDbCircle
 39
50.0
 10
127.377805
 20
160.963178
 30
0.0
 40
0.193233
100
AcDbArc
 50
287.312204
 51
72.687796
  0
ARC
  5
602A
100
AcDbEntity
  8
OBJECT
 62
     2
100
AcDbCircle
 39
50.0
 10
126.628581
 20
160.669863
 30
0.0
 40
0.25
100
AcDbArc
 50
270.0
 51
295.568684
  0
ARC
  5
602B
100
AcDbEntity
  8
OBJECT
 62
     2
100
AcDbCircle
 39
50.0
 10
126.648179
 20
161.169863
 30
0.0
 40
0.25
100
AcDbArc
 50
270.0
 51
286.894855
  0
LINE
  5
602C
100
AcDbEntity
  8
OBJECT
 62
     2
100
AcDbLine
 39
50.0
 10
123.935307
 20
160.919863
 30
0.0
 11
126.648179
 21
160.919863
 31
0.0
  0
LINE
  5
602D
100
AcDbEntity
  8
OBJECT
 62
     2
100
AcDbLine
 39
50.0
 10
124.435307
 20
160.419863
 30
0.0
 11
126.628581
 21
160.419863
 31
0.0
  0
ARC
  5
602E
100
AcDbEntity
  8
OBJECT
 62
     2
100
AcDbCircle
 39
50.0
 10
124.435307
 20
160.169863
 30
0.0
 40
0.25
100
AcDbArc
 50
90.0
 51
180.0
  0
ARC
  5
602F
100
AcDbEntity
  8
OBJECT
 62
     2
100
AcDbCircle
 39
50.0
 10
123.935307
 20
160.669863
 30
0.0
 40
0.25
100
AcDbArc
 50
90.0
 51
180.0
  0
ARC
  5
6035
100
AcDbEntity
  8
OBJECT
  6
CONTINUOUS
 62
     2
100
AcDbCircle
 10
114.40615
 20
161.319719
 30
0.0
 40
0.749832
100
AcDbArc
 50
269.991659
 51
327.773927
  0
LINE
  5
6036
100
AcDbEntity
  8
OBJECT
100
AcDbLine
 10
111.685307
 20
160.919863
 30
0.0
 11
115.040471
 21
160.919863
 31
0.0
  0
LINE
  5
6037
100
AcDbEntity
  8
OBJECT
100
AcDbLine
 10
123.685307
 20
160.919863
 30
0.0
 11
103.861671
 21
160.919863
 31
0.0
  0
LINE
  5
6038
100
AcDbEntity
  8
OBJECT
100
AcDbLine
 10
126.685307
 20
161.294863
 30
0.0
 11
104.05833
 21
161.294863
 31
0.0
  0
LINE
  5
6039
100
AcDbEntity
  8
OBJECT
100
AcDbLine
 10
101.124615
 20
157.58471
 30
0.0
 11
104.878975
 21
164.743727
 31
0.0
  0
LINE
  5
603A
100
AcDbEntity
  8
OBJECT
100
AcDbLine
 10
101.025765
 20
156.319638
 30
0.0
 11
105.321779
 21
164.511511
 31
0.0
  0
LINE
  5
603B
100
AcDbEntity
  8
OBJECT
100
AcDbLine
 10
101.183705
 20
155.813373
 30
0.0
 11
106.638866
 21
166.21557
 31
0.0
  0
LINE
  5
603C
100
AcDbEntity
  8
OBJECT
  6
CONTINUOUS
 62
     2
100
AcDbLine
 10
102.288399
 20
157.919863
 30
0.0
 11
111.685307
 21
157.919863
 31
0.0
  0
LINE
  5
603D
100
AcDbEntity
  8
OBJECT
100
AcDbLine
 10
111.685307
 20
160.919863
 30
0.0
 11
107.255313
 21
160.919863
 31
0.0
  0
ARC
  5
603E
100
AcDbEntity
  8
OBJECT
100
AcDbCircle
 10
101.073004
 20
155.871427
 30
0.0
 40
0.125
100
AcDbArc
 50
242.32641
 51
332.32641
  0
ARC
  5
603F
100
AcDbEntity
  8
OBJECT
100
AcDbCircle
 10
100.804363
 20
156.435747
 30
0.0
 40
0.25
100
AcDbArc
 50
182.32641
 51
332.32641
  0
LINE
  5
6040
100
AcDbEntity
  8
OBJECT
100
AcDbLine
 10
100.554569
 20
156.425599
 30
0.0
 11
100.493837
 21
157.92052
 31
0.0
  0
LINE
  5
6041
100
AcDbEntity
  8
OBJECT
100
AcDbLine
 10
101.006816
 20
157.6112
 30
0.0
 11
100.993425
 21
157.940817
 31
0.0
  0
ARC
  5
6042
100
AcDbEntity
  8
OBJECT
100
AcDbCircle
 10
101.069264
 20
157.613737
 30
0.0
 40
0.0625
100
AcDbArc
 50
182.32641
 51
332.32641
  0
ARC
  5
6043
100
AcDbEntity
  8
OBJECT
100
AcDbCircle
 10
100.743631
 20
157.930668
 30
0.0
 40
0.25
100
AcDbArc
 50
2.32641
 51
182.32641
  0
CIRCLE
  5
6044
100
AcDbEntity
  8
OBJECT
100
AcDbCircle
 10
102.112288
 20
158.931659
 30
0.0
 40
0.268971
  0
LINE
  5
6046
100
AcDbEntity
  8
OBJECT
  6
CONTINUOUS
 62
     2
100
AcDbLine
 10
112.035313
 20
159.819887
 30
0.0
 11
112.035313
 21
158.554323
 31
0.0
  0
LINE
  5
6047
100
AcDbEntity
  8
OBJECT
  6
CONTINUOUS
 62
     2
100
AcDbLine
 10
111.685307
 20
160.919863
 30
0.0
 11
111.685307
 21
157.919863
 31
0.0
  0
ARC
  5
6048
100
AcDbEntity
  8
OBJECT
  6
CONTINUOUS
 62
     2
100
AcDbCircle
 10
111.285265
 20
158.554322
 30
0.0
 40
0.750049
100
AcDbArc
 50
302.232449
 51
0.00007
  0
LINE
  5
6049
100
AcDbEntity
  8
OBJECT
  6
CONTINUOUS
 62
     2
100
AcDbLine
 10
114.409825
 20
160.569887
 30
0.0
 11
112.785298
 21
160.569887
 31
0.0
  0
LINE
  5
604A
100
AcDbEntity
  8
OBJECT
  6
CONTINUOUS
 62
     2
100
AcDbLine
 10
112.538823
 20
161.273439
 30
0.0
 11
112.185307
 21
160.919863
 31
0.0
  0
ARC
  5
604B
100
AcDbEntity
  8
OBJECT
  6
CONTINUOUS
 62
     2
100
AcDbCircle
 10
112.785403
 20
159.819798
 30
0.0
 40
0.750089
100
AcDbArc
 50
90.007981
 51
179.993184
  0
LINE
  5
604C
100
AcDbEntity
  8
OBJECT
100
AcDbLine
 10
104.080167
 20
166.196571
 30
0.0
 11
105.49438
 21
167.610785
 31
0.0
  0
CIRCLE
  5
604D
100
AcDbEntity
  8
OBJECT
100
AcDbCircle
 10
105.68075
 20
165.734307
 30
0.0
 40
0.25
  0
ARC
  5
604E
100
AcDbEntity
  8
OBJECT
100
AcDbCircle
 10
105.76999
 20
164.55875
 30
0.0
 40
2.0
100
AcDbArc
 50
66.148963
 51
152.32641
  0
LINE
  5
604F
100
AcDbEntity
  8
OBJECT
  6
CONTINUOUS
 62
     2
100
AcDbLine
 10
104.330015
 20
165.946724
 30
0.0
 11
104.080167
 21
166.196571
 31
0.0
  0
ARC
  5
6050
100
AcDbEntity
  8
OBJECT
100
AcDbCircle
 10
105.100377
 20
164.627619
 30
0.0
 40
0.25
100
AcDbArc
 50
332.32641
 51
152.32641
  0
LINE
  5
6051
100
AcDbEntity
  8
OBJECT
100
AcDbLine
 10
105.958715
 20
164.318025
 30
0.0
 11
107.372928
 21
165.732239
 31
0.0
  0
LINE
  5
6052
100
AcDbEntity
  8
OBJECT
  6
CONTINUOUS
 62
     2
100
AcDbLine
 10
105.958715
 20
164.318025
 30
0.0
 11
105.752101
 21
164.524638
 31
0.0
  0
ARC
  5
6053
100
AcDbEntity
  8
OBJECT
100
AcDbCircle
 10
106.528165
 20
166.273624
 30
0.0
 40
0.125
100
AcDbArc
 50
332.32641
 51
66.148963
  0
LINE
  5
6074
100
AcDbEntity
  8
CENTER
 62
     2
100
AcDbLine
 39
50.0
 10
123.685307
 20
160.919863
 30
0.0
 11
123.935307
 21
160.919863
 31
0.0
  0
LINE
  5
60E8
100
AcDbEntity
  8
OBJECT
100
AcDbLine
 10
76.185307
 20
66.775816
 30
0.0
 11
123.185307
 21
66.775816
 31
0.0
  0
TEXT
  5
611C
100
AcDbEntity
  8
DIM
100
AcDbText
 10
145.619124
 20
150.011576
 30
0.0
 40
1.7
  1
Valve Extension Handle
  7
ROMAND
 11
145.619124
 21
150.861576
 31
0.0
100
AcDbText
 73
     2
  0
TEXT
  5
611D
100
AcDbEntity
  8
DIM
100
AcDbText
 10
145.619124
 20
153.262808
 30
0.0
 40
1.7
  1
3/8" 304 Stainless Steel
  7
ROMAND
 11
145.619124
 21
154.112808
 31
0.0
100
AcDbText
 73
     2
  0
TEXT
  5
611E
100
AcDbEntity
  8
DIM
100
AcDbText
 10
145.619124
 20
126.092868
 30
0.0
 40
1.7
  1
   Gate Valve
  7
ROMAND
 11
145.619124
 21
126.942868
 31
0.0
100
AcDbText
 73
     2
  0
TEXT
  5
611F
100
AcDbEntity
  8
DIM
100
AcDbText
 10
145.619124
 20
159.52098
 30
0.0
 40
1.7
  1
is Available
  7
ROMAND
 11
145.619124
 21
160.37098
 31
0.0
100
AcDbText
 73
     2
  0
LEADER
  5
6120
100
AcDbEntity
  8
DIM
100
AcDbLeader
  3
STANDARD
 76
     2
 10
115.00775
 20
142.513846
 30
0.0
 10
142.319124
 20
154.112808
 30
0.0
 77
   256
1001
ACAD
1000
DSTYLE
1002
{
1070
   340
1005
2F
1070
   272
1070
     2
1070
   147
1040
1.7
1070
   287
1070
     5
1070
    44
1040
1.7
1070
   271
1070
     2
1070
    41
1040
1.6
1002
}
  0
LINE
  5
6121
100
AcDbEntity
  8
DIM
100
AcDbLine
 10
142.319124
 20
154.112808
 30
0.0
 11
143.919124
 21
154.112808
 31
0.0
  0
LEADER
  5
6124
100
AcDbEntity
  8
DIM
100
AcDbLeader
  3
STANDARD
 76
     2
 10
110.329861
 20
147.494835
 30
0.0
 10
142.644483
 20
170.618083
 30
0.0
 77
   256
1001
ACAD
1000
DSTYLE
1002
{
1070
   340
1005
2F
1070
   272
1070
     2
1070
   147
1040
1.7
1070
   287
1070
     5
1070
    44
1040
1.7
1070
   271
1070
     2
1070
    41
1040
1.6
1002
}
  0
TEXT
  5
6125
100
AcDbEntity
  8
DIM
100
AcDbText
 10
145.619124
 20
169.880234
 30
0.0
 40
1.7
  1
3/16" 304 Stainless Steel
  7
ROMAND
 11
145.619124
 21
170.730234
 31
0.0
100
AcDbText
 73
     2
  0
TEXT
  5
6126
100
AcDbEntity
  8
DIM
100
AcDbText
 10
145.619124
 20
166.629002
 30
0.0
 40
1.7
  1
Lifting Cable
  7
ROMAND
 11
145.619124
 21
167.479002
 31
0.0
100
AcDbText
 73
     2
  0
TEXT
  5
6127
100
AcDbEntity
  8
DIM
100
AcDbText
 10
145.619124
 20
162.772212
 30
0.0
 40
1.7
  1
* Stainless Steel Chain
  7
ROMAND
 11
145.619124
 21
163.622212
 31
0.0
100
AcDbText
 73
     2
  0
LINE
  5
6129
100
AcDbEntity
  8
DIM
100
AcDbLine
 10
142.319124
 20
126.942868
 30
0.0
 11
143.919124
 21
126.942868
 31
0.0
  0
LINE
  5
612A
100
AcDbEntity
  8
DIM
100
AcDbLine
 10
144.839107
 20
170.618083
 30
0.0
 11
142.644483
 21
170.618083
 31
0.0
  0
TEXT
  5
612B
100
AcDbEntity
  8
BORDER
 62
     6
100
AcDbText
 10
148.073164
 20
120.17451
 30
0.0
 40
1.525377
  1
Sch 80 PVC
  7
ROMANT
100
AcDbText
  0
TEXT
  5
6134
100
AcDbEntity
  8
BORDER
 62
     6
100
AcDbText
 10
148.073164
 20
122.805466
 30
0.0
 40
1.525377
  1
Brass
  7
ROMANT
100
AcDbText
  0
LWPOLYLINE
  5
6135
100
AcDbEntity
  8
BORDER
 62
     6
100
AcDbPolyline
 90
        4
 70
     1
 43
0.0
 10
147.181361
 20
121.862053
 10
145.456372
 20
121.862053
 10
145.456372
 20
120.137064
 10
147.181361
 20
120.137064
  0
LWPOLYLINE
  5
6136
100
AcDbEntity
  8
BORDER
 62
     6
100
AcDbPolyline
 90
        4
 70
     1
 43
0.0
 10
147.181361
 20
122.727585
 10
145.456372
 20
122.727585
 10
145.456372
 20
124.452574
 10
147.181361
 20
124.452574
  0
LINE
  5
6137
100
AcDbEntity
  8
DIM
100
AcDbLine
 10
143.641257
 20
125.613399
 30
0.0
 11
150.441257
 21
125.613399
 31
0.0
  0
TEXT
  5
6139
100
AcDbEntity
  8
BORDER
 62
     6
100
AcDbText
 10
153.498579
 20
108.896758
 30
0.0
 40
1.525377
  1
Sch40 Galvanized Steel
  7
ROMANT
100
AcDbText
  0
TEXT
  5
613A
100
AcDbEntity
  8
BORDER
 62
     6
100
AcDbText
 10
153.498579
 20
111.527715
 30
0.0
 40
1.525377
  1
304 Stainless Steel
  7
ROMANT
100
AcDbText
  0
TEXT
  5
613B
100
AcDbEntity
  8
BORDER
 62
     6
100
AcDbText
 10
153.498579
 20
106.306237
 30
0.0
 40
1.525377
  1
Sch80 PVC Pipe
  7
ROMANT
100
AcDbText
  0
TEXT
  5
613C
100
AcDbEntity
  8
DIM
100
AcDbText
 10
145.618225
 20
115.046781
 30
0.0
 40
1.7
  1
    Discharge Pipe 
  7
ROMAND
 11
145.618225
 21
115.896781
 31
0.0
100
AcDbText
 73
     2
  0
TEXT
  5
613F
100
AcDbEntity
  8
DIM
100
AcDbText
 10
145.619124
 20
59.27235
 30
0.0
 40
1.7
  1
   Vertical Pipe Nipples
  7
ROMAND
 11
145.619124
 21
60.12235
 31
0.0
100
AcDbText
 73
     2
  0
TEXT
  5
6140
100
AcDbEntity
  8
BORDER
 62
     6
100
AcDbText
 10
153.499478
 20
53.122327
 30
0.0
 40
1.525377
  1
Sch40 Galvanized Steel
  7
ROMANT
100
AcDbText
  0
TEXT
  5
6141
100
AcDbEntity
  8
BORDER
 62
     6
100
AcDbText
 10
153.499478
 20
55.753284
 30
0.0
 40
1.525377
  1
304 Stainless Steel
  7
ROMANT
100
AcDbText
  0
TEXT
  5
6142
100
AcDbEntity
  8
DIM
100
AcDbText
 10
145.619124
 20
131.118321
 30
0.0
 40
1.7
  1
Upper Pump Bracket
  7
ROMAND
 11
145.619124
 21
131.968321
 31
0.0
100
AcDbText
 73
     2
  0
TEXT
  5
6143
100
AcDbEntity
  8
DIM
100
AcDbText
 10
145.619124
 20
133.547208
 30
0.0
 40
1.7
  1
Stainless Steel
  7
ROMAND
 11
145.619124
 21
134.397208
 31
0.0
100
AcDbText
 73
     2
  0
TEXT
  5
6144
100
AcDbEntity
  8
DIM
100
AcDbText
 10
145.619124
 20
142.597489
 30
0.0
 40
1.7
  1
1½" O.D. 304 Stainless
  7
ROMAND
 11
145.619124
 21
143.447489
 31
0.0
100
AcDbText
 73
     2
  0
TEXT
  5
6145
100
AcDbEntity
  8
DIM
100
AcDbText
 10
145.619124
 20
140.168603
 30
0.0
 40
1.7
  1
Steel Guiderail
  7
ROMAND
 11
145.619124
 21
141.018603
 31
0.0
100
AcDbText
 73
     2
  0
TEXT
  5
6146
100
AcDbEntity
  8
DIM
100
AcDbText
 10
145.619124
 20
80.167874
 30
0.0
 40
1.7
  1
   Brass Quick Disconnect
  7
ROMAND
 11
145.619124
 21
81.017874
 31
0.0
100
AcDbText
 73
     2
  0
TEXT
  5
6147
100
AcDbEntity
  8
DIM
100
AcDbText
 10
145.619124
 20
75.505057
 30
0.0
 40
1.7
  1
   Cast Iron Ball Check Valve
  7
ROMAND
 11
145.619124
 21
76.355057
 31
0.0
100
AcDbText
 73
     2
  0
TEXT
  5
6148
100
AcDbEntity
  8
DIM
100
AcDbText
 10
145.219124
 20
63.618283
 30
0.0
 40
1.7
  1
Lower Pump Bracket
  7
ROMAND
 11
145.219124
 21
64.468283
 31
0.0
100
AcDbText
 73
     2
  0
TEXT
  5
6149
100
AcDbEntity
  8
DIM
100
AcDbText
 10
145.219124
 20
66.04717
 30
0.0
 40
1.7
  1
Stainless Steel
  7
ROMAND
 11
145.219124
 21
66.89717
 31
0.0
100
AcDbText
 73
     2
  0
LEADER
  5
614A
100
AcDbEntity
  8
DIM
100
AcDbLeader
  3
STANDARD
 76
     2
 10
104.589727
 20
80.450745
 30
0.0
 10
142.319124
 20
60.12235
 30
0.0
 77
   256
1001
ACAD
1000
DSTYLE
1002
{
1070
   340
1005
2F
1070
   272
1070
     2
1070
   147
1040
1.7
1070
   287
1070
     5
1070
    44
1040
1.7
1070
   271
1070
     2
1070
    41
1040
1.6
1002
}
  0
LEADER
  5
614B
100
AcDbEntity
  8
DIM
100
AcDbLeader
  3
STANDARD
 76
     2
 10
107.667574
 20
132.612205
 30
0.0
 10
142.319124
 20
143.447489
 30
0.0
 77
   256
1001
ACAD
1000
DSTYLE
1002
{
1070
   340
1005
2F
1070
   272
1070
     2
1070
   147
1040
1.7
1070
   287
1070
     5
1070
    44
1040
1.7
1070
   271
1070
     2
1070
    41
1040
1.6
1002
}
  0
LINE
  5
614C
100
AcDbEntity
  8
DIM
100
AcDbLine
 10
143.770679
 20
58.997535
 30
0.0
 11
150.570679
 21
58.997535
 31
0.0
  0
LINE
  5
614D
100
AcDbEntity
  8
DIM
100
AcDbLine
 10
142.319124
 20
143.447489
 30
0.0
 11
143.919124
 21
143.447489
 31
0.0
  0
LINE
  5
614E
100
AcDbEntity
  8
DIM
100
AcDbLine
 10
142.319124
 20
60.12235
 30
0.0
 11
143.919124
 21
60.12235
 31
0.0
  0
LWPOLYLINE
  5
614F
100
AcDbEntity
  8
BORDER
 62
     6
100
AcDbPolyline
 90
        4
 70
     1
 43
0.0
 10
152.607675
 20
55.675402
 10
150.882686
 20
55.675402
 10
150.882686
 20
57.400392
 10
152.607675
 20
57.400392
  0
LWPOLYLINE
  5
6150
100
AcDbEntity
  8
BORDER
 62
     6
100
AcDbPolyline
 90
        4
 70
     1
 43
0.0
 10
152.607675
 20
54.80987
 10
150.882686
 20
54.80987
 10
150.882686
 20
53.084881
 10
152.607675
 20
53.084881
  0
LEADER
  5
6151
100
AcDbEntity
  8
DIM
100
AcDbLeader
  3
STANDARD
 76
     2
 10
108.17869
 20
109.059547
 30
0.0
 10
142.319124
 20
134.397208
 30
0.0
 77
   256
1001
ACAD
1000
DSTYLE
1002
{
1070
   340
1005
2F
1070
   272
1070
     2
1070
   147
1040
1.7
1070
   287
1070
     5
1070
    44
1040
1.7
1070
   271
1070
     2
1070
    41
1040
1.6
1002
}
  0
LEADER
  5
6152
100
AcDbEntity
  8
DIM
100
AcDbLeader
  3
STANDARD
 76
     2
 10
105.967574
 20
102.775816
 30
0.0
 10
142.319124
 20
81.017874
 30
0.0
 77
   256
1001
ACAD
1000
DSTYLE
1002
{
1070
   340
1005
2F
1070
   272
1070
     2
1070
   147
1040
1.7
1070
   287
1070
     5
1070
    44
1040
1.7
1070
   271
1070
     2
1070
    41
1040
1.6
1002
}
  0
LEADER
  5
6153
100
AcDbEntity
  8
DIM
100
AcDbLeader
  3
STANDARD
 76
     2
 10
105.182227
 20
94.191816
 30
0.0
 10
142.319124
 20
76.355057
 30
0.0
 77
   256
1001
ACAD
1000
DSTYLE
1002
{
1070
   340
1005
2F
1070
   272
1070
     2
1070
   147
1040
1.7
1070
   287
1070
     5
1070
    44
1040
1.7
1070
   271
1070
     2
1070
    41
1040
1.6
1002
}
  0
LEADER
  5
6154
100
AcDbEntity
  8
DIM
100
AcDbLeader
  3
STANDARD
 76
     2
 10
108.592569
 20
89.812846
 30
0.0
 10
141.919124
 20
66.89717
 30
0.0
 77
   256
1001
ACAD
1000
DSTYLE
1002
{
1070
   340
1005
2F
1070
   272
1070
     2
1070
   147
1040
1.7
1070
   287
1070
     5
1070
    44
1040
1.7
1070
   271
1070
     2
1070
    41
1040
1.6
1002
}
  0
LINE
  5
6157
100
AcDbEntity
  8
DIM
100
AcDbLine
 10
143.641257
 20
79.688404
 30
0.0
 11
150.441257
 21
79.688404
 31
0.0
  0
LINE
  5
6158
100
AcDbEntity
  8
DIM
100
AcDbLine
 10
143.641257
 20
75.025588
 30
0.0
 11
150.441257
 21
75.025588
 31
0.0
  0
LINE
  5
6159
100
AcDbEntity
  8
DIM
100
AcDbLine
 10
141.919124
 20
66.89717
 30
0.0
 11
143.519124
 21
66.89717
 31
0.0
  0
LINE
  5
615A
100
AcDbEntity
  8
DIM
100
AcDbLine
 10
142.319124
 20
81.017874
 30
0.0
 11
143.919124
 21
81.017874
 31
0.0
  0
LINE
  5
615B
100
AcDbEntity
  8
DIM
100
AcDbLine
 10
142.319124
 20
76.355057
 30
0.0
 11
143.919124
 21
76.355057
 31
0.0
  0
LINE
  5
615C
100
AcDbEntity
  8
DIM
100
AcDbLine
 10
142.319124
 20
134.397208
 30
0.0
 11
143.919124
 21
134.397208
 31
0.0
  0
LWPOLYLINE
  5
615D
100
AcDbEntity
  8
BORDER
 62
     6
100
AcDbPolyline
 90
        4
 70
     1
 43
0.0
 10
152.606776
 20
107.99378
 10
150.881787
 20
107.99378
 10
150.881787
 20
106.26879
 10
152.606776
 20
106.26879
  0
LWPOLYLINE
  5
615E
100
AcDbEntity
  8
BORDER
 62
     6
100
AcDbPolyline
 90
        4
 70
     1
 43
0.0
 10
152.606776
 20
111.449833
 10
150.881787
 20
111.449833
 10
150.881787
 20
113.174823
 10
152.606776
 20
113.174823
  0
LWPOLYLINE
  5
615F
100
AcDbEntity
  8
BORDER
 62
     6
100
AcDbPolyline
 90
        4
 70
     1
 43
0.0
 10
152.606776
 20
110.584301
 10
150.881787
 20
110.584301
 10
150.881787
 20
108.859312
 10
152.606776
 20
108.859312
  0
LINE
  5
6164
100
AcDbEntity
  8
DIM
100
AcDbLine
 10
143.76978
 20
114.771966
 30
0.0
 11
150.56978
 21
114.771966
 31
0.0
  0
LINE
  5
6165
100
AcDbEntity
  8
DIM
100
AcDbLine
 10
143.641257
 20
85.376299
 30
0.0
 11
150.441257
 21
85.376299
 31
0.0
  0
LINE
  5
6166
100
AcDbEntity
  8
DIM
100
AcDbLine
 10
142.318225
 20
115.896781
 30
0.0
 11
143.918225
 21
115.896781
 31
0.0
  0
LINE
  5
6167
100
AcDbEntity
  8
DIM
100
AcDbLine
 10
142.319124
 20
86.705768
 30
0.0
 11
143.919124
 21
86.705768
 31
0.0
  0
TEXT
  5
616A
100
AcDbEntity
  8
DIM
100
AcDbText
 10
145.619124
 20
85.855768
 30
0.0
 40
1.7
  1
   Union
  7
ROMAND
 11
145.619124
 21
86.705768
 31
0.0
100
AcDbText
 73
     2
  0
SOLID
  5
616B
100
AcDbEntity
  8
DIM
100
AcDbTrace
 10
183.656774
 20
109.212217
 30
0.0
 11
183.708923
 21
109.742995
 31
0.0
 12
182.090516
 22
109.634052
 32
0.0
 13
182.090516
 23
109.634052
 33
0.0
  0
DIMENSION
  5
616C
100
AcDbEntity
  8
DIM
100
AcDbDimension
  2
*D8
 10
126.685307
 20
54.331949
 30
0.0
 11
132.185307
 21
54.331949
 31
0.0
 70
   160
  1
3"
  3
STANDARD
100
AcDbAlignedDimension
 13
123.685307
 23
67.275816
 33
0.0
 14
126.685307
 24
65.775816
 34
0.0
100
AcDbRotatedDimension
1001
ACAD
1000
DSTYLE
1002
{
1070
   140
1040
1.5
1070
   147
1040
1.5
1070
   287
1070
     0
1070
    42
1040
0.1
1070
    44
1040
1.0
1070
   271
1070
     3
1070
    41
1040
1.5
1002
}
  0
DIMENSION
  5
616D
100
AcDbEntity
  8
DIM
100
AcDbDimension
  2
*D7
 10
75.685307
 20
54.331949
 30
0.0
 11
67.185307
 21
54.331949
 31
0.0
 70
   160
  1
3"
  3
STANDARD
100
AcDbAlignedDimension
 13
72.685307
 23
65.775816
 33
0.0
 14
75.685307
 24
67.275816
 34
0.0
100
AcDbRotatedDimension
1001
ACAD
1000
DSTYLE
1002
{
1070
   140
1040
1.5
1070
   147
1040
1.5
1070
   287
1070
     0
1070
    42
1040
0.1
1070
    44
1040
1.0
1070
   271
1070
     3
1070
    41
1040
1.5
1002
}
  0
DIMENSION
  5
616E
100
AcDbEntity
  8
DIM
100
AcDbDimension
  2
*D6
 10
123.685307
 20
54.331949
 30
0.0
 11
99.685307
 21
54.331949
 31
0.0
 70
    32
  1
  
  3
STANDARD
100
AcDbAlignedDimension
 13
75.685307
 23
67.275816
 33
0.0
 14
123.685307
 24
67.275816
 34
0.0
100
AcDbRotatedDimension
1001
ACAD
1000
DSTYLE
1002
{
1070
   340
1005
2F
1070
   272
1070
     2
1070
   147
1040
1.7
1070
   287
1070
     5
1070
    44
1040
1.7
1070
   271
1070
     2
1070
    41
1040
1.6
1002
}
  0
LINE
  5
6175
100
AcDbEntity
  8
DIM
100
AcDbLine
 10
79.839395
 20
148.862018
 30
0.0
 11
55.655942
 21
142.69586
 31
0.0
  0
DIMENSION
  5
6176
100
AcDbEntity
  8
DIM
100
AcDbDimension
  2
*D9
 10
61.429361
 20
118.123648
 30
0.0
 11
61.429361
 21
139.521755
 31
0.0
 70
    32
  1
  
  3
STANDARD
100
AcDbAlignedDimension
 13
61.429361
 23
160.919863
 33
0.0
 14
66.163528
 24
118.123648
 34
0.0
 50
90.0
100
AcDbRotatedDimension
1001
ACAD
1000
DSTYLE
1002
{
1070
   140
1040
1.5
1070
   272
1070
     2
1070
   147
1040
1.5
1070
   287
1070
     5
1070
    42
1040
0.06
1070
    44
1040
1.7
1070
   271
1070
     2
1070
    41
1040
1.6
1002
}
  0
LINE
  5
6177
100
AcDbEntity
  8
DIM
100
AcDbLine
 10
55.655942
 20
142.69586
 30
0.0
 11
54.055942
 21
142.69586
 31
0.0
  0
LINE
  5
6179
100
AcDbEntity
  8
DIM
100
AcDbLine
 10
75.435307
 20
160.919863
 30
0.0
 11
58.811015
 21
160.919863
 31
0.0
  0
LINE
  5
617A
100
AcDbEntity
  8
ELEV
 62
     3
100
AcDbLine
 10
33.846236
 20
160.919863
 30
0.0
 11
58.811015
 21
160.919863
 31
0.0
  0
LINE
  5
617B
100
AcDbEntity
  8
ELEV
100
AcDbLine
 10
58.811015
 20
160.919863
 30
0.0
 11
28.975635
 21
160.919863
 31
0.0
  0
LINE
  5
617C
100
AcDbEntity
  8
DIM
100
AcDbLine
 10
55.655942
 20
154.826614
 30
0.0
 11
54.055942
 21
154.826614
 31
0.0
  0
TEXT
  5
617E
100
AcDbEntity
  8
DIM
100
AcDbText
 10
27.260704
 20
136.153923
 30
0.0
 40
1.7
  1
w/ (3) Cord Grips
  7
ROMAND
 72
     2
 11
52.355942
 21
137.003923
 31
0.0
100
AcDbText
 73
     2
  0
TEXT
  5
617F
100
AcDbEntity
  8
DIM
100
AcDbText
 10
34.870228
 20
139.086133
 30
0.0
 40
1.7
  1
Float Bracket
  7
ROMAND
 72
     2
 11
52.355942
 21
139.936133
 31
0.0
100
AcDbText
 73
     2
  0
TEXT
  5
6180
100
AcDbEntity
  8
DIM
100
AcDbText
 10
26.855942
 20
141.84586
 30
0.0
 40
1.7
  1
304 Stainless Steel
  7
ROMAND
 72
     2
 11
52.355942
 21
142.69586
 31
0.0
100
AcDbText
 73
     2
  0
TEXT
  5
6181
100
AcDbEntity
  8
DIM
100
AcDbText
 10
44.989276
 20
133.02164
 30
0.0
 40
1.7
  1
Floats
  7
ROMAND
 72
     2
 11
52.355942
 21
133.87164
 31
0.0
100
AcDbText
 73
     2
  0
LWPOLYLINE
  5
6182
100
AcDbEntity
  8
DIM
100
AcDbPolyline
 90
        4
 70
     1
 43
0.0
 10
44.432891
 20
133.076252
 10
44.432891
 20
134.866795
 10
42.642349
 20
134.866795
 10
42.642349
 20
133.076252
  0
ARC
  5
6183
100
AcDbEntity
  8
ELEV
 62
     3
100
AcDbCircle
 39
15.0
 10
31.785936
 20
160.919863
 30
0.0
 40
2.060301
100
AcDbArc
 50
90.0
 51
180.0
  0
ARC
  5
6184
100
AcDbEntity
  8
ELEV
 62
     3
100
AcDbCircle
 39
15.0
 10
31.785936
 20
160.919863
 30
0.0
 40
2.060301
100
AcDbArc
 50
180.0
 51
270.0
  0
ARC
  5
6185
100
AcDbEntity
  8
ELEV
 62
     3
100
AcDbCircle
 39
15.0
 10
31.785936
 20
160.919863
 30
0.0
 40
2.060301
100
AcDbArc
 50
270.0
 51
0.0
  0
ARC
  5
6186
100
AcDbEntity
  8
ELEV
 62
     3
100
AcDbCircle
 39
15.0
 10
31.785936
 20
160.919863
 30
0.0
 40
2.060301
100
AcDbArc
 50
0.0
 51
90.0
  0
TEXT
  5
6187
100
AcDbEntity
  8
DIM
100
AcDbText
 10
33.413085
 20
148.465391
 30
0.0
 40
1.7
  1
Stainless Steel
  7
ROMAND
 72
     2
 11
52.355942
 21
149.315391
 31
0.0
100
AcDbText
 73
     2
  0
TEXT
  5
6188
100
AcDbEntity
  8
DIM
100
AcDbText
 10
21.594037
 20
153.976614
 30
0.0
 40
1.7
  1
NPT Electrical Coupling
  7
ROMAND
 72
     2
 11
52.355942
 21
154.826614
 31
0.0
100
AcDbText
 73
     2
  0
TEXT
  5
6189
100
AcDbEntity
  8
DIM
100
AcDbText
 10
32.279752
 20
151.216887
 30
0.0
 40
1.7
  1
Enameled Steel
  7
ROMAND
 72
     2
 11
52.355942
 21
152.066887
 31
0.0
100
AcDbText
 73
     2
  0
TEXT
  5
618A
100
AcDbEntity
  8
ELEV
 62
     3
100
AcDbText
 10
34.631105
 20
161.456826
 30
0.0
 40
1.5
  1
ELEV 
  7
ROMANS
100
AcDbText
  0
LINE
  5
618B
100
AcDbEntity
  8
ELEV
100
AcDbLine
 10
31.785936
 20
163.730163
 30
0.0
 11
31.785936
 21
158.109562
 31
0.0
  0
LINE
  5
618C
100
AcDbEntity
  8
DIM
100
AcDbLine
 10
14.134004
 20
153.928921
 30
0.0
 11
20.934004
 21
153.928921
 31
0.0
  0
LWPOLYLINE
  5
618D
100
AcDbEntity
  8
DIM
100
AcDbPolyline
 90
        4
 70
     1
 43
0.0
 10
31.588454
 20
151.310606
 10
31.588454
 20
153.101148
 10
29.797912
 20
153.101148
 10
29.797912
 20
151.310606
  0
LWPOLYLINE
  5
618E
100
AcDbEntity
  8
DIM
100
AcDbPolyline
 90
        4
 70
     1
 43
0.0
 10
32.940508
 20
148.492256
 10
32.940508
 20
150.282799
 10
31.149966
 20
150.282799
 10
31.149966
 20
148.492256
  0
INSERT
  5
618F
100
AcDbEntity
  8
ELEV
100
AcDbBlockReference
  2
*X4
 10
-81.458921
 20
86.147194
 30
0.0
1001
ACAD
1000
HATCH
1002
{
1070
    16
1000
ANSI37
1040
1.0
1040
0.0
1002
}
  0
LINE
  5
6190
100
AcDbEntity
  8
ELEV
 62
     3
100
AcDbLine
 10
31.785936
 20
160.919863
 30
0.0
 11
31.785936
 21
158.859562
 31
0.0
  0
INSERT
  5
6191
100
AcDbEntity
  8
ELEV
100
AcDbBlockReference
  2
*X3
 10
-81.458921
 20
86.147194
 30
0.0
1001
ACAD
1000
HATCH
1002
{
1070
    16
1000
ANSI37
1040
1.0
1040
0.0
1002
}
  0
LINE
  5
6192
100
AcDbEntity
  8
ELEV
 62
     3
100
AcDbLine
 10
31.785936
 20
160.919863
 30
0.0
 11
31.785936
 21
162.980163
 31
0.0
  0
TEXT
  5
6195
100
AcDbEntity
  8
DIM
100
AcDbText
 10
31.227371
 20
122.070589
 30
0.0
 40
1.7
  1
Types Available)
  7
ROMAND
 72
     2
 11
52.355942
 21
122.920589
 31
0.0
100
AcDbText
 73
     2
  0
TEXT
  5
6196
100
AcDbEntity
  8
DIM
100
AcDbText
 10
25.398799
 20
124.961907
 30
0.0
 40
1.7
  1
(Different Sizes and
  7
ROMAND
 72
     2
 11
52.355942
 21
125.811907
 31
0.0
100
AcDbText
 73
     2
  0
TEXT
  5
6197
100
AcDbEntity
  8
DIM
100
AcDbText
 10
26.45118
 20
127.853225
 30
0.0
 40
1.7
  1
Cast Iron Inlet Hub
  7
ROMAND
 72
     2
 11
52.355942
 21
128.703225
 31
0.0
100
AcDbText
 73
     2
  0
LINE
  5
6198
100
AcDbEntity
  8
DIM
100
AcDbLine
 10
18.638503
 20
127.288083
 30
0.0
 11
25.438503
 21
127.288083
 31
0.0
  0
LINE
  5
6199
100
AcDbEntity
  8
DIM
100
AcDbLine
 10
55.655942
 20
128.703225
 30
0.0
 11
54.055942
 21
128.703225
 31
0.0
  0
LINE
  5
619A
100
AcDbEntity
  8
ELEV
 62
     3
100
AcDbLine
 10
43.974151
 20
108.868383
 30
0.0
 11
88.21545
 21
108.868383
 31
0.0
  0
TEXT
  5
619B
100
AcDbEntity
  8
ELEV
 62
     3
100
AcDbText
 10
44.75902
 20
106.976775
 30
0.0
 40
1.5
  1
HIGH LEVEL ALARM
  7
ROMANS
100
AcDbText
  0
ARC
  5
619C
100
AcDbEntity
  8
ELEV
 62
     3
100
AcDbCircle
 39
15.0
 10
41.913851
 20
108.868383
 30
0.0
 40
2.060301
100
AcDbArc
 50
180.0
 51
270.0
  0
ARC
  5
619D
100
AcDbEntity
  8
ELEV
 62
     3
100
AcDbCircle
 39
15.0
 10
41.913851
 20
108.868383
 30
0.0
 40
2.060301
100
AcDbArc
 50
90.0
 51
180.0
  0
ARC
  5
619E
100
AcDbEntity
  8
ELEV
 62
     3
100
AcDbCircle
 39
15.0
 10
41.913851
 20
108.868383
 30
0.0
 40
2.060301
100
AcDbArc
 50
0.0
 51
90.0
  0
ARC
  5
619F
100
AcDbEntity
  8
ELEV
 62
     3
100
AcDbCircle
 39
15.0
 10
41.913851
 20
108.868383
 30
0.0
 40
2.060301
100
AcDbArc
 50
270.0
 51
0.0
  0
TEXT
  5
61A0
100
AcDbEntity
  8
ELEV
 62
     3
100
AcDbText
 10
44.75902
 20
109.405346
 30
0.0
 40
1.5
  1
ELEV 
  7
ROMANS
100
AcDbText
  0
INSERT
  5
61A1
100
AcDbEntity
  8
ELEV
 62
     3
100
AcDbBlockReference
  2
*X0
 10
-42.235384
 20
39.821496
 30
0.0
 41
0.75
 42
0.75
 43
0.75
1001
ACAD
1000
HATCH
1002
{
1070
    16
1000
ANSI37
1040
0.75
1040
0.0
1002
}
  0
LINE
  5
61A2
100
AcDbEntity
  8
ELEV
 62
     3
100
AcDbLine
 10
41.913851
 20
108.868383
 30
0.0
 11
43.974151
 21
108.868383
 31
0.0
  0
LINE
  5
61A3
100
AcDbEntity
  8
ELEV
 62
     3
100
AcDbLine
 10
41.913851
 20
108.868383
 30
0.0
 11
41.913851
 21
111.678684
 31
0.0
  0
INSERT
  5
61A4
100
AcDbEntity
  8
ELEV
 62
     3
100
AcDbBlockReference
  2
*X1
 10
-42.235384
 20
39.821496
 30
0.0
 41
0.75
 42
0.75
 43
0.75
1001
ACAD
1000
HATCH
1002
{
1070
    16
1000
ANSI37
1040
0.75
1040
0.0
1002
}
  0
LINE
  5
61A5
100
AcDbEntity
  8
ELEV
 62
     3
100
AcDbLine
 10
41.913851
 20
108.868383
 30
0.0
 11
39.10355
 21
108.868383
 31
0.0
  0
LINE
  5
61A6
100
AcDbEntity
  8
ELEV
 62
     3
100
AcDbLine
 10
41.913851
 20
108.868383
 30
0.0
 11
41.913851
 21
106.058082
 31
0.0
  0
ARC
  5
61A7
100
AcDbEntity
  8
ELEV
 62
     3
100
AcDbCircle
 39
15.0
 10
31.785936
 20
115.097873
 30
0.0
 40
2.060301
100
AcDbArc
 50
90.0
 51
180.0
  0
ARC
  5
61A8
100
AcDbEntity
  8
ELEV
 62
     3
100
AcDbCircle
 39
15.0
 10
31.785936
 20
115.097873
 30
0.0
 40
2.060301
100
AcDbArc
 50
180.0
 51
270.0
  0
ARC
  5
61A9
100
AcDbEntity
  8
ELEV
 62
     3
100
AcDbCircle
 39
15.0
 10
31.785936
 20
115.097873
 30
0.0
 40
2.060301
100
AcDbArc
 50
270.0
 51
0.0
  0
ARC
  5
61AA
100
AcDbEntity
  8
ELEV
 62
     3
100
AcDbCircle
 39
15.0
 10
31.785936
 20
115.097873
 30
0.0
 40
2.060301
100
AcDbArc
 50
0.0
 51
90.0
  0
LINE
  5
61AB
100
AcDbEntity
  8
ELEV
 62
     3
100
AcDbLine
 10
33.846236
 20
115.097873
 30
0.0
 11
58.811015
 21
115.097873
 31
0.0
  0
LINE
  5
61AC
100
AcDbEntity
  8
ELEV
100
AcDbLine
 10
58.811015
 20
115.097873
 30
0.0
 11
28.975635
 21
115.097873
 31
0.0
  0
TEXT
  5
61AD
100
AcDbEntity
  8
ELEV
 62
     3
100
AcDbText
 10
34.631105
 20
115.634836
 30
0.0
 40
1.5
  1
INV ELEV 
  7
ROMANS
100
AcDbText
  0
LINE
  5
61AE
100
AcDbEntity
  8
ELEV
 62
     3
100
AcDbLine
 10
31.785936
 20
115.097873
 30
0.0
 11
31.785936
 21
113.037572
 31
0.0
  0
INSERT
  5
61AF
100
AcDbEntity
  8
ELEV
100
AcDbBlockReference
  2
*X3
 10
-81.458921
 20
40.325204
 30
0.0
1001
ACAD
1000
HATCH
1002
{
1070
    16
1000
ANSI37
1040
1.0
1040
0.0
1002
}
  0
LINE
  5
61B0
100
AcDbEntity
  8
ELEV
100
AcDbLine
 10
31.785936
 20
117.908173
 30
0.0
 11
31.785936
 21
112.287572
 31
0.0
  0
INSERT
  5
61B1
100
AcDbEntity
  8
ELEV
100
AcDbBlockReference
  2
*X4
 10
-81.458921
 20
40.325204
 30
0.0
1001
ACAD
1000
HATCH
1002
{
1070
    16
1000
ANSI37
1040
1.0
1040
0.0
1002
}
  0
LINE
  5
61B2
100
AcDbEntity
  8
ELEV
 62
     3
100
AcDbLine
 10
31.785936
 20
115.097873
 30
0.0
 11
31.785936
 21
117.158173
 31
0.0
  0
LINE
  5
61B3
100
AcDbEntity
  8
ELEV
100
AcDbLine
 10
72.248307
 20
115.097873
 30
0.0
 11
58.811015
 21
115.097873
 31
0.0
  0
LINE
  5
61B4
100
AcDbEntity
  8
ELEV
 62
     3
100
AcDbLine
 10
43.974151
 20
86.709403
 30
0.0
 11
84.96545
 21
86.709403
 31
0.0
  0
ARC
  5
61B5
100
AcDbEntity
  8
ELEV
 62
     3
100
AcDbCircle
 39
15.0
 10
41.908587
 20
86.624536
 30
0.0
 40
2.060301
100
AcDbArc
 50
180.0
 51
270.0
  0
ARC
  5
61B6
100
AcDbEntity
  8
ELEV
 62
     3
100
AcDbCircle
 39
15.0
 10
41.908587
 20
86.624536
 30
0.0
 40
2.060301
100
AcDbArc
 50
90.0
 51
180.0
  0
ARC
  5
61B7
100
AcDbEntity
  8
ELEV
 62
     3
100
AcDbCircle
 39
15.0
 10
41.908587
 20
86.624536
 30
0.0
 40
2.060301
100
AcDbArc
 50
0.0
 51
90.0
  0
ARC
  5
61B8
100
AcDbEntity
  8
ELEV
 62
     3
100
AcDbCircle
 39
15.0
 10
41.908587
 20
86.624536
 30
0.0
 40
2.060301
100
AcDbArc
 50
270.0
 51
0.0
  0
TEXT
  5
61B9
100
AcDbEntity
  8
ELEV
 62
     3
100
AcDbText
 10
44.75902
 20
84.817794
 30
0.0
 40
1.5
  1
PUMP #1 ON
  7
ROMANS
100
AcDbText
  0
LINE
  5
61BA
100
AcDbEntity
  8
ELEV
 62
     3
100
AcDbLine
 10
41.908587
 20
86.624536
 30
0.0
 11
41.908587
 21
83.814236
 31
0.0
  0
TEXT
  5
61BB
100
AcDbEntity
  8
ELEV
 62
     3
100
AcDbText
 10
44.75902
 20
87.246366
 30
0.0
 40
1.5
  1
ELEV 
  7
ROMANS
100
AcDbText
  0
INSERT
  5
61BC
100
AcDbEntity
  8
ELEV
 62
     3
100
AcDbBlockReference
  2
*X0
 10
-42.240647
 20
17.577649
 30
0.0
 41
0.75
 42
0.75
 43
0.75
1001
ACAD
1000
HATCH
1002
{
1070
    16
1000
ANSI37
1040
0.75
1040
0.0
1002
}
  0
LINE
  5
61BD
100
AcDbEntity
  8
ELEV
 62
     3
100
AcDbLine
 10
41.908587
 20
86.624536
 30
0.0
 11
43.968887
 21
86.624536
 31
0.0
  0
LINE
  5
61BE
100
AcDbEntity
  8
ELEV
 62
     3
100
AcDbLine
 10
41.908587
 20
86.624536
 30
0.0
 11
39.098286
 21
86.624536
 31
0.0
  0
INSERT
  5
61BF
100
AcDbEntity
  8
ELEV
 62
     3
100
AcDbBlockReference
  2
*X1
 10
-42.240647
 20
17.577649
 30
0.0
 41
0.75
 42
0.75
 43
0.75
1001
ACAD
1000
HATCH
1002
{
1070
    16
1000
ANSI37
1040
0.75
1040
0.0
1002
}
  0
LINE
  5
61C0
100
AcDbEntity
  8
ELEV
 62
     3
100
AcDbLine
 10
41.908587
 20
86.624536
 30
0.0
 11
41.908587
 21
89.434837
 31
0.0
  0
LINE
  5
61C1
100
AcDbEntity
  8
ELEV
 62
     3
100
AcDbLine
 10
43.974151
 20
74.192819
 30
0.0
 11
81.71545
 21
74.192819
 31
0.0
  0
ARC
  5
61C2
100
AcDbEntity
  8
ELEV
 62
     3
100
AcDbCircle
 39
15.0
 10
41.913851
 20
74.192819
 30
0.0
 40
2.060301
100
AcDbArc
 50
180.0
 51
270.0
  0
ARC
  5
61C3
100
AcDbEntity
  8
ELEV
 62
     3
100
AcDbCircle
 39
15.0
 10
41.913851
 20
74.192819
 30
0.0
 40
2.060301
100
AcDbArc
 50
270.0
 51
0.0
  0
ARC
  5
61C4
100
AcDbEntity
  8
ELEV
 62
     3
100
AcDbCircle
 39
15.0
 10
41.913851
 20
74.192819
 30
0.0
 40
2.060301
100
AcDbArc
 50
90.0
 51
180.0
  0
ARC
  5
61C5
100
AcDbEntity
  8
ELEV
 62
     3
100
AcDbCircle
 39
15.0
 10
41.913851
 20
74.192819
 30
0.0
 40
2.060301
100
AcDbArc
 50
0.0
 51
90.0
  0
TEXT
  5
61C6
100
AcDbEntity
  8
ELEV
 62
     3
100
AcDbText
 10
44.75902
 20
74.729782
 30
0.0
 40
1.5
  1
ELEV 
  7
ROMANS
100
AcDbText
  0
TEXT
  5
61C7
100
AcDbEntity
  8
ELEV
 62
     3
100
AcDbText
 10
44.75902
 20
72.301211
 30
0.0
 40
1.5
  1
PUMP OFF
  7
ROMANS
100
AcDbText
  0
INSERT
  5
61C8
100
AcDbEntity
  8
ELEV
 62
     3
100
AcDbBlockReference
  2
*X1
 10
-42.235384
 20
5.145932
 30
0.0
 41
0.75
 42
0.75
 43
0.75
1001
ACAD
1000
HATCH
1002
{
1070
    16
1000
ANSI37
1040
0.75
1040
0.0
1002
}
  0
LINE
  5
61C9
100
AcDbEntity
  8
ELEV
 62
     3
100
AcDbLine
 10
41.913851
 20
74.192819
 30
0.0
 11
41.913851
 21
77.003119
 31
0.0
  0
LINE
  5
61CA
100
AcDbEntity
  8
ELEV
 62
     3
100
AcDbLine
 10
41.913851
 20
74.192819
 30
0.0
 11
43.974151
 21
74.192819
 31
0.0
  0
INSERT
  5
61CB
100
AcDbEntity
  8
ELEV
 62
     3
100
AcDbBlockReference
  2
*X0
 10
-42.235384
 20
5.145932
 30
0.0
 41
0.75
 42
0.75
 43
0.75
1001
ACAD
1000
HATCH
1002
{
1070
    16
1000
ANSI37
1040
0.75
1040
0.0
1002
}
  0
LINE
  5
61CC
100
AcDbEntity
  8
ELEV
 62
     3
100
AcDbLine
 10
41.913851
 20
74.192819
 30
0.0
 11
39.10355
 21
74.192819
 31
0.0
  0
LINE
  5
61CD
100
AcDbEntity
  8
ELEV
 62
     3
100
AcDbLine
 10
41.913851
 20
74.192819
 30
0.0
 11
41.913851
 21
71.382518
 31
0.0
  0
LINE
  5
61CE
100
AcDbEntity
  8
ELEV
100
AcDbLine
 10
76.185307
 20
66.775816
 30
0.0
 11
58.811015
 21
66.775816
 31
0.0
  0
LINE
  5
61CF
100
AcDbEntity
  8
ELEV
100
AcDbLine
 10
31.785936
 20
69.586116
 30
0.0
 11
31.785936
 21
63.965515
 31
0.0
  0
INSERT
  5
61D0
100
AcDbEntity
  8
ELEV
100
AcDbBlockReference
  2
*X3
 10
-81.458921
 20
-7.996853
 30
0.0
1001
ACAD
1000
HATCH
1002
{
1070
    16
1000
ANSI37
1040
1.0
1040
0.0
1002
}
  0
LINE
  5
61D1
100
AcDbEntity
  8
ELEV
 62
     3
100
AcDbLine
 10
31.785936
 20
66.775816
 30
0.0
 11
31.785936
 21
64.715515
 31
0.0
  0
ARC
  5
61D2
100
AcDbEntity
  8
ELEV
 62
     3
100
AcDbCircle
 39
15.0
 10
31.785936
 20
66.775816
 30
0.0
 40
2.060301
100
AcDbArc
 50
270.0
 51
0.0
  0
ARC
  5
61D3
100
AcDbEntity
  8
ELEV
 62
     3
100
AcDbCircle
 39
15.0
 10
31.785936
 20
66.775816
 30
0.0
 40
2.060301
100
AcDbArc
 50
180.0
 51
270.0
  0
ARC
  5
61D4
100
AcDbEntity
  8
ELEV
 62
     3
100
AcDbCircle
 39
15.0
 10
31.785936
 20
66.775816
 30
0.0
 40
2.060301
100
AcDbArc
 50
0.0
 51
90.0
  0
ARC
  5
61D5
100
AcDbEntity
  8
ELEV
 62
     3
100
AcDbCircle
 39
15.0
 10
31.785936
 20
66.775816
 30
0.0
 40
2.060301
100
AcDbArc
 50
90.0
 51
180.0
  0
LINE
  5
61D6
100
AcDbEntity
  8
ELEV
100
AcDbLine
 10
58.811015
 20
66.775816
 30
0.0
 11
28.975635
 21
66.775816
 31
0.0
  0
TEXT
  5
61D7
100
AcDbEntity
  8
ELEV
 62
     3
100
AcDbText
 10
34.631105
 20
67.312779
 30
0.0
 40
1.5
  1
ELEV 
  7
ROMANS
100
AcDbText
  0
LINE
  5
61D8
100
AcDbEntity
  8
ELEV
 62
     3
100
AcDbLine
 10
33.846236
 20
66.775816
 30
0.0
 11
58.811015
 21
66.775816
 31
0.0
  0
INSERT
  5
61D9
100
AcDbEntity
  8
ELEV
100
AcDbBlockReference
  2
*X4
 10
-81.458921
 20
-7.996853
 30
0.0
1001
ACAD
1000
HATCH
1002
{
1070
    16
1000
ANSI37
1040
1.0
1040
0.0
1002
}
  0
LINE
  5
61DA
100
AcDbEntity
  8
ELEV
 62
     3
100
AcDbLine
 10
31.785936
 20
66.775816
 30
0.0
 11
31.785936
 21
68.836116
 31
0.0
  0
LEADER
  5
6243
100
AcDbEntity
  8
DIM
100
AcDbLeader
  3
STANDARD
 76
     2
 10
119.777623
 20
103.963316
 30
0.0
 10
142.318225
 20
115.896781
 30
0.0
 77
   256
1001
ACAD
1000
DSTYLE
1002
{
1070
   140
1040
1.5
1070
   272
1070
     2
1070
   147
1040
1.5
1070
   287
1070
     5
1070
    42
1040
0.06
1070
    44
1040
1.7
1070
   271
1070
     2
1070
    41
1040
1.6
1002
}
  0
LINE
  5
6247
100
AcDbEntity
  8
OBJECT
100
AcDbLine
 10
114.440259
 20
108.158316
 30
0.0
 11
114.440259
 21
110.158316
 31
0.0
  0
LINE
  5
6248
100
AcDbEntity
  8
OBJECT
100
AcDbLine
 10
115.190259
 20
108.158316
 30
0.0
 11
115.190259
 21
110.158316
 31
0.0
  0
LINE
  5
6249
100
AcDbEntity
  8
OBJECT
100
AcDbLine
 10
114.440259
 20
110.158316
 30
0.0
 11
115.190259
 21
110.158316
 31
0.0
  0
LINE
  5
624A
100
AcDbEntity
  8
OBJECT
100
AcDbLine
 10
114.440259
 20
108.158316
 30
0.0
 11
115.190259
 21
108.158316
 31
0.0
  0
LEADER
  5
624B
100
AcDbEntity
  8
DIM
100
AcDbLeader
  3
STANDARD
 76
     2
 10
116.185267
 20
105.893316
 30
0.0
 10
142.319124
 20
126.942868
 30
0.0
 77
   256
1001
ACAD
1000
DSTYLE
1002
{
1070
   140
1040
1.5
1070
   272
1070
     2
1070
   147
1040
1.5
1070
   287
1070
     5
1070
    42
1040
0.06
1070
    44
1040
1.7
1070
   271
1070
     2
1070
    41
1040
1.6
1002
}
  0
LEADER
  5
624C
100
AcDbEntity
  8
DIM
100
AcDbLeader
  3
STANDARD
 76
     2
 10
111.05506
 20
101.525816
 30
0.0
 10
142.319124
 20
86.705768
 30
0.0
 77
   256
1001
ACAD
1000
DSTYLE
1002
{
1070
   140
1040
1.5
1070
   272
1070
     2
1070
   147
1040
1.5
1070
   287
1070
     5
1070
    42
1040
0.06
1070
    44
1040
1.7
1070
   271
1070
     2
1070
    41
1040
1.6
1002
}
  0
LINE
  5
624E
100
AcDbEntity
  8
OBJECT
100
AcDbLine
 10
122.52298
 20
103.963316
 30
0.0
 11
122.52298
 21
101.588316
 31
0.0
  0
LINE
  5
624F
100
AcDbEntity
  8
OBJECT
100
AcDbLine
 10
122.72298
 20
103.963316
 30
0.0
 11
122.72298
 21
101.588316
 31
0.0
  0
LINE
  5
6250
100
AcDbEntity
  8
OBJECT
100
AcDbLine
 10
122.92298
 20
103.963316
 30
0.0
 11
122.92298
 21
101.588316
 31
0.0
  0
LINE
  5
6251
100
AcDbEntity
  8
OBJECT
100
AcDbLine
 10
123.12298
 20
103.963316
 30
0.0
 11
123.12298
 21
101.588316
 31
0.0
  0
LINE
  5
6252
100
AcDbEntity
  8
OBJECT
100
AcDbLine
 10
123.685307
 20
101.400816
 30
0.0
 11
123.32298
 21
101.400816
 31
0.0
  0
LINE
  5
6253
100
AcDbEntity
  8
OBJECT
100
AcDbLine
 10
123.685307
 20
104.150816
 30
0.0
 11
123.32298
 21
104.150816
 31
0.0
  0
LINE
  5
6254
100
AcDbEntity
  8
OBJECT
100
AcDbLine
 10
123.32298
 20
104.150816
 30
0.0
 11
123.32298
 21
101.400816
 31
0.0
  0
LINE
  5
6255
100
AcDbEntity
  8
OBJECT
100
AcDbLine
 10
125.484769
 20
101.400816
 30
0.0
 11
124.185307
 21
101.400816
 31
0.0
  0
LINE
  5
6256
100
AcDbEntity
  8
OBJECT
100
AcDbLine
 10
125.484769
 20
104.150816
 30
0.0
 11
124.185307
 21
104.150816
 31
0.0
  0
LINE
  5
6257
100
AcDbEntity
  8
OBJECT
100
AcDbLine
 10
125.484769
 20
104.150816
 30
0.0
 11
125.484769
 21
101.400816
 31
0.0
  0
TEXT
  5
6259
100
AcDbEntity
  8
DIM
100
AcDbText
 10
148.618311
 20
90.27271
 30
0.0
 40
1.7
  1
   Stainless Steel
  7
ROMAND
 11
148.618311
 21
91.12271
 31
0.0
100
AcDbText
 73
     2
  0
TEXT
  5
625A
100
AcDbEntity
  8
DIM
100
AcDbText
 10
148.618311
 20
92.717329
 30
0.0
 40
1.7
  1
   Enameled Steel
  7
ROMAND
 11
148.618311
 21
93.567329
 31
0.0
100
AcDbText
 73
     2
  0
TEXT
  5
625B
100
AcDbEntity
  8
DIM
100
AcDbText
 10
148.618311
 20
95.456681
 30
0.0
 40
1.7
  1
   Discharge Coupling
  7
ROMAND
 11
148.618311
 21
96.306681
 31
0.0
100
AcDbText
 73
     2
  0
LWPOLYLINE
  5
625D
100
AcDbEntity
  8
DIM
100
AcDbPolyline
 90
        4
 70
     1
 43
0.0
 10
152.868141
 20
90.048797
 10
152.868141
 20
91.839339
 10
151.077598
 20
91.839339
 10
151.077598
 20
90.048797
  0
LWPOLYLINE
  5
625E
100
AcDbEntity
  8
DIM
100
AcDbPolyline
 90
        4
 70
     1
 43
0.0
 10
152.868141
 20
92.710024
 10
152.868141
 20
94.500567
 10
151.077598
 20
94.500567
 10
151.077598
 20
92.710024
  0
LINE
  5
625F
100
AcDbEntity
  8
DIM
100
AcDbLine
 10
146.640443
 20
94.977212
 30
0.0
 11
153.440443
 21
94.977212
 31
0.0
  0
LINE
  5
6260
100
AcDbEntity
  8
DIM
100
AcDbLine
 10
145.318311
 20
96.306681
 30
0.0
 11
146.918311
 21
96.306681
 31
0.0
  0
LEADER
  5
6262
100
AcDbEntity
  8
DIM
100
AcDbLeader
  3
STANDARD
 76
     2
 10
125.484769
 20
101.976883
 30
0.0
 10
145.318311
 20
96.306681
 30
0.0
 77
   256
1001
ACAD
1000
DSTYLE
1002
{
1070
   140
1040
1.5
1070
   272
1070
     2
1070
   147
1040
1.5
1070
   287
1070
     5
1070
    42
1040
0.06
1070
    44
1040
1.7
1070
   271
1070
     2
1070
    41
1040
1.6
1002
}
  0
ARC
  5
6263
100
AcDbEntity
  8
ELEV
 62
     3
100
AcDbCircle
 39
15.0
 10
152.040352
 20
101.585055
 30
0.0
 40
2.060301
100
AcDbArc
 50
180.0
 51
270.0
  0
ARC
  5
6264
100
AcDbEntity
  8
ELEV
 62
     3
100
AcDbCircle
 39
15.0
 10
152.040352
 20
101.585055
 30
0.0
 40
2.060301
100
AcDbArc
 50
270.0
 51
0.0
  0
ARC
  5
6265
100
AcDbEntity
  8
ELEV
 62
     3
100
AcDbCircle
 39
15.0
 10
152.040352
 20
101.585055
 30
0.0
 40
2.060301
100
AcDbArc
 50
90.0
 51
180.0
  0
ARC
  5
6266
100
AcDbEntity
  8
ELEV
 62
     3
100
AcDbCircle
 39
15.0
 10
152.040352
 20
101.585055
 30
0.0
 40
2.060301
100
AcDbArc
 50
0.0
 51
90.0
  0
LINE
  5
6267
100
AcDbEntity
  8
ELEV
100
AcDbLine
 10
125.015272
 20
101.585055
 30
0.0
 11
154.850652
 21
101.585055
 31
0.0
  0
LINE
  5
6268
100
AcDbEntity
  8
ELEV
 62
     3
100
AcDbLine
 10
149.980051
 20
101.585055
 30
0.0
 11
125.015272
 21
101.585055
 31
0.0
  0
LINE
  5
6269
100
AcDbEntity
  8
ELEV
100
AcDbLine
 10
152.040352
 20
104.395355
 30
0.0
 11
152.040352
 21
98.774754
 31
0.0
  0
TEXT
  5
626A
100
AcDbEntity
  8
ELEV
 62
     3
100
AcDbText
 10
139.491673
 20
102.310661
 30
0.0
 40
1.5
  1
INV ELEV 
  7
ROMANS
100
AcDbText
  0
INSERT
  5
626B
100
AcDbEntity
  8
ELEV
100
AcDbBlockReference
  2
*X3
 10
265.285209
 20
26.812386
 30
0.0
 41
-1.0
1001
ACAD
1000
HATCH
1002
{
1070
    16
1000
ANSI37
1040
1.0
1040
0.0
1002
}
  0
LINE
  5
626C
100
AcDbEntity
  8
ELEV
 62
     3
100
AcDbLine
 10
152.040352
 20
101.585055
 30
0.0
 11
152.040352
 21
99.524754
 31
0.0
  0
INSERT
  5
626D
100
AcDbEntity
  8
ELEV
100
AcDbBlockReference
  2
*X4
 10
265.285209
 20
26.812386
 30
0.0
 41
-1.0
1001
ACAD
1000
HATCH
1002
{
1070
    16
1000
ANSI37
1040
1.0
1040
0.0
1002
}
  0
LINE
  5
626E
100
AcDbEntity
  8
ELEV
 62
     3
100
AcDbLine
 10
152.040352
 20
101.585055
 30
0.0
 11
152.040352
 21
103.645355
 31
0.0
  0
LINE
  5
627B
100
AcDbEntity
  8
CENTER
100
AcDbLine
 10
68.54496
 20
118.123648
 30
0.0
 11
77.970721
 21
118.123648
 31
0.0
  0
LEADER
  5
627C
100
AcDbEntity
  8
DIM
100
AcDbLeader
  3
STANDARD
 76
     2
 10
72.248307
 20
121.105778
 30
0.0
 10
55.655942
 20
128.703225
 30
0.0
 77
   256
1001
ACAD
1000
DSTYLE
1002
{
1070
   140
1040
1.5
1070
   272
1070
     2
1070
   147
1040
1.5
1070
   287
1070
     5
1070
    42
1040
0.06
1070
    44
1040
1.7
1070
   271
1070
     2
1070
    41
1040
1.6
1002
}
  0
LINE
  5
627D
100
AcDbEntity
  8
DIM
100
AcDbLine
 10
123.745307
 20
160.919863
 30
0.0
 11
132.649666
 21
160.919863
 31
0.0
  0
LINE
  5
627E
100
AcDbEntity
  8
DIM
100
AcDbLine
 10
128.379575
 20
102.775816
 30
0.0
 11
132.649666
 21
102.775816
 31
0.0
  0
LINE
  5
627F
100
AcDbEntity
  8
DIM
100
AcDbLine
 10
130.949666
 20
159.319863
 30
0.0
 11
130.949666
 21
135.81158
 31
0.0
  0
LINE
  5
6280
100
AcDbEntity
  8
DIM
100
AcDbLine
 10
130.949666
 20
104.375816
 30
0.0
 11
130.949666
 21
128.103197
 31
0.0
  0
SOLID
  5
6281
100
AcDbEntity
  8
DIM
100
AcDbTrace
 10
130.682999
 20
159.319863
 30
0.0
 11
131.216333
 21
159.319863
 31
0.0
 12
130.949666
 22
160.919863
 32
0.0
 13
130.949666
 23
160.919863
 33
0.0
  0
SOLID
  5
6282
100
AcDbEntity
  8
DIM
100
AcDbTrace
 10
130.682999
 20
104.375816
 30
0.0
 11
131.216333
 21
104.375816
 31
0.0
 12
130.949666
 22
102.775816
 32
0.0
 13
130.949666
 23
102.775816
 33
0.0
  0
MTEXT
  5
6283
100
AcDbEntity
  8
0
  6
BYBLOCK
 62
     0
100
AcDbMText
 10
320.277956
 20
120.386603
 30
0.0
 40
1.5
 41
0.0
 71
     5
 72
     1
  1
\A1;  
  0
POINT
  5
6284
100
AcDbEntity
  8
DEFPOINTS
  6
BYBLOCK
 62
     0
100
AcDbPoint
 10
123.685307
 20
160.919863
 30
0.0
  0
POINT
  5
6285
100
AcDbEntity
  8
DEFPOINTS
  6
BYBLOCK
 62
     0
100
AcDbPoint
 10
128.319575
 20
102.775816
 30
0.0
  0
POINT
  5
6286
100
AcDbEntity
  8
DIM
100
AcDbPoint
 10
130.949666
 20
102.775816
 30
0.0
  0
LINE
  5
6287
100
AcDbEntity
  8
DIM
100
AcDbLine
 10
132.712166
 20
160.919863
 30
0.0
 11
139.50222
 21
160.919863
 31
0.0
  0
LINE
  5
6288
100
AcDbEntity
  8
DIM
100
AcDbLine
 10
123.247807
 20
66.775816
 30
0.0
 11
139.50222
 21
66.775816
 31
0.0
  0
LINE
  5
6289
100
AcDbEntity
  8
DIM
100
AcDbLine
 10
137.80222
 20
159.319863
 30
0.0
 11
137.80222
 21
121.597236
 31
0.0
  0
LINE
  5
628A
100
AcDbEntity
  8
DIM
100
AcDbLine
 10
137.80222
 20
68.375816
 30
0.0
 11
137.80222
 21
114.749794
 31
0.0
  0
MTEXT
  5
628B
100
AcDbEntity
  8
0
  6
BYBLOCK
 62
     0
100
AcDbMText
 10
327.13051
 20
106.308824
 30
0.0
 40
1.7
 41
0.0
 71
     5
 72
     1
  1
\A1;  
  7
SCRIPTC
  0
SOLID
  5
628C
100
AcDbEntity
  8
DIM
100
AcDbTrace
 10
137.535553
 20
159.319863
 30
0.0
 11
138.068887
 21
159.319863
 31
0.0
 12
137.80222
 22
160.919863
 32
0.0
 13
137.80222
 23
160.919863
 33
0.0
  0
SOLID
  5
628D
100
AcDbEntity
  8
DIM
100
AcDbTrace
 10
137.535553
 20
68.375816
 30
0.0
 11
138.068887
 21
68.375816
 31
0.0
 12
137.80222
 22
66.775816
 32
0.0
 13
137.80222
 23
66.775816
 33
0.0
  0
POINT
  5
628E
100
AcDbEntity
  8
DIM
100
AcDbPoint
 10
132.649666
 20
160.919863
 30
0.0
  0
POINT
  5
628F
100
AcDbEntity
  8
DEFPOINTS
  6
BYBLOCK
 62
     0
100
AcDbPoint
 10
123.185307
 20
66.775816
 30
0.0
  0
POINT
  5
6290
100
AcDbEntity
  8
DIM
100
AcDbPoint
 10
137.80222
 20
66.775816
 30
0.0
  0
TEXT
  5
6291
100
AcDbEntity
  8
DIM
100
AcDbText
 10
20.744197
 20
183.80172
 30
0.0
 40
1.7
  1
Round Fiberglass
  7
ROMAND
 72
     2
 11
43.329911
 21
184.65172
 31
0.0
100
AcDbText
 73
     2
  0
TEXT
  5
6292
100
AcDbEntity
  8
DIM
100
AcDbText
 10
20.876726
 20
181.193026
 30
0.0
 40
1.7
  1
None
  7
ROMAND
 72
     2
 11
27.029107
 21
182.043026
 31
0.0
100
AcDbText
 73
     2
  0
LWPOLYLINE
  5
6293
100
AcDbEntity
  8
DIM
100
AcDbPolyline
 90
        4
 70
     1
 43
0.0
 10
20.321408
 20
181.250914
 10
20.321408
 20
183.041457
 10
18.530866
 20
183.041457
 10
18.530866
 20
181.250914
  0
TEXT
  5
6294
100
AcDbEntity
  8
DIM
100
AcDbText
 10
20.531861
 20
186.387655
 30
0.0
 40
1.7
  1
ASTM A-36  Steel
  7
ROMAND
 72
     2
 11
44.898528
 21
187.237655
 31
0.0
100
AcDbText
 73
     2
  0
TEXT
  5
6295
100
AcDbEntity
  8
DIM
100
AcDbText
 10
20.703561
 20
189.185004
 30
0.0
 40
1.7
  1
Fiberglass Encapsulated
  7
ROMAND
 72
     2
 11
52.355942
 21
190.035004
 31
0.0
100
AcDbText
 73
     2
  0
TEXT
  5
6296
100
AcDbEntity
  8
DIM
100
AcDbText
 10
22.889276
 20
191.8645
 30
0.0
 40
1.7
  1
Anti-Floatation Flange
  7
ROMAND
 72
     2
 11
52.355942
 21
192.7145
 31
0.0
100
AcDbText
 73
     2
  0
LWPOLYLINE
  5
6297
100
AcDbEntity
  8
DIM
100
AcDbPolyline
 90
        4
 70
     1
 43
0.0
 10
20.321408
 20
183.942547
 10
20.321408
 20
185.733089
 10
18.530866
 20
185.733089
 10
18.530866
 20
183.942547
  0
LWPOLYLINE
  5
6298
100
AcDbEntity
  8
DIM
100
AcDbPolyline
 90
        4
 70
     1
 43
0.0
 10
20.321408
 20
189.325831
 10
20.321408
 20
191.116373
 10
18.530866
 20
191.116373
 10
18.530866
 20
189.325831
  0
LINE
  5
6299
100
AcDbEntity
  8
DIM
100
AcDbLine
 10
55.655942
 20
192.7145
 30
0.0
 11
54.055942
 21
192.7145
 31
0.0
  0
TEXT
  5
629D
100
AcDbEntity
  8
DIM
100
AcDbText
 10
130.044812
 20
217.021826
 30
0.0
 40
1.5
  1
C
  7
ROMANS
100
AcDbText
  0
TEXT
  5
629E
100
AcDbEntity
  8
DIM
100
AcDbText
 10
130.519437
 20
216.133916
 30
0.0
 40
1.5
  1
L
  7
ROMANS
100
AcDbText
  0
TEXT
  5
629F
100
AcDbEntity
  8
DIM
100
AcDbText
 10
98.920352
 20
184.678692
 30
0.0
 40
1.5
  1
C
  7
ROMANS
100
AcDbText
  0
TEXT
  5
62A0
100
AcDbEntity
  8
DIM
100
AcDbText
 10
99.394977
 20
183.918486
 30
0.0
 40
1.5
  1
L
  7
ROMANS
100
AcDbText
  0
LINE
  5
62A8
100
AcDbEntity
  8
OBJECT
100
AcDbLine
 10
123.645887
 20
218.311407
 30
0.0
 11
123.32298
 21
218.311407
 31
0.0
  0
LINE
  5
62A9
100
AcDbEntity
  8
OBJECT
100
AcDbLine
 10
123.32298
 20
218.311407
 30
0.0
 11
123.32298
 21
215.561407
 31
0.0
  0
LINE
  5
62AA
100
AcDbEntity
  8
OBJECT
100
AcDbLine
 10
123.645887
 20
215.561407
 30
0.0
 11
123.32298
 21
215.561407
 31
0.0
  0
LEADER
  5
62CA
100
AcDbEntity
  8
DIM
100
AcDbLeader
  3
STANDARD
 76
     2
 10
73.885846
 20
151.683751
 30
0.0
 10
55.655942
 20
154.826614
 30
0.0
 77
   256
1001
ACAD
1000
DSTYLE
1002
{
1070
   140
1040
1.5
1070
   272
1070
     2
1070
   147
1040
1.5
1070
   287
1070
     5
1070
    42
1040
0.06
1070
    44
1040
1.7
1070
   271
1070
     2
1070
    41
1040
1.6
1002
}
  0
LINE
  5
62D7
100
AcDbEntity
  8
DIM
100
AcDbLine
 10
68.382941
 20
160.919863
 30
0.0
 11
66.041582
 21
160.919863
 31
0.0
  0
LINE
  5
62D8
100
AcDbEntity
  8
DIM
100
AcDbLine
 10
68.979282
 20
150.308751
 30
0.0
 11
66.041582
 21
150.308751
 31
0.0
  0
LINE
  5
62D9
100
AcDbEntity
  8
DIM
100
AcDbLine
 10
67.741582
 20
159.319863
 30
0.0
 11
67.741582
 21
157.471923
 31
0.0
  0
MTEXT
  5
62DA
100
AcDbEntity
  8
0
  6
BYBLOCK
 62
     0
100
AcDbMText
 10
62.291582
 20
155.614307
 30
0.0
 40
1.5
 41
0.0
 71
     5
 72
     1
  1
\A1;  
  0
SOLID
  5
62DB
100
AcDbEntity
  8
DIM
100
AcDbTrace
 10
67.474916
 20
159.319863
 30
0.0
 11
68.008249
 21
159.319863
 31
0.0
 12
67.741582
 22
160.919863
 32
0.0
 13
67.741582
 23
160.919863
 33
0.0
  0
SOLID
  5
62DC
100
AcDbEntity
  8
DIM
100
AcDbTrace
 10
67.474916
 20
151.908751
 30
0.0
 11
68.008249
 21
151.908751
 31
0.0
 12
67.741582
 22
150.308751
 32
0.0
 13
67.741582
 23
150.308751
 33
0.0
  0
POINT
  5
62DD
100
AcDbEntity
  8
DIM
100
AcDbPoint
 10
68.442941
 20
160.919863
 30
0.0
  0
POINT
  5
62DE
100
AcDbEntity
  8
DIM
100
AcDbPoint
 10
69.039282
 20
150.308751
 30
0.0
  0
POINT
  5
62DF
100
AcDbEntity
  8
DIM
100
AcDbPoint
 10
67.741582
 20
150.308751
 30
0.0
  0
LINE
  5
62E2
100
AcDbEntity
  8
DIM
100
AcDbLine
 10
67.741582
 20
154.043485
 30
0.0
 11
67.741582
 21
151.908751
 31
0.0
  0
CIRCLE
  5
7444
100
AcDbEntity
  8
OBJECT
100
AcDbCircle
 10
147.501927
 20
210.569567
 30
0.0
 40
0.125
  0
CIRCLE
  5
7445
100
AcDbEntity
  8
OBJECT
100
AcDbCircle
 10
147.501927
 20
195.422336
 30
0.0
 40
0.125
  0
CIRCLE
  5
7447
100
AcDbEntity
  8
OBJECT
100
AcDbCircle
 10
147.751927
 20
202.995952
 30
0.0
 40
0.246945
  0
TEXT
  5
7C61
100
AcDbEntity
  8
PUMP
 62
     4
100
AcDbText
 10
93.444122
 20
75.709671
 30
0.0
 40
1.65
  1
Pump
  7
SCRIPTC
100
AcDbText
  0
TEXT
  5
7C62
100
AcDbEntity
  8
PUMP
 62
     4
100
AcDbText
 10
94.127622
 20
78.558803
 30
0.0
 40
1.65
  1
Your
  7
SCRIPTC
100
AcDbText
  0
LINE
  5
C8D4
100
AcDbEntity
  8
OBJECT
100
AcDbLine
 10
72.685307
 20
243.936407
 30
0.0
 11
126.685307
 21
243.936407
 31
0.0
  0
LINE
  5
C8D5
100
AcDbEntity
  8
OBJECT
100
AcDbLine
 10
126.685307
 20
189.936407
 30
0.0
 11
126.685307
 21
243.936407
 31
0.0
  0
LINE
  5
C8D6
100
AcDbEntity
  8
OBJECT
100
AcDbLine
 10
72.685307
 20
189.936407
 30
0.0
 11
72.685307
 21
243.936407
 31
0.0
  0
LINE
  5
C8D7
100
AcDbEntity
  8
OBJECT
100
AcDbLine
 10
72.685307
 20
189.936407
 30
0.0
 11
126.685307
 21
189.936407
 31
0.0
  0
LEADER
  5
C8E6
100
AcDbEntity
  8
DIM
100
AcDbLeader
  3
STANDARD
 76
     2
 10
72.685307
 20
204.52851
 30
0.0
 10
55.655942
 20
192.7145
 30
0.0
 77
   256
1001
ACAD
1000
DSTYLE
1002
{
1070
   140
1040
1.5
1070
   272
1070
     2
1070
   147
1040
1.5
1070
   287
1070
     5
1070
    42
1040
0.06
1070
    44
1040
1.7
1070
   271
1070
     2
1070
    41
1040
1.6
1002
}
  0
LINE
  5
C977
100
AcDbEntity
  8
OBJECT
100
AcDbLine
 10
108.592569
 20
89.906596
 30
0.0
 11
103.930509
 21
89.906596
 31
0.0
  0
LINE
  5
C978
100
AcDbEntity
  8
OBJECT
100
AcDbLine
 10
108.592569
 20
89.719096
 30
0.0
 11
102.618009
 21
89.719096
 31
0.0
  0
LINE
  5
C97A
100
AcDbEntity
  8
HIDDEN
100
AcDbLine
 10
103.930509
 20
89.906596
 30
0.0
 11
102.618009
 21
89.906596
 31
0.0
  0
LINE
  5
C97C
100
AcDbEntity
  8
CENTER
100
AcDbLine
 10
103.274259
 20
93.024346
 30
0.0
 11
103.274259
 21
93.153096
 31
0.0
  0
LINE
  5
C97D
100
AcDbEntity
  8
CENTER
100
AcDbLine
 10
103.274259
 20
92.754346
 30
0.0
 11
103.274259
 21
92.934346
 31
0.0
  0
LINE
  5
C97E
100
AcDbEntity
  8
CENTER
100
AcDbLine
 10
103.274259
 20
92.664346
 30
0.0
 11
103.274259
 21
92.535596
 31
0.0
  0
LINE
  5
C97F
100
AcDbEntity
  8
CENTER
100
AcDbLine
 10
103.094259
 20
92.844346
 30
0.0
 11
102.965509
 21
92.844346
 31
0.0
  0
LINE
  5
C980
100
AcDbEntity
  8
CENTER
100
AcDbLine
 10
103.184259
 20
92.844346
 30
0.0
 11
103.364259
 21
92.844346
 31
0.0
  0
CIRCLE
  5
C981
100
AcDbEntity
  8
OBJECT
100
AcDbCircle
 10
103.274259
 20
92.844346
 30
0.0
 40
0.21875
  0
LINE
  5
C982
100
AcDbEntity
  8
CENTER
100
AcDbLine
 10
103.274259
 20
90.660596
 30
0.0
 11
103.274259
 21
90.840596
 31
0.0
  0
LINE
  5
C983
100
AcDbEntity
  8
CENTER
100
AcDbLine
 10
103.274259
 20
90.618096
 30
0.0
 11
103.274259
 21
90.746846
 31
0.0
  0
LINE
  5
C984
100
AcDbEntity
  8
CENTER
100
AcDbLine
 10
103.274259
 20
90.930596
 30
0.0
 11
103.274259
 21
91.059346
 31
0.0
  0
LINE
  5
C985
100
AcDbEntity
  8
CENTER
100
AcDbLine
 10
103.094259
 20
90.750596
 30
0.0
 11
102.965509
 21
90.750596
 31
0.0
  0
ARC
  5
C986
100
AcDbEntity
  8
OBJECT
100
AcDbCircle
 10
103.274259
 20
90.750596
 30
0.0
 40
0.21875
100
AcDbArc
 50
0.0
 51
180.0
  0
LINE
  5
C987
100
AcDbEntity
  8
CENTER
100
AcDbLine
 10
103.184259
 20
90.750596
 30
0.0
 11
103.364259
 21
90.750596
 31
0.0
  0
LINE
  5
C988
100
AcDbEntity
  8
CENTER
100
AcDbLine
 10
103.274259
 20
90.258096
 30
0.0
 11
103.274259
 21
90.129346
 31
0.0
  0
LINE
  5
C989
100
AcDbEntity
  8
CENTER
100
AcDbLine
 10
103.274259
 20
90.348096
 30
0.0
 11
103.274259
 21
90.528096
 31
0.0
  0
LINE
  5
C98A
100
AcDbEntity
  8
CENTER
100
AcDbLine
 10
103.274259
 20
90.570596
 30
0.0
 11
103.274259
 21
90.441846
 31
0.0
  0
LINE
  5
C98B
100
AcDbEntity
  8
CENTER
100
AcDbLine
 10
103.094259
 20
90.438096
 30
0.0
 11
102.965509
 21
90.438096
 31
0.0
  0
ARC
  5
C98C
100
AcDbEntity
  8
OBJECT
100
AcDbCircle
 10
103.274259
 20
90.438096
 30
0.0
 40
0.21875
100
AcDbArc
 50
180.0
 51
0.0
  0
LINE
  5
C98D
100
AcDbEntity
  8
CENTER
100
AcDbLine
 10
103.184259
 20
90.438096
 30
0.0
 11
103.364259
 21
90.438096
 31
0.0
  0
LINE
  5
C98E
100
AcDbEntity
  8
OBJECT
100
AcDbLine
 10
103.493009
 20
90.438096
 30
0.0
 11
103.493009
 21
90.750596
 31
0.0
  0
LINE
  5
C98F
100
AcDbEntity
  8
OBJECT
100
AcDbLine
 10
103.055509
 20
90.438096
 30
0.0
 11
103.055509
 21
90.750596
 31
0.0
  0
LINE
  5
C990
100
AcDbEntity
  8
CENTER
100
AcDbLine
 10
103.454259
 20
90.438096
 30
0.0
 11
103.583009
 21
90.438096
 31
0.0
  0
LINE
  5
C991
100
AcDbEntity
  8
CENTER
100
AcDbLine
 10
103.454259
 20
90.750596
 30
0.0
 11
103.583009
 21
90.750596
 31
0.0
  0
LINE
  5
C992
100
AcDbEntity
  8
CENTER
100
AcDbLine
 10
103.454259
 20
92.844346
 30
0.0
 11
103.583009
 21
92.844346
 31
0.0
  0
LINE
  5
C993
100
AcDbEntity
  8
OBJECT
100
AcDbLine
 10
102.618009
 20
93.594346
 30
0.0
 11
102.618009
 21
89.719096
 31
0.0
  0
LINE
  5
C994
100
AcDbEntity
  8
OBJECT
100
AcDbLine
 10
103.930509
 20
93.594346
 30
0.0
 11
103.930509
 21
89.906596
 31
0.0
  0
LINE
  5
C995
100
AcDbEntity
  8
OBJECT
100
AcDbLine
 10
108.592569
 20
89.906596
 30
0.0
 11
108.592569
 21
89.719096
 31
0.0
  0
LINE
  5
C997
100
AcDbEntity
  8
OBJECT
100
AcDbLine
 10
107.667574
 20
89.906596
 30
0.0
 11
107.667574
 21
154.915816
 31
0.0
  0
LINE
  5
C998
100
AcDbEntity
  8
OBJECT
100
AcDbLine
 10
106.167574
 20
89.906596
 30
0.0
 11
106.167574
 21
154.915816
 31
0.0
  0
ARC
  5
C999
100
AcDbEntity
  8
15
 62
     2
100
AcDbCircle
 39
20.0
 10
103.402227
 20
90.415695
 30
0.0
 40
1.826856
100
AcDbArc
 50
343.818857
 51
33.04278
  0
LINE
  5
C9B9
100
AcDbEntity
  8
OBJECT
100
AcDbLine
 10
150.52703
 20
195.645017
 30
0.0
 11
150.05453
 21
195.645017
 31
0.0
  0
LINE
  5
C9BA
100
AcDbEntity
  8
OBJECT
100
AcDbLine
 10
150.52703
 20
198.125642
 30
0.0
 11
150.05453
 21
198.125642
 31
0.0
  0
LINE
  5
C9BB
100
AcDbEntity
  8
OBJECT
100
AcDbLine
 10
150.05453
 20
198.125642
 30
0.0
 11
150.05453
 21
195.645017
 31
0.0
  0
LINE
  5
C9BC
100
AcDbEntity
  8
OBJECT
100
AcDbLine
 10
150.52703
 20
195.645017
 30
0.0
 11
150.52703
 21
198.125642
 31
0.0
  0
ARC
  5
C9BD
100
AcDbEntity
  8
OBJECT
100
AcDbCircle
 10
149.995467
 20
196.88533
 30
0.0
 40
0.315
100
AcDbArc
 50
90.0
 51
270.0
  0
LINE
  5
C9BE
100
AcDbEntity
  8
OBJECT
100
AcDbLine
 10
149.995467
 20
198.184705
 30
0.0
 11
149.995467
 21
197.20033
 31
0.0
  0
LINE
  5
C9BF
100
AcDbEntity
  8
OBJECT
100
AcDbLine
 10
150.586092
 20
198.184705
 30
0.0
 11
149.995467
 21
198.184705
 31
0.0
  0
LINE
  5
C9C0
100
AcDbEntity
  8
OBJECT
100
AcDbLine
 10
150.586092
 20
197.20033
 30
0.0
 11
150.586092
 21
198.184705
 31
0.0
  0
ARC
  5
C9C1
100
AcDbEntity
  8
OBJECT
100
AcDbCircle
 10
150.586092
 20
196.88533
 30
0.0
 40
0.315
100
AcDbArc
 50
270.0
 51
90.0
  0
LINE
  5
C9C2
100
AcDbEntity
  8
OBJECT
100
AcDbLine
 10
150.586092
 20
195.585955
 30
0.0
 11
150.586092
 21
196.57033
 31
0.0
  0
LINE
  5
C9C3
100
AcDbEntity
  8
OBJECT
100
AcDbLine
 10
149.995467
 20
195.585955
 30
0.0
 11
150.586092
 21
195.585955
 31
0.0
  0
LINE
  5
C9C4
100
AcDbEntity
  8
OBJECT
100
AcDbLine
 10
149.995467
 20
196.57033
 30
0.0
 11
149.995467
 21
195.585955
 31
0.0
  0
ENDSEC
  0
SECTION
  2
OBJECTS
  0
DICTIONARY
  5
C
100
AcDbDictionary
  3
ACAD_GROUP
350
D
  3
ACAD_MLINESTYLE
350
1A
  3
ACDBVARIABLEDICTIONARY
350
48
  3
DRAWINGVARIABLESDICT
350
2396
  0
DICTIONARY
  5
D
102
{ACAD_REACTORS
330
C
102
}
100
AcDbDictionary
  0
DICTIONARY
  5
1A
102
{ACAD_REACTORS
330
C
102
}
100
AcDbDictionary
  3
STANDARD
350
1B
  0
DICTIONARY
  5
48
102
{ACAD_REACTORS
330
C
102
}
100
AcDbDictionary
  3
DIMADEC
350
49
  0
DICTIONARY
  5
2396
102
{ACAD_REACTORS
330
C
102
}
100
AcDbDictionary
1001
DRAWINGVARIABLESXDATA
1000
POLARANG
1000
0.785398
1000
POLARMODE
1000
0
  0
MLINESTYLE
  5
1B
102
{ACAD_REACTORS
330
1A
102
}
100
AcDbMlineStyle
  2
STANDARD
 70
     0
  3

 62
   256
 51
90.0
 52
90.0
 71
     2
 49
0.5
 62
   256
  6
BYLAYER
 49
-0.5
 62
   256
  6
BYLAYER
  0
DICTIONARYVAR
  5
49
102
{ACAD_REACTORS
330
48
102
}
100
DictionaryVariables
280
     0
  1
0
  0
ENDSEC
  0
EOF
