  0
SECTION
  2
HEADER
  9
$ACADVER
  1
AC1014
  9
$ACADMAINTVER
 70
     0
  9
$DWGCODEPAGE
  3
ANSI_1252
  9
$INSBASE
 10
0.0
 20
0.0
 30
0.0
  9
$EXTMIN
 10
-3.789446
 20
-39.140774
 30
-0.000763
  9
$EXTMAX
 10
116.517725
 20
116.551765
 30
25.000763
  9
$LIMMIN
 10
-24.570069
 20
-51.494639
  9
$LIMMAX
 10
97.815793
 20
108.428532
  9
$ORTHOMODE
 70
     1
  9
$REGENMODE
 70
     1
  9
$FILLMODE
 70
     1
  9
$QTEXTMODE
 70
     0
  9
$MIRRTEXT
 70
     1
  9
$DRAGMODE
 70
     2
  9
$LTSCALE
 40
4.0
  9
$OSMODE
 70
   675
  9
$ATTMODE
 70
     1
  9
$TEXTSIZE
 40
1.5
  9
$TRACEWID
 40
0.05
  9
$TEXTSTYLE
  7
ROMAND
  9
$CLAYER
  8
DIM
  9
$CELTYPE
  6
BYLAYER
  9
$CECOLOR
 62
   256
  9
$CELTSCALE
 40
1.0
  9
$DELOBJ
 70
     1
  9
$DISPSILH
 70
     0
  9
$DIMSCALE
 40
1.0
  9
$DIMASZ
 40
1.5
  9
$DIMEXO
 40
0.75
  9
$DIMDLI
 40
0.38
  9
$DIMRND
 40
0.0
  9
$DIMDLE
 40
0.0
  9
$DIMEXE
 40
1.5
  9
$DIMTP
 40
0.0
  9
$DIMTM
 40
0.0
  9
$DIMTXT
 40
0.18
  9
$DIMCEN
 40
-1.5
  9
$DIMTSZ
 40
0.0
  9
$DIMTOL
 70
     0
  9
$DIMLIM
 70
     0
  9
$DIMTIH
 70
     1
  9
$DIMTOH
 70
     1
  9
$DIMSE1
 70
     0
  9
$DIMSE2
 70
     0
  9
$DIMTAD
 70
     0
  9
$DIMZIN
 70
     0
  9
$DIMBLK
  1

  9
$DIMASO
 70
     1
  9
$DIMSHO
 70
     1
  9
$DIMPOST
  1

  9
$DIMAPOST
  1

  9
$DIMALT
 70
     0
  9
$DIMALTD
 70
     2
  9
$DIMALTF
 40
25.4
  9
$DIMLFAC
 40
1.0
  9
$DIMTOFL
 70
     0
  9
$DIMTVP
 40
0.0
  9
$DIMTIX
 70
     1
  9
$DIMSOXD
 70
     0
  9
$DIMSAH
 70
     0
  9
$DIMBLK1
  1

  9
$DIMBLK2
  1

  9
$DIMSTYLE
  2
STANDARD
  9
$DIMCLRD
 70
     0
  9
$DIMCLRE
 70
     0
  9
$DIMCLRT
 70
     0
  9
$DIMTFAC
 40
1.0
  9
$DIMGAP
 40
0.75
  9
$DIMJUST
 70
     0
  9
$DIMSD1
 70
     0
  9
$DIMSD2
 70
     0
  9
$DIMTOLJ
 70
     1
  9
$DIMTZIN
 70
     0
  9
$DIMALTZ
 70
     0
  9
$DIMALTTZ
 70
     0
  9
$DIMFIT
 70
     0
  9
$DIMUPT
 70
     0
  9
$DIMUNIT
 70
     2
  9
$DIMDEC
 70
     2
  9
$DIMTDEC
 70
     4
  9
$DIMALTU
 70
     2
  9
$DIMALTTD
 70
     2
  9
$DIMTXSTY
  7
ROMAND
  9
$DIMAUNIT
 70
     0
  9
$LUNITS
 70
     2
  9
$LUPREC
 70
     4
  9
$SKETCHINC
 40
0.1
  9
$FILLETRAD
 40
0.0
  9
$AUNITS
 70
     0
  9
$AUPREC
 70
     0
  9
$MENU
  1
acad
  9
$ELEVATION
 40
0.0
  9
$PELEVATION
 40
0.0
  9
$THICKNESS
 40
20.0
  9
$LIMCHECK
 70
     0
  9
$BLIPMODE
 70
     0
  9
$CHAMFERA
 40
0.025
  9
$CHAMFERB
 40
0.025
  9
$CHAMFERC
 40
0.0
  9
$CHAMFERD
 40
0.0
  9
$SKPOLY
 70
     0
  9
$TDCREATE
 40
2449609.390435069
  9
$TDUPDATE
 40
2453125.541547916
  9
$TDINDWG
 40
0.1817194097
  9
$TDUSRTIMER
 40
0.1817194097
  9
$USRTIMER
 70
     1
  9
$ANGBASE
 50
0.0
  9
$ANGDIR
 70
     0
  9
$PDMODE
 70
     0
  9
$PDSIZE
 40
0.0
  9
$PLINEWID
 40
0.25
  9
$COORDS
 70
     0
  9
$SPLFRAME
 70
     0
  9
$SPLINETYPE
 70
     6
  9
$SPLINESEGS
 70
     8
  9
$ATTDIA
 70
     0
  9
$ATTREQ
 70
     1
  9
$HANDLING
 70
     1
  9
$HANDSEED
  5
36AF
  9
$SURFTAB1
 70
     6
  9
$SURFTAB2
 70
     6
  9
$SURFTYPE
 70
     6
  9
$SURFU
 70
     6
  9
$SURFV
 70
     6
  9
$UCSNAME
  2

  9
$UCSORG
 10
0.0
 20
0.0
 30
0.0
  9
$UCSXDIR
 10
1.0
 20
0.0
 30
0.0
  9
$UCSYDIR
 10
0.0
 20
1.0
 30
0.0
  9
$PUCSNAME
  2

  9
$PUCSORG
 10
0.0
 20
0.0
 30
0.0
  9
$PUCSXDIR
 10
1.0
 20
0.0
 30
0.0
  9
$PUCSYDIR
 10
0.0
 20
1.0
 30
0.0
  9
$USERI1
 70
     0
  9
$USERI2
 70
     0
  9
$USERI3
 70
     0
  9
$USERI4
 70
     0
  9
$USERI5
 70
     0
  9
$USERR1
 40
0.0
  9
$USERR2
 40
0.0
  9
$USERR3
 40
0.0
  9
$USERR4
 40
0.0
  9
$USERR5
 40
0.0
  9
$WORLDVIEW
 70
     1
  9
$SHADEDGE
 70
     3
  9
$SHADEDIF
 70
    70
  9
$TILEMODE
 70
     1
  9
$MAXACTVP
 70
    16
  9
$PINSBASE
 10
0.0
 20
0.0
 30
0.0
  9
$PLIMCHECK
 70
     0
  9
$PEXTMIN
 10
1.000000E+20
 20
1.000000E+20
 30
1.000000E+20
  9
$PEXTMAX
 10
-1.000000E+20
 20
-1.000000E+20
 30
-1.000000E+20
  9
$PLIMMIN
 10
0.0
 20
0.0
  9
$PLIMMAX
 10
12.0
 20
9.0
  9
$UNITMODE
 70
     0
  9
$VISRETAIN
 70
     0
  9
$PLINEGEN
 70
     0
  9
$PSLTSCALE
 70
     1
  9
$TREEDEPTH
 70
  3020
  9
$PICKSTYLE
 70
     1
  9
$CMLSTYLE
  2
STANDARD
  9
$CMLJUST
 70
     0
  9
$CMLSCALE
 40
1.0
  9
$PROXYGRAPHICS
 70
     1
  9
$MEASUREMENT
 70
     0
  0
ENDSEC
  0
SECTION
  2
CLASSES
  0
CLASS
  1
DICTIONARYVAR
  2
AcDbDictionaryVar
  3
"AutoCAD"
 90
        0
280
     0
281
     0
  0
CLASS
  1
LWPOLYLINE
  2
AcDbPolyline
  3
"AutoCAD"
 90
        0
280
     0
281
     1
  0
CLASS
  1
HATCH
  2
AcDbHatch
  3
"ACAD_SEDONA"
 90
        0
280
     0
281
     1
  0
ENDSEC
  0
SECTION
  2
TABLES
  0
TABLE
  2
VPORT
  5
8
100
AcDbSymbolTable
 70
     3
  0
VPORT
  5
36AE
100
AcDbSymbolTableRecord
100
AcDbViewportTableRecord
  2
*ACTIVE
 70
     0
 10
0.0
 20
0.0
 11
1.0
 21
1.0
 12
56.364139
 22
38.705495
 13
0.0
 23
0.0
 14
2.0
 24
2.0
 15
20.0
 25
20.0
 16
0.0
 26
0.0
 36
1.0
 17
0.0
 27
0.0
 37
0.0
 40
157.387921
 41
1.750909
 42
50.0
 43
0.0
 44
0.0
 50
0.0
 51
0.0
 71
     0
 72
   100
 73
     1
 74
     0
 75
     0
 76
     0
 77
     0
 78
     1
  0
ENDTAB
  0
TABLE
  2
LTYPE
  5
5
100
AcDbSymbolTable
 70
     3
  0
LTYPE
  5
11
100
AcDbSymbolTableRecord
100
AcDbLinetypeTableRecord
  2
BYBLOCK
 70
     0
  3

 72
    65
 73
     0
 40
0.0
  0
LTYPE
  5
12
100
AcDbSymbolTableRecord
100
AcDbLinetypeTableRecord
  2
BYLAYER
 70
     0
  3

 72
    65
 73
     0
 40
0.0
  0
LTYPE
  5
13
100
AcDbSymbolTableRecord
100
AcDbLinetypeTableRecord
  2
CONTINUOUS
 70
     0
  3
Solid line
 72
    65
 73
     0
 40
0.0
  0
LTYPE
  5
37
100
AcDbSymbolTableRecord
100
AcDbLinetypeTableRecord
  2
CENTER
 70
     0
  3
____ _ ____ _ ____ _ ____ _ ____ _ ____ _ ____ 
 72
    65
 73
     4
 40
2.0
 49
1.25
 74
     0
 49
-0.25
 74
     0
 49
0.25
 74
     0
 49
-0.25
 74
     0
  0
LTYPE
  5
38
100
AcDbSymbolTableRecord
100
AcDbLinetypeTableRecord
  2
HIDDEN
 70
     0
  3
__ __ __ __ __ __ __ __ __ __ __ __ __ __ __ __
 72
    65
 73
     2
 40
0.375
 49
0.25
 74
     0
 49
-0.125
 74
     0
  0
ENDTAB
  0
TABLE
  2
LAYER
  5
2
100
AcDbSymbolTable
 70
     8
  0
LAYER
  5
E
100
AcDbSymbolTableRecord
100
AcDbLayerTableRecord
  2
0
 70
     0
 62
     7
  6
CONTINUOUS
  0
LAYER
  5
3B
100
AcDbSymbolTableRecord
100
AcDbLayerTableRecord
  2
OBJECT
 70
     0
 62
     2
  6
CONTINUOUS
  0
LAYER
  5
3C
100
AcDbSymbolTableRecord
100
AcDbLayerTableRecord
  2
DIM
 70
     0
 62
     6
  6
CONTINUOUS
  0
LAYER
  5
3D
100
AcDbSymbolTableRecord
100
AcDbLayerTableRecord
  2
HIDDEN
 70
     0
 62
     1
  6
HIDDEN
  0
LAYER
  5
3E
100
AcDbSymbolTableRecord
100
AcDbLayerTableRecord
  2
CENTER
 70
     0
 62
     3
  6
CENTER
  0
LAYER
  5
3F
100
AcDbSymbolTableRecord
100
AcDbLayerTableRecord
  2
DEFPOINTS
 70
     0
 62
     7
  6
CONTINUOUS
  0
LAYER
  5
40
100
AcDbSymbolTableRecord
100
AcDbLayerTableRecord
  2
BORDER
 70
     0
 62
     5
  6
CONTINUOUS
  0
LAYER
  5
13BC
100
AcDbSymbolTableRecord
100
AcDbLayerTableRecord
  2
LIMITS
 70
     0
 62
     7
  6
CONTINUOUS
  0
ENDTAB
  0
TABLE
  2
STYLE
  5
3
100
AcDbSymbolTable
 70
     5
  0
STYLE
  5
F
100
AcDbSymbolTableRecord
100
AcDbTextStyleTableRecord
  2
STANDARD
 70
     0
 40
0.0
 41
1.0
 50
0.0
 71
     0
 42
0.2
  3
txt
  4

  0
STYLE
  5
32
100
AcDbSymbolTableRecord
100
AcDbTextStyleTableRecord
  2
ROMANS
 70
     0
 40
1.5
 41
1.0
 50
0.0
 71
     0
 42
1.5
  3
ROMANS.SHX
  4

  0
STYLE
  5
34
100
AcDbSymbolTableRecord
100
AcDbTextStyleTableRecord
  2
ROMAND
 70
     0
 40
1.5
 41
1.0
 50
0.0
 71
     0
 42
1.5
  3
ROMAND.SHX
  4

  0
STYLE
  5
35
100
AcDbSymbolTableRecord
100
AcDbTextStyleTableRecord
  2
ROMANC
 70
     0
 40
0.0531
 41
1.0
 50
0.0
 71
     0
 42
0.0531
  3
romanc
  4

  0
STYLE
  5
13BD
100
AcDbSymbolTableRecord
100
AcDbTextStyleTableRecord
  2
COUNTRYBLUEPRINT
 70
     0
 40
0.061059
 41
1.0
 50
0.0
 71
     0
 42
0.061059
  3
cobt____.pfb
  4

  0
ENDTAB
  0
TABLE
  2
VIEW
  5
6
100
AcDbSymbolTable
 70
     0
  0
ENDTAB
  0
TABLE
  2
UCS
  5
7
100
AcDbSymbolTable
 70
     0
  0
ENDTAB
  0
TABLE
  2
APPID
  5
9
100
AcDbSymbolTable
 70
     1
  0
APPID
  5
10
100
AcDbSymbolTableRecord
100
AcDbRegAppTableRecord
  2
ACAD
 70
     0
  0
ENDTAB
  0
TABLE
  2
DIMSTYLE
  5
A
100
AcDbSymbolTable
 70
     1
  0
DIMSTYLE
105
127D
102
{ACAD_REACTORS
330
20BA
330
20B9
330
20BE
330
20BD
330
20C8
330
20C7
330
20BC
102
}
100
AcDbSymbolTableRecord
100
AcDbDimStyleTableRecord
  2
STANDARD
 70
     0
  3

  4

  5

  6

  7

 40
1.0
 41
0.18
 42
0.0625
 43
0.38
 44
0.18
 45
0.0
 46
0.0
 47
0.0
 48
0.0
140
0.18
141
0.09
142
0.0
143
25.4
144
1.0
145
0.0
146
1.0
147
0.09
 71
     0
 72
     0
 73
     1
 74
     1
 75
     0
 76
     0
 77
     0
 78
     0
170
     0
171
     2
172
     0
173
     0
174
     0
175
     0
176
     0
177
     0
178
     0
270
     2
271
     4
272
     4
273
     2
274
     2
340
F
275
     0
280
     0
281
     0
282
     0
283
     1
284
     0
285
     0
286
     0
287
     3
288
     0
  0
ENDTAB
  0
TABLE
  2
BLOCK_RECORD
  5
1
100
AcDbSymbolTable
 70
     7
  0
BLOCK_RECORD
  5
17
100
AcDbSymbolTableRecord
100
AcDbBlockTableRecord
  2
*MODEL_SPACE
  0
BLOCK_RECORD
  5
14
100
AcDbSymbolTableRecord
100
AcDbBlockTableRecord
  2
*PAPER_SPACE
  0
BLOCK_RECORD
  5
2198
100
AcDbSymbolTableRecord
100
AcDbBlockTableRecord
  2
*D0
  0
BLOCK_RECORD
  5
21A5
100
AcDbSymbolTableRecord
100
AcDbBlockTableRecord
  2
*D1
  0
BLOCK_RECORD
  5
21B2
100
AcDbSymbolTableRecord
100
AcDbBlockTableRecord
  2
*D2
  0
BLOCK_RECORD
  5
21BE
100
AcDbSymbolTableRecord
100
AcDbBlockTableRecord
  2
*D3
  0
BLOCK_RECORD
  5
21CB
100
AcDbSymbolTableRecord
100
AcDbBlockTableRecord
  2
*D4
  0
BLOCK_RECORD
  5
21DA
100
AcDbSymbolTableRecord
100
AcDbBlockTableRecord
  2
*D5
  0
BLOCK_RECORD
  5
21E9
100
AcDbSymbolTableRecord
100
AcDbBlockTableRecord
  2
*D6
  0
ENDTAB
  0
ENDSEC
  0
SECTION
  2
BLOCKS
  0
BLOCK
  5
43
100
AcDbEntity
  8
0
 62
     6
100
AcDbBlockBegin
  2
*MODEL_SPACE
 70
     0
 10
0.0
 20
0.0
 30
0.0
  3
*MODEL_SPACE
  1

  0
ENDBLK
  5
44
100
AcDbEntity
  8
0
 62
     6
100
AcDbBlockEnd
  0
BLOCK
  5
41
100
AcDbEntity
 67
     1
  8
0
 62
     6
100
AcDbBlockBegin
  2
*PAPER_SPACE
 70
     0
 10
0.0
 20
0.0
 30
0.0
  3
*PAPER_SPACE
  1

  0
ENDBLK
  5
42
100
AcDbEntity
 67
     1
  8
0
 62
     6
100
AcDbBlockEnd
  0
BLOCK
  5
2199
100
AcDbEntity
  8
0
100
AcDbBlockBegin
  2
*D0
 70
     1
 10
0.0
 20
0.0
 30
0.0
  3
*D0
  1

  0
LINE
  5
219A
100
AcDbEntity
  8
0
  6
BYBLOCK
 62
     0
100
AcDbLine
 10
278.247853
 20
70.038959
 30
0.0
 11
285.558977
 21
70.038959
 31
0.0
  0
LINE
  5
219B
100
AcDbEntity
  8
0
  6
BYBLOCK
 62
     0
100
AcDbLine
 10
266.247853
 20
59.43573
 30
0.0
 11
285.558977
 21
59.43573
 31
0.0
  0
LINE
  5
219C
100
AcDbEntity
  8
0
  6
BYBLOCK
 62
     0
100
AcDbLine
 10
284.058977
 20
68.538959
 30
0.0
 11
284.058977
 21
66.237345
 31
0.0
  0
LINE
  5
219D
100
AcDbEntity
  8
0
  6
BYBLOCK
 62
     0
100
AcDbLine
 10
284.058977
 20
60.93573
 30
0.0
 11
284.058977
 21
63.237345
 31
0.0
  0
SOLID
  5
219E
100
AcDbEntity
  8
0
  6
BYBLOCK
 62
     0
100
AcDbTrace
 10
283.808977
 20
68.538959
 30
0.0
 11
284.308977
 21
68.538959
 31
0.0
 12
284.058977
 22
70.038959
 32
0.0
 13
284.058977
 23
70.038959
 33
0.0
  0
SOLID
  5
219F
100
AcDbEntity
  8
0
  6
BYBLOCK
 62
     0
100
AcDbTrace
 10
283.808977
 20
60.93573
 30
0.0
 11
284.308977
 21
60.93573
 31
0.0
 12
284.058977
 22
59.43573
 32
0.0
 13
284.058977
 23
59.43573
 33
0.0
  0
MTEXT
  5
21A0
100
AcDbEntity
  8
0
  6
BYBLOCK
 62
     0
100
AcDbMText
 10
284.058977
 20
64.737345
 30
0.0
 40
1.5
 41
0.0
 71
     5
 72
     1
  1
\A1;G
  7
ROMAND
  0
POINT
  5
21A1
100
AcDbEntity
  8
DEFPOINTS
  6
BYBLOCK
 62
     0
100
AcDbPoint
 10
277.497853
 20
70.038959
 30
0.0
  0
POINT
  5
21A2
100
AcDbEntity
  8
DEFPOINTS
  6
BYBLOCK
 62
     0
100
AcDbPoint
 10
265.497853
 20
59.43573
 30
0.0
  0
POINT
  5
21A3
100
AcDbEntity
  8
DEFPOINTS
  6
BYBLOCK
 62
     0
100
AcDbPoint
 10
284.058977
 20
59.43573
 30
0.0
  0
ENDBLK
  5
21A4
100
AcDbEntity
  8
0
100
AcDbBlockEnd
  0
BLOCK
  5
21A6
100
AcDbEntity
  8
0
100
AcDbBlockBegin
  2
*D1
 70
     1
 10
0.0
 20
0.0
 30
0.0
  3
*D1
  1

  0
LINE
  5
21A7
100
AcDbEntity
  8
0
  6
BYBLOCK
 62
     0
100
AcDbLine
 10
263.060353
 20
81.038959
 30
0.0
 11
285.558977
 21
81.038959
 31
0.0
  0
LINE
  5
21A8
100
AcDbEntity
  8
0
  6
BYBLOCK
 62
     0
100
AcDbLine
 10
278.247853
 20
70.038959
 30
0.0
 11
285.558977
 21
70.038959
 31
0.0
  0
LINE
  5
21A9
100
AcDbEntity
  8
0
  6
BYBLOCK
 62
     0
100
AcDbLine
 10
284.058977
 20
79.538959
 30
0.0
 11
284.058977
 21
77.038959
 31
0.0
  0
LINE
  5
21AA
100
AcDbEntity
  8
0
  6
BYBLOCK
 62
     0
100
AcDbLine
 10
284.058977
 20
71.538959
 30
0.0
 11
284.058977
 21
74.038959
 31
0.0
  0
SOLID
  5
21AB
100
AcDbEntity
  8
0
  6
BYBLOCK
 62
     0
100
AcDbTrace
 10
283.808977
 20
79.538959
 30
0.0
 11
284.308977
 21
79.538959
 31
0.0
 12
284.058977
 22
81.038959
 32
0.0
 13
284.058977
 23
81.038959
 33
0.0
  0
SOLID
  5
21AC
100
AcDbEntity
  8
0
  6
BYBLOCK
 62
     0
100
AcDbTrace
 10
283.808977
 20
71.538959
 30
0.0
 11
284.308977
 21
71.538959
 31
0.0
 12
284.058977
 22
70.038959
 32
0.0
 13
284.058977
 23
70.038959
 33
0.0
  0
MTEXT
  5
21AD
100
AcDbEntity
  8
0
  6
BYBLOCK
 62
     0
100
AcDbMText
 10
284.058977
 20
75.538959
 30
0.0
 40
1.5
 41
0.0
 71
     5
 72
     1
  1
\A1;I
  7
ROMAND
  0
POINT
  5
21AE
100
AcDbEntity
  8
DEFPOINTS
  6
BYBLOCK
 62
     0
100
AcDbPoint
 10
262.310353
 20
81.038959
 30
0.0
  0
POINT
  5
21AF
100
AcDbEntity
  8
DEFPOINTS
  6
BYBLOCK
 62
     0
100
AcDbPoint
 10
277.497853
 20
70.038959
 30
0.0
  0
POINT
  5
21B0
100
AcDbEntity
  8
DEFPOINTS
  6
BYBLOCK
 62
     0
100
AcDbPoint
 10
284.058977
 20
70.038959
 30
0.0
  0
ENDBLK
  5
21B1
100
AcDbEntity
  8
0
100
AcDbBlockEnd
  0
BLOCK
  5
21B3
100
AcDbEntity
  8
0
100
AcDbBlockBegin
  2
*D2
 70
     1
 10
0.0
 20
0.0
 30
0.0
  3
*D2
  1

  0
LINE
  5
21B4
100
AcDbEntity
  8
0
  6
BYBLOCK
 62
     0
100
AcDbLine
 10
250.997853
 20
80.288959
 30
0.0
 11
250.997853
 21
94.950956
 31
0.0
  0
LINE
  5
21B5
100
AcDbEntity
  8
0
  6
BYBLOCK
 62
     0
100
AcDbLine
 10
255.997853
 20
72.288959
 30
0.0
 11
255.997853
 21
94.950956
 31
0.0
  0
LINE
  5
21B6
100
AcDbEntity
  8
0
  6
BYBLOCK
 62
     0
100
AcDbLine
 10
252.497853
 20
93.450956
 30
0.0
 11
254.497853
 21
93.450956
 31
0.0
  0
MTEXT
  5
21B7
100
AcDbEntity
  8
0
  6
BYBLOCK
 62
     0
100
AcDbMText
 10
254.220308
 20
94.687079
 30
0.0
 40
1.5
 41
0.0
 71
     5
 72
     1
  1
\A1;5"
  7
ROMAND
  0
SOLID
  5
21B8
100
AcDbEntity
  8
0
  6
BYBLOCK
 62
     0
100
AcDbTrace
 10
252.497853
 20
93.700956
 30
0.0
 11
252.497853
 21
93.200956
 31
0.0
 12
250.997853
 22
93.450956
 32
0.0
 13
250.997853
 23
93.450956
 33
0.0
  0
SOLID
  5
21B9
100
AcDbEntity
  8
0
  6
BYBLOCK
 62
     0
100
AcDbTrace
 10
254.497853
 20
93.700956
 30
0.0
 11
254.497853
 21
93.200956
 31
0.0
 12
255.997853
 22
93.450956
 32
0.0
 13
255.997853
 23
93.450956
 33
0.0
  0
POINT
  5
21BA
100
AcDbEntity
  8
DEFPOINTS
  6
BYBLOCK
 62
     0
100
AcDbPoint
 10
250.997853
 20
79.538959
 30
0.0
  0
POINT
  5
21BB
100
AcDbEntity
  8
DEFPOINTS
  6
BYBLOCK
 62
     0
100
AcDbPoint
 10
255.997853
 20
71.538959
 30
0.0
  0
POINT
  5
21BC
100
AcDbEntity
  8
DEFPOINTS
  6
BYBLOCK
 62
     0
100
AcDbPoint
 10
255.997853
 20
93.450956
 30
0.0
  0
ENDBLK
  5
21BD
100
AcDbEntity
  8
0
100
AcDbBlockEnd
  0
BLOCK
  5
21BF
100
AcDbEntity
  8
0
100
AcDbBlockBegin
  2
*D3
 70
     1
 10
0.0
 20
0.0
 30
0.0
  3
*D3
  1

  0
LINE
  5
21C0
100
AcDbEntity
  8
0
  6
BYBLOCK
 62
     0
100
AcDbLine
 10
245.997853
 20
72.288959
 30
0.0
 11
245.997853
 21
94.948381
 31
0.0
  0
LINE
  5
21C1
100
AcDbEntity
  8
0
  6
BYBLOCK
 62
     0
100
AcDbLine
 10
250.997853
 20
80.288959
 30
0.0
 11
250.997853
 21
94.948381
 31
0.0
  0
LINE
  5
21C2
100
AcDbEntity
  8
0
  6
BYBLOCK
 62
     0
100
AcDbLine
 10
247.497853
 20
93.448381
 30
0.0
 11
248.247853
 21
93.448381
 31
0.0
  0
LINE
  5
21C3
100
AcDbEntity
  8
0
  6
BYBLOCK
 62
     0
100
AcDbLine
 10
249.497853
 20
93.448381
 30
0.0
 11
248.747853
 21
93.448381
 31
0.0
  0
MTEXT
  5
21C4
100
AcDbEntity
  8
0
  6
BYBLOCK
 62
     0
100
AcDbMText
 10
249.069884
 20
94.824876
 30
0.0
 40
1.5
 41
0.0
 71
     5
 72
     1
  1
\A1;5"
  7
ROMAND
  0
SOLID
  5
21C5
100
AcDbEntity
  8
0
  6
BYBLOCK
 62
     0
100
AcDbTrace
 10
247.497853
 20
93.698381
 30
0.0
 11
247.497853
 21
93.198381
 31
0.0
 12
245.997853
 22
93.448381
 32
0.0
 13
245.997853
 23
93.448381
 33
0.0
  0
SOLID
  5
21C6
100
AcDbEntity
  8
0
  6
BYBLOCK
 62
     0
100
AcDbTrace
 10
249.497853
 20
93.698381
 30
0.0
 11
249.497853
 21
93.198381
 31
0.0
 12
250.997853
 22
93.448381
 32
0.0
 13
250.997853
 23
93.448381
 33
0.0
  0
POINT
  5
21C7
100
AcDbEntity
  8
DEFPOINTS
  6
BYBLOCK
 62
     0
100
AcDbPoint
 10
245.997853
 20
71.538959
 30
0.0
  0
POINT
  5
21C8
100
AcDbEntity
  8
DEFPOINTS
  6
BYBLOCK
 62
     0
100
AcDbPoint
 10
250.997853
 20
79.538959
 30
0.0
  0
POINT
  5
21C9
100
AcDbEntity
  8
DEFPOINTS
  6
BYBLOCK
 62
     0
100
AcDbPoint
 10
250.997853
 20
93.448381
 30
0.0
  0
ENDBLK
  5
21CA
100
AcDbEntity
  8
0
100
AcDbBlockEnd
  0
BLOCK
  5
24EA
100
AcDbEntity
  8
0
100
AcDbBlockBegin
  2
*D4
 70
     1
 10
0.0
 20
0.0
 30
0.0
  3
*D4
  1

  0
LINE
  5
24EB
100
AcDbEntity
  8
0
  6
BYBLOCK
 62
     0
100
AcDbLine
 10
5.549429
 20
63.740523
 30
0.0
 11
2.042893
 21
63.740523
 31
0.0
  0
LINE
  5
24EC
100
AcDbEntity
  8
0
  6
BYBLOCK
 62
     0
100
AcDbLine
 10
8.12844
 20
54.115523
 30
0.0
 11
5.09169
 21
52.362255
 31
0.0
  0
ARC
  5
24ED
100
AcDbEntity
  8
0
  6
BYBLOCK
 62
     0
100
AcDbCircle
 10
24.799429
 20
63.740523
 30
0.0
 40
21.256536
100
AcDbArc
 50
184.044004
 51
191.332894
  0
ARC
  5
24EE
100
AcDbEntity
  8
0
  6
BYBLOCK
 62
     0
100
AcDbCircle
 10
24.799429
 20
63.740523
 30
0.0
 40
21.256536
100
AcDbArc
 50
199.733286
 51
205.955996
  0
SOLID
  5
24EF
100
AcDbEntity
  8
0
  6
BYBLOCK
 62
     0
100
AcDbTrace
 10
3.345973
 20
62.232636
 30
0.0
 11
3.845662
 21
62.250278
 31
0.0
 12
3.542893
 22
63.740523
 32
0.0
 13
3.542893
 23
63.740523
 33
0.0
  0
SOLID
  5
24F0
100
AcDbEntity
  8
0
  6
BYBLOCK
 62
     0
100
AcDbTrace
 10
5.907812
 20
54.55423
 30
0.0
 11
5.466248
 21
54.319664
 31
0.0
 12
6.390729
 22
53.112255
 32
0.0
 13
6.390729
 23
53.112255
 33
0.0
  0
MTEXT
  5
24F1
100
AcDbEntity
  8
0
  6
BYBLOCK
 62
     0
100
AcDbMText
 10
4.496021
 20
58.063421
 30
0.0
 40
1.5
 41
0.0
 71
     5
 72
     1
  1
\A1;30°
  7
ROMAND
  0
POINT
  5
24F2
100
AcDbEntity
  8
DEFPOINTS
  6
BYBLOCK
 62
     0
100
AcDbPoint
 10
3.865827
 20
60.049364
 30
0.0
  0
POINT
  5
24F3
100
AcDbEntity
  8
DEFPOINTS
  6
BYBLOCK
 62
     0
100
AcDbPoint
 10
21.799429
 20
63.740523
 30
0.0
  0
POINT
  5
24F4
100
AcDbEntity
  8
DEFPOINTS
  6
BYBLOCK
 62
     0
100
AcDbPoint
 10
24.799429
 20
63.740523
 30
0.0
  0
POINT
  5
24F5
100
AcDbEntity
  8
DEFPOINTS
  6
BYBLOCK
 62
     0
100
AcDbPoint
 10
8.777959
 20
54.490523
 30
0.0
  0
POINT
  5
24F6
100
AcDbEntity
  8
DEFPOINTS
  6
BYBLOCK
 62
     0
100
AcDbPoint
 10
6.299429
 20
63.740523
 30
0.0
  0
ENDBLK
  5
24F7
100
AcDbEntity
  8
0
100
AcDbBlockEnd
  0
BLOCK
  5
24F8
100
AcDbEntity
  8
0
100
AcDbBlockBegin
  2
*D5
 70
     1
 10
0.0
 20
0.0
 30
0.0
  3
*D5
  1

  0
LINE
  5
24F9
100
AcDbEntity
  8
0
  6
BYBLOCK
 62
     0
100
AcDbLine
 10
8.12844
 20
54.115523
 30
0.0
 11
5.088874
 21
52.360629
 31
0.0
  0
LINE
  5
24FA
100
AcDbEntity
  8
0
  6
BYBLOCK
 62
     0
100
AcDbLine
 10
24.799429
 20
44.490523
 30
0.0
 11
24.799429
 21
40.980734
 31
0.0
  0
ARC
  5
24FB
100
AcDbEntity
  8
0
  6
BYBLOCK
 62
     0
100
AcDbCircle
 10
24.799429
 20
63.740523
 30
0.0
 40
21.259789
100
AcDbArc
 50
214.043385
 51
230.641667
  0
ARC
  5
24FC
100
AcDbEntity
  8
0
  6
BYBLOCK
 62
     0
100
AcDbCircle
 10
24.799429
 20
63.740523
 30
0.0
 40
21.259789
100
AcDbArc
 50
249.689445
 51
265.956615
  0
SOLID
  5
24FD
100
AcDbEntity
  8
0
  6
BYBLOCK
 62
     0
100
AcDbTrace
 10
6.97131
 20
51.706298
 30
0.0
 11
7.395234
 21
51.971418
 31
0.0
 12
6.387912
 22
53.110629
 32
0.0
 13
6.387912
 23
53.110629
 33
0.0
  0
SOLID
  5
24FE
100
AcDbEntity
  8
0
  6
BYBLOCK
 62
     0
100
AcDbTrace
 10
23.309182
 20
42.783495
 30
0.0
 11
23.291543
 21
42.283807
 31
0.0
 12
24.799429
 22
42.480734
 32
0.0
 13
24.799429
 23
42.480734
 33
0.0
  0
MTEXT
  5
24FF
100
AcDbEntity
  8
0
  6
BYBLOCK
 62
     0
100
AcDbMText
 10
14.733427
 20
45.552562
 30
0.0
 40
1.5
 41
0.0
 71
     5
 72
     1
  1
\A1;60° Typ.
  7
ROMAND
  0
POINT
  5
2500
100
AcDbEntity
  8
DEFPOINTS
  6
BYBLOCK
 62
     0
100
AcDbPoint
 10
11.1339
 20
47.45458
 30
0.0
  0
POINT
  5
2501
100
AcDbEntity
  8
DEFPOINTS
  6
BYBLOCK
 62
     0
100
AcDbPoint
 10
24.799429
 20
60.740523
 30
0.0
  0
POINT
  5
2502
100
AcDbEntity
  8
DEFPOINTS
  6
BYBLOCK
 62
     0
100
AcDbPoint
 10
24.799429
 20
63.740523
 30
0.0
  0
POINT
  5
2503
100
AcDbEntity
  8
DEFPOINTS
  6
BYBLOCK
 62
     0
100
AcDbPoint
 10
8.777959
 20
54.490523
 30
0.0
  0
POINT
  5
2504
100
AcDbEntity
  8
DEFPOINTS
  6
BYBLOCK
 62
     0
100
AcDbPoint
 10
24.799429
 20
45.240523
 30
0.0
  0
ENDBLK
  5
2505
100
AcDbEntity
  8
0
100
AcDbBlockEnd
  0
BLOCK
  5
21EA
100
AcDbEntity
  8
0
100
AcDbBlockBegin
  2
*D6
 70
     1
 10
0.0
 20
0.0
 30
0.0
  3
*D6
  1

  0
LINE
  5
21EB
100
AcDbEntity
  8
0
  6
BYBLOCK
 62
     0
100
AcDbLine
 10
258.997853
 20
89.288959
 30
0.0
 11
258.997853
 21
94.948381
 31
0.0
  0
LINE
  5
21EC
100
AcDbEntity
  8
0
  6
BYBLOCK
 62
     0
100
AcDbLine
 10
266.997853
 20
80.288959
 30
0.0
 11
266.997853
 21
94.948381
 31
0.0
  0
LINE
  5
21ED
100
AcDbEntity
  8
0
  6
BYBLOCK
 62
     0
100
AcDbLine
 10
260.497853
 20
93.448381
 30
0.0
 11
261.813137
 21
93.448381
 31
0.0
  0
LINE
  5
21EE
100
AcDbEntity
  8
0
  6
BYBLOCK
 62
     0
100
AcDbLine
 10
265.497853
 20
93.448381
 30
0.0
 11
264.313137
 21
93.448381
 31
0.0
  0
MTEXT
  5
21EF
100
AcDbEntity
  8
0
  6
BYBLOCK
 62
     0
100
AcDbMText
 10
263.063137
 20
93.448381
 30
0.0
 40
1.5
 41
0.0
 71
     5
 72
     1
  1
\A1;H
  7
ROMAND
  0
SOLID
  5
21F0
100
AcDbEntity
  8
0
  6
BYBLOCK
 62
     0
100
AcDbTrace
 10
260.497853
 20
93.698381
 30
0.0
 11
260.497853
 21
93.198381
 31
0.0
 12
258.997853
 22
93.448381
 32
0.0
 13
258.997853
 23
93.448381
 33
0.0
  0
SOLID
  5
21F1
100
AcDbEntity
  8
0
  6
BYBLOCK
 62
     0
100
AcDbTrace
 10
265.497853
 20
93.698381
 30
0.0
 11
265.497853
 21
93.198381
 31
0.0
 12
266.997853
 22
93.448381
 32
0.0
 13
266.997853
 23
93.448381
 33
0.0
  0
POINT
  5
21F2
100
AcDbEntity
  8
DEFPOINTS
  6
BYBLOCK
 62
     0
100
AcDbPoint
 10
258.997853
 20
88.538959
 30
0.0
  0
POINT
  5
21F3
100
AcDbEntity
  8
DEFPOINTS
  6
BYBLOCK
 62
     0
100
AcDbPoint
 10
266.997853
 20
79.538959
 30
0.0
  0
POINT
  5
21F4
100
AcDbEntity
  8
DEFPOINTS
  6
BYBLOCK
 62
     0
100
AcDbPoint
 10
266.997853
 20
93.448381
 30
0.0
  0
ENDBLK
  5
21F5
100
AcDbEntity
  8
0
100
AcDbBlockEnd
  0
ENDSEC
  0
SECTION
  2
ENTITIES
  0
TEXT
  5
9B9
100
AcDbEntity
  8
0
  6
BYBLOCK
 62
     0
100
AcDbText
 10
137.771014
 20
144.465313
 30
0.0
 40
1.5
  1
   
  7
ROMANS
 72
     1
 11
140.021014
 21
145.215313
 31
0.0
100
AcDbText
 73
     2
  0
TEXT
  5
9BB
100
AcDbEntity
  8
0
  6
BYBLOCK
 62
     0
100
AcDbText
 10
105.136326
 20
196.25
 30
0.0
 40
1.5
  1
  
  7
ROMANS
 72
     1
 11
106.636326
 21
197.0
 31
0.0
100
AcDbText
 73
     2
  0
TEXT
  5
9BC
100
AcDbEntity
  8
0
  6
BYBLOCK
 62
     0
100
AcDbText
 10
105.11769
 20
187.25
 30
0.0
 40
1.5
  1
  
  7
ROMANS
 72
     1
 11
106.61769
 21
188.0
 31
0.0
100
AcDbText
 73
     2
  0
TEXT
  5
9BD
100
AcDbEntity
  8
0
  6
BYBLOCK
 62
     0
100
AcDbText
 10
64.365403
 20
158.766292
 30
0.0
 40
1.5
  1
  
  7
ROMANS
 72
     1
 11
65.865403
 21
159.516292
 31
0.0
100
AcDbText
 73
     2
  0
TEXT
  5
A4B
100
AcDbEntity
  8
0
  6
BYBLOCK
 62
     0
100
AcDbText
 10
1645.803088
 20
1700.549558
 30
0.0
 40
18.0
  1
   
  7
ROMANS
 72
     1
 11
1672.803088
 21
1709.549558
 31
0.0
100
AcDbText
 73
     2
  0
TEXT
  5
A4C
100
AcDbEntity
  8
0
  6
BYBLOCK
 62
     0
100
AcDbText
 10
1254.186831
 20
2321.965808
 30
0.0
 40
18.0
  1
  
  7
ROMANS
 72
     1
 11
1272.186831
 21
2330.965808
 31
0.0
100
AcDbText
 73
     2
  0
TEXT
  5
A4D
100
AcDbEntity
  8
0
  6
BYBLOCK
 62
     0
100
AcDbText
 10
1253.963199
 20
2213.965808
 30
0.0
 40
18.0
  1
  
  7
ROMANS
 72
     1
 11
1271.963199
 21
2222.965808
 31
0.0
100
AcDbText
 73
     2
  0
TEXT
  5
A4E
100
AcDbEntity
  8
0
  6
BYBLOCK
 62
     0
100
AcDbText
 10
764.935753
 20
1872.161312
 30
0.0
 40
18.0
  1
  
  7
ROMANS
 72
     1
 11
782.935753
 21
1881.161312
 31
0.0
100
AcDbText
 73
     2
  0
TEXT
  5
B85
100
AcDbEntity
  8
BORDER
 62
     7
100
AcDbText
 10
68.242206
 20
-45.529548
 30
0.0
 40
1.031594
  1

  7
ROMANC
100
AcDbText
  0
TEXT
  5
F31
100
AcDbEntity
  8
DIM
 62
     6
100
AcDbText
 10
22.778665
 20
99.803294
 30
0.0
 40
3.0
  1
DUPLEX STEEL BASIN COVER
  7
ROMAND
 72
     1
 11
56.207237
 21
99.803294
 31
0.0
100
AcDbText
  0
LWPOLYLINE
  5
121D
100
AcDbEntity
  8
DIM
 62
     6
100
AcDbPolyline
 90
        2
 70
     0
 43
0.25
 39
20.0
 10
23.11716
 20
98.679464
 10
89.24417
 20
98.679464
  0
TEXT
  5
1221
100
AcDbEntity
  8
DIM
 62
     6
100
AcDbText
 10
34.172097
 20
96.348076
 30
0.0
 40
1.5
  1
STAINLESS STEEL HARDWARE STANDARD
  7
ROMANS
 72
     1
 11
56.850668
 21
96.348076
 31
0.0
100
AcDbText
  0
TEXT
  5
1222
100
AcDbEntity
  8
DIM
 62
     6
100
AcDbText
 10
43.207811
 20
94.277611
 30
0.0
 40
1.5
  1
GASKET TAPE PROVIDED
  7
ROMANS
 72
     1
 11
56.850668
 21
94.277611
 31
0.0
100
AcDbText
  0
LWPOLYLINE
  5
16BB
100
AcDbEntity
  8
BORDER
 62
     5
100
AcDbPolyline
 90
        2
 70
     0
 43
0.317739
 10
112.700553
 20
114.004726
 10
0.02389
 20
114.004726
  0
LINE
  5
16BC
100
AcDbEntity
  8
BORDER
 62
     5
100
AcDbLine
 10
112.700553
 20
114.004726
 30
0.0
 11
0.02389
 21
114.004726
 31
0.0
  0
TEXT
  5
16BD
100
AcDbEntity
  8
BORDER
 62
     6
100
AcDbText
 10
58.008347
 20
-33.734434
 30
0.0
 40
0.913499
  1
06/26/03
  7
ROMAND
100
AcDbText
  0
LINE
  5
16BE
100
AcDbEntity
  8
BORDER
100
AcDbLine
 10
49.976288
 20
-30.747893
 30
0.0
 11
67.899375
 21
-30.747893
 31
0.0
  0
LINE
  5
16BF
100
AcDbEntity
  8
BORDER
100
AcDbLine
 10
49.976288
 20
-34.372733
 30
0.0
 11
67.899375
 21
-34.372733
 31
0.0
  0
LWPOLYLINE
  5
16C0
100
AcDbEntity
  8
BORDER
 62
     5
100
AcDbPolyline
 90
        2
 70
     0
 43
0.794347
 10
110.794119
 20
-35.961427
 10
1.930323
 20
-35.961427
  0
TEXT
  5
16C1
100
AcDbEntity
  8
BORDER
 62
     6
100
AcDbText
 10
61.96521
 20
-29.170832
 30
0.0
 40
0.596286
  1
in this print by any other source than TOPP INDUSTRIES, INC.
 41
0.839168
  7
ROMANS
 72
     5
 11
86.531686
 21
-29.170832
 31
0.0
100
AcDbText
  0
TEXT
  5
16C2
100
AcDbEntity
  8
BORDER
 62
     6
100
AcDbText
 10
61.96521
 20
-28.205416
 30
0.0
 40
0.596286
  1
and will not be used to manufacture or procure the manufacture of the items shown
 41
0.600404
  7
ROMANS
 72
     5
 11
86.531686
 21
-28.205416
 31
0.0
100
AcDbText
  0
TEXT
  5
16C3
100
AcDbEntity
  8
BORDER
 62
     6
100
AcDbText
 10
61.96521
 20
-27.240001
 30
0.0
 40
0.596286
  1
be used as a record or to identify or inspect parts or for other information purposes
 41
0.596266
  7
ROMANS
 72
     5
 11
86.531686
 21
-27.240001
 31
0.0
100
AcDbText
  0
TEXT
  5
16C4
100
AcDbEntity
  8
BORDER
 62
     6
100
AcDbText
 10
61.96521
 20
-26.274585
 30
0.0
 40
0.596286
  1
restriction includes, but is not limited to the condition that this print will not only
 41
0.626489
  7
ROMANS
 72
     5
 11
86.531686
 21
-26.274585
 31
0.0
100
AcDbText
  0
TEXT
  5
16C5
100
AcDbEntity
  8
BORDER
 62
     6
100
AcDbText
 10
61.96521
 20
-25.309169
 30
0.0
 40
0.596286
  1
by TOPP INDUSTRIES, INC. It is furnished on a strictly confidential basis.  This
 41
0.659437
  7
ROMANS
 72
     5
 11
86.531686
 21
-25.309169
 31
0.0
100
AcDbText
  0
TEXT
  5
16C6
100
AcDbEntity
  8
BORDER
 62
     6
100
AcDbText
 10
61.96521
 20
-24.343754
 30
0.0
 40
0.596286
  1
This print is and contains confidential proprietary information owned exclusively
 41
0.656934
  7
ROMANS
 72
     5
 11
86.531686
 21
-24.343754
 31
0.0
100
AcDbText
  0
LINE
  5
16C7
100
AcDbEntity
  8
BORDER
100
AcDbLine
 10
49.976288
 20
-29.60665
 30
0.0
 11
86.963706
 21
-29.60665
 31
0.0
  0
LWPOLYLINE
  5
16C8
100
AcDbEntity
  8
BORDER
 62
     5
100
AcDbPolyline
 90
        2
 70
     0
 43
0.794347
 10
27.349431
 20
-21.663179
 10
85.375012
 20
-21.663179
  0
LINE
  5
16C9
100
AcDbEntity
  8
BORDER
100
AcDbLine
 10
49.976288
 20
-23.251873
 30
0.0
 11
85.375012
 21
-23.251873
 31
0.0
  0
LWPOLYLINE
  5
16CA
100
AcDbEntity
  8
BORDER
 62
     5
100
AcDbPolyline
 90
        6
 70
     0
 43
0.566129
 10
-1.247065
 20
-21.057017
 10
-1.247065
 20
112.73377
 42
-0.414214
 10
0.02389
 20
114.004726
 10
112.700553
 20
114.004726
 42
-0.414214
 10
113.971508
 20
112.73377
 10
113.971508
 20
-21.057017
  0
LINE
  5
16CB
100
AcDbEntity
  8
LIMITS
 62
     7
100
AcDbLine
 10
-3.788976
 20
-39.138816
 30
0.0
 11
116.513419
 21
-39.138816
 31
0.0
  0
LINE
  5
16CC
100
AcDbEntity
  8
LIMITS
 62
     7
100
AcDbLine
 10
116.513419
 20
116.546637
 30
0.0
 11
-3.788976
 21
116.546637
 31
0.0
  0
LWPOLYLINE
  5
16D8
100
AcDbEntity
  8
BORDER
 62
     5
100
AcDbPolyline
 90
        2
 70
     0
 43
0.317739
 10
-1.247065
 20
-21.057017
 10
-1.247065
 20
112.73377
  0
LINE
  5
16D9
100
AcDbEntity
  8
LIMITS
 62
     7
100
AcDbLine
 10
-3.788976
 20
116.546637
 30
0.0
 11
-3.788976
 21
-39.138816
 31
0.0
  0
LWPOLYLINE
  5
16DC
100
AcDbEntity
  8
BORDER
 62
     5
100
AcDbPolyline
 90
        2
 70
     0
 43
0.794347
 10
19.40596
 20
-21.663179
 42
-0.414214
 10
22.583348
 20
-24.840567
 42
0.560527
  0
ARC
  5
16DD
100
AcDbEntity
  8
BORDER
100
AcDbCircle
 10
1.930323
 20
-24.840567
 30
0.0
 40
1.588694
100
AcDbArc
 50
90.0
 51
180.0
  0
ARC
  5
16DE
100
AcDbEntity
  8
BORDER
100
AcDbCircle
 10
1.930323
 20
-32.784039
 30
0.0
 40
1.588694
100
AcDbArc
 50
180.0
 51
270.0
  0
LWPOLYLINE
  5
16DF
100
AcDbEntity
  8
BORDER
 62
     5
100
AcDbPolyline
 90
        2
 70
     0
 43
0.794347
 10
1.930323
 20
-35.961427
 42
-0.414214
 10
-1.247065
 20
-32.784039
 42
0.560527
  0
LWPOLYLINE
  5
16E0
100
AcDbEntity
  8
BORDER
 62
     5
100
AcDbPolyline
 90
        2
 70
     0
 43
0.794347
 10
1.930323
 20
-21.663179
 42
0.414214
 10
-1.247065
 20
-24.840567
 42
-0.560527
  0
LINE
  5
16E1
100
AcDbEntity
  8
BORDER
100
AcDbLine
 10
0.341629
 20
-32.784039
 30
0.0
 11
0.341629
 21
-24.840567
 31
0.0
  0
LWPOLYLINE
  5
16E2
100
AcDbEntity
  8
BORDER
 62
     5
100
AcDbPolyline
 90
        2
 70
     0
 43
0.794347
 10
-1.247065
 20
-24.840567
 10
-1.247065
 20
-32.784039
  0
LINE
  5
16E3
100
AcDbEntity
  8
BORDER
100
AcDbLine
 10
20.994654
 20
-34.372733
 30
0.0
 11
20.994654
 21
-24.840567
 31
0.0
  0
LINE
  5
16E4
100
AcDbEntity
  8
BORDER
100
AcDbLine
 10
1.930323
 20
-34.372733
 30
0.0
 11
20.994654
 21
-34.372733
 31
0.0
  0
LINE
  5
16E5
100
AcDbEntity
  8
BORDER
100
AcDbLine
 10
11.491007
 20
-26.501972
 30
0.0
 11
10.837216
 21
-25.528214
 31
0.0
  0
SPLINE
  5
16E6
100
AcDbEntity
  8
BORDER
100
AcDbSpline
210
0.0
220
0.0
230
1.0
 70
    11
 71
     3
 72
    24
 73
    20
 74
     0
 42
0.0000001
 43
0.0000001
 40
0.0
 40
0.0
 40
0.0
 40
0.0
 40
0.474866629778075
 40
0.474866629778075
 40
1.277791044886493
 40
1.277791044886493
 40
2.080715459994911
 40
2.080715459994911
 40
2.883639875103329
 40
2.883639875103329
 40
3.686564290211747
 40
3.686564290211747
 40
4.489488705320165
 40
4.489488705320165
 40
5.292413120428583
 40
5.292413120428583
 40
6.095337535537001
 40
6.095337535537001
 40
6.283185307179586
 40
6.283185307179586
 40
6.283185307179586
 40
6.283185307179586
 10
11.15655916033782
 20
-31.40493301652036
 30
0.0
 10
11.05065619663449
 20
-31.40493301652036
 30
0.0
 10
10.94484244014316
 20
-31.43062155886274
 30
0.0
 10
10.69141835612825
 20
-31.56132069303302
 30
0.0
 10
10.56778213697433
 20
-31.71024553002384
 30
0.0
 10
10.46436690983213
 20
-32.05411990772613
 30
0.0
 10
10.48527541894961
 20
-32.24676554581029
 30
0.0
 10
10.6600477344514
 20
-32.5602665570233
 30
0.0
 10
10.81274689033838
 20
-32.67901653263156
 30
0.0
 10
11.15902252661882
 20
-32.7706642044664
 30
0.0
 10
11.35026626128123
 20
-32.7429396449377
 30
0.0
 10
11.65649777696566
 20
-32.55671131065729
 30
0.0
 10
11.76942921561513
 20
-32.39946786744047
 30
0.0
 10
11.84857826512265
 20
-32.04917423722771
 30
0.0
 10
11.81426995868972
 20
-31.85846972457263
 30
0.0
 10
11.61803328389922
 20
-31.55801529475585
 30
0.0
 10
11.45741384578363
 20
-31.45028509152953
 30
0.0
 10
11.24034449028201
 20
-31.40889183342424
 30
0.0
 10
11.19845226146239
 20
-31.40493301652036
 30
0.0
 10
11.15655916033782
 20
-31.40493301652036
 30
0.0
  0
HATCH
  5
16E7
100
AcDbEntity
  8
BORDER
100
AcDbHatch
 10
0.0
 20
0.0
 30
0.0
210
0.0
220
0.0
230
1.0
  2
ANSI37
 70
     0
 71
     1
 91
        2
 92
        5
 93
        1
 72
     3
 10
11.083967
 20
-29.048426
 11
0.0
 21
1.774561
 40
0.93822
 50
0.0
 51
360.0
 73
     1
 97
        1
330
16E8
 92
       20
 93
        1
 72
     3
 10
11.083967
 20
-29.038315
 11
0.0
 21
1.592555
 40
0.683214
 50
0.0
 51
360.0
 73
     1
 97
        1
330
16E9
 75
     0
 76
     1
 52
0.0
 41
0.024614
 77
     0
 78
     2
 53
45.0
 43
-2.206314
 44
-119.645264
 45
-0.0021756301671622
 46
0.0021756301671622
 79
     0
 53
135.0
 43
-2.206314
 44
-119.645264
 45
-0.0021756301671622
 46
-0.0021756301671622
 79
     0
 47
0.027301
 98
        2
 10
9.88651
 20
-28.326149
 10
9.88651
 20
-28.326149
  0
ELLIPSE
  5
16E8
102
{ACAD_REACTORS
330
16E7
102
}
100
AcDbEntity
  8
BORDER
100
AcDbEllipse
 10
11.083967
 20
-29.048426
 30
0.0
 11
0.000000000000012
 21
1.774560980205257
 31
0.0
210
0.0
220
0.0
230
1.0
 40
0.93822
 41
0.0
 42
6.283185307179586
  0
ELLIPSE
  5
16E9
102
{ACAD_REACTORS
330
16E7
102
}
100
AcDbEntity
  8
BORDER
100
AcDbEllipse
 10
11.083967
 20
-29.038315
 30
0.0
 11
0.000000000000012
 21
1.592554790241038
 31
0.0
210
0.0
220
0.0
230
1.0
 40
0.683214
 41
0.0
 42
6.283185307179586
  0
LINE
  5
16EA
100
AcDbEntity
  8
BORDER
100
AcDbLine
 10
2.72802
 20
-31.002296
 30
0.0
 11
18.697333
 21
-31.002296
 31
0.0
  0
LINE
  5
16EB
100
AcDbEntity
  8
BORDER
100
AcDbLine
 10
2.72802
 20
-31.002296
 30
0.0
 11
18.697333
 21
-31.002296
 31
0.0
  0
LWPOLYLINE
  5
16EC
100
AcDbEntity
  8
BORDER
 62
     5
100
AcDbPolyline
 90
        2
 70
     0
 43
0.794347
 10
1.930323
 20
-21.663179
 10
19.40596
 20
-21.663179
  0
LINE
  5
16ED
100
AcDbEntity
  8
BORDER
100
AcDbLine
 10
1.930323
 20
-23.251873
 30
0.0
 11
19.40596
 21
-23.251873
 31
0.0
  0
LINE
  5
16EE
100
AcDbEntity
  8
BORDER
100
AcDbLine
 10
10.180052
 20
-26.94137
 30
0.0
 11
18.321593
 21
-26.94137
 31
0.0
  0
LINE
  5
16EF
102
{ACAD_REACTORS
330
16F4
102
}
100
AcDbEntity
  8
BORDER
100
AcDbLine
 10
5.346147
 20
-25.339358
 30
0.0
 11
6.05983
 21
-25.339358
 31
0.0
  0
ARC
  5
16F0
102
{ACAD_REACTORS
330
16F4
102
}
100
AcDbEntity
  8
BORDER
100
AcDbCircle
 10
5.248995
 20
-29.801887
 30
0.0
 40
0.810835
100
AcDbArc
 50
270.0
 51
0.0
  0
LINE
  5
16F1
102
{ACAD_REACTORS
330
16F4
102
}
100
AcDbEntity
  8
BORDER
100
AcDbLine
 10
4.987869
 20
-30.781853
 30
0.0
 11
8.533131
 21
-30.781853
 31
0.0
  0
ARC
  5
16F2
100
AcDbEntity
  8
BORDER
100
AcDbCircle
 10
5.951588
 20
-32.065717
 30
0.0
 40
0.643228
100
AcDbArc
 50
44.321228
 51
180.91508
  0
ARC
  5
16F3
100
AcDbEntity
  8
BORDER
100
AcDbCircle
 10
5.90514
 20
-32.130947
 30
0.0
 40
0.599223
100
AcDbArc
 50
174.737783
 51
327.723969
  0
HATCH
  5
16F4
100
AcDbEntity
  8
BORDER
100
AcDbHatch
 10
0.0
 20
0.0
 30
0.0
210
0.0
220
0.0
230
1.0
  2
ANSI37
 70
     0
 71
     1
 91
        1
 92
        7
 72
     1
 73
     1
 93
       18
 10
6.05983038898438
 20
-29.80188748957846
 42
-0.4142135623730743
 10
5.248995108988878
 20
-30.61272276957391
 42
0.0
 10
4.987868632344857
 20
-30.61272276957391
 42
0.0
 10
4.987868632344856
 20
-30.78185251319723
 42
0.0
 10
8.533131077229597
 20
-30.78185251319723
 42
0.0
 10
8.533131077229597
 20
-30.61272276957391
 42
0.0
 10
8.272004600585109
 20
-30.61272276957391
 42
-0.41421356237306
 10
7.461169320589704
 20
-29.8018874895784
 42
0.0
 10
7.461169320589704
 20
-25.33935801781669
 42
0.0
 10
8.174853193503764
 20
-25.33935801781669
 42
-0.4138200196737635
 10
9.793155036128041
 20
-26.95548660466736
 42
0.0
 10
9.962413419416067
 20
-26.95548660466736
 42
0.0
 10
9.962413419416463
 20
-24.92592968119069
 42
0.0
 10
3.558586290157962
 20
-24.92592968119069
 42
0.0
 10
3.558586290157961
 20
-26.95548660466736
 42
0.0
 10
3.727844673446353
 20
-26.95548660466736
 42
-0.4138200196737642
 10
5.346146516070632
 20
-25.33935801781669
 42
0.0
 10
6.05983038898438
 20
-25.33935801781669
 42
0.0
 97
       18
330
1711
330
1710
330
1718
330
1712
330
16F5
330
16FE
330
1700
330
16FF
330
16EF
330
1701
330
16F0
330
16FD
330
16FC
330
16F1
330
170F
330
1703
330
1708
330
1702
 75
     0
 76
     1
 52
0.0
 41
0.024614
 77
     0
 78
     2
 53
45.0
 43
-2.206314
 44
-119.645264
 45
-0.0021756301671622
 46
0.0021756301671622
 79
     0
 53
135.0
 43
-2.206314
 44
-119.645264
 45
-0.0021756301671622
 46
-0.0021756301671622
 79
     0
 47
0.049862
 98
        1
 10
6.588526
 20
-27.657193
  0
LINE
  5
16F5
102
{ACAD_REACTORS
330
16F4
102
}
100
AcDbEntity
  8
BORDER
100
AcDbLine
 10
3.558586
 20
-24.92593
 30
0.0
 11
9.962413
 21
-24.92593
 31
0.0
  0
LINE
  5
16F6
100
AcDbEntity
  8
BORDER
100
AcDbLine
 10
5.001961
 20
-32.729324
 30
0.0
 11
4.00079
 21
-31.422655
 31
0.0
  0
LINE
  5
16F7
100
AcDbEntity
  8
BORDER
100
AcDbLine
 10
4.00079
 20
-31.422655
 30
0.0
 11
4.00079
 21
-32.729324
 31
0.0
  0
LINE
  5
16F8
100
AcDbEntity
  8
BORDER
100
AcDbLine
 10
3.161131
 20
-31.422655
 30
0.0
 11
3.696252
 21
-31.422655
 31
0.0
  0
LINE
  5
16F9
100
AcDbEntity
  8
BORDER
100
AcDbLine
 10
3.161131
 20
-32.729324
 30
0.0
 11
3.696252
 21
-32.729324
 31
0.0
  0
LINE
  5
16FA
100
AcDbEntity
  8
BORDER
100
AcDbLine
 10
3.428692
 20
-31.422655
 30
0.0
 11
3.428692
 21
-32.729324
 31
0.0
  0
LINE
  5
16FB
100
AcDbEntity
  8
BORDER
100
AcDbLine
 10
5.001961
 20
-31.422655
 30
0.0
 11
5.001961
 21
-32.729324
 31
0.0
  0
LINE
  5
16FC
102
{ACAD_REACTORS
330
16F4
102
}
100
AcDbEntity
  8
BORDER
100
AcDbLine
 10
4.987869
 20
-30.612723
 30
0.0
 11
4.987869
 21
-30.781853
 31
0.0
  0
LINE
  5
16FD
102
{ACAD_REACTORS
330
16F4
102
}
100
AcDbEntity
  8
BORDER
100
AcDbLine
 10
4.987869
 20
-30.612723
 30
0.0
 11
5.248995
 21
-30.612723
 31
0.0
  0
LINE
  5
16FE
102
{ACAD_REACTORS
330
16F4
102
}
100
AcDbEntity
  8
BORDER
100
AcDbLine
 10
3.558586
 20
-26.955487
 30
0.0
 11
3.558586
 21
-24.92593
 31
0.0
  0
ARC
  5
16FF
102
{ACAD_REACTORS
330
16F4
102
}
100
AcDbEntity
  8
BORDER
100
AcDbCircle
 10
5.346147
 20
-26.957661
 30
0.0
 40
1.618303
100
AcDbArc
 50
90.0
 51
179.923004
  0
LINE
  5
1700
102
{ACAD_REACTORS
330
16F4
102
}
100
AcDbEntity
  8
BORDER
100
AcDbLine
 10
3.558586
 20
-26.955487
 30
0.0
 11
3.727843
 21
-26.955487
 31
0.0
  0
LINE
  5
1701
102
{ACAD_REACTORS
330
16F4
102
}
100
AcDbEntity
  8
BORDER
100
AcDbLine
 10
6.05983
 20
-29.801887
 30
0.0
 11
6.05983
 21
-25.339358
 31
0.0
  0
LINE
  5
1702
102
{ACAD_REACTORS
330
16F4
102
}
100
AcDbEntity
  8
BORDER
100
AcDbLine
 10
7.461169
 20
-29.801887
 30
0.0
 11
7.461169
 21
-25.339358
 31
0.0
  0
LINE
  5
1703
102
{ACAD_REACTORS
330
16F4
102
}
100
AcDbEntity
  8
BORDER
100
AcDbLine
 10
8.533131
 20
-30.612723
 30
0.0
 11
8.272005
 21
-30.612723
 31
0.0
  0
LINE
  5
1704
100
AcDbEntity
  8
BORDER
100
AcDbLine
 10
8.697975
 20
-31.422655
 30
0.0
 11
8.246254
 21
-31.422655
 31
0.0
  0
LINE
  5
1705
100
AcDbEntity
  8
BORDER
100
AcDbLine
 10
8.246254
 20
-32.092646
 30
0.0
 11
8.697975
 21
-32.092646
 31
0.0
  0
SPLINE
  5
1706
100
AcDbEntity
  8
BORDER
100
AcDbSpline
210
0.0
220
0.0
230
1.0
 70
    11
 71
     3
 72
    24
 73
    20
 74
     0
 42
0.0000001
 43
0.0000001
 40
0.0
 40
0.0
 40
0.0
 40
0.0
 40
0.474866629778075
 40
0.474866629778075
 40
1.277791044886493
 40
1.277791044886493
 40
2.080715459994911
 40
2.080715459994911
 40
2.883639875103329
 40
2.883639875103329
 40
3.686564290211747
 40
3.686564290211747
 40
4.489488705320165
 40
4.489488705320165
 40
5.292413120428583
 40
5.292413120428583
 40
6.095337535537001
 40
6.095337535537001
 40
6.283185307179586
 40
6.283185307179586
 40
6.283185307179586
 40
6.283185307179586
 10
7.268629796261706
 20
-31.40493301652036
 30
0.0
 10
7.162726832558718
 20
-31.40493301652036
 30
0.0
 10
7.056913076067274
 20
-31.43062155886274
 30
0.0
 10
6.803488992052422
 20
-31.56132069303302
 30
0.0
 10
6.679852772898215
 20
-31.71024553002384
 30
0.0
 10
6.576437545755965
 20
-32.05411990772613
 30
0.0
 10
6.59734605487344
 20
-32.24676554581029
 30
0.0
 10
6.772118370375522
 20
-32.5602665570233
 30
0.0
 10
6.924817526262557
 20
-32.67901653263156
 30
0.0
 10
7.271093162542939
 20
-32.7706642044664
 30
0.0
 10
7.462336897205403
 20
-32.7429396449377
 30
0.0
 10
7.768568412889891
 20
-32.55671131065729
 30
0.0
 10
7.881499851539359
 20
-32.39946786744047
 30
0.0
 10
7.960648901046425
 20
-32.04917423722771
 30
0.0
 10
7.926340594613492
 20
-31.85846972457263
 30
0.0
 10
7.730103919823051
 20
-31.55801529475585
 30
0.0
 10
7.56948448170786
 20
-31.45028509152953
 30
0.0
 10
7.352415126206182
 20
-31.40889183342424
 30
0.0
 10
7.310522897386221
 20
-31.40493301652036
 30
0.0
 10
7.268629796261706
 20
-31.40493301652036
 30
0.0
  0
LINE
  5
1707
100
AcDbEntity
  8
BORDER
100
AcDbLine
 10
8.246254
 20
-31.422655
 30
0.0
 11
8.246254
 21
-32.729324
 31
0.0
  0
ARC
  5
1708
102
{ACAD_REACTORS
330
16F4
102
}
100
AcDbEntity
  8
BORDER
100
AcDbCircle
 10
8.272005
 20
-29.801887
 30
0.0
 40
0.810835
100
AcDbArc
 50
180.0
 51
270.0
  0
LINE
  5
1709
100
AcDbEntity
  8
BORDER
100
AcDbLine
 10
9.965724
 20
-31.422655
 30
0.0
 11
9.626585
 21
-31.422655
 31
0.0
  0
LINE
  5
170A
100
AcDbEntity
  8
BORDER
100
AcDbLine
 10
9.626585
 20
-32.092646
 30
0.0
 11
9.965724
 21
-32.092646
 31
0.0
  0
LINE
  5
170B
100
AcDbEntity
  8
BORDER
100
AcDbLine
 10
9.626585
 20
-31.422655
 30
0.0
 11
9.626585
 21
-32.729324
 31
0.0
  0
ARC
  5
170C
100
AcDbEntity
  8
BORDER
100
AcDbCircle
 10
8.697975
 20
-31.757651
 30
0.0
 40
0.334995
100
AcDbArc
 50
270.0
 51
90.0
  0
LINE
  5
170D
100
AcDbEntity
  8
BORDER
100
AcDbLine
 10
8.603902
 20
-32.092646
 30
0.0
 11
9.122649
 21
-32.729324
 31
0.0
  0
ARC
  5
170E
100
AcDbEntity
  8
BORDER
100
AcDbCircle
 10
9.965724
 20
-31.757651
 30
0.0
 40
0.334995
100
AcDbArc
 50
270.0
 51
90.0
  0
LINE
  5
170F
102
{ACAD_REACTORS
330
16F4
102
}
100
AcDbEntity
  8
BORDER
100
AcDbLine
 10
8.533131
 20
-30.612723
 30
0.0
 11
8.533131
 21
-30.781853
 31
0.0
  0
ARC
  5
1710
102
{ACAD_REACTORS
330
16F4
102
}
100
AcDbEntity
  8
BORDER
100
AcDbCircle
 10
8.174853
 20
-26.957661
 30
0.0
 40
1.618303
100
AcDbArc
 50
0.076996
 51
90.0
  0
LINE
  5
1711
102
{ACAD_REACTORS
330
16F4
102
}
100
AcDbEntity
  8
BORDER
100
AcDbLine
 10
8.174853
 20
-25.339358
 30
0.0
 11
7.461169
 21
-25.339358
 31
0.0
  0
LINE
  5
1712
102
{ACAD_REACTORS
330
16F4
102
}
100
AcDbEntity
  8
BORDER
100
AcDbLine
 10
9.962413
 20
-26.955487
 30
0.0
 11
9.962413
 21
-24.92593
 31
0.0
  0
LINE
  5
1713
100
AcDbEntity
  8
BORDER
100
AcDbLine
 10
10.405713
 20
-25.548155
 30
0.0
 11
10.552548
 21
-25.548155
 31
0.0
  0
LINE
  5
1714
100
AcDbEntity
  8
BORDER
100
AcDbLine
 10
10.258879
 20
-25.548155
 30
0.0
 11
10.405713
 21
-25.548155
 31
0.0
  0
LINE
  5
1715
100
AcDbEntity
  8
BORDER
100
AcDbLine
 10
10.258879
 20
-26.501972
 30
0.0
 11
10.552548
 21
-26.501972
 31
0.0
  0
LINE
  5
1716
100
AcDbEntity
  8
BORDER
100
AcDbLine
 10
10.405713
 20
-25.548155
 30
0.0
 11
10.405713
 21
-26.501972
 31
0.0
  0
LINE
  5
1717
100
AcDbEntity
  8
BORDER
100
AcDbLine
 10
10.837216
 20
-25.528214
 30
0.0
 11
10.837216
 21
-26.501972
 31
0.0
  0
LINE
  5
1718
102
{ACAD_REACTORS
330
16F4
102
}
100
AcDbEntity
  8
BORDER
100
AcDbLine
 10
9.962413
 20
-26.955487
 30
0.0
 11
9.793156
 21
-26.955487
 31
0.0
  0
LINE
  5
1719
102
{ACAD_REACTORS
330
171E
102
}
100
AcDbEntity
  8
BORDER
100
AcDbLine
 10
15.886798
 20
-27.351629
 30
0.0
 11
17.455089
 21
-27.351629
 31
0.0
  0
LINE
  5
171A
102
{ACAD_REACTORS
330
171E
102
}
100
AcDbEntity
  8
BORDER
100
AcDbLine
 10
15.884281
 20
-30.754922
 30
0.0
 11
17.337019
 21
-30.754922
 31
0.0
  0
LINE
  5
171B
100
AcDbEntity
  8
BORDER
100
AcDbLine
 10
16.101637
 20
-31.422655
 30
0.0
 11
16.944661
 21
-31.422655
 31
0.0
  0
LINE
  5
171C
100
AcDbEntity
  8
BORDER
100
AcDbLine
 10
16.944661
 20
-32.729324
 30
0.0
 11
16.101637
 21
-32.729324
 31
0.0
  0
LINE
  5
171D
100
AcDbEntity
  8
BORDER
100
AcDbLine
 10
16.101637
 20
-32.07599
 30
0.0
 11
16.662257
 21
-32.07599
 31
0.0
  0
HATCH
  5
171E
100
AcDbEntity
  8
BORDER
100
AcDbHatch
 10
0.0
 20
0.0
 30
0.0
210
0.0
220
0.0
230
1.0
  2
ANSI37
 70
     0
 71
     1
 91
        2
 92
        7
 72
     1
 73
     1
 93
       16
 10
16.37387803657833
 20
-30.33199497949489
 42
-0.4142135623729044
 10
16.03917277564995
 20
-30.66670024042305
 42
0.0
 10
15.884281226555
 20
-30.66670024042305
 42
0.0
 10
15.884281226555
 20
-30.75492189370007
 42
0.0
 10
17.33701895085024
 20
-30.75492189370006
 42
0.0
 10
17.33701895085025
 20
-30.66670024042306
 42
0.0
 10
17.18212740175592
 20
-30.66670024042305
 42
-0.4142135623735461
 10
16.84742214082703
 20
-30.33199497949468
 42
0.0
 10
16.84742214082703
 20
-29.1589154862922
 42
0.0609117558027821
 10
17.43333304228162
 20
-29.23109647356017
 42
0.4291497434354694
 10
18.46870952512016
 20
-28.30076095742276
 42
0.3916311771499321
 10
17.45508883227372
 20
-27.35162870694947
 42
0.0
 10
15.88679790075474
 20
-27.35162870694946
 42
0.0
 10
15.88679790075474
 20
-27.44504662759668
 42
0.0
 10
16.03917277565008
 20
-27.44504662759668
 42
-0.4142135623729799
 10
16.37387803657833
 20
-27.77975188852506
 42
0.0
 97
       16
330
174A
330
1719
330
1742
330
1744
330
1741
330
1721
330
172E
330
1730
330
172F
330
171A
330
1754
330
1753
330
1751
330
1755
330
1752
330
1750
 92
       22
 72
     1
 73
     1
 93
        3
 10
16.84742214082703
 20
-27.6030095824159
 42
-0.5287425889418317
 10
17.89885079363934
 20
-28.34086161754568
 42
-0.5439228899272978
 10
16.84742214082703
 20
-29.03059317287905
 42
0.0
 97
        3
330
1749
330
174F
330
1748
 75
     0
 76
     1
 52
0.0
 41
0.024614
 77
     0
 78
     2
 53
45.0
 43
-2.206314
 44
-119.645264
 45
-0.0021756301671622
 46
0.0021756301671622
 79
     0
 53
135.0
 43
-2.206314
 44
-119.645264
 45
-0.0021756301671622
 46
-0.0021756301671622
 79
     0
 47
0.027301
 98
        2
 10
16.571179
 20
-28.50087
 10
16.571179
 20
-28.50087
  0
HATCH
  5
171F
100
AcDbEntity
  8
BORDER
100
AcDbHatch
 10
0.0
 20
0.0
 30
0.0
210
0.0
220
0.0
230
1.0
  2
ANSI37
 70
     0
 71
     1
 91
        2
 92
        7
 72
     1
 73
     1
 93
       16
 10
13.51626279795365
 20
-30.31910195252847
 42
-0.4142135623730939
 10
13.18155753702542
 20
-30.6538072134567
 42
0.0
 10
13.02666598793044
 20
-30.6538072134567
 42
0.0
 10
13.02666598793044
 20
-30.74202886673437
 42
0.0
 10
14.47940371222594
 20
-30.74202886673436
 42
0.0
 10
14.47940371222594
 20
-30.6538072134567
 42
0.0
 10
14.32451216313096
 20
-30.6538072134567
 42
-0.4142135623730952
 10
13.98980690220278
 20
-30.31910195252853
 42
0.0
 10
13.98980690220278
 20
-29.14602245932639
 42
0.0609117558023473
 10
14.57571780365317
 20
-29.21820344659435
 42
0.4291497434370922
 10
15.61109428649533
 20
-28.28786793045545
 42
0.3916311771394779
 10
14.59747359368524
 20
-27.33873567998376
 42
0.0
 10
13.02918266213012
 20
-27.33873567998376
 42
0.0
 10
13.02918266213012
 20
-27.43215360063032
 42
0.0
 10
13.18155753702541
 20
-27.43215360063032
 42
-0.4142135623731029
 10
13.51626279795365
 20
-27.76685886155856
 42
0.0
 97
        1
330
1722
 92
       22
 72
     1
 73
     1
 93
        3
 10
13.98980690220278
 20
-27.59011655545036
 42
-0.528742588946742
 10
15.04123555501488
 20
-28.32796859059205
 42
-0.5439228899217087
 10
13.98980690220278
 20
-29.01770014591285
 42
0.0
 97
        1
330
1720
 75
     0
 76
     1
 52
0.0
 41
0.024614
 77
     0
 78
     2
 53
45.0
 43
-2.206314
 44
-119.645264
 45
-0.0021756301671622
 46
0.0021756301671622
 79
     0
 53
135.0
 43
-2.206314
 44
-119.645264
 45
-0.0021756301671622
 46
-0.0021756301671622
 79
     0
 47
0.027301
 98
        2
 10
13.706321
 20
-28.205189
 10
13.706321
 20
-28.205189
  0
LWPOLYLINE
  5
1720
102
{ACAD_REACTORS
330
171F
102
}
100
AcDbEntity
  8
BORDER
100
AcDbPolyline
 90
        3
 70
     1
 43
0.0
 10
13.989807
 20
-29.0177
 42
0.543923
 10
15.041236
 20
-28.327969
 42
0.528743
 10
13.989807
 20
-27.590117
  0
LINE
  5
1721
102
{ACAD_REACTORS
330
171E
102
}
100
AcDbEntity
  8
BORDER
100
AcDbLine
 10
16.373878
 20
-30.331995
 30
0.0
 11
16.373878
 21
-27.779752
 31
0.0
  0
LWPOLYLINE
  5
1722
102
{ACAD_REACTORS
330
171F
102
}
100
AcDbEntity
  8
BORDER
100
AcDbPolyline
 90
       17
 70
     0
 43
0.0
 10
14.575718
 20
-29.218203
 42
-0.060912
 10
13.989807
 20
-29.146022
 10
13.989807
 20
-30.319102
 42
0.414214
 10
14.324512
 20
-30.653807
 10
14.479404
 20
-30.653807
 10
14.479404
 20
-30.742029
 10
13.026666
 20
-30.742029
 10
13.026666
 20
-30.653807
 10
13.181558
 20
-30.653807
 42
0.414214
 10
13.516263
 20
-30.319102
 10
13.516263
 20
-27.766859
 42
0.414214
 10
13.181558
 20
-27.432154
 10
13.029183
 20
-27.432154
 10
13.029183
 20
-27.338736
 10
14.585181
 20
-27.338736
 42
-0.395102
 10
15.611094
 20
-28.287868
 42
-0.42915
 10
14.575718
 20
-29.218203
  0
LINE
  5
1723
100
AcDbEntity
  8
BORDER
100
AcDbLine
 10
13.603642
 20
-32.252881
 30
0.0
 11
14.250896
 21
-32.252881
 31
0.0
  0
LINE
  5
1724
100
AcDbEntity
  8
BORDER
100
AcDbLine
 10
13.92163
 20
-31.422655
 30
0.0
 11
13.421157
 21
-32.729324
 31
0.0
  0
LINE
  5
1725
100
AcDbEntity
  8
BORDER
100
AcDbLine
 10
12.186129
 20
-32.092646
 30
0.0
 11
12.63785
 21
-32.092646
 31
0.0
  0
LINE
  5
1726
100
AcDbEntity
  8
BORDER
100
AcDbLine
 10
12.63785
 20
-31.422655
 30
0.0
 11
12.186129
 21
-31.422655
 31
0.0
  0
LINE
  5
1727
100
AcDbEntity
  8
BORDER
100
AcDbLine
 10
12.186129
 20
-31.422655
 30
0.0
 11
12.186129
 21
-32.729324
 31
0.0
  0
ARC
  5
1728
100
AcDbEntity
  8
BORDER
100
AcDbCircle
 10
12.63785
 20
-31.757651
 30
0.0
 40
0.334995
100
AcDbArc
 50
270.0
 51
90.0
  0
LINE
  5
1729
100
AcDbEntity
  8
BORDER
100
AcDbLine
 10
12.543777
 20
-32.092646
 30
0.0
 11
13.062524
 21
-32.729324
 31
0.0
  0
LINE
  5
172A
100
AcDbEntity
  8
BORDER
100
AcDbLine
 10
14.705589
 20
-31.422655
 30
0.0
 11
15.812799
 21
-31.422655
 31
0.0
  0
LINE
  5
172B
100
AcDbEntity
  8
BORDER
100
AcDbLine
 10
14.439852
 20
-32.729324
 30
0.0
 11
13.92163
 21
-31.422655
 31
0.0
  0
LINE
  5
172C
100
AcDbEntity
  8
BORDER
100
AcDbLine
 10
16.101637
 20
-32.729324
 30
0.0
 11
16.101637
 21
-31.422655
 31
0.0
  0
LINE
  5
172D
100
AcDbEntity
  8
BORDER
100
AcDbLine
 10
15.259194
 20
-31.422655
 30
0.0
 11
15.259194
 21
-32.729324
 31
0.0
  0
ARC
  5
172E
102
{ACAD_REACTORS
330
171E
102
}
100
AcDbEntity
  8
BORDER
100
AcDbCircle
 10
16.039173
 20
-30.331995
 30
0.0
 40
0.334705
100
AcDbArc
 50
270.0
 51
360.0
  0
LINE
  5
172F
102
{ACAD_REACTORS
330
171E
102
}
100
AcDbEntity
  8
BORDER
100
AcDbLine
 10
15.884281
 20
-30.6667
 30
0.0
 11
15.884281
 21
-30.754922
 31
0.0
  0
LINE
  5
1730
102
{ACAD_REACTORS
330
171E
102
}
100
AcDbEntity
  8
BORDER
100
AcDbLine
 10
15.884281
 20
-30.6667
 30
0.0
 11
16.039173
 21
-30.6667
 31
0.0
  0
ARC
  5
1731
100
AcDbEntity
  8
BORDER
100
AcDbCircle
 10
12.099392
 20
-26.025064
 30
0.0
 40
0.476909
100
AcDbArc
 50
270.0
 51
90.0
  0
LINE
  5
1732
100
AcDbEntity
  8
BORDER
100
AcDbLine
 10
12.099392
 20
-25.548155
 30
0.0
 11
11.896358
 21
-25.548155
 31
0.0
  0
LINE
  5
1733
100
AcDbEntity
  8
BORDER
100
AcDbLine
 10
11.896358
 20
-26.501972
 30
0.0
 11
12.099392
 21
-26.501972
 31
0.0
  0
LINE
  5
1734
100
AcDbEntity
  8
BORDER
100
AcDbLine
 10
11.491007
 20
-25.548155
 30
0.0
 11
11.491007
 21
-26.501972
 31
0.0
  0
LINE
  5
1735
100
AcDbEntity
  8
BORDER
100
AcDbLine
 10
11.896358
 20
-25.548155
 30
0.0
 11
11.896358
 21
-26.501972
 31
0.0
  0
LINE
  5
1736
100
AcDbEntity
  8
BORDER
100
AcDbLine
 10
13.556988
 20
-25.548155
 30
0.0
 11
13.556988
 21
-26.181614
 31
0.0
  0
LINE
  5
1737
100
AcDbEntity
  8
BORDER
100
AcDbLine
 10
12.916273
 20
-26.181614
 30
0.0
 11
12.916273
 21
-25.548155
 31
0.0
  0
ARC
  5
1738
100
AcDbEntity
  8
BORDER
100
AcDbCircle
 10
13.23663
 20
-26.181614
 30
0.0
 40
0.320358
100
AcDbArc
 50
180.0
 51
0.0
  0
LINE
  5
1739
100
AcDbEntity
  8
BORDER
100
AcDbLine
 10
14.592867
 20
-25.548155
 30
0.0
 11
15.376582
 21
-25.548155
 31
0.0
  0
ARC
  5
173A
100
AcDbEntity
  8
BORDER
100
AcDbCircle
 10
14.304833
 20
-26.267767
 30
0.0
 40
0.13469
100
AcDbArc
 50
331.630608
 51
60.315223
  0
ARC
  5
173B
100
AcDbEntity
  8
BORDER
100
AcDbCircle
 10
18.320304
 20
-19.223548
 30
0.0
 40
7.973641
100
AcDbArc
 50
236.383068
 51
240.315223
  0
ARC
  5
173C
100
AcDbEntity
  8
BORDER
100
AcDbCircle
 10
14.15186
 20
-26.199506
 30
0.0
 40
0.301989
100
AcDbArc
 50
200.502447
 51
334.026213
  0
ARC
  5
173D
100
AcDbEntity
  8
BORDER
100
AcDbCircle
 10
14.113463
 20
-25.842953
 30
0.0
 40
0.295856
100
AcDbArc
 50
25.379638
 51
143.047804
  0
ARC
  5
173E
100
AcDbEntity
  8
BORDER
100
AcDbCircle
 10
13.980366
 20
-25.751494
 30
0.0
 40
0.13469
100
AcDbArc
 50
140.101426
 51
236.383068
  0
LINE
  5
173F
100
AcDbEntity
  8
BORDER
100
AcDbLine
 10
14.984725
 20
-25.548155
 30
0.0
 11
14.984725
 21
-26.501972
 31
0.0
  0
ARC
  5
1740
100
AcDbEntity
  8
BORDER
100
AcDbCircle
 10
15.925983
 20
-25.788907
 30
0.0
 40
0.240752
100
AcDbArc
 50
270.0
 51
90.0
  0
ARC
  5
1741
102
{ACAD_REACTORS
330
171E
102
}
100
AcDbEntity
  8
BORDER
100
AcDbCircle
 10
16.039173
 20
-27.779752
 30
0.0
 40
0.334705
100
AcDbArc
 50
0.0
 51
90.0
  0
LINE
  5
1742
102
{ACAD_REACTORS
330
171E
102
}
100
AcDbEntity
  8
BORDER
100
AcDbLine
 10
15.886798
 20
-27.351629
 30
0.0
 11
15.886798
 21
-27.445047
 31
0.0
  0
LINE
  5
1743
100
AcDbEntity
  8
BORDER
100
AcDbLine
 10
15.859477
 20
-26.02966
 30
0.0
 11
16.161985
 21
-26.501972
 31
0.0
  0
LINE
  5
1744
102
{ACAD_REACTORS
330
171E
102
}
100
AcDbEntity
  8
BORDER
100
AcDbLine
 10
15.886798
 20
-27.445047
 30
0.0
 11
16.039173
 21
-27.445047
 31
0.0
  0
LINE
  5
1745
100
AcDbEntity
  8
BORDER
100
AcDbLine
 10
15.579041
 20
-25.548155
 30
0.0
 11
15.579041
 21
-26.501972
 31
0.0
  0
LINE
  5
1746
100
AcDbEntity
  8
BORDER
100
AcDbLine
 10
15.925983
 20
-25.548155
 30
0.0
 11
15.579041
 21
-25.548155
 31
0.0
  0
LINE
  5
1747
100
AcDbEntity
  8
BORDER
100
AcDbLine
 10
15.579041
 20
-26.02966
 30
0.0
 11
15.925983
 21
-26.02966
 31
0.0
  0
LINE
  5
1748
102
{ACAD_REACTORS
330
171E
102
}
100
AcDbEntity
  8
BORDER
100
AcDbLine
 10
16.847422
 20
-27.60301
 30
0.0
 11
16.847422
 21
-29.030593
 31
0.0
  0
ARC
  5
1749
102
{ACAD_REACTORS
330
171E
102
}
100
AcDbEntity
  8
BORDER
100
AcDbCircle
 10
17.121799
 20
-28.330088
 30
0.0
 40
0.777127
100
AcDbArc
 50
359.205673
 51
110.674935
  0
ARC
  5
174A
102
{ACAD_REACTORS
330
171E
102
}
100
AcDbEntity
  8
BORDER
100
AcDbCircle
 10
17.448943
 20
-28.374004
 30
0.0
 40
1.022394
100
AcDbArc
 50
4.10812
 51
90.34444
  0
LINE
  5
174B
100
AcDbEntity
  8
BORDER
100
AcDbLine
 10
17.308813
 20
-32.729324
 30
0.0
 11
17.801969
 21
-32.729324
 31
0.0
  0
LINE
  5
174C
100
AcDbEntity
  8
BORDER
100
AcDbLine
 10
17.801969
 20
-31.422655
 30
0.0
 11
17.308813
 21
-31.422655
 31
0.0
  0
LINE
  5
174D
100
AcDbEntity
  8
BORDER
100
AcDbLine
 10
17.308813
 20
-31.422655
 30
0.0
 11
17.308813
 21
-32.729324
 31
0.0
  0
ARC
  5
174E
100
AcDbEntity
  8
BORDER
100
AcDbCircle
 10
17.801969
 20
-32.07599
 30
0.0
 40
0.653334
100
AcDbArc
 50
270.0
 51
90.0
  0
ARC
  5
174F
102
{ACAD_REACTORS
330
171E
102
}
100
AcDbEntity
  8
BORDER
100
AcDbCircle
 10
17.14991
 20
-28.34544
 30
0.0
 40
0.748955
100
AcDbArc
 50
246.179097
 51
0.350223
  0
ARC
  5
1750
102
{ACAD_REACTORS
330
171E
102
}
100
AcDbEntity
  8
BORDER
100
AcDbCircle
 10
17.50887
 20
-28.273856
 30
0.0
 40
0.960216
100
AcDbArc
 50
265.488062
 51
358.394374
  0
ARC
  5
1751
102
{ACAD_REACTORS
330
171E
102
}
100
AcDbEntity
  8
BORDER
100
AcDbCircle
 10
17.182127
 20
-30.331995
 30
0.0
 40
0.334705
100
AcDbArc
 50
180.0
 51
270.0
  0
ARC
  5
1752
102
{ACAD_REACTORS
330
171E
102
}
100
AcDbEntity
  8
BORDER
100
AcDbCircle
 10
17.435531
 20
-26.799175
 30
0.0
 40
2.431922
100
AcDbArc
 50
256.005504
 51
269.948223
  0
LINE
  5
1753
102
{ACAD_REACTORS
330
171E
102
}
100
AcDbEntity
  8
BORDER
100
AcDbLine
 10
17.182127
 20
-30.6667
 30
0.0
 11
17.337019
 21
-30.6667
 31
0.0
  0
LINE
  5
1754
102
{ACAD_REACTORS
330
171E
102
}
100
AcDbEntity
  8
BORDER
100
AcDbLine
 10
17.337019
 20
-30.6667
 30
0.0
 11
17.337019
 21
-30.754922
 31
0.0
  0
LINE
  5
1755
102
{ACAD_REACTORS
330
171E
102
}
100
AcDbEntity
  8
BORDER
100
AcDbLine
 10
16.847422
 20
-29.158915
 30
0.0
 11
16.847422
 21
-30.331995
 31
0.0
  0
LINE
  5
1756
100
AcDbEntity
  8
BORDER
100
AcDbLine
 10
16.460035
 20
-25.548155
 30
0.0
 11
16.753704
 21
-25.548155
 31
0.0
  0
LINE
  5
1757
100
AcDbEntity
  8
BORDER
100
AcDbLine
 10
16.460035
 20
-26.501972
 30
0.0
 11
16.753704
 21
-26.501972
 31
0.0
  0
LINE
  5
1758
100
AcDbEntity
  8
BORDER
100
AcDbLine
 10
16.606869
 20
-25.548155
 30
0.0
 11
16.606869
 21
-26.501972
 31
0.0
  0
LINE
  5
1759
100
AcDbEntity
  8
BORDER
100
AcDbLine
 10
17.048931
 20
-25.548155
 30
0.0
 11
17.623073
 21
-25.548155
 31
0.0
  0
LINE
  5
175A
100
AcDbEntity
  8
BORDER
100
AcDbLine
 10
17.623073
 20
-26.501972
 30
0.0
 11
17.048931
 21
-26.501972
 31
0.0
  0
LINE
  5
175B
100
AcDbEntity
  8
BORDER
100
AcDbLine
 10
17.048931
 20
-26.501972
 30
0.0
 11
17.048931
 21
-25.548155
 31
0.0
  0
LINE
  5
175C
100
AcDbEntity
  8
BORDER
100
AcDbLine
 10
17.048931
 20
-26.025064
 30
0.0
 11
17.497884
 21
-26.025064
 31
0.0
  0
ARC
  5
175D
100
AcDbEntity
  8
BORDER
100
AcDbCircle
 10
18.272352
 20
-26.267767
 30
0.0
 40
0.13469
100
AcDbArc
 50
331.630608
 51
60.315223
  0
ARC
  5
175E
100
AcDbEntity
  8
BORDER
100
AcDbCircle
 10
17.947885
 20
-25.751494
 30
0.0
 40
0.13469
100
AcDbArc
 50
140.101426
 51
236.383068
  0
ARC
  5
175F
100
AcDbEntity
  8
BORDER
100
AcDbCircle
 10
22.287824
 20
-19.223548
 30
0.0
 40
7.973641
100
AcDbArc
 50
236.383068
 51
240.315223
  0
ARC
  5
1760
100
AcDbEntity
  8
BORDER
100
AcDbCircle
 10
18.080983
 20
-25.842953
 30
0.0
 40
0.295856
100
AcDbArc
 50
25.379638
 51
143.047804
  0
ARC
  5
1761
100
AcDbEntity
  8
BORDER
100
AcDbCircle
 10
18.11938
 20
-26.199506
 30
0.0
 40
0.301989
100
AcDbArc
 50
200.502447
 51
334.026213
  0
ARC
  5
1762
100
AcDbEntity
  8
BORDER
100
AcDbCircle
 10
19.40596
 20
-24.840567
 30
0.0
 40
1.588694
100
AcDbArc
 50
0.0
 51
90.0
  0
TEXT
  5
1773
100
AcDbEntity
  8
BORDER
 62
     6
100
AcDbText
 10
26.877621
 20
-34.108819
 30
0.0
 40
0.605888
  1
Phone: 800/354-4534  Fax: 574/223-6106
  7
ROMANC
100
AcDbText
  0
LINE
  5
1774
100
AcDbEntity
  8
BORDER
100
AcDbLine
 10
25.760737
 20
-26.920783
 30
0.0
 11
49.976288
 21
-26.920783
 31
0.0
  0
LINE
  5
1775
100
AcDbEntity
  8
BORDER
100
AcDbLine
 10
25.760737
 20
-30.747893
 30
0.0
 11
63.237366
 21
-30.747893
 31
0.0
  0
LINE
  5
1776
100
AcDbEntity
  8
BORDER
100
AcDbLine
 10
25.760737
 20
-29.60665
 30
0.0
 11
63.237366
 21
-29.60665
 31
0.0
  0
LINE
  5
1777
100
AcDbEntity
  8
BORDER
100
AcDbLine
 10
27.349431
 20
-23.251873
 30
0.0
 11
63.237366
 21
-23.251873
 31
0.0
  0
LINE
  5
1778
100
AcDbEntity
  8
BORDER
100
AcDbLine
 10
25.760737
 20
-34.372733
 30
0.0
 11
63.237366
 21
-34.372733
 31
0.0
  0
TEXT
  5
1779
100
AcDbEntity
  8
BORDER
 62
     6
100
AcDbText
 10
31.685993
 20
-25.522068
 30
0.0
 40
0.819731
  1
DUPLEX STEEL COVER
  7
ROMANC
100
AcDbText
  0
TEXT
  5
177A
100
AcDbEntity
  8
BORDER
 62
     6
100
AcDbText
 10
32.347981
 20
-32.890255
 30
0.0
 40
0.605888
  1
Rochester, IN  46975
  7
ROMANC
100
AcDbText
  0
TEXT
  5
177B
100
AcDbEntity
  8
BORDER
 62
     6
100
AcDbText
 10
29.738857
 20
-31.814254
 30
0.0
 40
0.605888
  1
Highway 25 North P.O. Box 420
  7
ROMANC
100
AcDbText
  0
LWPOLYLINE
  5
177D
100
AcDbEntity
  8
BORDER
 62
     5
100
AcDbPolyline
 90
        2
 70
     0
 43
0.794347
 10
22.583348
 20
-34.372733
 10
22.583348
 20
-24.840567
  0
LWPOLYLINE
  5
177E
100
AcDbEntity
  8
BORDER
 62
     5
100
AcDbPolyline
 90
        2
 70
     0
 43
0.794347
 10
24.172042
 20
-24.840567
 10
24.172042
 20
-34.372733
  0
LINE
  5
177F
100
AcDbEntity
  8
BORDER
100
AcDbLine
 10
25.760737
 20
-34.372733
 30
0.0
 11
25.760737
 21
-30.747893
 31
0.0
  0
LWPOLYLINE
  5
1781
100
AcDbEntity
  8
BORDER
 62
     5
100
AcDbPolyline
 90
        2
 70
     0
 43
0.794347
 10
27.349431
 20
-21.663179
 42
0.414214
 10
24.172042
 20
-24.840567
 42
-0.560527
  0
TEXT
  5
1782
100
AcDbEntity
  8
BORDER
 62
     6
100
AcDbText
 10
25.990934
 20
-27.979171
 30
0.0
 40
0.712809
  1
Reference:
  7
ROMANC
100
AcDbText
  0
ARC
  5
1783
100
AcDbEntity
  8
BORDER
100
AcDbCircle
 10
27.349431
 20
-24.840567
 30
0.0
 40
1.588694
100
AcDbArc
 50
90.0
 51
180.0
  0
LINE
  5
1784
100
AcDbEntity
  8
BORDER
100
AcDbLine
 10
25.760737
 20
-29.60665
 30
0.0
 11
25.760737
 21
-24.840567
 31
0.0
  0
TEXT
  5
1786
100
AcDbEntity
  8
BORDER
 62
     6
100
AcDbText
 10
37.24672
 20
-28.484541
 30
0.0
 40
0.712809
  1
-
  7
ROMANC
100
AcDbText
  0
LINE
  5
178F
100
AcDbEntity
  8
BORDER
100
AcDbLine
 10
49.976288
 20
-34.372733
 30
0.0
 11
49.976288
 21
-30.747893
 31
0.0
  0
TEXT
  5
1790
100
AcDbEntity
  8
BORDER
 62
     6
100
AcDbText
 10
50.342545
 20
-31.988217
 30
0.0
 40
0.712809
  1
Supersedes Prints
  7
ROMANC
100
AcDbText
  0
TEXT
  5
1791
100
AcDbEntity
  8
BORDER
 62
     6
100
AcDbText
 10
50.301912
 20
-27.700232
 30
0.0
 40
0.712809
  1
Appv'd By: .
  7
ROMANC
100
AcDbText
  0
TEXT
  5
1792
100
AcDbEntity
  8
BORDER
 62
     6
100
AcDbText
 10
50.301912
 20
-29.398619
 30
0.0
 40
0.712809
  1
Date: 06/26/03
  7
ROMANC
100
AcDbText
  0
TEXT
  5
1793
100
AcDbEntity
  8
BORDER
 62
     6
100
AcDbText
 10
50.342545
 20
-33.142289
 30
0.0
 40
0.712809
  1
Prior To:
  7
ROMANC
100
AcDbText
  0
TEXT
  5
1794
100
AcDbEntity
  8
BORDER
 62
     6
100
AcDbText
 10
50.301912
 20
-26.001845
 30
0.0
 40
0.712809
  1
Drawn By:
  7
ROMANC
100
AcDbText
  0
TEXT
  5
1795
100
AcDbEntity
  8
BORDER
 62
     6
100
AcDbText
 10
50.301912
 20
-24.303458
 30
0.0
 40
0.712809
  1
Scale: None
  7
ROMANC
100
AcDbText
  0
LINE
  5
1797
100
AcDbEntity
  8
BORDER
100
AcDbLine
 10
49.976288
 20
-29.60665
 30
0.0
 11
49.976288
 21
-23.251873
 31
0.0
  0
TEXT
  5
17A0
100
AcDbEntity
  8
BORDER
 62
     6
100
AcDbText
 10
56.843529
 20
-26.077759
 30
0.0
 40
0.972207
  1
RM
  7
COUNTRYBLUEPRINT
100
AcDbText
  0
LWPOLYLINE
  5
18E0
100
AcDbEntity
  8
BORDER
 62
     5
100
AcDbPolyline
 90
        2
 70
     0
 43
0.317739
 10
113.971508
 20
-21.057017
 10
113.971508
 20
112.73377
  0
LINE
  5
18E1
100
AcDbEntity
  8
LIMITS
 62
     7
100
AcDbLine
 10
116.513419
 20
-39.138816
 30
0.0
 11
116.513419
 21
116.546637
 31
0.0
  0
LINE
  5
18E2
100
AcDbEntity
  8
LIMITS
100
AcDbLine
 10
116.513419
 20
113.375831
 30
0.0
 11
116.513419
 21
-39.138816
 31
0.0
  0
LINE
  5
18E3
100
AcDbEntity
  8
LIMITS
100
AcDbLine
 10
116.513419
 20
-39.138816
 30
0.0
 11
116.513419
 21
113.375831
 31
0.0
  0
LINE
  5
18E6
100
AcDbEntity
  8
BORDER
100
AcDbLine
 10
110.794119
 20
-34.372733
 30
0.0
 11
91.729789
 21
-34.372733
 31
0.0
  0
TEXT
  5
18E7
100
AcDbEntity
  8
BORDER
 62
     6
100
AcDbText
 10
95.043692
 20
-27.277248
 30
0.0
 40
0.794347
  1
First Released 06/27/03
  7
ROMAND
100
AcDbText
  0
LINE
  5
18E8
100
AcDbEntity
  8
BORDER
100
AcDbLine
 10
110.794119
 20
-32.441859
 30
0.0
 11
93.318483
 21
-32.441859
 31
0.0
  0
LINE
  5
18E9
100
AcDbEntity
  8
BORDER
100
AcDbLine
 10
110.794119
 20
-30.853165
 30
0.0
 11
93.318483
 21
-30.853165
 31
0.0
  0
LINE
  5
18EA
100
AcDbEntity
  8
BORDER
100
AcDbLine
 10
110.794119
 20
-29.26447
 30
0.0
 11
93.318483
 21
-29.26447
 31
0.0
  0
LINE
  5
18EB
100
AcDbEntity
  8
BORDER
100
AcDbLine
 10
110.794119
 20
-27.675776
 30
0.0
 11
93.318483
 21
-27.675776
 31
0.0
  0
LINE
  5
18EC
100
AcDbEntity
  8
BORDER
100
AcDbLine
 10
110.794119
 20
-26.087082
 30
0.0
 11
93.318483
 21
-26.087082
 31
0.0
  0
LINE
  5
18ED
100
AcDbEntity
  8
BORDER
100
AcDbLine
 10
110.794119
 20
-23.251873
 30
0.0
 11
93.318483
 21
-23.251873
 31
0.0
  0
LWPOLYLINE
  5
18EE
100
AcDbEntity
  8
BORDER
 62
     5
100
AcDbPolyline
 90
        2
 70
     0
 43
0.794347
 10
110.794119
 20
-21.663179
 10
93.318483
 20
-21.663179
  0
ARC
  5
18EF
100
AcDbEntity
  8
BORDER
100
AcDbCircle
 10
85.375012
 20
-24.840567
 30
0.0
 40
1.588694
100
AcDbArc
 50
0.0
 51
90.0
  0
LWPOLYLINE
  5
18F0
100
AcDbEntity
  8
BORDER
 62
     5
100
AcDbPolyline
 90
        2
 70
     0
 43
0.794347
 10
85.375012
 20
-21.663179
 42
-0.414214
 10
88.5524
 20
-24.840567
 42
0.560527
  0
LINE
  5
18F1
100
AcDbEntity
  8
BORDER
100
AcDbLine
 10
69.040618
 20
-34.372733
 30
0.0
 11
86.963706
 21
-34.372733
 31
0.0
  0
LINE
  5
18F2
100
AcDbEntity
  8
BORDER
100
AcDbLine
 10
69.040618
 20
-30.747893
 30
0.0
 11
86.963706
 21
-30.747893
 31
0.0
  0
LINE
  5
18F3
100
AcDbEntity
  8
BORDER
100
AcDbLine
 10
69.040618
 20
-30.747893
 30
0.0
 11
69.040618
 21
-34.372733
 31
0.0
  0
LINE
  5
18F4
100
AcDbEntity
  8
BORDER
100
AcDbLine
 10
67.899375
 20
-30.747893
 30
0.0
 11
67.899375
 21
-34.372733
 31
0.0
  0
TEXT
  5
18F5
100
AcDbEntity
  8
BORDER
 62
     6
100
AcDbText
 10
69.415755
 20
-33.063301
 30
0.0
 40
0.712809
  1
No:
  7
ROMANC
100
AcDbText
  0
TEXT
  5
18F6
100
AcDbEntity
  8
BORDER
 62
     6
100
AcDbText
 10
69.415755
 20
-31.909229
 30
0.0
 40
0.712809
  1
Reference
  7
ROMANC
100
AcDbText
  0
TEXT
  5
18F7
100
AcDbEntity
  8
BORDER
 62
     6
100
AcDbText
 10
75.392153
 20
-33.279116
 30
0.0
 40
1.539668
  1
10082_A
  7
ROMANC
100
AcDbText
  0
LINE
  5
18F8
100
AcDbEntity
  8
BORDER
100
AcDbLine
 10
86.963706
 20
-30.747893
 30
0.0
 11
86.963706
 21
-34.372733
 31
0.0
  0
LINE
  5
18F9
100
AcDbEntity
  8
BORDER
100
AcDbLine
 10
91.729789
 20
-34.372733
 30
0.0
 11
91.729789
 21
-24.840567
 31
0.0
  0
LWPOLYLINE
  5
18FA
100
AcDbEntity
  8
BORDER
 62
     5
100
AcDbPolyline
 90
        2
 70
     0
 43
0.794347
 10
90.141094
 20
-34.372733
 10
90.141094
 20
-24.840567
  0
LWPOLYLINE
  5
18FB
100
AcDbEntity
  8
BORDER
 62
     5
100
AcDbPolyline
 90
        2
 70
     0
 43
0.794347
 10
88.5524
 20
-34.372733
 10
88.5524
 20
-24.840567
  0
LWPOLYLINE
  5
18FC
100
AcDbEntity
  8
BORDER
 62
     5
100
AcDbPolyline
 90
        2
 70
     0
 43
0.794347
 10
93.318483
 20
-21.663179
 42
0.414214
 10
90.141094
 20
-24.840567
 42
-0.560527
  0
LINE
  5
18FD
100
AcDbEntity
  8
BORDER
100
AcDbLine
 10
86.963706
 20
-24.840567
 30
0.0
 11
86.963706
 21
-29.60665
 31
0.0
  0
LINE
  5
18FE
100
AcDbEntity
  8
BORDER
100
AcDbLine
 10
93.318483
 20
-26.087082
 30
0.0
 11
93.318483
 21
-32.441859
 31
0.0
  0
LINE
  5
18FF
100
AcDbEntity
  8
BORDER
100
AcDbLine
 10
94.907177
 20
-26.087082
 30
0.0
 11
94.907177
 21
-32.441859
 31
0.0
  0
LWPOLYLINE
  5
1900
100
AcDbEntity
  8
BORDER
100
AcDbPolyline
 90
        6
 70
     1
 43
0.0
 10
94.45106
 20
-27.470517
 10
94.789532
 20
-26.884266
 10
94.45106
 20
-26.298016
 10
93.774116
 20
-26.298016
 10
93.435644
 20
-26.884266
 10
93.774116
 20
-27.470517
  0
ARC
  5
1901
100
AcDbEntity
  8
BORDER
100
AcDbCircle
 10
93.318483
 20
-24.840567
 30
0.0
 40
1.588694
100
AcDbArc
 50
90.0
 51
180.0
  0
TEXT
  5
1902
100
AcDbEntity
  8
BORDER
 62
     6
100
AcDbText
 10
93.735334
 20
-27.277248
 30
0.0
 40
0.794347
  1
1
  7
ROMAND
100
AcDbText
  0
TEXT
  5
1903
100
AcDbEntity
  8
BORDER
 62
     6
100
AcDbText
 10
97.819128
 20
-25.375566
 30
0.0
 40
1.069214
  1
Revisions
  7
ROMANC
100
AcDbText
  0
LWPOLYLINE
  5
193D
100
AcDbEntity
  8
BORDER
 62
     5
100
AcDbPolyline
 90
        2
 70
     0
 43
0.794347
 10
110.794119
 20
-35.961427
 42
0.414214
 10
113.971508
 20
-32.784039
 42
-0.560527
  0
ARC
  5
193E
100
AcDbEntity
  8
BORDER
100
AcDbCircle
 10
110.794119
 20
-32.784039
 30
0.0
 40
1.588694
100
AcDbArc
 50
270.0
 51
0.0
  0
LWPOLYLINE
  5
193F
100
AcDbEntity
  8
BORDER
 62
     5
100
AcDbPolyline
 90
        2
 70
     0
 43
0.794347
 10
110.794119
 20
-21.663179
 42
-0.414214
 10
113.971508
 20
-24.840567
 42
0.560527
  0
ARC
  5
1940
100
AcDbEntity
  8
BORDER
100
AcDbCircle
 10
110.794119
 20
-24.840567
 30
0.0
 40
1.588694
100
AcDbArc
 50
0.0
 51
90.0
  0
LINE
  5
1941
100
AcDbEntity
  8
BORDER
100
AcDbLine
 10
110.794119
 20
-26.087082
 30
0.0
 11
110.794119
 21
-32.441859
 31
0.0
  0
LWPOLYLINE
  5
1942
100
AcDbEntity
  8
BORDER
 62
     5
100
AcDbPolyline
 90
        2
 70
     0
 43
0.794347
 10
113.971508
 20
-24.840567
 10
113.971508
 20
-32.784039
  0
LINE
  5
1943
100
AcDbEntity
  8
BORDER
100
AcDbLine
 10
112.382814
 20
-32.784039
 30
0.0
 11
112.382814
 21
-24.840567
 31
0.0
  0
DIMENSION
  5
20B9
100
AcDbEntity
  8
DIM
 62
     6
100
AcDbDimension
  2
*D1
 10
49.860552
 20
63.740523
 30
0.0
 11
49.860552
 21
69.240523
 31
0.0
 12
-234.198424
 22
-6.298436
 32
0.0
 70
    32
  1
I
  3
STANDARD
100
AcDbAlignedDimension
 13
28.111929
 23
74.740523
 33
0.0
 14
43.299429
 24
63.740523
 34
0.0
 50
90.0
100
AcDbRotatedDimension
1001
ACAD
1000
DSTYLE
1002
{
1070
   340
1005
34
1070
   174
1070
     1
1070
   147
1040
0.75
1070
   287
1070
     5
1070
    42
1040
0.75
1070
    44
1040
1.5
1070
   141
1040
-1.5
1070
    41
1040
1.5
1002
}
  0
DIMENSION
  5
20BA
100
AcDbEntity
  8
DIM
 62
     6
100
AcDbDimension
  2
*D0
 10
49.860552
 20
53.137295
 30
0.0
 11
49.860552
 21
58.438909
 31
0.0
 12
-234.198424
 22
-6.298436
 32
0.0
 70
    32
  1
G
  3
STANDARD
100
AcDbAlignedDimension
 13
43.299429
 23
63.740523
 33
0.0
 14
31.299429
 24
53.137295
 34
0.0
 50
90.0
100
AcDbRotatedDimension
1001
ACAD
1000
DSTYLE
1002
{
1070
   340
1005
34
1070
   174
1070
     1
1070
   147
1040
0.75
1070
   287
1070
     5
1070
    42
1040
0.75
1070
    44
1040
1.5
1070
   141
1040
-1.5
1070
    41
1040
1.5
1002
}
  0
TEXT
  5
20BB
100
AcDbEntity
  8
DIM
 62
     6
100
AcDbText
 10
27.09703
 20
84.357936
 30
0.0
 40
1.5
  1
TYP.
  7
ROMANS
100
AcDbText
  0
DIMENSION
  5
20BC
100
AcDbEntity
  8
DIM
 62
     6
100
AcDbDimension
  2
*D6
 10
32.799429
 20
87.149945
 30
0.0
 11
28.864713
 21
87.149945
 31
0.0
 12
-234.198424
 22
-6.298436
 32
0.0
 70
   160
  1
H
  3
STANDARD
100
AcDbAlignedDimension
 13
24.799429
 23
82.240523
 33
0.0
 14
32.799429
 24
73.240523
 34
0.0
100
AcDbRotatedDimension
1001
ACAD
1000
DSTYLE
1002
{
1070
   340
1005
34
1070
   174
1070
     1
1070
   147
1040
0.75
1070
   287
1070
     5
1070
    42
1040
0.75
1070
    44
1040
1.5
1070
   141
1040
-1.5
1070
    41
1040
1.5
1002
}
  0
DIMENSION
  5
20BD
100
AcDbEntity
  8
DIM
 62
     6
100
AcDbDimension
  2
*D3
 10
16.799429
 20
87.149945
 30
0.0
 11
14.871459
 21
88.52644
 31
0.0
 12
-234.198424
 22
-6.298436
 32
0.0
 70
   160
  1
5"
  3
STANDARD
100
AcDbAlignedDimension
 13
11.799429
 23
65.240523
 33
0.0
 14
16.799429
 24
73.240523
 34
0.0
100
AcDbRotatedDimension
1001
ACAD
1000
DSTYLE
1002
{
1070
   340
1005
34
1070
   174
1070
     1
1070
   147
1040
0.75
1070
   287
1070
     5
1070
    42
1040
0.75
1070
    44
1040
1.5
1070
   141
1040
-1.5
1070
    41
1040
1.5
1002
}
  0
DIMENSION
  5
20BE
100
AcDbEntity
  8
DIM
 62
     6
100
AcDbDimension
  2
*D2
 10
21.799429
 20
87.15252
 30
0.0
 11
20.021883
 21
88.388643
 31
0.0
 12
-234.198424
 22
-6.298436
 32
0.0
 70
   160
  1
5"
  3
STANDARD
100
AcDbAlignedDimension
 13
16.799429
 23
73.240523
 33
0.0
 14
21.799429
 24
65.240523
 34
0.0
100
AcDbRotatedDimension
1001
ACAD
1000
DSTYLE
1002
{
1070
   340
1005
34
1070
   174
1070
     1
1070
   147
1040
0.75
1070
   287
1070
     5
1070
    42
1040
0.75
1070
    44
1040
1.5
1070
   141
1040
-1.5
1070
    41
1040
1.5
1002
}
  0
LINE
  5
20BF
100
AcDbEntity
  8
DIM
 62
     6
100
AcDbLine
 10
34.588686
 20
77.022791
 30
0.0
 11
43.944005
 21
89.501635
 31
0.0
  0
LINE
  5
20C0
100
AcDbEntity
  8
CENTER
 62
     3
100
AcDbLine
 10
24.799429
 20
60.740523
 30
0.0
 11
24.799429
 21
45.240523
 31
0.0
  0
LINE
  5
20C2
100
AcDbEntity
  8
CENTER
 62
     3
100
AcDbLine
 10
32.799429
 20
73.240523
 30
0.0
 11
32.799429
 21
54.240523
 31
0.0
  0
CIRCLE
  5
20C3
100
AcDbEntity
  8
HIDDEN
 62
     1
100
AcDbCircle
 39
20.0
 10
16.799429
 20
63.740523
 30
0.0
 40
7.0
  0
CIRCLE
  5
20C4
100
AcDbEntity
  8
OBJECT
 62
     2
100
AcDbCircle
 39
20.0
 10
16.799429
 20
63.740523
 30
0.0
 40
8.0
  0
LINE
  5
20C5
100
AcDbEntity
  8
CENTER
 62
     3
100
AcDbLine
 39
20.0
 10
16.799429
 20
73.240523
 30
0.0
 11
16.799429
 21
54.240523
 31
0.0
  0
LINE
  5
20C6
100
AcDbEntity
  8
DIM
 62
     6
100
AcDbLine
 39
20.0
 10
24.799429
 20
63.740523
 30
0.0
 11
8.777959
 21
54.490523
 31
0.0
  0
DIMENSION
  5
20C7
100
AcDbEntity
  8
DIM
 62
     6
100
AcDbDimension
  2
*D5
 10
24.799429
 20
45.240523
 30
0.0
 11
14.733427
 21
45.552562
 31
0.0
 70
   162
  1
<> Typ.
  3
STANDARD
100
AcDb2LineAngularDimension
 13
24.799429
 23
63.740523
 33
0.0
 14
8.777959
 24
54.490523
 34
0.0
 15
24.799429
 25
60.740523
 35
0.0
 16
11.1339
 26
47.45458
 36
0.0
1001
ACAD
1000
DSTYLE
1002
{
1070
   340
1005
34
1070
   174
1070
     1
1070
   272
1070
     0
1070
   147
1040
0.75
1070
   287
1070
     5
1070
    42
1040
0.75
1070
    44
1040
1.5
1070
   271
1070
     0
1070
   141
1040
-1.5
1070
    41
1040
1.5
1002
}
  0
DIMENSION
  5
20C8
100
AcDbEntity
  8
DIM
 62
     6
100
AcDbDimension
  2
*D4
 10
6.299429
 20
63.740523
 30
0.0
 11
4.496021
 21
58.063421
 31
0.0
 70
   162
  3
STANDARD
100
AcDb2LineAngularDimension
 13
24.799429
 23
63.740523
 33
0.0
 14
8.777959
 24
54.490523
 34
0.0
 15
21.799429
 25
63.740523
 35
0.0
 16
3.865827
 26
60.049364
 36
0.0
1001
ACAD
1000
DSTYLE
1002
{
1070
   340
1005
34
1070
   174
1070
     1
1070
   272
1070
     0
1070
   147
1040
0.75
1070
   287
1070
     5
1070
    42
1040
0.75
1070
    44
1040
1.5
1070
   271
1070
     0
1070
   141
1040
-1.5
1070
    41
1040
1.5
1002
}
  0
CIRCLE
  5
20C9
100
AcDbEntity
  8
HIDDEN
 62
     1
100
AcDbCircle
 39
20.0
 10
24.799429
 20
63.740523
 30
0.0
 40
15.0
  0
CIRCLE
  5
20CA
100
AcDbEntity
  8
OBJECT
 62
     2
100
AcDbCircle
 39
20.0
 10
24.799429
 20
63.740523
 30
0.0
 40
17.0
  0
CIRCLE
  5
20CB
100
AcDbEntity
  8
CENTER
 62
     3
100
AcDbCircle
 39
20.0
 10
24.799429
 20
63.740523
 30
0.0
 40
16.0
  0
CIRCLE
  5
20CC
100
AcDbEntity
  8
HIDDEN
 62
     1
100
AcDbCircle
 39
20.0
 10
32.799429
 20
63.740523
 30
0.0
 40
7.0
  0
CIRCLE
  5
20CD
100
AcDbEntity
  8
OBJECT
 62
     2
100
AcDbCircle
 39
20.0
 10
32.799429
 20
63.740523
 30
0.0
 40
8.0
  0
LWPOLYLINE
  5
20CE
100
AcDbEntity
  8
OBJECT
 62
     2
100
AcDbPolyline
 90
        6
 70
     1
 43
0.0
 39
20.0
 10
38.439329
 20
55.740523
 10
38.547582
 20
55.553023
 10
38.764089
 20
55.553023
 10
38.872342
 20
55.740523
 10
38.764089
 20
55.928023
 10
38.547582
 20
55.928023
  0
LWPOLYLINE
  5
20CF
100
AcDbEntity
  8
OBJECT
 62
     2
100
AcDbPolyline
 90
        6
 70
     1
 43
0.0
 39
20.0
 10
24.691176
 20
47.928023
 10
24.582923
 20
47.740523
 10
24.691176
 20
47.553023
 10
24.907682
 20
47.553023
 10
25.015935
 20
47.740523
 10
24.907682
 20
47.928023
  0
LWPOLYLINE
  5
20D0
100
AcDbEntity
  8
OBJECT
 62
     2
100
AcDbPolyline
 90
        6
 70
     1
 43
0.0
 39
20.0
 10
11.051276
 20
55.928023
 10
10.834769
 20
55.928023
 10
10.726516
 20
55.740523
 10
10.834769
 20
55.553023
 10
11.051276
 20
55.553023
 10
11.159529
 20
55.740523
  0
TEXT
  5
20D5
100
AcDbEntity
  8
DIM
 62
     6
100
AcDbText
 10
24.493568
 20
43.595485
 30
0.0
 40
1.125
  1
L
  7
ROMANS
100
AcDbText
  0
TEXT
  5
20D6
100
AcDbEntity
  8
DIM
 62
     6
100
AcDbText
 10
24.150635
 20
44.161016
 30
0.0
 40
1.125
  1
C
  7
ROMANS
100
AcDbText
  0
TEXT
  5
20D9
100
AcDbEntity
  8
DIM
 62
     6
100
AcDbText
 10
17.694846
 20
74.723699
 30
0.0
 40
1.5
  1
~
 50
258.499384
  7
ROMAND
100
AcDbText
  0
LINE
  5
20DA
100
AcDbEntity
  8
CENTER
 62
     3
100
AcDbLine
 10
18.299429
 20
53.137295
 30
0.0
 11
31.299429
 21
53.137295
 31
0.0
  0
LINE
  5
20DB
100
AcDbEntity
  8
DIM
 62
     6
100
AcDbLine
 10
38.624217
 20
51.631646
 30
0.0
 11
44.078135
 21
49.765935
 31
0.0
  0
LINE
  5
20DD
100
AcDbEntity
  8
DIM
 62
     6
100
AcDbLine
 10
44.078135
 20
49.765935
 30
0.0
 11
45.578135
 21
49.765935
 31
0.0
  0
SOLID
  5
20DE
100
AcDbEntity
  8
DIM
 62
     6
100
AcDbTrace
 10
38.543299
 20
51.395104
 30
0.0
 11
38.705135
 21
51.868188
 31
0.0
 12
37.204963
 22
52.117153
 32
0.0
 13
37.204963
 23
52.117153
 33
0.0
  0
LWPOLYLINE
  5
20DF
100
AcDbEntity
  8
OBJECT
 62
     2
100
AcDbPolyline
 90
        6
 70
     1
 43
0.0
 39
20.0
 10
38.547582
 20
71.553023
 10
38.764089
 20
71.553023
 10
38.872342
 20
71.740523
 10
38.764089
 20
71.928023
 10
38.547582
 20
71.928023
 10
38.439329
 20
71.740523
  0
LWPOLYLINE
  5
20E0
100
AcDbEntity
  8
OBJECT
 62
     2
100
AcDbPolyline
 90
        6
 70
     1
 43
0.0
 39
20.0
 10
37.886224
 20
69.043824
 10
37.994477
 20
68.856324
 10
38.210983
 20
68.856324
 10
38.319236
 20
69.043824
 10
38.210983
 20
69.231324
 10
37.994477
 20
69.231324
  0
LWPOLYLINE
  5
20E1
100
AcDbEntity
  8
OBJECT
 62
     2
100
AcDbPolyline
 90
        6
 70
     1
 43
0.0
 39
20.0
 10
38.10273
 20
58.653729
 10
37.91523
 20
58.545476
 10
37.91523
 20
58.328969
 10
38.10273
 20
58.220716
 10
38.29023
 20
58.328969
 10
38.29023
 20
58.545476
  0
LWPOLYLINE
  5
20E2
100
AcDbEntity
  8
OBJECT
 62
     2
100
AcDbPolyline
 90
        6
 70
     1
 43
0.0
 39
20.0
 10
24.907682
 20
79.553023
 10
25.015935
 20
79.740523
 10
24.907682
 20
79.928023
 10
24.691176
 20
79.928023
 10
24.582923
 20
79.740523
 10
24.691176
 20
79.553023
  0
LWPOLYLINE
  5
20E3
100
AcDbEntity
  8
OBJECT
 62
     2
100
AcDbPolyline
 90
        6
 70
     1
 43
0.0
 39
20.0
 10
11.159529
 20
71.740523
 10
11.051276
 20
71.928023
 10
10.834769
 20
71.928023
 10
10.726516
 20
71.740523
 10
10.834769
 20
71.553023
 10
11.051276
 20
71.553023
  0
LWPOLYLINE
  5
20E4
100
AcDbEntity
  8
OBJECT
 62
     2
100
AcDbPolyline
 90
        6
 70
     1
 43
0.0
 39
20.0
 10
27.496128
 20
68.827318
 10
27.683628
 20
68.935571
 10
27.683628
 20
69.152077
 10
27.496128
 20
69.26033
 10
27.308628
 20
69.152077
 10
27.308628
 20
68.935571
  0
LWPOLYLINE
  5
20E5
100
AcDbEntity
  8
OBJECT
 62
     2
100
AcDbPolyline
 90
        6
 70
     1
 43
0.0
 39
20.0
 10
22.10273
 20
68.827318
 10
21.91523
 20
68.935571
 10
21.91523
 20
69.152077
 10
22.10273
 20
69.26033
 10
22.29023
 20
69.152077
 10
22.29023
 20
68.935571
  0
LWPOLYLINE
  5
20E6
100
AcDbEntity
  8
OBJECT
 62
     2
100
AcDbPolyline
 90
        6
 70
     1
 43
0.0
 39
20.0
 10
11.712634
 20
69.043824
 10
11.604381
 20
68.856324
 10
11.387875
 20
68.856324
 10
11.279622
 20
69.043824
 10
11.387875
 20
69.231324
 10
11.604381
 20
69.231324
  0
LWPOLYLINE
  5
20E7
100
AcDbEntity
  8
OBJECT
 62
     2
100
AcDbPolyline
 90
        6
 70
     1
 43
0.0
 39
20.0
 10
27.712634
 20
58.437222
 10
27.604381
 20
58.624722
 10
27.387875
 20
58.624722
 10
27.279622
 20
58.437222
 10
27.387875
 20
58.249722
 10
27.604381
 20
58.249722
  0
LWPOLYLINE
  5
20E8
100
AcDbEntity
  8
OBJECT
 62
     2
100
AcDbPolyline
 90
        6
 70
     1
 43
0.0
 39
20.0
 10
21.886224
 20
58.437222
 10
21.994477
 20
58.624722
 10
22.210983
 20
58.624722
 10
22.319236
 20
58.437222
 10
22.210983
 20
58.249722
 10
21.994477
 20
58.249722
  0
LWPOLYLINE
  5
20E9
100
AcDbEntity
  8
OBJECT
 62
     2
100
AcDbPolyline
 90
        6
 70
     1
 43
0.0
 39
20.0
 10
11.496128
 20
58.653729
 10
11.683628
 20
58.545476
 10
11.683628
 20
58.328969
 10
11.496128
 20
58.220716
 10
11.308628
 20
58.328969
 10
11.308628
 20
58.545476
  0
CIRCLE
  5
20EA
100
AcDbEntity
  8
OBJECT
 62
     2
100
AcDbCircle
 39
20.0
 10
27.799429
 20
63.740523
 30
0.0
 40
0.2188
  0
CIRCLE
  5
20EB
100
AcDbEntity
  8
OBJECT
 62
     2
100
AcDbCircle
 39
20.0
 10
27.799429
 20
63.740523
 30
0.0
 40
1.375
  0
CIRCLE
  5
20EC
100
AcDbEntity
  8
OBJECT
 62
     2
100
AcDbCircle
 39
20.0
 10
21.799429
 20
63.740523
 30
0.0
 40
1.375
  0
CIRCLE
  5
20ED
100
AcDbEntity
  8
OBJECT
 62
     2
100
AcDbCircle
 39
20.0
 10
21.799429
 20
63.740523
 30
0.0
 40
0.2188
  0
LINE
  5
20EE
100
AcDbEntity
  8
CENTER
 62
     3
100
AcDbLine
 10
21.799429
 20
63.740523
 30
0.0
 11
6.299429
 21
63.740523
 31
0.0
  0
CIRCLE
  5
20EF
100
AcDbEntity
  8
OBJECT
 62
     2
100
AcDbCircle
 10
11.799429
 20
63.740523
 30
0.0
 40
2.22625
  0
ARC
  5
20F0
100
AcDbEntity
  8
OBJECT
 62
     2
100
AcDbCircle
 10
11.799429
 20
63.740523
 30
0.0
 40
2.715
100
AcDbArc
 50
298.703991
 51
61.296009
  0
CIRCLE
  5
20F1
100
AcDbEntity
  8
OBJECT
 62
     2
100
AcDbCircle
 10
11.799429
 20
63.740523
 30
0.0
 40
1.875
  0
ARC
  5
20F2
100
AcDbEntity
  8
OBJECT
 62
     2
100
AcDbCircle
 10
11.799429
 20
63.740523
 30
0.0
 40
2.715
100
AcDbArc
 50
118.703991
 51
241.296009
  0
LINE
  5
20F3
100
AcDbEntity
  8
CENTER
 62
     3
100
AcDbLine
 39
20.0
 10
11.799429
 20
58.626773
 30
0.0
 11
11.799429
 21
68.854273
 31
0.0
  0
TEXT
  5
20F4
100
AcDbEntity
  8
DIM
 62
     6
100
AcDbText
 10
5.343578
 20
63.445222
 30
0.0
 40
1.125
  1
C
  7
ROMANS
100
AcDbText
  0
TEXT
  5
20F5
100
AcDbEntity
  8
DIM
 62
     6
100
AcDbText
 10
5.686511
 20
62.87969
 30
0.0
 40
1.125
  1
L
  7
ROMANS
100
AcDbText
  0
ARC
  5
20F6
100
AcDbEntity
  8
OBJECT
 62
     2
100
AcDbCircle
 10
13.703757
 20
60.262771
 30
0.0
 40
1.25
100
AcDbArc
 50
118.703991
 51
162.095352
  0
ARC
  5
20F7
100
AcDbEntity
  8
OBJECT
 62
     2
100
AcDbCircle
 10
9.895101
 20
60.262771
 30
0.0
 40
1.25
100
AcDbArc
 50
17.904648
 51
61.296009
  0
CIRCLE
  5
20F8
100
AcDbEntity
  8
OBJECT
 62
     2
100
AcDbCircle
 10
11.799429
 20
60.878023
 30
0.0
 40
0.3025
  0
ARC
  5
20F9
100
AcDbEntity
  8
OBJECT
 62
     2
100
AcDbCircle
 10
11.799429
 20
60.878023
 30
0.0
 40
0.75125
100
AcDbArc
 50
197.904648
 51
342.095352
  0
ARC
  5
20FA
100
AcDbEntity
  8
OBJECT
 62
     2
100
AcDbCircle
 10
11.799429
 20
66.603023
 30
0.0
 40
0.75125
100
AcDbArc
 50
17.904648
 51
162.095352
  0
ARC
  5
20FB
100
AcDbEntity
  8
OBJECT
 62
     2
100
AcDbCircle
 10
13.703757
 20
67.218275
 30
0.0
 40
1.25
100
AcDbArc
 50
197.904648
 51
241.296009
  0
ARC
  5
20FC
100
AcDbEntity
  8
OBJECT
 62
     2
100
AcDbCircle
 10
9.895101
 20
67.218275
 30
0.0
 40
1.25
100
AcDbArc
 50
298.703991
 51
342.095352
  0
CIRCLE
  5
20FD
100
AcDbEntity
  8
OBJECT
 62
     2
100
AcDbCircle
 10
11.799429
 20
66.603023
 30
0.0
 40
0.3025
  0
SOLID
  5
20FE
100
AcDbEntity
  8
DIM
 62
     6
100
AcDbTrace
 10
40.015397
 20
72.768553
 30
0.0
 11
39.64396
 21
73.103268
 31
0.0
 12
38.825534
 22
71.821597
 32
0.0
 13
38.825534
 23
71.821597
 33
0.0
  0
LINE
  5
20FF
100
AcDbEntity
  8
DIM
 62
     6
100
AcDbLine
 10
36.599703
 20
71.317714
 30
0.0
 11
43.944005
 21
81.501635
 31
0.0
  0
LINE
  5
2100
100
AcDbEntity
  8
CENTER
 62
     3
100
AcDbLine
 10
24.799429
 20
66.740523
 30
0.0
 11
24.799429
 21
82.240523
 31
0.0
  0
SOLID
  5
2101
100
AcDbEntity
  8
DIM
 62
     6
100
AcDbTrace
 10
35.840023
 20
72.603661
 30
0.0
 11
35.421078
 21
72.876582
 31
0.0
 12
34.81179
 22
71.483288
 32
0.0
 13
34.81179
 23
71.483288
 33
0.0
  0
LINE
  5
2102
100
AcDbEntity
  8
CENTER
 62
     3
100
AcDbLine
 10
27.799429
 20
63.740523
 30
0.0
 11
43.299429
 21
63.740523
 31
0.0
  0
LINE
  5
2103
100
AcDbEntity
  8
CENTER
 62
     3
100
AcDbLine
 10
24.799429
 20
62.240523
 30
0.0
 11
24.799429
 21
65.240523
 31
0.0
  0
LINE
  5
2104
100
AcDbEntity
  8
CENTER
 62
     3
100
AcDbLine
 10
21.799429
 20
62.240523
 30
0.0
 11
21.799429
 21
65.240523
 31
0.0
  0
LINE
  5
2105
100
AcDbEntity
  8
CENTER
 62
     3
100
AcDbLine
 10
27.799429
 20
62.240523
 30
0.0
 11
27.799429
 21
65.240523
 31
0.0
  0
LINE
  5
2106
100
AcDbEntity
  8
CENTER
 62
     3
100
AcDbLine
 10
23.299429
 20
63.740523
 30
0.0
 11
26.299429
 21
63.740523
 31
0.0
  0
LINE
  5
2107
100
AcDbEntity
  8
CENTER
 62
     3
100
AcDbLine
 10
20.299429
 20
63.740523
 30
0.0
 11
23.299429
 21
63.740523
 31
0.0
  0
LINE
  5
2108
100
AcDbEntity
  8
CENTER
 62
     3
100
AcDbLine
 10
26.299429
 20
63.740523
 30
0.0
 11
29.299429
 21
63.740523
 31
0.0
  0
LINE
  5
2109
100
AcDbEntity
  8
CENTER
 62
     3
100
AcDbLine
 39
20.0
 10
37.799429
 20
58.626773
 30
0.0
 11
37.799429
 21
68.854273
 31
0.0
  0
ARC
  5
210A
100
AcDbEntity
  8
OBJECT
 62
     2
100
AcDbCircle
 10
37.799429
 20
63.740523
 30
0.0
 40
2.715
100
AcDbArc
 50
298.703991
 51
61.296009
  0
CIRCLE
  5
210B
100
AcDbEntity
  8
OBJECT
 62
     2
100
AcDbCircle
 10
37.799429
 20
63.740523
 30
0.0
 40
1.875
  0
CIRCLE
  5
210C
100
AcDbEntity
  8
OBJECT
 62
     2
100
AcDbCircle
 10
37.799429
 20
63.740523
 30
0.0
 40
2.22625
  0
ARC
  5
210D
100
AcDbEntity
  8
OBJECT
 62
     2
100
AcDbCircle
 10
37.799429
 20
63.740523
 30
0.0
 40
2.715
100
AcDbArc
 50
118.703991
 51
241.296009
  0
ARC
  5
210E
100
AcDbEntity
  8
OBJECT
 62
     2
100
AcDbCircle
 10
39.703757
 20
60.262771
 30
0.0
 40
1.25
100
AcDbArc
 50
118.703991
 51
162.095352
  0
ARC
  5
210F
100
AcDbEntity
  8
OBJECT
 62
     2
100
AcDbCircle
 10
35.895101
 20
60.262771
 30
0.0
 40
1.25
100
AcDbArc
 50
17.904648
 51
61.296009
  0
CIRCLE
  5
2110
100
AcDbEntity
  8
OBJECT
 62
     2
100
AcDbCircle
 10
37.799429
 20
60.878023
 30
0.0
 40
0.3025
  0
ARC
  5
2111
100
AcDbEntity
  8
OBJECT
 62
     2
100
AcDbCircle
 10
37.799429
 20
60.878023
 30
0.0
 40
0.75125
100
AcDbArc
 50
197.904648
 51
342.095352
  0
ARC
  5
2112
100
AcDbEntity
  8
OBJECT
 62
     2
100
AcDbCircle
 10
39.703757
 20
67.218275
 30
0.0
 40
1.25
100
AcDbArc
 50
197.904648
 51
241.296009
  0
ARC
  5
2113
100
AcDbEntity
  8
OBJECT
 62
     2
100
AcDbCircle
 10
37.799429
 20
66.603023
 30
0.0
 40
0.75125
100
AcDbArc
 50
17.904648
 51
162.095352
  0
CIRCLE
  5
2114
100
AcDbEntity
  8
OBJECT
 62
     2
100
AcDbCircle
 10
37.799429
 20
66.603023
 30
0.0
 40
0.3025
  0
ARC
  5
2115
100
AcDbEntity
  8
OBJECT
 62
     2
100
AcDbCircle
 10
35.895101
 20
67.218275
 30
0.0
 40
1.25
100
AcDbArc
 50
298.703991
 51
342.095352
  0
SOLID
  5
2116
100
AcDbEntity
  8
DIM
 62
     6
100
AcDbTrace
 10
36.802475
 20
71.171482
 30
0.0
 11
36.396932
 21
71.463946
 31
0.0
 12
35.722312
 22
70.101086
 32
0.0
 13
35.722312
 23
70.101086
 33
0.0
  0
LINE
  5
2117
100
AcDbEntity
  8
CENTER
 62
     3
100
AcDbLine
 39
20.0
 10
19.685679
 20
74.740523
 30
0.0
 11
29.913179
 21
74.740523
 31
0.0
  0
ARC
  5
2118
100
AcDbEntity
  8
OBJECT
 62
     2
100
AcDbCircle
 10
24.799429
 20
74.740523
 30
0.0
 40
2.715
100
AcDbArc
 50
208.703991
 51
331.296009
  0
CIRCLE
  5
2119
100
AcDbEntity
  8
OBJECT
 62
     2
100
AcDbCircle
 10
24.799429
 20
74.740523
 30
0.0
 40
2.22625
  0
CIRCLE
  5
211A
100
AcDbEntity
  8
OBJECT
 62
     2
100
AcDbCircle
 10
24.799429
 20
74.740523
 30
0.0
 40
1.875
  0
ARC
  5
211B
100
AcDbEntity
  8
OBJECT
 62
     2
100
AcDbCircle
 10
24.799429
 20
74.740523
 30
0.0
 40
2.715
100
AcDbArc
 50
28.703991
 51
151.296009
  0
ARC
  5
211C
100
AcDbEntity
  8
OBJECT
 62
     2
100
AcDbCircle
 10
21.936929
 20
74.740523
 30
0.0
 40
0.75125
100
AcDbArc
 50
107.904648
 51
252.095352
  0
CIRCLE
  5
211D
100
AcDbEntity
  8
OBJECT
 62
     2
100
AcDbCircle
 10
21.936929
 20
74.740523
 30
0.0
 40
0.3025
  0
ARC
  5
211E
100
AcDbEntity
  8
OBJECT
 62
     2
100
AcDbCircle
 10
21.321677
 20
72.836195
 30
0.0
 40
1.25
100
AcDbArc
 50
28.703991
 51
72.095352
  0
ARC
  5
211F
100
AcDbEntity
  8
OBJECT
 62
     2
100
AcDbCircle
 10
21.321677
 20
76.644852
 30
0.0
 40
1.25
100
AcDbArc
 50
287.904648
 51
331.296009
  0
ARC
  5
2120
100
AcDbEntity
  8
OBJECT
 62
     2
100
AcDbCircle
 10
27.661929
 20
74.740523
 30
0.0
 40
0.75125
100
AcDbArc
 50
287.904648
 51
72.095352
  0
ARC
  5
2121
100
AcDbEntity
  8
OBJECT
 62
     2
100
AcDbCircle
 10
28.277181
 20
72.836195
 30
0.0
 40
1.25
100
AcDbArc
 50
107.904648
 51
151.296009
  0
CIRCLE
  5
2122
100
AcDbEntity
  8
OBJECT
 62
     2
100
AcDbCircle
 10
27.661929
 20
74.740523
 30
0.0
 40
0.3025
  0
ARC
  5
2123
100
AcDbEntity
  8
OBJECT
 62
     2
100
AcDbCircle
 10
28.277181
 20
76.644852
 30
0.0
 40
1.25
100
AcDbArc
 50
208.703991
 51
252.095352
  0
LINE
  5
2124
100
AcDbEntity
  8
DIM
 62
     6
100
AcDbLine
 10
35.630551
 20
72.740121
 30
0.0
 11
43.944005
 21
85.501635
 31
0.0
  0
SOLID
  5
2125
100
AcDbEntity
  8
DIM
 62
     6
100
AcDbTrace
 10
34.788715
 20
76.87283
 30
0.0
 11
34.388656
 21
77.172752
 31
0.0
 12
33.68892
 22
75.822615
 32
0.0
 13
33.68892
 23
75.822615
 33
0.0
  0
LINE
  5
2126
100
AcDbEntity
  8
DIM
 62
     6
100
AcDbLine
 10
39.829678
 20
72.93591
 30
0.0
 11
43.944005
 21
77.501635
 31
0.0
  0
LINE
  5
2127
100
AcDbEntity
  8
DIM
 62
     6
100
AcDbLine
 10
43.944005
 20
77.501635
 30
0.0
 11
45.444005
 21
77.501635
 31
0.0
  0
LINE
  5
2128
100
AcDbEntity
  8
DIM
 62
     6
100
AcDbLine
 10
43.944005
 20
81.501635
 30
0.0
 11
45.444005
 21
81.501635
 31
0.0
  0
LINE
  5
2129
100
AcDbEntity
  8
DIM
 62
     6
100
AcDbLine
 10
43.944005
 20
85.501635
 30
0.0
 11
45.444005
 21
85.501635
 31
0.0
  0
LINE
  5
212A
100
AcDbEntity
  8
DIM
 62
     6
100
AcDbLine
 10
43.944005
 20
89.501635
 30
0.0
 11
45.444005
 21
89.501635
 31
0.0
  0
TEXT
  5
212B
100
AcDbEntity
  8
DIM
 62
     6
100
AcDbText
 10
47.007131
 20
84.755688
 30
0.0
 40
1.5
  1
E
  7
ROMAND
 11
47.007131
 21
85.505688
 31
0.0
100
AcDbText
 73
     2
  0
CIRCLE
  5
212C
100
AcDbEntity
  8
DIM
 62
     6
100
AcDbCircle
 39
20.0
 10
47.755634
 20
85.524444
 30
0.0
 40
1.186877
  0
ARC
  5
212E
100
AcDbEntity
  8
OBJECT
 62
     2
100
AcDbCircle
 10
103.232012
 20
63.740515
 30
0.0
 40
2.715
100
AcDbArc
 50
298.703991
 51
61.296009
  0
LINE
  5
212F
100
AcDbEntity
  8
CENTER
 62
     3
100
AcDbLine
 10
93.232012
 20
63.740515
 30
0.0
 11
108.732012
 21
63.740515
 31
0.0
  0
CIRCLE
  5
2130
100
AcDbEntity
  8
HIDDEN
 62
     1
100
AcDbCircle
 39
20.0
 10
98.232012
 20
63.740515
 30
0.0
 40
7.0
  0
CIRCLE
  5
2131
100
AcDbEntity
  8
OBJECT
 62
     2
100
AcDbCircle
 39
20.0
 10
98.232012
 20
63.740515
 30
0.0
 40
8.0
  0
CIRCLE
  5
2132
100
AcDbEntity
  8
OBJECT
 62
     2
100
AcDbCircle
 10
103.232012
 20
63.740515
 30
0.0
 40
1.875
  0
CIRCLE
  5
2133
100
AcDbEntity
  8
OBJECT
 62
     2
100
AcDbCircle
 10
103.232012
 20
63.740515
 30
0.0
 40
2.22625
  0
LWPOLYLINE
  5
2134
100
AcDbEntity
  8
HIDDEN
 62
     1
100
AcDbPolyline
 90
        4
 70
     1
 43
0.0
 39
20.0
 10
75.232012
 20
78.740515
 10
75.232012
 20
48.740515
 10
105.232012
 20
48.740515
 10
105.232012
 20
78.740515
  0
LWPOLYLINE
  5
2135
100
AcDbEntity
  8
CENTER
 62
     3
100
AcDbPolyline
 90
        4
 70
     1
 43
0.0
 39
20.0
 10
74.232012
 20
79.740515
 10
74.232012
 20
47.740515
 10
106.232012
 20
47.740515
 10
106.232012
 20
79.740515
  0
LWPOLYLINE
  5
2136
100
AcDbEntity
  8
OBJECT
 62
     2
100
AcDbPolyline
 90
        4
 70
     1
 43
0.0
 39
20.0
 10
73.232012
 20
80.740515
 10
73.232012
 20
46.740515
 10
107.232012
 20
46.740515
 10
107.232012
 20
80.740515
  0
LINE
  5
2137
100
AcDbEntity
  8
CENTER
 62
     3
100
AcDbLine
 10
90.232012
 20
60.740515
 30
0.0
 11
90.232012
 21
45.240515
 31
0.0
  0
CIRCLE
  5
2139
100
AcDbEntity
  8
HIDDEN
 62
     1
100
AcDbCircle
 39
20.0
 10
82.232012
 20
63.740515
 30
0.0
 40
7.0
  0
CIRCLE
  5
213A
100
AcDbEntity
  8
OBJECT
 62
     2
100
AcDbCircle
 39
20.0
 10
82.232012
 20
63.740515
 30
0.0
 40
8.0
  0
LINE
  5
213B
100
AcDbEntity
  8
CENTER
 62
     3
100
AcDbLine
 39
20.0
 10
82.232012
 20
73.240515
 30
0.0
 11
82.232012
 21
54.240515
 31
0.0
  0
LINE
  5
213C
100
AcDbEntity
  8
CENTER
 62
     3
100
AcDbLine
 10
98.232012
 20
73.240515
 30
0.0
 11
98.232012
 21
54.240515
 31
0.0
  0
LWPOLYLINE
  5
2143
100
AcDbEntity
  8
OBJECT
 62
     2
100
AcDbPolyline
 90
        6
 70
     1
 43
0.0
 39
20.0
 10
74.340265
 20
55.553012
 10
74.448518
 20
55.740512
 10
74.340265
 20
55.928012
 10
74.123759
 20
55.928012
 10
74.015505
 20
55.740512
 10
74.123759
 20
55.553012
  0
CIRCLE
  5
2144
100
AcDbEntity
  8
DIM
 62
     6
100
AcDbCircle
 39
20.0
 10
47.755634
 20
49.916629
 30
0.0
 40
1.186877
  0
CIRCLE
  5
2145
100
AcDbEntity
  8
DIM
 62
     6
100
AcDbCircle
 39
20.0
 10
4.720252
 20
81.511569
 30
0.0
 40
1.186877
  0
TEXT
  5
214A
100
AcDbEntity
  8
DIM
 62
     6
100
AcDbText
 10
3.967665
 20
80.738146
 30
0.0
 40
1.5
  1
D
  7
ROMAND
 11
3.967665
 21
81.488146
 31
0.0
100
AcDbText
 73
     2
  0
TEXT
  5
214C
100
AcDbEntity
  8
DIM
 62
     6
100
AcDbText
 10
47.003047
 20
49.143205
 30
0.0
 40
1.5
  1
B
  7
ROMAND
 11
47.003047
 21
49.893205
 31
0.0
100
AcDbText
 73
     2
  0
TEXT
  5
214D
100
AcDbEntity
  8
DIM
 62
     6
100
AcDbText
 10
89.92615
 20
43.595476
 30
0.0
 40
1.125
  1
L
  7
ROMANS
100
AcDbText
  0
TEXT
  5
214E
100
AcDbEntity
  8
DIM
 62
     6
100
AcDbText
 10
89.583217
 20
44.161007
 30
0.0
 40
1.125
  1
C
  7
ROMANS
100
AcDbText
  0
LINE
  5
2150
100
AcDbEntity
  8
CENTER
 62
     3
100
AcDbLine
 10
83.732012
 20
53.137286
 30
0.0
 11
96.732012
 21
53.137286
 31
0.0
  0
LWPOLYLINE
  5
2151
100
AcDbEntity
  8
OBJECT
 62
     2
100
AcDbPolyline
 90
        6
 70
     1
 43
0.0
 39
20.0
 10
77.145217
 20
69.043816
 10
77.036964
 20
68.856316
 10
76.820458
 20
68.856316
 10
76.712204
 20
69.043816
 10
76.820458
 20
69.231316
 10
77.036964
 20
69.231316
  0
LWPOLYLINE
  5
2152
100
AcDbEntity
  8
OBJECT
 62
     2
100
AcDbPolyline
 90
        6
 70
     1
 43
0.0
 39
20.0
 10
92.928711
 20
68.827309
 10
93.116211
 20
68.935562
 10
93.116211
 20
69.152069
 10
92.928711
 20
69.260322
 10
92.741211
 20
69.152069
 10
92.741211
 20
68.935562
  0
LWPOLYLINE
  5
2153
100
AcDbEntity
  8
OBJECT
 62
     2
100
AcDbPolyline
 90
        6
 70
     1
 43
0.0
 39
20.0
 10
87.535313
 20
68.827309
 10
87.347813
 20
68.935562
 10
87.347813
 20
69.152069
 10
87.535313
 20
69.260322
 10
87.722813
 20
69.152069
 10
87.722813
 20
68.935562
  0
LWPOLYLINE
  5
2155
100
AcDbEntity
  8
OBJECT
 62
     2
100
AcDbPolyline
 90
        6
 70
     1
 43
0.0
 39
20.0
 10
103.318806
 20
69.043816
 10
103.427059
 20
68.856316
 10
103.643566
 20
68.856316
 10
103.751819
 20
69.043816
 10
103.643566
 20
69.231316
 10
103.427059
 20
69.231316
  0
LWPOLYLINE
  5
2156
100
AcDbEntity
  8
OBJECT
 62
     2
100
AcDbPolyline
 90
        6
 70
     1
 43
0.0
 39
20.0
 10
74.340265
 20
71.928018
 10
74.448518
 20
71.740518
 10
74.340265
 20
71.553018
 10
74.123759
 20
71.553018
 10
74.015505
 20
71.740518
 10
74.123759
 20
71.928018
  0
LWPOLYLINE
  5
2157
100
AcDbEntity
  8
OBJECT
 62
     2
100
AcDbPolyline
 90
        6
 70
     1
 43
0.0
 39
20.0
 10
76.928711
 20
58.65372
 10
77.116211
 20
58.545467
 10
77.116211
 20
58.328961
 10
76.928711
 20
58.220708
 10
76.741211
 20
58.328961
 10
76.741211
 20
58.545467
  0
LWPOLYLINE
  5
2158
100
AcDbEntity
  8
OBJECT
 62
     2
100
AcDbPolyline
 90
        6
 70
     1
 43
0.0
 39
20.0
 10
93.145217
 20
58.437214
 10
93.036964
 20
58.624714
 10
92.820458
 20
58.624714
 10
92.712204
 20
58.437214
 10
92.820458
 20
58.249714
 10
93.036964
 20
58.249714
  0
LWPOLYLINE
  5
2159
100
AcDbEntity
  8
OBJECT
 62
     2
100
AcDbPolyline
 90
        6
 70
     1
 43
0.0
 39
20.0
 10
87.318806
 20
58.437214
 10
87.427059
 20
58.624714
 10
87.643566
 20
58.624714
 10
87.751819
 20
58.437214
 10
87.643566
 20
58.249714
 10
87.427059
 20
58.249714
  0
LWPOLYLINE
  5
215A
100
AcDbEntity
  8
OBJECT
 62
     2
100
AcDbPolyline
 90
        6
 70
     1
 43
0.0
 39
20.0
 10
103.535313
 20
58.65372
 10
103.347813
 20
58.545467
 10
103.347813
 20
58.328961
 10
103.535313
 20
58.220708
 10
103.722813
 20
58.328961
 10
103.722813
 20
58.545467
  0
CIRCLE
  5
215B
100
AcDbEntity
  8
OBJECT
 62
     2
100
AcDbCircle
 39
20.0
 10
93.232012
 20
63.740515
 30
0.0
 40
0.2188
  0
CIRCLE
  5
215C
100
AcDbEntity
  8
OBJECT
 62
     2
100
AcDbCircle
 39
20.0
 10
93.232012
 20
63.740515
 30
0.0
 40
1.375
  0
CIRCLE
  5
215D
100
AcDbEntity
  8
OBJECT
 62
     2
100
AcDbCircle
 39
20.0
 10
87.232012
 20
63.740515
 30
0.0
 40
1.375
  0
CIRCLE
  5
215E
100
AcDbEntity
  8
OBJECT
 62
     2
100
AcDbCircle
 39
20.0
 10
87.232012
 20
63.740515
 30
0.0
 40
0.2188
  0
CIRCLE
  5
215F
100
AcDbEntity
  8
DIM
 62
     6
100
AcDbCircle
 39
20.0
 10
47.755634
 20
77.514644
 30
0.0
 40
1.186877
  0
CIRCLE
  5
2160
100
AcDbEntity
  8
DIM
 62
     6
100
AcDbCircle
 39
20.0
 10
47.755634
 20
81.349136
 30
0.0
 40
1.186877
  0
LINE
  5
2161
100
AcDbEntity
  8
CENTER
 62
     3
100
AcDbLine
 10
87.232012
 20
63.740515
 30
0.0
 11
71.732012
 21
63.740515
 31
0.0
  0
CIRCLE
  5
2163
100
AcDbEntity
  8
OBJECT
 62
     2
100
AcDbCircle
 10
77.232012
 20
63.740515
 30
0.0
 40
2.22625
  0
CIRCLE
  5
2164
100
AcDbEntity
  8
OBJECT
 62
     2
100
AcDbCircle
 10
77.232012
 20
63.740515
 30
0.0
 40
1.875
  0
ARC
  5
2165
100
AcDbEntity
  8
OBJECT
 62
     2
100
AcDbCircle
 10
77.232012
 20
63.740515
 30
0.0
 40
2.715
100
AcDbArc
 50
118.703991
 51
241.296009
  0
TEXT
  5
2166
100
AcDbEntity
  8
DIM
 62
     6
100
AcDbText
 10
70.776161
 20
63.445213
 30
0.0
 40
1.125
  1
C
  7
ROMANS
100
AcDbText
  0
TEXT
  5
2167
100
AcDbEntity
  8
DIM
 62
     6
100
AcDbText
 10
71.119093
 20
62.879682
 30
0.0
 40
1.125
  1
L
  7
ROMANS
100
AcDbText
  0
TEXT
  5
2169
100
AcDbEntity
  8
DIM
 62
     6
100
AcDbText
 10
46.941362
 20
76.72961
 30
0.0
 40
1.5
  1
C
  7
ROMAND
 11
46.941362
 21
77.47961
 31
0.0
100
AcDbText
 73
     2
  0
TEXT
  5
216A
100
AcDbEntity
  8
DIM
 62
     6
100
AcDbText
 10
47.072898
 20
80.498413
 30
0.0
 40
1.5
  1
F
  7
ROMAND
 11
47.072898
 21
81.248413
 31
0.0
100
AcDbText
 73
     2
  0
LINE
  5
216B
100
AcDbEntity
  8
CENTER
 62
     3
100
AcDbLine
 10
90.232012
 20
66.740515
 30
0.0
 11
90.232012
 21
82.240515
 31
0.0
  0
LINE
  5
216C
100
AcDbEntity
  8
CENTER
 62
     3
100
AcDbLine
 10
88.732012
 20
63.740515
 30
0.0
 11
91.732012
 21
63.740515
 31
0.0
  0
LINE
  5
216D
100
AcDbEntity
  8
CENTER
 62
     3
100
AcDbLine
 10
90.232012
 20
62.240515
 30
0.0
 11
90.232012
 21
65.240515
 31
0.0
  0
LINE
  5
216E
100
AcDbEntity
  8
CENTER
 62
     3
100
AcDbLine
 10
87.232012
 20
62.240515
 30
0.0
 11
87.232012
 21
65.240515
 31
0.0
  0
ARC
  5
216F
100
AcDbEntity
  8
OBJECT
 62
     2
100
AcDbCircle
 10
77.232012
 20
63.740515
 30
0.0
 40
2.715
100
AcDbArc
 50
298.703991
 51
61.296009
  0
LINE
  5
2170
100
AcDbEntity
  8
CENTER
 62
     3
100
AcDbLine
 39
20.0
 10
77.232012
 20
58.626765
 30
0.0
 11
77.232012
 21
68.854265
 31
0.0
  0
CIRCLE
  5
2171
100
AcDbEntity
  8
OBJECT
 62
     2
100
AcDbCircle
 10
77.232012
 20
60.878015
 30
0.0
 40
0.3025
  0
ARC
  5
2172
100
AcDbEntity
  8
OBJECT
 62
     2
100
AcDbCircle
 10
75.327683
 20
60.262763
 30
0.0
 40
1.25
100
AcDbArc
 50
17.904648
 51
61.296009
  0
ARC
  5
2173
100
AcDbEntity
  8
OBJECT
 62
     2
100
AcDbCircle
 10
77.232012
 20
60.878015
 30
0.0
 40
0.75125
100
AcDbArc
 50
197.904648
 51
342.095352
  0
ARC
  5
2174
100
AcDbEntity
  8
OBJECT
 62
     2
100
AcDbCircle
 10
79.13634
 20
60.262763
 30
0.0
 40
1.25
100
AcDbArc
 50
118.703991
 51
162.095352
  0
LINE
  5
2175
100
AcDbEntity
  8
CENTER
 62
     3
100
AcDbLine
 10
85.732012
 20
63.740515
 30
0.0
 11
88.732012
 21
63.740515
 31
0.0
  0
ARC
  5
2176
100
AcDbEntity
  8
OBJECT
 62
     2
100
AcDbCircle
 10
77.232012
 20
66.603015
 30
0.0
 40
0.75125
100
AcDbArc
 50
17.904648
 51
162.095352
  0
ARC
  5
2177
100
AcDbEntity
  8
OBJECT
 62
     2
100
AcDbCircle
 10
75.327683
 20
67.218267
 30
0.0
 40
1.25
100
AcDbArc
 50
298.703991
 51
342.095352
  0
CIRCLE
  5
2178
100
AcDbEntity
  8
OBJECT
 62
     2
100
AcDbCircle
 10
77.232012
 20
66.603015
 30
0.0
 40
0.3025
  0
ARC
  5
2179
100
AcDbEntity
  8
OBJECT
 62
     2
100
AcDbCircle
 10
79.13634
 20
67.218267
 30
0.0
 40
1.25
100
AcDbArc
 50
197.904648
 51
241.296009
  0
LINE
  5
217A
100
AcDbEntity
  8
CENTER
 62
     3
100
AcDbLine
 10
93.232012
 20
62.240515
 30
0.0
 11
93.232012
 21
65.240515
 31
0.0
  0
LINE
  5
217B
100
AcDbEntity
  8
CENTER
 62
     3
100
AcDbLine
 39
20.0
 10
103.232012
 20
58.626765
 30
0.0
 11
103.232012
 21
68.854265
 31
0.0
  0
ARC
  5
217C
100
AcDbEntity
  8
OBJECT
 62
     2
100
AcDbCircle
 10
103.232012
 20
63.740515
 30
0.0
 40
2.715
100
AcDbArc
 50
118.703991
 51
241.296009
  0
LINE
  5
217D
100
AcDbEntity
  8
CENTER
 62
     3
100
AcDbLine
 10
91.732012
 20
63.740515
 30
0.0
 11
94.732012
 21
63.740515
 31
0.0
  0
CIRCLE
  5
217E
100
AcDbEntity
  8
OBJECT
 62
     2
100
AcDbCircle
 10
103.232012
 20
60.878015
 30
0.0
 40
0.3025
  0
ARC
  5
217F
100
AcDbEntity
  8
OBJECT
 62
     2
100
AcDbCircle
 10
101.327683
 20
60.262763
 30
0.0
 40
1.25
100
AcDbArc
 50
17.904648
 51
61.296009
  0
ARC
  5
2180
100
AcDbEntity
  8
OBJECT
 62
     2
100
AcDbCircle
 10
103.232012
 20
60.878015
 30
0.0
 40
0.75125
100
AcDbArc
 50
197.904648
 51
342.095352
  0
ARC
  5
2181
100
AcDbEntity
  8
OBJECT
 62
     2
100
AcDbCircle
 10
105.13634
 20
60.262763
 30
0.0
 40
1.25
100
AcDbArc
 50
118.703991
 51
162.095352
  0
ARC
  5
2182
100
AcDbEntity
  8
OBJECT
 62
     2
100
AcDbCircle
 10
103.232012
 20
66.603015
 30
0.0
 40
0.75125
100
AcDbArc
 50
17.904648
 51
162.095352
  0
CIRCLE
  5
2183
100
AcDbEntity
  8
OBJECT
 62
     2
100
AcDbCircle
 10
103.232012
 20
66.603015
 30
0.0
 40
0.3025
  0
ARC
  5
2184
100
AcDbEntity
  8
OBJECT
 62
     2
100
AcDbCircle
 10
101.327683
 20
67.218267
 30
0.0
 40
1.25
100
AcDbArc
 50
298.703991
 51
342.095352
  0
ARC
  5
2185
100
AcDbEntity
  8
OBJECT
 62
     2
100
AcDbCircle
 10
105.13634
 20
67.218267
 30
0.0
 40
1.25
100
AcDbArc
 50
197.904648
 51
241.296009
  0
ARC
  5
2186
100
AcDbEntity
  8
OBJECT
 62
     2
100
AcDbCircle
 10
90.232012
 20
74.740515
 30
0.0
 40
2.715
100
AcDbArc
 50
208.703991
 51
331.296009
  0
CIRCLE
  5
2187
100
AcDbEntity
  8
OBJECT
 62
     2
100
AcDbCircle
 10
90.232012
 20
74.740515
 30
0.0
 40
2.22625
  0
CIRCLE
  5
2188
100
AcDbEntity
  8
OBJECT
 62
     2
100
AcDbCircle
 10
90.232012
 20
74.740515
 30
0.0
 40
1.875
  0
ARC
  5
2189
100
AcDbEntity
  8
OBJECT
 62
     2
100
AcDbCircle
 10
90.232012
 20
74.740515
 30
0.0
 40
2.715
100
AcDbArc
 50
28.703991
 51
151.296009
  0
LINE
  5
218A
100
AcDbEntity
  8
CENTER
 62
     3
100
AcDbLine
 39
20.0
 10
85.118262
 20
74.740515
 30
0.0
 11
95.345762
 21
74.740515
 31
0.0
  0
ARC
  5
218C
100
AcDbEntity
  8
OBJECT
 62
     2
100
AcDbCircle
 10
87.369512
 20
74.740515
 30
0.0
 40
0.75125
100
AcDbArc
 50
107.904648
 51
252.095352
  0
ARC
  5
218D
100
AcDbEntity
  8
OBJECT
 62
     2
100
AcDbCircle
 10
86.75426
 20
72.836186
 30
0.0
 40
1.25
100
AcDbArc
 50
28.703991
 51
72.095352
  0
CIRCLE
  5
218E
100
AcDbEntity
  8
OBJECT
 62
     2
100
AcDbCircle
 10
87.369512
 20
74.740515
 30
0.0
 40
0.3025
  0
ARC
  5
218F
100
AcDbEntity
  8
OBJECT
 62
     2
100
AcDbCircle
 10
86.75426
 20
76.644843
 30
0.0
 40
1.25
100
AcDbArc
 50
287.904648
 51
331.296009
  0
ARC
  5
2190
100
AcDbEntity
  8
OBJECT
 62
     2
100
AcDbCircle
 10
93.094512
 20
74.740515
 30
0.0
 40
0.75125
100
AcDbArc
 50
287.904648
 51
72.095352
  0
ARC
  5
2191
100
AcDbEntity
  8
OBJECT
 62
     2
100
AcDbCircle
 10
93.709764
 20
72.836186
 30
0.0
 40
1.25
100
AcDbArc
 50
107.904648
 51
151.296009
  0
CIRCLE
  5
2192
100
AcDbEntity
  8
OBJECT
 62
     2
100
AcDbCircle
 10
93.094512
 20
74.740515
 30
0.0
 40
0.3025
  0
ARC
  5
2193
100
AcDbEntity
  8
OBJECT
 62
     2
100
AcDbCircle
 10
93.709764
 20
76.644843
 30
0.0
 40
1.25
100
AcDbArc
 50
208.703991
 51
252.095352
  0
LWPOLYLINE
  5
2194
100
AcDbEntity
  8
OBJECT
 62
     2
100
AcDbPolyline
 90
        6
 70
     1
 43
0.0
 39
20.0
 10
106.123759
 20
55.553012
 10
106.015505
 20
55.740512
 10
106.123759
 20
55.928012
 10
106.340265
 20
55.928012
 10
106.448518
 20
55.740512
 10
106.340265
 20
55.553012
  0
LWPOLYLINE
  5
2195
100
AcDbEntity
  8
OBJECT
 62
     2
100
AcDbPolyline
 90
        6
 70
     1
 43
0.0
 39
20.0
 10
106.123759
 20
71.928018
 10
106.015505
 20
71.740518
 10
106.123759
 20
71.553018
 10
106.340265
 20
71.553018
 10
106.448518
 20
71.740518
 10
106.340265
 20
71.928018
  0
CIRCLE
  5
2196
100
AcDbEntity
  8
DIM
 62
     6
100
AcDbCircle
 39
20.0
 10
47.755634
 20
89.113744
 30
0.0
 40
1.186877
  0
TEXT
  5
2197
100
AcDbEntity
  8
DIM
 62
     6
100
AcDbText
 10
47.078135
 20
88.465321
 30
0.0
 40
1.5
  1
A
  7
ROMAND
 11
47.078135
 21
89.215321
 31
0.0
100
AcDbText
 73
     2
  0
LEADER
  5
2514
100
AcDbEntity
  8
DIM
 62
     6
100
AcDbLeader
  3
STANDARD
 76
     3
 10
18.094695
 20
73.640174
 30
0.0
 10
8.172941
 20
81.796741
 30
0.0
 10
6.695233
 20
81.796741
 30
0.0
 77
     6
1001
ACAD
1000
DSTYLE
1002
{
1070
   340
1005
34
1070
   174
1070
     1
1070
   147
1040
0.75
1070
   287
1070
     5
1070
    42
1040
0.75
1070
    44
1040
1.5
1070
   271
1070
     0
1070
   141
1040
-1.5
1070
    41
1040
1.5
1002
}
  0
CIRCLE
  5
2586
100
AcDbEntity
  8
CENTER
100
AcDbCircle
 10
24.799429
 20
53.137295
 30
0.0
 40
4.5
  0
CIRCLE
  5
2587
100
AcDbEntity
  8
OBJECT
100
AcDbCircle
 10
24.799429
 20
53.137295
 30
0.0
 40
5.0
  0
LINE
  5
2588
100
AcDbEntity
  8
CENTER
100
AcDbLine
 10
24.799429
 20
58.918757
 30
0.0
 11
24.799429
 21
47.355833
 31
0.0
  0
LINE
  5
2589
100
AcDbEntity
  8
CENTER
100
AcDbLine
 10
19.017967
 20
53.137295
 30
0.0
 11
30.580891
 21
53.137295
 31
0.0
  0
CIRCLE
  5
258B
100
AcDbEntity
  8
HIDDEN
100
AcDbCircle
 10
24.799429
 20
53.137295
 30
0.0
 40
4.0
  0
CIRCLE
  5
258C
100
AcDbEntity
  8
OBJECT
100
AcDbCircle
 10
21.617448
 20
49.955314
 30
0.0
 40
0.3125
  0
CIRCLE
  5
2593
100
AcDbEntity
  8
OBJECT
100
AcDbCircle
 10
27.98141
 20
49.955314
 30
0.0
 40
0.3125
  0
CIRCLE
  5
2596
100
AcDbEntity
  8
OBJECT
100
AcDbCircle
 10
21.617448
 20
56.319275
 30
0.0
 40
0.3125
  0
CIRCLE
  5
2598
100
AcDbEntity
  8
OBJECT
100
AcDbCircle
 10
27.98141
 20
56.319275
 30
0.0
 40
0.3125
  0
CIRCLE
  5
2599
100
AcDbEntity
  8
CENTER
100
AcDbCircle
 10
90.232012
 20
53.137286
 30
0.0
 40
4.5
  0
CIRCLE
  5
259A
100
AcDbEntity
  8
OBJECT
100
AcDbCircle
 10
90.232012
 20
53.137286
 30
0.0
 40
5.0
  0
LINE
  5
259B
100
AcDbEntity
  8
CENTER
100
AcDbLine
 10
90.232012
 20
58.918748
 30
0.0
 11
90.232012
 21
47.355824
 31
0.0
  0
LINE
  5
259C
100
AcDbEntity
  8
CENTER
100
AcDbLine
 10
84.45055
 20
53.137286
 30
0.0
 11
96.013474
 21
53.137286
 31
0.0
  0
CIRCLE
  5
259E
100
AcDbEntity
  8
HIDDEN
100
AcDbCircle
 10
90.232012
 20
53.137286
 30
0.0
 40
4.0
  0
CIRCLE
  5
259F
100
AcDbEntity
  8
OBJECT
100
AcDbCircle
 10
87.050031
 20
49.955306
 30
0.0
 40
0.3125
  0
CIRCLE
  5
25A6
100
AcDbEntity
  8
OBJECT
100
AcDbCircle
 10
93.413992
 20
49.955306
 30
0.0
 40
0.3125
  0
CIRCLE
  5
25A9
100
AcDbEntity
  8
OBJECT
100
AcDbCircle
 10
87.050031
 20
56.319267
 30
0.0
 40
0.3125
  0
CIRCLE
  5
25AB
100
AcDbEntity
  8
OBJECT
100
AcDbCircle
 10
93.413992
 20
56.319267
 30
0.0
 40
0.3125
  0
LINE
  5
2EE9
100
AcDbEntity
  8
DIM
 62
     6
100
AcDbLine
 39
17.0
 10
80.080398
 20
23.485557
 30
0.0
 11
80.080398
 21
-16.54001
 31
0.0
  0
LINE
  5
2EEA
100
AcDbEntity
  8
DIM
 62
     6
100
AcDbLine
 39
17.0
 10
72.088722
 20
23.485557
 30
0.0
 11
72.088722
 21
-16.54001
 31
0.0
  0
LWPOLYLINE
  5
2EEB
100
AcDbEntity
  8
DIM
 62
     6
100
AcDbPolyline
 90
        2
 70
     0
 43
0.2125
 39
17.0
 10
10.096491
 20
14.05999
 10
101.375734
 20
14.05999
  0
LWPOLYLINE
  5
2EEC
100
AcDbEntity
  8
DIM
 62
     6
100
AcDbPolyline
 90
        2
 70
     0
 43
0.2125
 39
17.0
 10
101.375734
 20
23.485557
 10
101.375734
 20
-16.54001
  0
LWPOLYLINE
  5
2EED
100
AcDbEntity
  8
DIM
 62
     6
100
AcDbPolyline
 90
        2
 70
     0
 43
0.2125
 39
17.0
 10
10.096491
 20
23.485557
 10
10.096491
 20
-16.54001
  0
CIRCLE
  5
2EEE
100
AcDbEntity
  8
DIM
 62
     6
100
AcDbCircle
 39
17.0
 10
34.211244
 20
21.810281
 30
0.0
 40
1.008846
  0
LINE
  5
2EEF
100
AcDbEntity
  8
DIM
 62
     6
100
AcDbLine
 39
17.0
 10
101.375734
 20
23.485557
 30
0.0
 11
101.375734
 21
-16.54001
 31
0.0
  0
LINE
  5
2EF0
100
AcDbEntity
  8
DIM
 62
     6
100
AcDbLine
 39
17.0
 10
95.682921
 20
23.485557
 30
0.0
 11
95.682921
 21
-16.54001
 31
0.0
  0
LINE
  5
2EF1
100
AcDbEntity
  8
DIM
 62
     6
100
AcDbLine
 39
17.0
 10
87.88166
 20
23.485557
 30
0.0
 11
87.88166
 21
-16.54001
 31
0.0
  0
LINE
  5
2EF2
100
AcDbEntity
  8
DIM
 62
     6
100
AcDbLine
 39
17.0
 10
64.097046
 20
23.485557
 30
0.0
 11
64.097046
 21
-16.54001
 31
0.0
  0
LINE
  5
2EF3
100
AcDbEntity
  8
DIM
 62
     6
100
AcDbLine
 39
17.0
 10
46.194952
 20
23.485557
 30
0.0
 11
46.194952
 21
-16.54001
 31
0.0
  0
LINE
  5
2EF4
100
AcDbEntity
  8
DIM
 62
     6
100
AcDbLine
 39
17.0
 10
57.350008
 20
23.485557
 30
0.0
 11
57.350008
 21
-16.54001
 31
0.0
  0
LINE
  5
2EF5
100
AcDbEntity
  8
DIM
 62
     6
100
AcDbLine
 39
17.0
 10
38.203276
 20
23.485557
 30
0.0
 11
38.203276
 21
-16.54001
 31
0.0
  0
LINE
  5
2EF6
100
AcDbEntity
  8
DIM
 62
     6
100
AcDbLine
 39
17.0
 10
30.2116
 20
23.485557
 30
0.0
 11
30.2116
 21
-16.54001
 31
0.0
  0
LINE
  5
2EF7
100
AcDbEntity
  8
DIM
 62
     6
100
AcDbLine
 39
17.0
 10
19.889025
 20
23.485557
 30
0.0
 11
19.889025
 21
-16.54001
 31
0.0
  0
LWPOLYLINE
  5
2EF8
100
AcDbEntity
  8
DIM
 62
     6
100
AcDbPolyline
 90
        2
 70
     0
 43
0.2125
 39
17.0
 10
10.096491
 20
23.485557
 10
101.375734
 20
23.485557
  0
LWPOLYLINE
  5
2EF9
100
AcDbEntity
  8
DIM
 62
     6
100
AcDbPolyline
 90
        2
 70
     0
 43
0.2125
 39
17.0
 10
10.096491
 20
-16.54001
 10
101.375734
 20
-16.54001
  0
LWPOLYLINE
  5
2EFA
100
AcDbEntity
  8
DIM
 62
     6
100
AcDbPolyline
 90
        2
 70
     0
 43
0.2125
 39
17.0
 10
10.096491
 20
-11.44001
 10
101.375734
 20
-11.44001
  0
LWPOLYLINE
  5
2EFB
100
AcDbEntity
  8
DIM
 62
     6
100
AcDbPolyline
 90
        2
 70
     0
 43
0.2125
 39
17.0
 10
10.096491
 20
-6.34001
 10
101.375734
 20
-6.34001
  0
LWPOLYLINE
  5
2EFC
100
AcDbEntity
  8
DIM
 62
     6
100
AcDbPolyline
 90
        2
 70
     0
 43
0.2125
 39
17.0
 10
10.096491
 20
-1.24001
 10
101.375734
 20
-1.24001
  0
LWPOLYLINE
  5
2EFD
100
AcDbEntity
  8
DIM
 62
     6
100
AcDbPolyline
 90
        2
 70
     0
 43
0.2125
 39
17.0
 10
10.096491
 20
3.85999
 10
101.375734
 20
3.85999
  0
LWPOLYLINE
  5
2EFE
100
AcDbEntity
  8
DIM
 62
     6
100
AcDbPolyline
 90
        2
 70
     0
 43
0.2125
 39
17.0
 10
10.096491
 20
8.95999
 10
101.375734
 20
8.95999
  0
CIRCLE
  5
2F00
100
AcDbEntity
  8
DIM
 62
     6
100
AcDbCircle
 39
17.0
 10
98.54478
 20
21.806159
 30
0.0
 40
1.008846
  0
CIRCLE
  5
2F01
100
AcDbEntity
  8
DIM
 62
     6
100
AcDbCircle
 39
17.0
 10
91.85242
 20
21.817485
 30
0.0
 40
1.008846
  0
CIRCLE
  5
2F02
100
AcDbEntity
  8
DIM
 62
     6
100
AcDbCircle
 39
17.0
 10
84.025858
 20
21.838126
 30
0.0
 40
1.008846
  0
CIRCLE
  5
2F03
100
AcDbEntity
  8
DIM
 62
     6
100
AcDbCircle
 39
17.0
 10
75.915615
 20
21.826483
 30
0.0
 40
1.008846
  0
CIRCLE
  5
2F04
100
AcDbEntity
  8
DIM
 62
     6
100
AcDbCircle
 39
17.0
 10
68.037589
 20
21.809971
 30
0.0
 40
1.008846
  0
CIRCLE
  5
2F05
100
AcDbEntity
  8
DIM
 62
     6
100
AcDbCircle
 39
17.0
 10
42.171747
 20
21.810281
 30
0.0
 40
1.008846
  0
CIRCLE
  5
2F06
100
AcDbEntity
  8
DIM
 62
     6
100
AcDbCircle
 39
17.0
 10
51.812776
 20
21.815875
 30
0.0
 40
1.008846
  0
CIRCLE
  5
2F07
100
AcDbEntity
  8
DIM
 62
     6
100
AcDbCircle
 39
17.0
 10
60.656013
 20
21.805311
 30
0.0
 40
1.008846
  0
TEXT
  5
2F0A
100
AcDbEntity
  8
DIM
 62
     6
100
AcDbText
 10
22.257455
 20
14.954339
 30
0.0
 40
1.275
  1
STYLE
  7
ROMAND
 72
     1
 11
25.050312
 21
14.954339
 31
0.0
100
AcDbText
  0
TEXT
  5
2F0B
100
AcDbEntity
  8
DIM
 62
     6
100
AcDbText
 10
11.027985
 20
-18.348371
 30
0.0
 40
0.95625
  1
ALL DIMENSIONS IN INCHES
  7
ROMANS
100
AcDbText
  0
TEXT
  5
2F0C
100
AcDbEntity
  8
DIM
 62
     6
100
AcDbText
 10
21.344562
 20
-15.706706
 30
0.0
 40
1.275
  1
SQUARE
  7
ROMANS
100
AcDbText
  0
TEXT
  5
2F0D
100
AcDbEntity
  8
DIM
 62
     6
100
AcDbText
 10
21.344562
 20
-14.006706
 30
0.0
 40
1.275
  1
ROUND
  7
ROMANS
100
AcDbText
  0
TEXT
  5
2F0E
100
AcDbEntity
  8
DIM
 62
     6
100
AcDbText
 10
21.344562
 20
-5.506706
 30
0.0
 40
1.275
  1
SQUARE
  7
ROMANS
100
AcDbText
  0
TEXT
  5
2F0F
100
AcDbEntity
  8
DIM
 62
     6
100
AcDbText
 10
21.344562
 20
-10.606706
 30
0.0
 40
1.275
  1
SQUARE
  7
ROMANS
100
AcDbText
  0
TEXT
  5
2F10
100
AcDbEntity
  8
DIM
 62
     6
100
AcDbText
 10
21.344562
 20
-3.806706
 30
0.0
 40
1.275
  1
ROUND
  7
ROMANS
100
AcDbText
  0
TEXT
  5
2F11
100
AcDbEntity
  8
DIM
 62
     6
100
AcDbText
 10
21.344562
 20
-8.906706
 30
0.0
 40
1.275
  1
ROUND
  7
ROMANS
100
AcDbText
  0
TEXT
  5
2F12
100
AcDbEntity
  8
DIM
 62
     6
100
AcDbText
 10
21.344562
 20
9.793294
 30
0.0
 40
1.275
  1
SQUARE
  7
ROMANS
100
AcDbText
  0
TEXT
  5
2F13
100
AcDbEntity
  8
DIM
 62
     6
100
AcDbText
 10
21.344562
 20
4.693294
 30
0.0
 40
1.275
  1
SQUARE
  7
ROMANS
100
AcDbText
  0
TEXT
  5
2F14
100
AcDbEntity
  8
DIM
 62
     6
100
AcDbText
 10
21.344562
 20
-0.406706
 30
0.0
 40
1.275
  1
SQUARE
  7
ROMANS
100
AcDbText
  0
TEXT
  5
2F15
100
AcDbEntity
  8
DIM
 62
     6
100
AcDbText
 10
21.344562
 20
6.393294
 30
0.0
 40
1.275
  1
ROUND
  7
ROMANS
100
AcDbText
  0
TEXT
  5
2F16
100
AcDbEntity
  8
DIM
 62
     6
100
AcDbText
 10
21.344562
 20
1.293294
 30
0.0
 40
1.275
  1
ROUND
  7
ROMANS
100
AcDbText
  0
TEXT
  5
2F17
100
AcDbEntity
  8
DIM
 62
     6
100
AcDbText
 10
21.344562
 20
11.493294
 30
0.0
 40
1.275
  1
ROUND
  7
ROMANS
100
AcDbText
  0
TEXT
  5
2F18
100
AcDbEntity
  8
DIM
 62
     6
100
AcDbText
 10
11.442477
 20
-14.006706
 30
0.0
 40
1.275
  1
C72DSA
  7
ROMANS
100
AcDbText
  0
TEXT
  5
2F19
100
AcDbEntity
  8
DIM
 62
     6
100
AcDbText
 10
11.442477
 20
-3.806706
 30
0.0
 40
1.275
  1
C48DSA
  7
ROMANS
100
AcDbText
  0
TEXT
  5
2F1A
100
AcDbEntity
  8
DIM
 62
     6
100
AcDbText
 10
11.442477
 20
-8.906706
 30
0.0
 40
1.275
  1
C60DSA
  7
ROMANS
100
AcDbText
  0
TEXT
  5
2F1B
100
AcDbEntity
  8
DIM
 62
     6
100
AcDbText
 10
11.442477
 20
1.293294
 30
0.0
 40
1.275
  1
C42DSA
  7
ROMANS
100
AcDbText
  0
TEXT
  5
2F1C
100
AcDbEntity
  8
DIM
 62
     6
100
AcDbText
 10
11.442477
 20
6.393294
 30
0.0
 40
1.275
  1
C36DSA 
  7
ROMANS
100
AcDbText
  0
TEXT
  5
2F1D
100
AcDbEntity
  8
DIM
 62
     6
100
AcDbText
 10
11.442477
 20
11.493294
 30
0.0
 40
1.275
  1
C30DSA
  7
ROMANS
100
AcDbText
  0
TEXT
  5
2F1F
100
AcDbEntity
  8
DIM
 62
     6
100
AcDbText
 10
13.323115
 20
14.962852
 30
0.0
 40
1.275
  1
NO.
  7
ROMAND
 72
     1
 11
14.992758
 21
14.962852
 31
0.0
100
AcDbText
  0
TEXT
  5
2F20
100
AcDbEntity
  8
DIM
 62
     6
100
AcDbText
 10
12.594544
 20
17.027138
 30
0.0
 40
1.275
  1
PART
  7
ROMAND
 72
     1
 11
14.992758
 21
17.027138
 31
0.0
100
AcDbText
  0
TEXT
  5
2F23
100
AcDbEntity
  8
DIM
 62
     6
100
AcDbText
 10
65.328111
 20
19.15432
 30
0.0
 40
1.275
  1
ACCESS
 41
0.742214
  7
ROMAND
 72
     5
 11
70.645546
 21
19.15432
 31
0.0
100
AcDbText
  0
TEXT
  5
2F24
100
AcDbEntity
  8
DIM
 62
     6
100
AcDbText
 10
65.132487
 20
17.029283
 30
0.0
 40
1.275
  1
PLATE
  7
ROMAND
 72
     1
 11
67.986059
 21
17.029283
 31
0.0
100
AcDbText
  0
TEXT
  5
2F25
100
AcDbEntity
  8
DIM
 62
     6
100
AcDbText
 10
39.483799
 20
-15.706706
 30
0.0
 40
1.275
  1
78x78
  7
ROMANS
100
AcDbText
  0
TEXT
  5
2F26
100
AcDbEntity
  8
DIM
 62
     6
100
AcDbText
 10
39.483799
 20
-5.506706
 30
0.0
 40
1.275
  1
54x54
  7
ROMANS
100
AcDbText
  0
TEXT
  5
2F27
100
AcDbEntity
  8
DIM
 62
     6
100
AcDbText
 10
39.483799
 20
-10.606706
 30
0.0
 40
1.275
  1
66x66
  7
ROMANS
100
AcDbText
  0
TEXT
  5
2F28
100
AcDbEntity
  8
DIM
 62
     6
100
AcDbText
 10
39.483799
 20
-0.406706
 30
0.0
 40
1.275
  1
46x46
  7
ROMANS
100
AcDbText
  0
TEXT
  5
2F29
100
AcDbEntity
  8
DIM
 62
     6
100
AcDbText
 10
31.413131
 20
-10.606706
 30
0.0
 40
1.275
  1
60x60
  7
ROMANS
100
AcDbText
  0
TEXT
  5
2F2A
100
AcDbEntity
  8
DIM
 62
     6
100
AcDbText
 10
31.413131
 20
-15.706706
 30
0.0
 40
1.275
  1
72x72
  7
ROMANS
100
AcDbText
  0
TEXT
  5
2F2B
100
AcDbEntity
  8
DIM
 62
     6
100
AcDbText
 10
31.413131
 20
-14.006706
 30
0.0
 40
1.275
  1
72
  7
ROMANS
100
AcDbText
  0
TEXT
  5
2F2C
100
AcDbEntity
  8
DIM
 62
     6
100
AcDbText
 10
39.483799
 20
-14.006706
 30
0.0
 40
1.275
  1
78
  7
ROMANS
100
AcDbText
  0
TEXT
  5
2F2D
100
AcDbEntity
  8
DIM
 62
     6
100
AcDbText
 10
31.413131
 20
-5.506706
 30
0.0
 40
1.275
  1
48x48
  7
ROMANS
100
AcDbText
  0
TEXT
  5
2F2E
100
AcDbEntity
  8
DIM
 62
     6
100
AcDbText
 10
31.413131
 20
-0.406706
 30
0.0
 40
1.275
  1
42x42
  7
ROMANS
100
AcDbText
  0
TEXT
  5
2F2F
100
AcDbEntity
  8
DIM
 62
     6
100
AcDbText
 10
31.413131
 20
-3.806706
 30
0.0
 40
1.275
  1
48
  7
ROMANS
100
AcDbText
  0
TEXT
  5
2F30
100
AcDbEntity
  8
DIM
 62
     6
100
AcDbText
 10
31.413131
 20
-8.906706
 30
0.0
 40
1.275
  1
60
  7
ROMANS
100
AcDbText
  0
TEXT
  5
2F31
100
AcDbEntity
  8
DIM
 62
     6
100
AcDbText
 10
31.413131
 20
1.293294
 30
0.0
 40
1.275
  1
42
  7
ROMANS
100
AcDbText
  0
TEXT
  5
2F32
100
AcDbEntity
  8
DIM
 62
     6
100
AcDbText
 10
39.483799
 20
-3.806706
 30
0.0
 40
1.275
  1
54
  7
ROMANS
100
AcDbText
  0
TEXT
  5
2F33
100
AcDbEntity
  8
DIM
 62
     6
100
AcDbText
 10
39.483799
 20
-8.906706
 30
0.0
 40
1.275
  1
66
  7
ROMANS
100
AcDbText
  0
TEXT
  5
2F34
100
AcDbEntity
  8
DIM
 62
     6
100
AcDbText
 10
39.483799
 20
1.293294
 30
0.0
 40
1.275
  1
46
  7
ROMANS
100
AcDbText
  0
TEXT
  5
2F35
100
AcDbEntity
  8
DIM
 62
     6
100
AcDbText
 10
58.305021
 20
-10.606706
 30
0.0
 40
1.275
  1
.375
  7
ROMANS
100
AcDbText
  0
TEXT
  5
2F36
100
AcDbEntity
  8
DIM
 62
     6
100
AcDbText
 10
47.05497
 20
-10.606706
 30
0.0
 40
1.275
  1
63.0x63.0
  7
ROMANS
100
AcDbText
  0
TEXT
  5
2F37
100
AcDbEntity
  8
DIM
 62
     6
100
AcDbText
 10
47.05497
 20
-15.706706
 30
0.0
 40
1.275
  1
75.0x75.0
  7
ROMANS
100
AcDbText
  0
TEXT
  5
2F38
100
AcDbEntity
  8
DIM
 62
     6
100
AcDbText
 10
47.05497
 20
-14.006706
 30
0.0
 40
1.275
  1
75.0
  7
ROMANS
100
AcDbText
  0
TEXT
  5
2F39
100
AcDbEntity
  8
DIM
 62
     6
100
AcDbText
 10
58.305021
 20
-15.706706
 30
0.0
 40
1.275
  1
.375
  7
ROMANS
100
AcDbText
  0
TEXT
  5
2F3A
100
AcDbEntity
  8
DIM
 62
     6
100
AcDbText
 10
58.305021
 20
-14.006706
 30
0.0
 40
1.275
  1
.375
  7
ROMANS
100
AcDbText
  0
TEXT
  5
2F3B
100
AcDbEntity
  8
DIM
 62
     6
100
AcDbText
 10
47.05497
 20
-5.506706
 30
0.0
 40
1.275
  1
51.0x51.0
  7
ROMANS
100
AcDbText
  0
TEXT
  5
2F3C
100
AcDbEntity
  8
DIM
 62
     6
100
AcDbText
 10
47.05497
 20
-0.406706
 30
0.0
 40
1.275
  1
44.5x44.5
  7
ROMANS
100
AcDbText
  0
TEXT
  5
2F3D
100
AcDbEntity
  8
DIM
 62
     6
100
AcDbText
 10
47.05497
 20
-3.806706
 30
0.0
 40
1.275
  1
51.0
  7
ROMANS
100
AcDbText
  0
TEXT
  5
2F3E
100
AcDbEntity
  8
DIM
 62
     6
100
AcDbText
 10
47.05497
 20
-8.906706
 30
0.0
 40
1.275
  1
63.0
  7
ROMANS
100
AcDbText
  0
TEXT
  5
2F3F
100
AcDbEntity
  8
DIM
 62
     6
100
AcDbText
 10
47.05497
 20
1.293294
 30
0.0
 40
1.275
  1
44.5
  7
ROMANS
100
AcDbText
  0
TEXT
  5
2F40
100
AcDbEntity
  8
DIM
 62
     6
100
AcDbText
 10
58.305021
 20
-3.806706
 30
0.0
 40
1.275
  1
.25
  7
ROMANS
100
AcDbText
  0
TEXT
  5
2F41
100
AcDbEntity
  8
DIM
 62
     6
100
AcDbText
 10
58.305021
 20
-8.906706
 30
0.0
 40
1.275
  1
.375
  7
ROMANS
100
AcDbText
  0
TEXT
  5
2F42
100
AcDbEntity
  8
DIM
 62
     6
100
AcDbText
 10
58.305021
 20
-5.506706
 30
0.0
 40
1.275
  1
.25
  7
ROMANS
100
AcDbText
  0
TEXT
  5
2F43
100
AcDbEntity
  8
DIM
 62
     6
100
AcDbText
 10
58.305021
 20
1.293294
 30
0.0
 40
1.275
  1
.25
  7
ROMANS
100
AcDbText
  0
TEXT
  5
2F44
100
AcDbEntity
  8
DIM
 62
     6
100
AcDbText
 10
58.305021
 20
-0.406706
 30
0.0
 40
1.275
  1
.25
  7
ROMANS
100
AcDbText
  0
TEXT
  5
2F46
100
AcDbEntity
  8
DIM
 62
     6
100
AcDbText
 10
38.252686
 20
17.00006
 30
0.0
 40
1.275
  1
OUTSIDE
  7
ROMAND
 72
     1
 11
42.199114
 21
17.00006
 31
0.0
100
AcDbText
  0
TEXT
  5
2F47
100
AcDbEntity
  8
DIM
 62
     6
100
AcDbText
 10
39.483799
 20
4.693294
 30
0.0
 40
1.275
  1
40x40
  7
ROMANS
100
AcDbText
  0
TEXT
  5
2F48
100
AcDbEntity
  8
DIM
 62
     6
100
AcDbText
 10
39.483799
 20
9.793294
 30
0.0
 40
1.275
  1
34x34
  7
ROMANS
100
AcDbText
  0
TEXT
  5
2F4A
100
AcDbEntity
  8
DIM
 62
     6
100
AcDbText
 10
31.413131
 20
4.693294
 30
0.0
 40
1.275
  1
36x36
  7
ROMANS
100
AcDbText
  0
TEXT
  5
2F4B
100
AcDbEntity
  8
DIM
 62
     6
100
AcDbText
 10
31.413131
 20
9.793294
 30
0.0
 40
1.275
  1
30x30
  7
ROMANS
100
AcDbText
  0
TEXT
  5
2F4C
100
AcDbEntity
  8
DIM
 62
     6
100
AcDbText
 10
31.413131
 20
6.393294
 30
0.0
 40
1.275
  1
36
  7
ROMANS
100
AcDbText
  0
TEXT
  5
2F4D
100
AcDbEntity
  8
DIM
 62
     6
100
AcDbText
 10
31.413131
 20
11.493294
 30
0.0
 40
1.275
  1
30
  7
ROMANS
100
AcDbText
  0
TEXT
  5
2F4E
100
AcDbEntity
  8
DIM
 62
     6
100
AcDbText
 10
39.483799
 20
6.393294
 30
0.0
 40
1.275
  1
40
  7
ROMANS
100
AcDbText
  0
TEXT
  5
2F4F
100
AcDbEntity
  8
DIM
 62
     6
100
AcDbText
 10
39.483799
 20
11.493294
 30
0.0
 40
1.275
  1
34
  7
ROMANS
100
AcDbText
  0
TEXT
  5
2F50
100
AcDbEntity
  8
DIM
 62
     6
100
AcDbText
 10
32.234224
 20
14.973611
 30
0.0
 40
1.275
  1
DIM.
  7
ROMAND
 72
     1
 11
34.207438
 21
14.973611
 31
0.0
100
AcDbText
  0
TEXT
  5
2F51
100
AcDbEntity
  8
DIM
 62
     6
100
AcDbText
 10
31.141367
 20
17.037897
 30
0.0
 40
1.275
  1
INSIDE
  7
ROMAND
 72
     1
 11
34.207438
 21
17.037897
 31
0.0
100
AcDbText
  0
TEXT
  5
2F52
100
AcDbEntity
  8
DIM
 62
     6
100
AcDbText
 10
31.444938
 20
19.102183
 30
0.0
 40
1.275
  1
BASIN
  7
ROMAND
 72
     1
 11
34.207438
 21
19.102183
 31
0.0
100
AcDbText
  0
TEXT
  5
2F53
100
AcDbEntity
  8
DIM
 62
     6
100
AcDbText
 10
33.600295
 20
21.297486
 30
0.0
 40
1.275
  1
A
  7
ROMAND
 72
     1
 11
34.207438
 21
21.297486
 31
0.0
100
AcDbText
  0
TEXT
  5
2F56
100
AcDbEntity
  8
DIM
 62
     6
100
AcDbText
 10
40.2259
 20
14.935774
 30
0.0
 40
1.275
  1
DIM.
  7
ROMAND
 72
     1
 11
42.199114
 21
14.935774
 31
0.0
100
AcDbText
  0
TEXT
  5
2F57
100
AcDbEntity
  8
DIM
 62
     6
100
AcDbText
 10
41.561614
 20
21.136546
 30
0.0
 40
1.275
  1
B
  7
ROMAND
 72
     1
 11
42.199114
 21
21.136546
 31
0.0
100
AcDbText
  0
TEXT
  5
2F5A
100
AcDbEntity
  8
DIM
 62
     6
100
AcDbText
 10
47.05497
 20
4.693294
 30
0.0
 40
1.275
  1
38.5x38.5
  7
ROMANS
100
AcDbText
  0
TEXT
  5
2F5B
100
AcDbEntity
  8
DIM
 62
     6
100
AcDbText
 10
47.05497
 20
9.793294
 30
0.0
 40
1.275
  1
32.5x32.5
  7
ROMANS
100
AcDbText
  0
TEXT
  5
2F5C
100
AcDbEntity
  8
DIM
 62
     6
100
AcDbText
 10
47.05497
 20
6.393294
 30
0.0
 40
1.275
  1
38.5
  7
ROMANS
100
AcDbText
  0
TEXT
  5
2F5D
100
AcDbEntity
  8
DIM
 62
     6
100
AcDbText
 10
47.05497
 20
11.493294
 30
0.0
 40
1.275
  1
32.5
  7
ROMANS
100
AcDbText
  0
TEXT
  5
2F5E
100
AcDbEntity
  8
DIM
 62
     6
100
AcDbText
 10
58.305021
 20
6.393294
 30
0.0
 40
1.275
  1
.25
  7
ROMANS
100
AcDbText
  0
TEXT
  5
2F5F
100
AcDbEntity
  8
DIM
 62
     6
100
AcDbText
 10
58.305021
 20
4.693294
 30
0.0
 40
1.275
  1
.25
  7
ROMANS
100
AcDbText
  0
TEXT
  5
2F60
100
AcDbEntity
  8
DIM
 62
     6
100
AcDbText
 10
58.305021
 20
11.493294
 30
0.0
 40
1.275
  1
.25
  7
ROMANS
100
AcDbText
  0
TEXT
  5
2F61
100
AcDbEntity
  8
DIM
 62
     6
100
AcDbText
 10
58.305021
 20
9.793294
 30
0.0
 40
1.275
  1
.25
  7
ROMANS
100
AcDbText
  0
TEXT
  5
2F62
100
AcDbEntity
  8
DIM
 62
     6
100
AcDbText
 10
49.404623
 20
17.027563
 30
0.0
 40
1.275
  1
BOLT
  7
ROMAND
 72
     1
 11
51.77248
 21
17.027563
 31
0.0
100
AcDbText
  0
TEXT
  5
2F64
100
AcDbEntity
  8
DIM
 62
     6
100
AcDbText
 10
48.524266
 20
14.963278
 30
0.0
 40
1.275
  1
CIRCLE
  7
ROMAND
 72
     1
 11
51.77248
 21
14.963278
 31
0.0
100
AcDbText
  0
TEXT
  5
2F65
100
AcDbEntity
  8
DIM
 62
     6
100
AcDbText
 10
51.13498
 20
21.182375
 30
0.0
 40
1.275
  1
C
  7
ROMAND
 72
     1
 11
51.77248
 21
21.182375
 31
0.0
100
AcDbText
  0
TEXT
  5
2F67
100
AcDbEntity
  8
DIM
 62
     6
100
AcDbText
 10
57.598426
 20
14.960228
 30
0.0
 40
1.275
  1
THICKNESS
 41
0.612153
  7
ROMAND
 72
     5
 11
63.842385
 21
14.960228
 31
0.0
100
AcDbText
  0
TEXT
  5
2F68
100
AcDbEntity
  8
DIM
 62
     6
100
AcDbText
 10
60.05567
 20
21.171812
 30
0.0
 40
1.275
  1
D
  7
ROMAND
 72
     1
 11
60.723527
 21
21.171812
 31
0.0
100
AcDbText
  0
TEXT
  5
2F69
100
AcDbEntity
  8
DIM
 62
     6
100
AcDbText
 10
81.272029
 20
-0.406706
 30
0.0
 40
1.275
  1
14.00
  7
ROMANS
100
AcDbText
  0
TEXT
  5
2F6A
100
AcDbEntity
  8
DIM
 62
     6
100
AcDbText
 10
81.272029
 20
1.293294
 30
0.0
 40
1.275
  1
14.00
  7
ROMANS
100
AcDbText
  0
TEXT
  5
2F6B
100
AcDbEntity
  8
DIM
 62
     6
100
AcDbText
 10
81.272029
 20
-5.506706
 30
0.0
 40
1.275
  1
18.00
  7
ROMANS
100
AcDbText
  0
TEXT
  5
2F6C
100
AcDbEntity
  8
DIM
 62
     6
100
AcDbText
 10
81.272029
 20
-3.806706
 30
0.0
 40
1.275
  1
18.00
  7
ROMANS
100
AcDbText
  0
TEXT
  5
2F6D
100
AcDbEntity
  8
DIM
 62
     6
100
AcDbText
 10
81.272029
 20
-10.606706
 30
0.0
 40
1.275
  1
15.50
  7
ROMANS
100
AcDbText
  0
TEXT
  5
2F6E
100
AcDbEntity
  8
DIM
 62
     6
100
AcDbText
 10
81.272029
 20
-8.906706
 30
0.0
 40
1.275
  1
15.50
  7
ROMANS
100
AcDbText
  0
TEXT
  5
2F6F
100
AcDbEntity
  8
DIM
 62
     6
100
AcDbText
 10
81.272029
 20
-14.006706
 30
0.0
 40
1.275
  1
15.50
  7
ROMANS
100
AcDbText
  0
TEXT
  5
2F70
100
AcDbEntity
  8
DIM
 62
     6
100
AcDbText
 10
81.272029
 20
-15.706706
 30
0.0
 40
1.275
  1
15.50
  7
ROMANS
100
AcDbText
  0
TEXT
  5
2F71
100
AcDbEntity
  8
DIM
 62
     6
100
AcDbText
 10
73.40891
 20
-10.606706
 30
0.0
 40
1.275
  1
25.50
  7
ROMANS
100
AcDbText
  0
TEXT
  5
2F72
100
AcDbEntity
  8
DIM
 62
     6
100
AcDbText
 10
66.62167
 20
-10.606706
 30
0.0
 40
1.275
  1
28
  7
ROMANS
100
AcDbText
  0
TEXT
  5
2F75
100
AcDbEntity
  8
DIM
 62
     6
100
AcDbText
 10
66.62167
 20
-14.006706
 30
0.0
 40
1.275
  1
28
  7
ROMANS
100
AcDbText
  0
TEXT
  5
2F76
100
AcDbEntity
  8
DIM
 62
     6
100
AcDbText
 10
66.62167
 20
-15.706706
 30
0.0
 40
1.275
  1
28
  7
ROMANS
100
AcDbText
  0
TEXT
  5
2F77
100
AcDbEntity
  8
DIM
 62
     6
100
AcDbText
 10
74.685669
 20
-0.406706
 30
0.0
 40
1.275
  1
20
  7
ROMANS
100
AcDbText
  0
TEXT
  5
2F78
100
AcDbEntity
  8
DIM
 62
     6
100
AcDbText
 10
74.685669
 20
1.293294
 30
0.0
 40
1.275
  1
20
  7
ROMANS
100
AcDbText
  0
TEXT
  5
2F79
100
AcDbEntity
  8
DIM
 62
     6
100
AcDbText
 10
74.685669
 20
-5.506706
 30
0.0
 40
1.275
  1
20
  7
ROMANS
100
AcDbText
  0
TEXT
  5
2F7A
100
AcDbEntity
  8
DIM
 62
     6
100
AcDbText
 10
74.685669
 20
-3.806706
 30
0.0
 40
1.275
  1
20
  7
ROMANS
100
AcDbText
  0
TEXT
  5
2F7B
100
AcDbEntity
  8
DIM
 62
     6
100
AcDbText
 10
73.40891
 20
-8.906706
 30
0.0
 40
1.275
  1
25.50
  7
ROMANS
100
AcDbText
  0
TEXT
  5
2F7C
100
AcDbEntity
  8
DIM
 62
     6
100
AcDbText
 10
66.62167
 20
-3.806706
 30
0.0
 40
1.275
  1
22
  7
ROMANS
100
AcDbText
  0
TEXT
  5
2F7D
100
AcDbEntity
  8
DIM
 62
     6
100
AcDbText
 10
66.62167
 20
-8.906706
 30
0.0
 40
1.275
  1
28
  7
ROMANS
100
AcDbText
  0
TEXT
  5
2F7E
100
AcDbEntity
  8
DIM
 62
     6
100
AcDbText
 10
66.62167
 20
-5.506706
 30
0.0
 40
1.275
  1
22
  7
ROMANS
100
AcDbText
  0
TEXT
  5
2F7F
100
AcDbEntity
  8
DIM
 62
     6
100
AcDbText
 10
66.62167
 20
-0.406706
 30
0.0
 40
1.275
  1
22
  7
ROMANS
100
AcDbText
  0
TEXT
  5
2F80
100
AcDbEntity
  8
DIM
 62
     6
100
AcDbText
 10
66.62167
 20
1.293294
 30
0.0
 40
1.275
  1
22
  7
ROMANS
100
AcDbText
  0
TEXT
  5
2F81
100
AcDbEntity
  8
DIM
 62
     6
100
AcDbText
 10
97.281444
 20
-11.027883
 30
0.0
 40
1.275
  1
25
  7
ROMANS
100
AcDbText
  0
TEXT
  5
2F82
100
AcDbEntity
  8
DIM
 62
     6
100
AcDbText
 10
88.695756
 20
-10.606706
 30
0.0
 40
1.275
  1
15.50
  7
ROMANS
100
AcDbText
  0
TEXT
  5
2F83
100
AcDbEntity
  8
DIM
 62
     6
100
AcDbText
 10
88.695756
 20
-15.706706
 30
0.0
 40
1.275
  1
15.50
  7
ROMANS
100
AcDbText
  0
TEXT
  5
2F84
100
AcDbEntity
  8
DIM
 62
     6
100
AcDbText
 10
88.695756
 20
-14.006706
 30
0.0
 40
1.275
  1
15.50
  7
ROMANS
100
AcDbText
  0
TEXT
  5
2F85
100
AcDbEntity
  8
DIM
 62
     6
100
AcDbText
 10
97.281444
 20
-14.427883
 30
0.0
 40
1.275
  1
30
  7
ROMANS
100
AcDbText
  0
TEXT
  5
2F86
100
AcDbEntity
  8
DIM
 62
     6
100
AcDbText
 10
97.281444
 20
-16.127883
 30
0.0
 40
1.275
  1
30
  7
ROMANS
100
AcDbText
  0
TEXT
  5
2F87
100
AcDbEntity
  8
DIM
 62
     6
100
AcDbText
 10
88.695756
 20
-3.806706
 30
0.0
 40
1.275
  1
12.00
  7
ROMANS
100
AcDbText
  0
TEXT
  5
2F88
100
AcDbEntity
  8
DIM
 62
     6
100
AcDbText
 10
88.695756
 20
-8.906706
 30
0.0
 40
1.275
  1
15.50
  7
ROMANS
100
AcDbText
  0
TEXT
  5
2F89
100
AcDbEntity
  8
DIM
 62
     6
100
AcDbText
 10
88.695756
 20
-5.506706
 30
0.0
 40
1.275
  1
12.00
  7
ROMANS
100
AcDbText
  0
TEXT
  5
2F8A
100
AcDbEntity
  8
DIM
 62
     6
100
AcDbText
 10
88.695756
 20
1.293294
 30
0.0
 40
1.275
  1
11.00
  7
ROMANS
100
AcDbText
  0
TEXT
  5
2F8B
100
AcDbEntity
  8
DIM
 62
     6
100
AcDbText
 10
88.695756
 20
-0.406706
 30
0.0
 40
1.275
  1
11.00
  7
ROMANS
100
AcDbText
  0
TEXT
  5
2F8C
100
AcDbEntity
  8
DIM
 62
     6
100
AcDbText
 10
97.281444
 20
-4.227883
 30
0.0
 40
1.275
  1
20
  7
ROMANS
100
AcDbText
  0
TEXT
  5
2F8D
100
AcDbEntity
  8
DIM
 62
     6
100
AcDbText
 10
97.281444
 20
-9.327883
 30
0.0
 40
1.275
  1
25
  7
ROMANS
100
AcDbText
  0
TEXT
  5
2F8E
100
AcDbEntity
  8
DIM
 62
     6
100
AcDbText
 10
97.281444
 20
-5.927883
 30
0.0
 40
1.275
  1
20
  7
ROMANS
100
AcDbText
  0
TEXT
  5
2F8F
100
AcDbEntity
  8
DIM
 62
     6
100
AcDbText
 10
97.281444
 20
-0.827883
 30
0.0
 40
1.275
  1
14
  7
ROMANS
100
AcDbText
  0
TEXT
  5
2F90
100
AcDbEntity
  8
DIM
 62
     6
100
AcDbText
 10
97.281444
 20
0.872117
 30
0.0
 40
1.275
  1
14
  7
ROMANS
100
AcDbText
  0
TEXT
  5
2F91
100
AcDbEntity
  8
DIM
 62
     6
100
AcDbText
 10
81.272029
 20
9.793294
 30
0.0
 40
1.275
  1
10.50
  7
ROMANS
100
AcDbText
  0
TEXT
  5
2F92
100
AcDbEntity
  8
DIM
 62
     6
100
AcDbText
 10
81.272029
 20
11.493294
 30
0.0
 40
1.275
  1
10.50
  7
ROMANS
100
AcDbText
  0
TEXT
  5
2F93
100
AcDbEntity
  8
DIM
 62
     6
100
AcDbText
 10
81.272029
 20
4.693294
 30
0.0
 40
1.275
  1
13.00
  7
ROMANS
100
AcDbText
  0
TEXT
  5
2F94
100
AcDbEntity
  8
DIM
 62
     6
100
AcDbText
 10
81.272029
 20
6.393294
 30
0.0
 40
1.275
  1
13.00
  7
ROMANS
100
AcDbText
  0
TEXT
  5
2F97
100
AcDbEntity
  8
DIM
 62
     6
100
AcDbText
 10
74.685669
 20
9.793294
 30
0.0
 40
1.275
  1
14
  7
ROMANS
100
AcDbText
  0
TEXT
  5
2F98
100
AcDbEntity
  8
DIM
 62
     6
100
AcDbText
 10
74.685669
 20
11.493294
 30
0.0
 40
1.275
  1
14
  7
ROMANS
100
AcDbText
  0
TEXT
  5
2F99
100
AcDbEntity
  8
DIM
 62
     6
100
AcDbText
 10
74.685669
 20
4.693294
 30
0.0
 40
1.275
  1
16
  7
ROMANS
100
AcDbText
  0
TEXT
  5
2F9A
100
AcDbEntity
  8
DIM
 62
     6
100
AcDbText
 10
74.685669
 20
6.393294
 30
0.0
 40
1.275
  1
16
  7
ROMANS
100
AcDbText
  0
TEXT
  5
2F9B
100
AcDbEntity
  8
DIM
 62
     6
100
AcDbText
 10
66.62167
 20
4.693294
 30
0.0
 40
1.275
  1
18
  7
ROMANS
100
AcDbText
  0
TEXT
  5
2F9C
100
AcDbEntity
  8
DIM
 62
     6
100
AcDbText
 10
66.62167
 20
6.393294
 30
0.0
 40
1.275
  1
18
  7
ROMANS
100
AcDbText
  0
TEXT
  5
2F9D
100
AcDbEntity
  8
DIM
 62
     6
100
AcDbText
 10
66.62167
 20
11.493294
 30
0.0
 40
1.275
  1
16
  7
ROMANS
100
AcDbText
  0
TEXT
  5
2F9E
100
AcDbEntity
  8
DIM
 62
     6
100
AcDbText
 10
66.62167
 20
9.793294
 30
0.0
 40
1.275
  1
16
  7
ROMANS
100
AcDbText
  0
TEXT
  5
2FA0
100
AcDbEntity
  8
DIM
 62
     6
100
AcDbText
 10
75.3514
 20
21.233219
 30
0.0
 40
1.275
  1
F
  7
ROMAND
 72
     1
 11
75.958543
 21
21.233219
 31
0.0
100
AcDbText
  0
TEXT
  5
2FA1
100
AcDbEntity
  8
DIM
 62
     6
100
AcDbText
 10
74.173921
 20
14.921658
 30
0.0
 40
1.275
  1
DIM.
  7
ROMAND
 72
     1
 11
76.147135
 21
14.921658
 31
0.0
100
AcDbText
  0
TEXT
  5
2FA2
100
AcDbEntity
  8
DIM
 62
     6
100
AcDbText
 10
73.247486
 20
16.995507
 30
0.0
 40
1.275
  1
ACCESS
 41
0.742214
  7
ROMAND
 72
     5
 11
78.564921
 21
16.995507
 31
0.0
100
AcDbText
  0
TEXT
  5
2FA3
100
AcDbEntity
  8
DIM
 62
     6
100
AcDbText
 10
73.328052
 20
19.151089
 30
0.0
 40
1.275
  1
CLEAR
 41
0.924657
  7
ROMAND
 72
     5
 11
78.605203
 21
19.151089
 31
0.0
100
AcDbText
  0
TEXT
  5
2FA4
100
AcDbEntity
  8
DIM
 62
     6
100
AcDbText
 10
66.012844
 20
14.906894
 30
0.0
 40
1.275
  1
DIM.
  7
ROMAND
 72
     1
 11
67.986059
 21
14.906894
 31
0.0
100
AcDbText
  0
TEXT
  5
2FA5
100
AcDbEntity
  8
DIM
 62
     6
100
AcDbText
 10
67.378916
 20
21.176472
 30
0.0
 40
1.275
  1
E
  7
ROMAND
 72
     1
 11
67.986059
 21
21.176472
 31
0.0
100
AcDbText
  0
TEXT
  5
2FA7
100
AcDbEntity
  8
DIM
 62
     6
100
AcDbText
 10
81.279181
 20
14.900178
 30
0.0
 40
1.275
  1
DISTANCE
 41
0.581694
  7
ROMAND
 72
     5
 11
86.435481
 21
14.900178
 31
0.0
100
AcDbText
  0
TEXT
  5
2FA8
100
AcDbEntity
  8
DIM
 62
     6
100
AcDbText
 10
83.343529
 20
21.204627
 30
0.0
 40
1.275
  1
G
  7
ROMAND
 72
     1
 11
83.981029
 21
21.204627
 31
0.0
100
AcDbText
  0
TEXT
  5
2FAA
100
AcDbEntity
  8
DIM
 62
     6
100
AcDbText
 10
88.695756
 20
6.393294
 30
0.0
 40
1.275
  1
10.00
  7
ROMANS
100
AcDbText
  0
TEXT
  5
2FAB
100
AcDbEntity
  8
DIM
 62
     6
100
AcDbText
 10
88.695756
 20
4.693294
 30
0.0
 40
1.275
  1
10.00
  7
ROMANS
100
AcDbText
  0
TEXT
  5
2FAC
100
AcDbEntity
  8
DIM
 62
     6
100
AcDbText
 10
88.695756
 20
11.493294
 30
0.0
 40
1.275
  1
8.00
  7
ROMANS
100
AcDbText
  0
TEXT
  5
2FAD
100
AcDbEntity
  8
DIM
 62
     6
100
AcDbText
 10
88.695756
 20
9.793294
 30
0.0
 40
1.275
  1
8.00
  7
ROMANS
100
AcDbText
  0
TEXT
  5
2FAE
100
AcDbEntity
  8
DIM
 62
     6
100
AcDbText
 10
97.281444
 20
5.972117
 30
0.0
 40
1.275
  1
14
  7
ROMANS
100
AcDbText
  0
TEXT
  5
2FAF
100
AcDbEntity
  8
DIM
 62
     6
100
AcDbText
 10
97.281444
 20
4.272117
 30
0.0
 40
1.275
  1
14
  7
ROMANS
100
AcDbText
  0
TEXT
  5
2FB0
100
AcDbEntity
  8
DIM
 62
     6
100
AcDbText
 10
97.281444
 20
9.372117
 30
0.0
 40
1.275
  1
11
  7
ROMANS
100
AcDbText
  0
TEXT
  5
2FB1
100
AcDbEntity
  8
DIM
 62
     6
100
AcDbText
 10
97.281444
 20
11.072117
 30
0.0
 40
1.275
  1
11
  7
ROMANS
100
AcDbText
  0
TEXT
  5
2FB3
100
AcDbEntity
  8
DIM
 62
     6
100
AcDbText
 10
95.873243
 20
14.900178
 30
0.0
 40
1.275
  1
DISTANCE
 41
0.581694
  7
ROMAND
 72
     5
 11
101.029542
 21
14.900178
 31
0.0
100
AcDbText
  0
TEXT
  5
2FB4
100
AcDbEntity
  8
DIM
 62
     6
100
AcDbText
 10
89.174329
 20
14.900178
 30
0.0
 40
1.275
  1
DISTANCE
 41
0.581694
  7
ROMAND
 72
     5
 11
94.330628
 21
14.900178
 31
0.0
100
AcDbText
  0
TEXT
  5
2FB6
100
AcDbEntity
  8
DIM
 62
     6
100
AcDbText
 10
91.114433
 20
21.264455
 30
0.0
 40
1.275
  1
H
  7
ROMAND
 72
     1
 11
91.78229
 21
21.264455
 31
0.0
100
AcDbText
  0
TEXT
  5
2FB8
100
AcDbEntity
  8
DIM
 62
     6
100
AcDbText
 10
98.256113
 20
21.151256
 30
0.0
 40
1.275
  1
I
  7
ROMAND
 72
     1
 11
98.529328
 21
21.151256
 31
0.0
100
AcDbText
  0
LINE
  5
3622
100
AcDbEntity
  8
DIM
 62
     6
100
AcDbLine
 10
87.713397
 20
76.874931
 30
0.0
 11
70.10884
 21
89.255982
 31
0.0
  0
LINE
  5
3623
100
AcDbEntity
  8
DIM
 62
     6
100
AcDbLine
 39
20.0
 10
68.60884
 20
89.255982
 30
0.0
 11
59.406487
 21
89.255982
 31
0.0
  0
LINE
  5
3624
100
AcDbEntity
  8
DIM
 62
     6
100
AcDbLine
 39
25.0
 10
53.845904
 20
84.401071
 30
0.0
 11
64.207392
 21
84.401071
 31
0.0
  0
TEXT
  5
3625
100
AcDbEntity
  8
DIM
 62
     6
100
AcDbText
 10
53.279108
 20
86.413728
 30
0.0
 40
1.5
  1
(OPTIONAL)
  7
ROMANS
100
AcDbText
  0
TEXT
  5
3626
100
AcDbEntity
  8
DIM
 62
     6
100
AcDbText
 10
53.735276
 20
81.110867
 30
0.0
 40
0.9375
  1
3" OR 4"
  7
ROMAND
100
AcDbText
  0
TEXT
  5
3627
100
AcDbEntity
  8
DIM
 62
     6
100
AcDbText
 10
53.955727
 20
84.658619
 30
0.0
 40
0.9375
  1
SPECIFY SIZE:
  7
ROMAND
100
AcDbText
  0
TEXT
  5
3628
100
AcDbEntity
  8
DIM
 62
     6
100
AcDbText
 10
53.67318
 20
82.758038
 30
0.0
 40
0.9375
  1
1.25" 1.5" 2" 
  7
ROMAND
100
AcDbText
  0
TEXT
  5
3629
100
AcDbEntity
  8
DIM
 62
     6
100
AcDbText
 10
53.539062
 20
88.531104
 30
0.0
 40
1.5
  1
VENT
  7
ROMANS
100
AcDbText
  0
LINE
  5
362A
100
AcDbEntity
  8
DIM
 62
     6
100
AcDbLine
 10
70.10884
 20
89.255982
 30
0.0
 11
68.60884
 21
89.255982
 31
0.0
  0
SOLID
  5
362B
100
AcDbEntity
  8
DIM
 62
     6
100
AcDbTrace
 10
87.519503
 20
77.312939
 30
0.0
 11
87.23187
 21
76.903955
 31
0.0
 12
88.602637
 22
76.245549
 32
0.0
 13
88.602637
 23
76.245549
 33
0.0
  0
LINE
  5
362C
100
AcDbEntity
  8
DIM
 62
     6
100
AcDbLine
 10
100.991676
 20
65.136151
 30
0.0
 11
71.10884
 21
74.319526
 31
0.0
  0
SOLID
  5
362D
100
AcDbEntity
  8
DIM
 62
     6
100
AcDbTrace
 10
100.119654
 20
65.665679
 30
0.0
 11
99.972777
 21
65.187739
 31
0.0
 12
101.480037
 22
64.986078
 32
0.0
 13
101.480037
 23
64.986078
 33
0.0
  0
LINE
  5
362E
100
AcDbEntity
  8
DIM
 62
     6
100
AcDbLine
 39
20.0
 10
69.60884
 20
74.319526
 30
0.0
 11
67.003829
 21
74.319526
 31
0.0
  0
LINE
  5
362F
100
AcDbEntity
  8
DIM
 62
     6
100
AcDbLine
 10
71.10884
 20
74.319526
 30
0.0
 11
69.60884
 21
74.319526
 31
0.0
  0
LINE
  5
3630
100
AcDbEntity
  8
DIM
 62
     6
100
AcDbLine
 39
25.0
 10
54.533466
 20
69.400853
 30
0.0
 11
64.696547
 21
69.400853
 31
0.0
  0
TEXT
  5
3631
100
AcDbEntity
  8
DIM
 62
     6
100
AcDbText
 10
54.279108
 20
71.463324
 30
0.0
 40
1.5
  1
(OPTIONAL)
  7
ROMANS
100
AcDbText
  0
TEXT
  5
3632
100
AcDbEntity
  8
DIM
 62
     6
100
AcDbText
 10
54.775992
 20
66.128746
 30
0.0
 40
0.9375
  1
3" OR 4"
  7
ROMAND
100
AcDbText
  0
TEXT
  5
3633
100
AcDbEntity
  8
DIM
 62
     6
100
AcDbText
 10
54.601732
 20
67.775916
 30
0.0
 40
0.9375
  1
1.25" 1.5" 2" 
  7
ROMAND
100
AcDbText
  0
TEXT
  5
3634
100
AcDbEntity
  8
DIM
 62
     6
100
AcDbText
 10
54.574119
 20
69.676497
 30
0.0
 40
0.9375
  1
SPECIFY SIZE:
  7
ROMAND
100
AcDbText
  0
TEXT
  5
3635
100
AcDbEntity
  8
DIM
 62
     6
100
AcDbText
 10
54.279108
 20
73.658546
 30
0.0
 40
1.5
  1
DISCHARGE
  7
ROMANS
100
AcDbText
  0
TEXT
  5
363B
100
AcDbEntity
  8
DIM
 62
     6
100
AcDbText
 10
54.183288
 20
55.814647
 30
0.0
 40
1.5
  1
CORD SEAL
  7
ROMANS
100
AcDbText
  0
TEXT
  5
363C
100
AcDbEntity
  8
DIM
 62
     6
100
AcDbText
 10
54.496841
 20
50.813716
 30
0.0
 40
0.9375
  1
SPECIFY CORD GRIPS
  7
ROMAND
100
AcDbText
  0
TEXT
  5
363D
100
AcDbEntity
  8
DIM
 62
     6
100
AcDbText
 10
54.50291
 20
52.657576
 30
0.0
 40
0.9375
  1
3/8"  IF OVER 3/8" 
  7
ROMAND
100
AcDbText
  0
TEXT
  5
363E
100
AcDbEntity
  8
DIM
 62
     6
100
AcDbText
 10
54.307393
 20
54.403209
 30
0.0
 40
0.9375
  1
USE FOR CORDS UP TO
  7
ROMAND
100
AcDbText
  0
TEXT
  5
363F
100
AcDbEntity
  8
DIM
 62
     6
100
AcDbText
 10
54.183288
 20
57.878933
 30
0.0
 40
1.5
  1
ELECTRIC
  7
ROMANS
100
AcDbText
  0
TEXT
  5
3640
100
AcDbEntity
  8
DIM
 62
     6
100
AcDbText
 10
62.935947
 20
35.925644
 30
0.0
 40
1.5
  1
DIA. CLEAR 
  7
ROMANS
100
AcDbText
  0
TEXT
  5
3641
100
AcDbEntity
  8
DIM
 62
     6
100
AcDbText
 10
62.912336
 20
31.631238
 30
0.0
 40
1.5
  1
(OPTIONAL)
  7
ROMANS
100
AcDbText
  0
TEXT
  5
3642
100
AcDbEntity
  8
DIM
 62
     6
100
AcDbText
 10
62.935947
 20
33.875925
 30
0.0
 40
1.5
  1
ACCESS OPENING
  7
ROMANS
100
AcDbText
  0
TEXT
  5
3643
100
AcDbEntity
  8
DIM
 62
     6
100
AcDbText
 10
62.935947
 20
37.833518
 30
0.0
 40
1.5
  1
PLATE w/ 8" 
  7
ROMANS
100
AcDbText
  0
TEXT
  5
3644
100
AcDbEntity
  8
DIM
 62
     6
100
AcDbText
 10
62.541298
 20
39.795284
 30
0.0
 40
1.5
  1
10" INSPECTION
  7
ROMANS
100
AcDbText
  0
LINE
  5
3645
100
AcDbEntity
  8
DIM
 62
     6
100
AcDbLine
 10
87.014473
 20
47.526907
 30
0.0
 11
81.368132
 21
40.872322
 31
0.0
  0
SOLID
  5
3646
100
AcDbEntity
  8
DIM
 62
     6
100
AcDbTrace
 10
86.823846
 20
47.688651
 30
0.0
 11
87.2051
 21
47.365162
 31
0.0
 12
87.984941
 22
48.670668
 32
0.0
 13
87.984941
 23
48.670668
 33
0.0
  0
LEADER
  5
3647
100
AcDbEntity
  8
DIM
100
AcDbLeader
  3
STANDARD
 76
     3
 10
86.028875
 20
63.074867
 30
0.0
 10
69.401692
 20
56.72093
 30
0.0
 10
67.270076
 20
56.72093
 30
0.0
 77
   256
1001
ACAD
1000
DSTYLE
1002
{
1070
   340
1005
34
1070
   174
1070
     1
1070
   147
1040
0.75
1070
   287
1070
     0
1070
    42
1040
0.75
1070
    44
1040
1.5
1070
   271
1070
     2
1070
   141
1040
-1.5
1070
    41
1040
1.5
1002
}
  0
LWPOLYLINE
  5
369F
100
AcDbEntity
  8
OBJECT
 62
     2
100
AcDbPolyline
 90
        6
 70
     1
 43
0.0
 39
20.0
 10
82.044508
 20
47.848768
 10
82.232008
 20
47.957021
 10
82.419508
 20
47.848768
 10
82.419508
 20
47.632262
 10
82.232008
 20
47.524008
 10
82.044508
 20
47.632262
  0
LWPOLYLINE
  5
36A0
100
AcDbEntity
  8
OBJECT
 62
     2
100
AcDbPolyline
 90
        6
 70
     1
 43
0.0
 39
20.0
 10
98.419515
 20
47.848768
 10
98.232015
 20
47.957021
 10
98.044515
 20
47.848768
 10
98.044515
 20
47.632262
 10
98.232015
 20
47.524008
 10
98.419515
 20
47.632262
  0
LWPOLYLINE
  5
36A1
100
AcDbEntity
  8
OBJECT
 62
     2
100
AcDbPolyline
 90
        6
 70
     1
 43
0.0
 39
20.0
 10
98.419515
 20
79.632262
 10
98.232015
 20
79.524008
 10
98.044515
 20
79.632262
 10
98.044515
 20
79.848768
 10
98.232015
 20
79.957021
 10
98.419515
 20
79.848768
  0
LWPOLYLINE
  5
36A2
100
AcDbEntity
  8
OBJECT
 62
     2
100
AcDbPolyline
 90
        6
 70
     1
 43
0.0
 39
20.0
 10
82.044508
 20
79.632262
 10
82.232008
 20
79.524008
 10
82.419508
 20
79.632262
 10
82.419508
 20
79.848768
 10
82.232008
 20
79.957021
 10
82.044508
 20
79.848768
  0
TEXT
  5
36AB
100
AcDbEntity
  8
DIM
 62
     6
100
AcDbText
 10
73.40891
 20
-14.006706
 30
0.0
 40
1.275
  1
25.50
  7
ROMANS
100
AcDbText
  0
TEXT
  5
36AC
100
AcDbEntity
  8
DIM
 62
     6
100
AcDbText
 10
73.40891
 20
-15.706706
 30
0.0
 40
1.275
  1
25.50
  7
ROMANS
100
AcDbText
  0
ENDSEC
  0
SECTION
  2
OBJECTS
  0
DICTIONARY
  5
C
100
AcDbDictionary
  3
ACAD_GROUP
350
D
  3
ACAD_MLINESTYLE
350
1A
  3
ACDBVARIABLEDICTIONARY
350
45
  0
DICTIONARY
  5
D
102
{ACAD_REACTORS
330
C
102
}
100
AcDbDictionary
  0
DICTIONARY
  5
1A
102
{ACAD_REACTORS
330
C
102
}
100
AcDbDictionary
  3
STANDARD
350
1B
  0
DICTIONARY
  5
45
102
{ACAD_REACTORS
330
C
102
}
100
AcDbDictionary
  3
DIMADEC
350
46
  0
MLINESTYLE
  5
1B
102
{ACAD_REACTORS
330
1A
102
}
100
AcDbMlineStyle
  2
STANDARD
 70
     0
  3

 62
   256
 51
90.0
 52
90.0
 71
     2
 49
0.5
 62
   256
  6
BYLAYER
 49
-0.5
 62
   256
  6
BYLAYER
  0
DICTIONARYVAR
  5
46
102
{ACAD_REACTORS
330
45
102
}
100
DictionaryVariables
280
     0
  1
0
  0
ENDSEC
  0
EOF
