  0
SECTION
  2
HEADER
  9
$ACADVER
  1
AC1014
  9
$ACADMAINTVER
 70
     0
  9
$DWGCODEPAGE
  3
ANSI_1252
  9
$INSBASE
 10
0.0
 20
0.0
 30
0.0
  9
$EXTMIN
 10
115.980045
 20
-48.963814
 30
-0.000763
  9
$EXTMAX
 10
236.298516
 20
106.731441
 30
25.000763
  9
$LIMMIN
 10
-24.592533
 20
-51.447132
  9
$LIMMAX
 10
97.871451
 20
108.421951
  9
$ORTHOMODE
 70
     1
  9
$REGENMODE
 70
     1
  9
$FILLMODE
 70
     1
  9
$QTEXTMODE
 70
     0
  9
$MIRRTEXT
 70
     1
  9
$DRAGMODE
 70
     2
  9
$LTSCALE
 40
4.0
  9
$OSMODE
 70
   675
  9
$ATTMODE
 70
     1
  9
$TEXTSIZE
 40
1.5
  9
$TRACEWID
 40
0.05
  9
$TEXTSTYLE
  7
ROMAND
  9
$CLAYER
  8
DIM
  9
$CELTYPE
  6
BYLAYER
  9
$CECOLOR
 62
     6
  9
$CELTSCALE
 40
1.0
  9
$DELOBJ
 70
     1
  9
$DISPSILH
 70
     0
  9
$DIMSCALE
 40
1.0
  9
$DIMASZ
 40
1.5
  9
$DIMEXO
 40
0.75
  9
$DIMDLI
 40
0.38
  9
$DIMRND
 40
0.0
  9
$DIMDLE
 40
0.0
  9
$DIMEXE
 40
1.5
  9
$DIMTP
 40
0.0
  9
$DIMTM
 40
0.0
  9
$DIMTXT
 40
0.18
  9
$DIMCEN
 40
-1.5
  9
$DIMTSZ
 40
0.0
  9
$DIMTOL
 70
     0
  9
$DIMLIM
 70
     0
  9
$DIMTIH
 70
     1
  9
$DIMTOH
 70
     1
  9
$DIMSE1
 70
     0
  9
$DIMSE2
 70
     0
  9
$DIMTAD
 70
     0
  9
$DIMZIN
 70
     0
  9
$DIMBLK
  1

  9
$DIMASO
 70
     1
  9
$DIMSHO
 70
     1
  9
$DIMPOST
  1

  9
$DIMAPOST
  1

  9
$DIMALT
 70
     0
  9
$DIMALTD
 70
     2
  9
$DIMALTF
 40
25.4
  9
$DIMLFAC
 40
1.0
  9
$DIMTOFL
 70
     0
  9
$DIMTVP
 40
0.0
  9
$DIMTIX
 70
     1
  9
$DIMSOXD
 70
     0
  9
$DIMSAH
 70
     0
  9
$DIMBLK1
  1

  9
$DIMBLK2
  1

  9
$DIMSTYLE
  2
STANDARD
  9
$DIMCLRD
 70
     0
  9
$DIMCLRE
 70
     0
  9
$DIMCLRT
 70
     0
  9
$DIMTFAC
 40
1.0
  9
$DIMGAP
 40
0.75
  9
$DIMJUST
 70
     0
  9
$DIMSD1
 70
     0
  9
$DIMSD2
 70
     0
  9
$DIMTOLJ
 70
     1
  9
$DIMTZIN
 70
     0
  9
$DIMALTZ
 70
     0
  9
$DIMALTTZ
 70
     0
  9
$DIMFIT
 70
     5
  9
$DIMUPT
 70
     0
  9
$DIMUNIT
 70
     2
  9
$DIMDEC
 70
     4
  9
$DIMTDEC
 70
     4
  9
$DIMALTU
 70
     2
  9
$DIMALTTD
 70
     2
  9
$DIMTXSTY
  7
ROMAND
  9
$DIMAUNIT
 70
     0
  9
$LUNITS
 70
     2
  9
$LUPREC
 70
     4
  9
$SKETCHINC
 40
0.1
  9
$FILLETRAD
 40
0.0
  9
$AUNITS
 70
     0
  9
$AUPREC
 70
     0
  9
$MENU
  1
acad
  9
$ELEVATION
 40
0.0
  9
$PELEVATION
 40
0.0
  9
$THICKNESS
 40
20.0
  9
$LIMCHECK
 70
     0
  9
$BLIPMODE
 70
     0
  9
$CHAMFERA
 40
0.025
  9
$CHAMFERB
 40
0.025
  9
$CHAMFERC
 40
0.0
  9
$CHAMFERD
 40
0.0
  9
$SKPOLY
 70
     0
  9
$TDCREATE
 40
2449609.390435069
  9
$TDUPDATE
 40
2453125.545679143
  9
$TDINDWG
 40
0.1157597569
  9
$TDUSRTIMER
 40
0.1157597569
  9
$USRTIMER
 70
     1
  9
$ANGBASE
 50
0.0
  9
$ANGDIR
 70
     0
  9
$PDMODE
 70
     0
  9
$PDSIZE
 40
0.0
  9
$PLINEWID
 40
0.25
  9
$COORDS
 70
     0
  9
$SPLFRAME
 70
     0
  9
$SPLINETYPE
 70
     6
  9
$SPLINESEGS
 70
     8
  9
$ATTDIA
 70
     0
  9
$ATTREQ
 70
     1
  9
$HANDLING
 70
     1
  9
$HANDSEED
  5
149B
  9
$SURFTAB1
 70
     6
  9
$SURFTAB2
 70
     6
  9
$SURFTYPE
 70
     6
  9
$SURFU
 70
     6
  9
$SURFV
 70
     6
  9
$UCSNAME
  2

  9
$UCSORG
 10
0.0
 20
0.0
 30
0.0
  9
$UCSXDIR
 10
1.0
 20
0.0
 30
0.0
  9
$UCSYDIR
 10
0.0
 20
1.0
 30
0.0
  9
$PUCSNAME
  2

  9
$PUCSORG
 10
0.0
 20
0.0
 30
0.0
  9
$PUCSXDIR
 10
1.0
 20
0.0
 30
0.0
  9
$PUCSYDIR
 10
0.0
 20
1.0
 30
0.0
  9
$USERI1
 70
     0
  9
$USERI2
 70
     0
  9
$USERI3
 70
     0
  9
$USERI4
 70
     0
  9
$USERI5
 70
     0
  9
$USERR1
 40
0.0
  9
$USERR2
 40
0.0
  9
$USERR3
 40
0.0
  9
$USERR4
 40
0.0
  9
$USERR5
 40
0.0
  9
$WORLDVIEW
 70
     1
  9
$SHADEDGE
 70
     3
  9
$SHADEDIF
 70
    70
  9
$TILEMODE
 70
     1
  9
$MAXACTVP
 70
    16
  9
$PINSBASE
 10
0.0
 20
0.0
 30
0.0
  9
$PLIMCHECK
 70
     0
  9
$PEXTMIN
 10
1.000000E+20
 20
1.000000E+20
 30
1.000000E+20
  9
$PEXTMAX
 10
-1.000000E+20
 20
-1.000000E+20
 30
-1.000000E+20
  9
$PLIMMIN
 10
0.0
 20
0.0
  9
$PLIMMAX
 10
12.0
 20
9.0
  9
$UNITMODE
 70
     0
  9
$VISRETAIN
 70
     0
  9
$PLINEGEN
 70
     0
  9
$PSLTSCALE
 70
     1
  9
$TREEDEPTH
 70
  3020
  9
$PICKSTYLE
 70
     1
  9
$CMLSTYLE
  2
STANDARD
  9
$CMLJUST
 70
     0
  9
$CMLSCALE
 40
1.0
  9
$PROXYGRAPHICS
 70
     1
  9
$MEASUREMENT
 70
     0
  0
ENDSEC
  0
SECTION
  2
CLASSES
  0
CLASS
  1
DICTIONARYVAR
  2
AcDbDictionaryVar
  3
"AutoCAD"
 90
        0
280
     0
281
     0
  0
CLASS
  1
LWPOLYLINE
  2
AcDbPolyline
  3
"AutoCAD"
 90
        0
280
     0
281
     1
  0
CLASS
  1
HATCH
  2
AcDbHatch
  3
"ACAD_SEDONA"
 90
        0
280
     0
281
     1
  0
ENDSEC
  0
SECTION
  2
TABLES
  0
TABLE
  2
VPORT
  5
8
100
AcDbSymbolTable
 70
     4
  0
VPORT
  5
149A
100
AcDbSymbolTableRecord
100
AcDbViewportTableRecord
  2
*ACTIVE
 70
     0
 10
0.0
 20
0.0
 11
1.0
 21
1.0
 12
176.13928
 22
28.883813
 13
0.0
 23
0.0
 14
2.0
 24
2.0
 15
20.0
 25
20.0
 16
0.0
 26
0.0
 36
1.0
 17
0.0
 27
0.0
 37
0.0
 40
157.390666
 41
1.750909
 42
50.0
 43
0.0
 44
0.0
 50
0.0
 51
0.0
 71
     0
 72
   100
 73
     1
 74
     0
 75
     0
 76
     0
 77
     0
 78
     1
  0
ENDTAB
  0
TABLE
  2
LTYPE
  5
5
100
AcDbSymbolTable
 70
     3
  0
LTYPE
  5
11
100
AcDbSymbolTableRecord
100
AcDbLinetypeTableRecord
  2
BYBLOCK
 70
     0
  3

 72
    65
 73
     0
 40
0.0
  0
LTYPE
  5
12
100
AcDbSymbolTableRecord
100
AcDbLinetypeTableRecord
  2
BYLAYER
 70
     0
  3

 72
    65
 73
     0
 40
0.0
  0
LTYPE
  5
13
100
AcDbSymbolTableRecord
100
AcDbLinetypeTableRecord
  2
CONTINUOUS
 70
     0
  3
Solid line
 72
    65
 73
     0
 40
0.0
  0
LTYPE
  5
2C
100
AcDbSymbolTableRecord
100
AcDbLinetypeTableRecord
  2
CENTER
 70
     0
  3
____ _ ____ _ ____ _ ____ _ ____ _ ____ _ ____ 
 72
    65
 73
     4
 40
2.0
 49
1.25
 74
     0
 49
-0.25
 74
     0
 49
0.25
 74
     0
 49
-0.25
 74
     0
  0
LTYPE
  5
2E
100
AcDbSymbolTableRecord
100
AcDbLinetypeTableRecord
  2
HIDDEN
 70
     0
  3
__ __ __ __ __ __ __ __ __ __ __ __ __ __ __ __
 72
    65
 73
     2
 40
0.375
 49
0.25
 74
     0
 49
-0.125
 74
     0
  0
ENDTAB
  0
TABLE
  2
LAYER
  5
2
100
AcDbSymbolTable
 70
     8
  0
LAYER
  5
E
100
AcDbSymbolTableRecord
100
AcDbLayerTableRecord
  2
0
 70
     0
 62
     7
  6
CONTINUOUS
  0
LAYER
  5
31
100
AcDbSymbolTableRecord
100
AcDbLayerTableRecord
  2
OBJECT
 70
     0
 62
     2
  6
CONTINUOUS
  0
LAYER
  5
32
100
AcDbSymbolTableRecord
100
AcDbLayerTableRecord
  2
DIM
 70
     0
 62
     6
  6
CONTINUOUS
  0
LAYER
  5
33
100
AcDbSymbolTableRecord
100
AcDbLayerTableRecord
  2
HIDDEN
 70
     0
 62
     1
  6
HIDDEN
  0
LAYER
  5
34
100
AcDbSymbolTableRecord
100
AcDbLayerTableRecord
  2
CENTER
 70
     0
 62
     3
  6
CENTER
  0
LAYER
  5
36
100
AcDbSymbolTableRecord
100
AcDbLayerTableRecord
  2
DEFPOINTS
 70
     0
 62
     7
  6
CONTINUOUS
  0
LAYER
  5
37
100
AcDbSymbolTableRecord
100
AcDbLayerTableRecord
  2
BORDER
 70
     0
 62
     5
  6
CONTINUOUS
  0
LAYER
  5
1080
100
AcDbSymbolTableRecord
100
AcDbLayerTableRecord
  2
LIMITS
 70
     0
 62
     7
  6
CONTINUOUS
  0
ENDTAB
  0
TABLE
  2
STYLE
  5
3
100
AcDbSymbolTable
 70
     5
  0
STYLE
  5
F
100
AcDbSymbolTableRecord
100
AcDbTextStyleTableRecord
  2
STANDARD
 70
     0
 40
0.0
 41
1.0
 50
0.0
 71
     0
 42
0.2
  3
txt
  4

  0
STYLE
  5
27
100
AcDbSymbolTableRecord
100
AcDbTextStyleTableRecord
  2
ROMANS
 70
     0
 40
1.5
 41
1.0
 50
0.0
 71
     0
 42
1.5
  3
ROMANS.SHX
  4

  0
STYLE
  5
29
100
AcDbSymbolTableRecord
100
AcDbTextStyleTableRecord
  2
ROMAND
 70
     0
 40
1.5
 41
1.0
 50
0.0
 71
     0
 42
1.5
  3
ROMAND.SHX
  4

  0
STYLE
  5
2A
100
AcDbSymbolTableRecord
100
AcDbTextStyleTableRecord
  2
ROMANC
 70
     0
 40
0.0531
 41
1.0
 50
0.0
 71
     0
 42
0.0531
  3
romanc
  4

  0
STYLE
  5
1081
100
AcDbSymbolTableRecord
100
AcDbTextStyleTableRecord
  2
COUNTRYBLUEPRINT
 70
     0
 40
0.061059
 41
1.0
 50
0.0
 71
     0
 42
0.061059
  3
cobt____.pfb
  4

  0
ENDTAB
  0
TABLE
  2
VIEW
  5
6
100
AcDbSymbolTable
 70
     0
  0
ENDTAB
  0
TABLE
  2
UCS
  5
7
100
AcDbSymbolTable
 70
     0
  0
ENDTAB
  0
TABLE
  2
APPID
  5
9
100
AcDbSymbolTable
 70
     1
  0
APPID
  5
10
100
AcDbSymbolTableRecord
100
AcDbRegAppTableRecord
  2
ACAD
 70
     0
  0
ENDTAB
  0
TABLE
  2
DIMSTYLE
  5
A
100
AcDbSymbolTable
 70
     1
  0
DIMSTYLE
105
1074
100
AcDbSymbolTableRecord
100
AcDbDimStyleTableRecord
  2
STANDARD
 70
     0
  3

  4

  5

  6

  7

 40
1.0
 41
0.18
 42
0.0625
 43
0.38
 44
0.18
 45
0.0
 46
0.0
 47
0.0
 48
0.0
140
0.18
141
0.09
142
0.0
143
25.4
144
1.0
145
0.0
146
1.0
147
0.09
 71
     0
 72
     0
 73
     1
 74
     1
 75
     0
 76
     0
 77
     0
 78
     0
170
     0
171
     2
172
     0
173
     0
174
     0
175
     0
176
     0
177
     0
178
     0
270
     2
271
     4
272
     4
273
     2
274
     2
340
F
275
     0
280
     0
281
     0
282
     0
283
     1
284
     0
285
     0
286
     0
287
     3
288
     0
  0
ENDTAB
  0
TABLE
  2
BLOCK_RECORD
  5
1
100
AcDbSymbolTable
 70
     6
  0
BLOCK_RECORD
  5
17
100
AcDbSymbolTableRecord
100
AcDbBlockTableRecord
  2
*MODEL_SPACE
  0
BLOCK_RECORD
  5
14
100
AcDbSymbolTableRecord
100
AcDbBlockTableRecord
  2
*PAPER_SPACE
  0
BLOCK_RECORD
  5
1416
100
AcDbSymbolTableRecord
100
AcDbBlockTableRecord
  2
*D0
  0
BLOCK_RECORD
  5
1423
100
AcDbSymbolTableRecord
100
AcDbBlockTableRecord
  2
*D1
  0
BLOCK_RECORD
  5
1430
100
AcDbSymbolTableRecord
100
AcDbBlockTableRecord
  2
*D2
  0
BLOCK_RECORD
  5
143C
100
AcDbSymbolTableRecord
100
AcDbBlockTableRecord
  2
*D3
  0
BLOCK_RECORD
  5
1448
100
AcDbSymbolTableRecord
100
AcDbBlockTableRecord
  2
*D4
  0
BLOCK_RECORD
  5
1455
100
AcDbSymbolTableRecord
100
AcDbBlockTableRecord
  2
*D5
  0
ENDTAB
  0
ENDSEC
  0
SECTION
  2
BLOCKS
  0
BLOCK
  5
3C
100
AcDbEntity
  8
0
 62
     6
100
AcDbBlockBegin
  2
*MODEL_SPACE
 70
     0
 10
0.0
 20
0.0
 30
0.0
  3
*MODEL_SPACE
  1

  0
ENDBLK
  5
3D
100
AcDbEntity
  8
0
 62
     6
100
AcDbBlockEnd
  0
BLOCK
  5
3A
100
AcDbEntity
 67
     1
  8
0
 62
     6
100
AcDbBlockBegin
  2
*PAPER_SPACE
 70
     0
 10
0.0
 20
0.0
 30
0.0
  3
*PAPER_SPACE
  1

  0
ENDBLK
  5
3B
100
AcDbEntity
 67
     1
  8
0
 62
     6
100
AcDbBlockEnd
  0
BLOCK
  5
1417
100
AcDbEntity
  8
0
100
AcDbBlockBegin
  2
*D0
 70
     1
 10
0.0
 20
0.0
 30
0.0
  3
*D0
  1

  0
LINE
  5
1418
100
AcDbEntity
  8
0
  6
BYBLOCK
 62
     0
100
AcDbLine
 10
5.397553
 20
64.605715
 30
0.0
 11
27.896176
 21
64.605715
 31
0.0
  0
LINE
  5
1419
100
AcDbEntity
  8
0
  6
BYBLOCK
 62
     0
100
AcDbLine
 10
20.585053
 20
53.605715
 30
0.0
 11
27.896176
 21
53.605715
 31
0.0
  0
LINE
  5
141A
100
AcDbEntity
  8
0
  6
BYBLOCK
 62
     0
100
AcDbLine
 10
26.396176
 20
63.105715
 30
0.0
 11
26.396176
 21
60.605715
 31
0.0
  0
LINE
  5
141B
100
AcDbEntity
  8
0
  6
BYBLOCK
 62
     0
100
AcDbLine
 10
26.396176
 20
55.105715
 30
0.0
 11
26.396176
 21
57.605715
 31
0.0
  0
SOLID
  5
141C
100
AcDbEntity
  8
0
  6
BYBLOCK
 62
     0
100
AcDbTrace
 10
26.146176
 20
63.105715
 30
0.0
 11
26.646176
 21
63.105715
 31
0.0
 12
26.396176
 22
64.605715
 32
0.0
 13
26.396176
 23
64.605715
 33
0.0
  0
SOLID
  5
141D
100
AcDbEntity
  8
0
  6
BYBLOCK
 62
     0
100
AcDbTrace
 10
26.146176
 20
55.105715
 30
0.0
 11
26.646176
 21
55.105715
 31
0.0
 12
26.396176
 22
53.605715
 32
0.0
 13
26.396176
 23
53.605715
 33
0.0
  0
MTEXT
  5
141E
100
AcDbEntity
  8
0
  6
BYBLOCK
 62
     0
100
AcDbMText
 10
26.396176
 20
59.105715
 30
0.0
 40
1.5
 41
0.0
 71
     5
 72
     1
  1
\A1;I
  7
ROMAND
  0
POINT
  5
141F
100
AcDbEntity
  8
DEFPOINTS
  6
BYBLOCK
 62
     0
100
AcDbPoint
 10
4.647553
 20
64.605715
 30
0.0
  0
POINT
  5
1420
100
AcDbEntity
  8
DEFPOINTS
  6
BYBLOCK
 62
     0
100
AcDbPoint
 10
19.835053
 20
53.605715
 30
0.0
  0
POINT
  5
1421
100
AcDbEntity
  8
DEFPOINTS
  6
BYBLOCK
 62
     0
100
AcDbPoint
 10
26.396176
 20
53.605715
 30
0.0
  0
ENDBLK
  5
1422
100
AcDbEntity
  8
0
100
AcDbBlockEnd
  0
BLOCK
  5
1424
100
AcDbEntity
  8
0
100
AcDbBlockBegin
  2
*D1
 70
     1
 10
0.0
 20
0.0
 30
0.0
  3
*D1
  1

  0
LINE
  5
1425
100
AcDbEntity
  8
0
  6
BYBLOCK
 62
     0
100
AcDbLine
 10
53.807414
 20
71.355715
 30
0.0
 11
53.807414
 21
79.242873
 31
0.0
  0
LINE
  5
1426
100
AcDbEntity
  8
0
  6
BYBLOCK
 62
     0
100
AcDbLine
 10
87.807414
 20
71.355715
 30
0.0
 11
87.807414
 21
79.242873
 31
0.0
  0
LINE
  5
1427
100
AcDbEntity
  8
0
  6
BYBLOCK
 62
     0
100
AcDbLine
 10
55.307414
 20
77.742873
 30
0.0
 11
69.593128
 21
77.742873
 31
0.0
  0
LINE
  5
1428
100
AcDbEntity
  8
0
  6
BYBLOCK
 62
     0
100
AcDbLine
 10
86.307414
 20
77.742873
 30
0.0
 11
72.021699
 21
77.742873
 31
0.0
  0
SOLID
  5
1429
100
AcDbEntity
  8
0
  6
BYBLOCK
 62
     0
100
AcDbTrace
 10
55.307414
 20
77.992873
 30
0.0
 11
55.307414
 21
77.492873
 31
0.0
 12
53.807414
 22
77.742873
 32
0.0
 13
53.807414
 23
77.742873
 33
0.0
  0
SOLID
  5
142A
100
AcDbEntity
  8
0
  6
BYBLOCK
 62
     0
100
AcDbTrace
 10
86.307414
 20
77.992873
 30
0.0
 11
86.307414
 21
77.492873
 31
0.0
 12
87.807414
 22
77.742873
 32
0.0
 13
87.807414
 23
77.742873
 33
0.0
  0
MTEXT
  5
142B
100
AcDbEntity
  8
0
  6
BYBLOCK
 62
     0
100
AcDbMText
 10
70.807414
 20
77.742873
 30
0.0
 40
1.5
 41
0.0
 71
     5
 72
     1
  1
\A1;B
  7
ROMAND
  0
POINT
  5
142C
100
AcDbEntity
  8
DEFPOINTS
  6
BYBLOCK
 62
     0
100
AcDbPoint
 10
53.807414
 20
70.605715
 30
0.0
  0
POINT
  5
142D
100
AcDbEntity
  8
DEFPOINTS
  6
BYBLOCK
 62
     0
100
AcDbPoint
 10
87.807414
 20
70.605715
 30
0.0
  0
POINT
  5
142E
100
AcDbEntity
  8
DEFPOINTS
  6
BYBLOCK
 62
     0
100
AcDbPoint
 10
87.807414
 20
77.742873
 30
0.0
  0
ENDBLK
  5
142F
100
AcDbEntity
  8
0
100
AcDbBlockEnd
  0
BLOCK
  5
1431
100
AcDbEntity
  8
0
100
AcDbBlockBegin
  2
*D2
 70
     1
 10
0.0
 20
0.0
 30
0.0
  3
*D2
  1

  0
LINE
  5
1432
100
AcDbEntity
  8
0
  6
BYBLOCK
 62
     0
100
AcDbLine
 10
3.335053
 20
51.355715
 30
0.0
 11
3.335053
 21
30.536643
 31
0.0
  0
LINE
  5
1433
100
AcDbEntity
  8
0
  6
BYBLOCK
 62
     0
100
AcDbLine
 10
8.335053
 20
43.355715
 30
0.0
 11
8.335053
 21
30.536643
 31
0.0
  0
LINE
  5
1434
100
AcDbEntity
  8
0
  6
BYBLOCK
 62
     0
100
AcDbLine
 10
4.835053
 20
32.036643
 30
0.0
 11
6.835053
 21
32.036643
 31
0.0
  0
MTEXT
  5
1435
100
AcDbEntity
  8
0
  6
BYBLOCK
 62
     0
100
AcDbMText
 10
6.403792
 20
33.761928
 30
0.0
 40
1.5
 41
0.0
 71
     5
 72
     1
  1
\A1;5"
  7
ROMAND
  0
SOLID
  5
1436
100
AcDbEntity
  8
0
  6
BYBLOCK
 62
     0
100
AcDbTrace
 10
4.835053
 20
32.286643
 30
0.0
 11
4.835053
 21
31.786643
 31
0.0
 12
3.335053
 22
32.036643
 32
0.0
 13
3.335053
 23
32.036643
 33
0.0
  0
SOLID
  5
1437
100
AcDbEntity
  8
0
  6
BYBLOCK
 62
     0
100
AcDbTrace
 10
6.835053
 20
32.286643
 30
0.0
 11
6.835053
 21
31.786643
 31
0.0
 12
8.335053
 22
32.036643
 32
0.0
 13
8.335053
 23
32.036643
 33
0.0
  0
POINT
  5
1438
100
AcDbEntity
  8
DEFPOINTS
  6
BYBLOCK
 62
     0
100
AcDbPoint
 10
3.335053
 20
52.105715
 30
0.0
  0
POINT
  5
1439
100
AcDbEntity
  8
DEFPOINTS
  6
BYBLOCK
 62
     0
100
AcDbPoint
 10
8.335053
 20
44.105715
 30
0.0
  0
POINT
  5
143A
100
AcDbEntity
  8
DEFPOINTS
  6
BYBLOCK
 62
     0
100
AcDbPoint
 10
8.335053
 20
32.036643
 30
0.0
  0
ENDBLK
  5
143B
100
AcDbEntity
  8
0
100
AcDbBlockEnd
  0
BLOCK
  5
143D
100
AcDbEntity
  8
0
100
AcDbBlockBegin
  2
*D3
 70
     1
 10
0.0
 20
0.0
 30
0.0
  3
*D3
  1

  0
LINE
  5
143E
100
AcDbEntity
  8
0
  6
BYBLOCK
 62
     0
100
AcDbLine
 10
8.335053
 20
43.355715
 30
0.0
 11
8.335053
 21
30.558686
 31
0.0
  0
LINE
  5
143F
100
AcDbEntity
  8
0
  6
BYBLOCK
 62
     0
100
AcDbLine
 10
13.335053
 20
51.355715
 30
0.0
 11
13.335053
 21
30.558686
 31
0.0
  0
LINE
  5
1440
100
AcDbEntity
  8
0
  6
BYBLOCK
 62
     0
100
AcDbLine
 10
9.835053
 20
32.058686
 30
0.0
 11
11.835053
 21
32.058686
 31
0.0
  0
MTEXT
  5
1441
100
AcDbEntity
  8
0
  6
BYBLOCK
 62
     0
100
AcDbMText
 10
11.383091
 20
33.761928
 30
0.0
 40
1.5
 41
0.0
 71
     5
 72
     1
  1
\A1;5"
  7
ROMAND
  0
SOLID
  5
1442
100
AcDbEntity
  8
0
  6
BYBLOCK
 62
     0
100
AcDbTrace
 10
9.835053
 20
32.308686
 30
0.0
 11
9.835053
 21
31.808686
 31
0.0
 12
8.335053
 22
32.058686
 32
0.0
 13
8.335053
 23
32.058686
 33
0.0
  0
SOLID
  5
1443
100
AcDbEntity
  8
0
  6
BYBLOCK
 62
     0
100
AcDbTrace
 10
11.835053
 20
32.308686
 30
0.0
 11
11.835053
 21
31.808686
 31
0.0
 12
13.335053
 22
32.058686
 32
0.0
 13
13.335053
 23
32.058686
 33
0.0
  0
POINT
  5
1444
100
AcDbEntity
  8
DEFPOINTS
  6
BYBLOCK
 62
     0
100
AcDbPoint
 10
8.335053
 20
44.105715
 30
0.0
  0
POINT
  5
1445
100
AcDbEntity
  8
DEFPOINTS
  6
BYBLOCK
 62
     0
100
AcDbPoint
 10
13.335053
 20
52.105715
 30
0.0
  0
POINT
  5
1446
100
AcDbEntity
  8
DEFPOINTS
  6
BYBLOCK
 62
     0
100
AcDbPoint
 10
13.335053
 20
32.058686
 30
0.0
  0
ENDBLK
  5
1447
100
AcDbEntity
  8
0
100
AcDbBlockEnd
  0
BLOCK
  5
1449
100
AcDbEntity
  8
0
100
AcDbBlockBegin
  2
*D4
 70
     1
 10
0.0
 20
0.0
 30
0.0
  3
*D4
  1

  0
LINE
  5
144A
100
AcDbEntity
  8
0
  6
BYBLOCK
 62
     0
100
AcDbLine
 10
-8.164947
 20
60.855715
 30
0.0
 11
-8.164947
 21
81.5
 31
0.0
  0
LINE
  5
144B
100
AcDbEntity
  8
0
  6
BYBLOCK
 62
     0
100
AcDbLine
 10
1.335053
 20
72.855715
 30
0.0
 11
1.335053
 21
81.5
 31
0.0
  0
LINE
  5
144C
100
AcDbEntity
  8
0
  6
BYBLOCK
 62
     0
100
AcDbLine
 10
-6.664947
 20
80.0
 30
0.0
 11
-4.664947
 21
80.0
 31
0.0
  0
LINE
  5
144D
100
AcDbEntity
  8
0
  6
BYBLOCK
 62
     0
100
AcDbLine
 10
-0.164947
 20
80.0
 30
0.0
 11
-2.164947
 21
80.0
 31
0.0
  0
SOLID
  5
144E
100
AcDbEntity
  8
0
  6
BYBLOCK
 62
     0
100
AcDbTrace
 10
-6.664947
 20
80.25
 30
0.0
 11
-6.664947
 21
79.75
 31
0.0
 12
-8.164947
 22
80.0
 32
0.0
 13
-8.164947
 23
80.0
 33
0.0
  0
SOLID
  5
144F
100
AcDbEntity
  8
0
  6
BYBLOCK
 62
     0
100
AcDbTrace
 10
-0.164947
 20
80.25
 30
0.0
 11
-0.164947
 21
79.75
 31
0.0
 12
1.335053
 22
80.0
 32
0.0
 13
1.335053
 23
80.0
 33
0.0
  0
MTEXT
  5
1450
100
AcDbEntity
  8
0
  6
BYBLOCK
 62
     0
100
AcDbMText
 10
-3.414947
 20
80.0
 30
0.0
 40
1.5
 41
0.0
 71
     5
 72
     1
  1
\A1;H
  7
ROMAND
  0
POINT
  5
1451
100
AcDbEntity
  8
DEFPOINTS
  6
BYBLOCK
 62
     0
100
AcDbPoint
 10
-8.164947
 20
60.105715
 30
0.0
  0
POINT
  5
1452
100
AcDbEntity
  8
DEFPOINTS
  6
BYBLOCK
 62
     0
100
AcDbPoint
 10
1.335053
 20
72.105715
 30
0.0
  0
POINT
  5
1453
100
AcDbEntity
  8
DEFPOINTS
  6
BYBLOCK
 62
     0
100
AcDbPoint
 10
1.335053
 20
80.0
 30
0.0
  0
ENDBLK
  5
1454
100
AcDbEntity
  8
0
100
AcDbBlockEnd
  0
BLOCK
  5
1456
100
AcDbEntity
  8
0
100
AcDbBlockBegin
  2
*D5
 70
     1
 10
0.0
 20
0.0
 30
0.0
  3
*D5
  1

  0
LINE
  5
1457
100
AcDbEntity
  8
0
  6
BYBLOCK
 62
     0
100
AcDbLine
 10
1.335053
 20
72.855715
 30
0.0
 11
1.335053
 21
81.5
 31
0.0
  0
LINE
  5
1458
100
AcDbEntity
  8
0
  6
BYBLOCK
 62
     0
100
AcDbLine
 10
8.335053
 20
63.855715
 30
0.0
 11
8.335053
 21
81.5
 31
0.0
  0
LINE
  5
1459
100
AcDbEntity
  8
0
  6
BYBLOCK
 62
     0
100
AcDbLine
 10
2.835053
 20
80.0
 30
0.0
 11
3.585053
 21
80.0
 31
0.0
  0
LINE
  5
145A
100
AcDbEntity
  8
0
  6
BYBLOCK
 62
     0
100
AcDbLine
 10
6.835053
 20
80.0
 30
0.0
 11
6.085053
 21
80.0
 31
0.0
  0
SOLID
  5
145B
100
AcDbEntity
  8
0
  6
BYBLOCK
 62
     0
100
AcDbTrace
 10
2.835053
 20
80.25
 30
0.0
 11
2.835053
 21
79.75
 31
0.0
 12
1.335053
 22
80.0
 32
0.0
 13
1.335053
 23
80.0
 33
0.0
  0
SOLID
  5
145C
100
AcDbEntity
  8
0
  6
BYBLOCK
 62
     0
100
AcDbTrace
 10
6.835053
 20
80.25
 30
0.0
 11
6.835053
 21
79.75
 31
0.0
 12
8.335053
 22
80.0
 32
0.0
 13
8.335053
 23
80.0
 33
0.0
  0
MTEXT
  5
145D
100
AcDbEntity
  8
0
  6
BYBLOCK
 62
     0
100
AcDbMText
 10
4.835053
 20
80.0
 30
0.0
 40
1.5
 41
0.0
 71
     5
 72
     1
  1
\A1;K
  7
ROMAND
  0
POINT
  5
145E
100
AcDbEntity
  8
DEFPOINTS
  6
BYBLOCK
 62
     0
100
AcDbPoint
 10
1.335053
 20
72.105715
 30
0.0
  0
POINT
  5
145F
100
AcDbEntity
  8
DEFPOINTS
  6
BYBLOCK
 62
     0
100
AcDbPoint
 10
8.335053
 20
63.105715
 30
0.0
  0
POINT
  5
1460
100
AcDbEntity
  8
DEFPOINTS
  6
BYBLOCK
 62
     0
100
AcDbPoint
 10
8.335053
 20
80.0
 30
0.0
  0
ENDBLK
  5
1461
100
AcDbEntity
  8
0
100
AcDbBlockEnd
  0
ENDSEC
  0
SECTION
  2
ENTITIES
  0
TEXT
  5
913
100
AcDbEntity
  8
0
  6
BYBLOCK
 62
     0
100
AcDbText
 10
137.771014
 20
144.465313
 30
0.0
 40
1.5
  1
   
  7
ROMANS
 72
     1
 11
140.021014
 21
145.215313
 31
0.0
100
AcDbText
 73
     2
  0
TEXT
  5
915
100
AcDbEntity
  8
0
  6
BYBLOCK
 62
     0
100
AcDbText
 10
105.136326
 20
196.25
 30
0.0
 40
1.5
  1
  
  7
ROMANS
 72
     1
 11
106.636326
 21
197.0
 31
0.0
100
AcDbText
 73
     2
  0
TEXT
  5
916
100
AcDbEntity
  8
0
  6
BYBLOCK
 62
     0
100
AcDbText
 10
105.11769
 20
187.25
 30
0.0
 40
1.5
  1
  
  7
ROMANS
 72
     1
 11
106.61769
 21
188.0
 31
0.0
100
AcDbText
 73
     2
  0
TEXT
  5
917
100
AcDbEntity
  8
0
  6
BYBLOCK
 62
     0
100
AcDbText
 10
64.365403
 20
158.766292
 30
0.0
 40
1.5
  1
  
  7
ROMANS
 72
     1
 11
65.865403
 21
159.516292
 31
0.0
100
AcDbText
 73
     2
  0
TEXT
  5
918
100
AcDbEntity
  8
0
  6
BYBLOCK
 62
     0
100
AcDbText
 10
1645.803088
 20
1700.549558
 30
0.0
 40
18.0
  1
   
  7
ROMANS
 72
     1
 11
1672.803088
 21
1709.549558
 31
0.0
100
AcDbText
 73
     2
  0
TEXT
  5
919
100
AcDbEntity
  8
0
  6
BYBLOCK
 62
     0
100
AcDbText
 10
1254.186831
 20
2321.965808
 30
0.0
 40
18.0
  1
  
  7
ROMANS
 72
     1
 11
1272.186831
 21
2330.965808
 31
0.0
100
AcDbText
 73
     2
  0
TEXT
  5
91A
100
AcDbEntity
  8
0
  6
BYBLOCK
 62
     0
100
AcDbText
 10
1253.963199
 20
2213.965808
 30
0.0
 40
18.0
  1
  
  7
ROMANS
 72
     1
 11
1271.963199
 21
2222.965808
 31
0.0
100
AcDbText
 73
     2
  0
TEXT
  5
91B
100
AcDbEntity
  8
0
  6
BYBLOCK
 62
     0
100
AcDbText
 10
764.935753
 20
1872.161312
 30
0.0
 40
18.0
  1
  
  7
ROMANS
 72
     1
 11
782.935753
 21
1881.161312
 31
0.0
100
AcDbText
 73
     2
  0
TEXT
  5
A52
100
AcDbEntity
  8
BORDER
 62
     7
100
AcDbText
 10
68.242206
 20
-45.529548
 30
0.0
 40
1.031594
  1

  7
ROMANC
100
AcDbText
  0
LINE
  5
1165
100
AcDbEntity
  8
LIMITS
100
AcDbLine
 10
236.290553
 20
-48.958807
 30
0.0
 11
236.290553
 21
103.555839
 31
0.0
  0
LINE
  5
1166
100
AcDbEntity
  8
LIMITS
100
AcDbLine
 10
236.290553
 20
103.555839
 30
0.0
 11
236.290553
 21
-48.958807
 31
0.0
  0
LINE
  5
1167
100
AcDbEntity
  8
LIMITS
 62
     7
100
AcDbLine
 10
236.290553
 20
-48.958807
 30
0.0
 11
236.290553
 21
106.726645
 31
0.0
  0
LWPOLYLINE
  5
1168
100
AcDbEntity
  8
BORDER
 62
     5
100
AcDbPolyline
 90
        2
 70
     0
 43
0.317739
 10
233.748643
 20
-30.877008
 10
233.748643
 20
102.913779
  0
LINE
  5
1169
100
AcDbEntity
  8
LIMITS
 62
     7
100
AcDbLine
 10
115.988159
 20
106.726645
 30
0.0
 11
115.988159
 21
-48.958807
 31
0.0
  0
LWPOLYLINE
  5
116A
100
AcDbEntity
  8
BORDER
 62
     5
100
AcDbPolyline
 90
        2
 70
     0
 43
0.317739
 10
118.530069
 20
-30.877008
 10
118.530069
 20
102.913779
  0
LWPOLYLINE
  5
116B
100
AcDbEntity
  8
BORDER
 62
     5
100
AcDbPolyline
 90
        6
 70
     0
 43
0.566129
 10
118.530069
 20
-30.877008
 10
118.530069
 20
102.913779
 42
-0.414214
 10
119.801025
 20
104.184735
 10
232.477687
 20
104.184735
 42
-0.414214
 10
233.748643
 20
102.913779
 10
233.748643
 20
-30.877008
  0
LWPOLYLINE
  5
116C
100
AcDbEntity
  8
BORDER
 62
     5
100
AcDbPolyline
 90
        2
 70
     0
 43
0.794347
 10
139.183094
 20
-31.48317
 42
-0.414214
 10
142.360483
 20
-34.660559
 42
0.560527
  0
ARC
  5
116D
100
AcDbEntity
  8
BORDER
100
AcDbCircle
 10
139.183094
 20
-34.660559
 30
0.0
 40
1.588694
100
AcDbArc
 50
0.0
 51
90.0
  0
LINE
  5
116E
100
AcDbEntity
  8
BORDER
100
AcDbLine
 10
121.707458
 20
-44.192724
 30
0.0
 11
140.771789
 21
-44.192724
 31
0.0
  0
LINE
  5
116F
100
AcDbEntity
  8
LIMITS
 62
     7
100
AcDbLine
 10
115.988159
 20
-48.958807
 30
0.0
 11
236.290553
 21
-48.958807
 31
0.0
  0
LWPOLYLINE
  5
1170
100
AcDbEntity
  8
BORDER
 62
     5
100
AcDbPolyline
 90
        2
 70
     0
 43
0.794347
 10
230.571254
 20
-45.781418
 10
121.707458
 20
-45.781418
  0
LWPOLYLINE
  5
1171
100
AcDbEntity
  8
BORDER
 62
     5
100
AcDbPolyline
 90
        2
 70
     0
 43
0.794347
 10
121.707458
 20
-31.48317
 42
0.414214
 10
118.530069
 20
-34.660559
 42
-0.560527
  0
LWPOLYLINE
  5
1172
100
AcDbEntity
  8
BORDER
 62
     5
100
AcDbPolyline
 90
        2
 70
     0
 43
0.794347
 10
121.707458
 20
-45.781418
 42
-0.414214
 10
118.530069
 20
-42.60403
 42
0.560527
  0
LWPOLYLINE
  5
1173
100
AcDbEntity
  8
BORDER
 62
     5
100
AcDbPolyline
 90
        2
 70
     0
 43
0.794347
 10
118.530069
 20
-34.660559
 10
118.530069
 20
-42.60403
  0
ARC
  5
1174
100
AcDbEntity
  8
BORDER
100
AcDbCircle
 10
121.707458
 20
-42.60403
 30
0.0
 40
1.588694
100
AcDbArc
 50
180.0
 51
270.0
  0
HATCH
  5
1175
100
AcDbEntity
  8
BORDER
100
AcDbHatch
 10
0.0
 20
0.0
 30
0.0
210
0.0
220
0.0
230
1.0
  2
ANSI37
 70
     0
 71
     1
 91
        2
 92
        5
 93
        1
 72
     3
 10
130.861102
 20
-38.868417
 11
0.0
 21
1.774561
 40
0.93822
 50
0.0
 51
360.0
 73
     1
 97
        1
330
117A
 92
       20
 93
        1
 72
     3
 10
130.861102
 20
-38.858306
 11
0.0
 21
1.592555
 40
0.683214
 50
0.0
 51
360.0
 73
     1
 97
        1
330
11A6
 75
     0
 76
     1
 52
0.0
 41
0.024614
 77
     0
 78
     2
 53
45.0
 43
117.570821
 44
-129.465255
 45
-0.0021756301671622
 46
0.0021756301671622
 79
     0
 53
135.0
 43
117.570821
 44
-129.465255
 45
-0.0021756301671622
 46
-0.0021756301671622
 79
     0
 47
0.027301
 98
        2
 10
129.663645
 20
-38.14614
 10
129.663645
 20
-38.14614
  0
HATCH
  5
1176
100
AcDbEntity
  8
BORDER
100
AcDbHatch
 10
0.0
 20
0.0
 30
0.0
210
0.0
220
0.0
230
1.0
  2
ANSI37
 70
     0
 71
     1
 91
        1
 92
        7
 72
     1
 73
     1
 93
       18
 10
125.8369651707905
 20
-39.62187870291819
 42
-0.4142135623730746
 10
125.026129890795
 20
-40.43271398291364
 42
0.0
 10
124.765003414151
 20
-40.43271398291364
 42
0.0
 10
124.765003414151
 20
-40.60184372653696
 42
0.0
 10
128.3102658590356
 20
-40.60184372653696
 42
0.0
 10
128.3102658590357
 20
-40.43271398291364
 42
0.0
 10
128.0491393823912
 20
-40.43271398291364
 42
-0.4142135623730542
 10
127.2383041023958
 20
-39.62187870291813
 42
0.0
 10
127.2383041023957
 20
-35.15934923115642
 42
0.0
 10
127.9519879753098
 20
-35.15934923115642
 42
-0.413820019673764
 10
129.5702898179341
 20
-36.77547781800709
 42
0.0
 10
129.7395482012221
 20
-36.77547781800709
 42
0.0
 10
129.7395482012225
 20
-34.74592089453043
 42
0.0
 10
123.335721071964
 20
-34.74592089453043
 42
0.0
 10
123.335721071964
 20
-36.77547781800709
 42
0.0
 10
123.5049794552524
 20
-36.77547781800709
 42
-0.4138200196737641
 10
125.1232812978767
 20
-35.15934923115642
 42
0.0
 10
125.8369651707905
 20
-35.15934923115642
 42
0.0
 97
       18
330
119F
330
117B
330
1177
330
11A0
330
1180
330
1184
330
118B
330
1185
330
119E
330
1182
330
118C
330
1193
330
1194
330
118F
330
1198
330
119C
330
118D
330
1181
 75
     0
 76
     1
 52
0.0
 41
0.024614
 77
     0
 78
     2
 53
45.0
 43
117.570821
 44
-129.465255
 45
-0.0021756301671622
 46
0.0021756301671622
 79
     0
 53
135.0
 43
117.570821
 44
-129.465255
 45
-0.0021756301671622
 46
-0.0021756301671622
 79
     0
 47
0.049862
 98
        1
 10
126.365661
 20
-37.477184
  0
LINE
  5
1177
102
{ACAD_REACTORS
330
1176
102
}
100
AcDbEntity
  8
BORDER
100
AcDbLine
 10
129.739548
 20
-36.775478
 30
0.0
 11
129.570291
 21
-36.775478
 31
0.0
  0
LINE
  5
1178
100
AcDbEntity
  8
BORDER
100
AcDbLine
 10
129.40372
 20
-41.912638
 30
0.0
 11
129.742859
 21
-41.912638
 31
0.0
  0
LINE
  5
1179
100
AcDbEntity
  8
BORDER
100
AcDbLine
 10
129.742859
 20
-41.242647
 30
0.0
 11
129.40372
 21
-41.242647
 31
0.0
  0
ELLIPSE
  5
117A
102
{ACAD_REACTORS
330
1175
102
}
100
AcDbEntity
  8
BORDER
100
AcDbEllipse
 10
130.861102
 20
-38.868417
 30
0.0
 11
0.000000000000012
 21
1.774560980205257
 31
0.0
210
0.0
220
0.0
230
1.0
 40
0.93822
 41
0.0
 42
6.283185307179586
  0
ARC
  5
117B
102
{ACAD_REACTORS
330
1176
102
}
100
AcDbEntity
  8
BORDER
100
AcDbCircle
 10
127.951988
 20
-36.777653
 30
0.0
 40
1.618303
100
AcDbArc
 50
0.076996
 51
90.0
  0
LINE
  5
117C
100
AcDbEntity
  8
BORDER
100
AcDbLine
 10
121.707458
 20
-33.071864
 30
0.0
 11
139.183094
 21
-33.071864
 31
0.0
  0
LWPOLYLINE
  5
117D
100
AcDbEntity
  8
BORDER
 62
     5
100
AcDbPolyline
 90
        2
 70
     0
 43
0.794347
 10
121.707458
 20
-31.48317
 10
139.183094
 20
-31.48317
  0
LINE
  5
117E
100
AcDbEntity
  8
BORDER
100
AcDbLine
 10
122.505155
 20
-40.822287
 30
0.0
 11
138.474468
 21
-40.822287
 31
0.0
  0
LINE
  5
117F
100
AcDbEntity
  8
BORDER
100
AcDbLine
 10
122.505155
 20
-40.822287
 30
0.0
 11
138.474468
 21
-40.822287
 31
0.0
  0
LINE
  5
1180
102
{ACAD_REACTORS
330
1176
102
}
100
AcDbEntity
  8
BORDER
100
AcDbLine
 10
123.335721
 20
-34.745921
 30
0.0
 11
129.739548
 21
-34.745921
 31
0.0
  0
LINE
  5
1181
102
{ACAD_REACTORS
330
1176
102
}
100
AcDbEntity
  8
BORDER
100
AcDbLine
 10
127.238304
 20
-39.621879
 30
0.0
 11
127.238304
 21
-35.159349
 31
0.0
  0
LINE
  5
1182
102
{ACAD_REACTORS
330
1176
102
}
100
AcDbEntity
  8
BORDER
100
AcDbLine
 10
125.836965
 20
-39.621879
 30
0.0
 11
125.836965
 21
-35.159349
 31
0.0
  0
LINE
  5
1183
100
AcDbEntity
  8
BORDER
100
AcDbLine
 10
120.118764
 20
-42.60403
 30
0.0
 11
120.118764
 21
-34.660559
 31
0.0
  0
LINE
  5
1184
102
{ACAD_REACTORS
330
1176
102
}
100
AcDbEntity
  8
BORDER
100
AcDbLine
 10
123.335721
 20
-36.775478
 30
0.0
 11
123.335721
 21
-34.745921
 31
0.0
  0
ARC
  5
1185
102
{ACAD_REACTORS
330
1176
102
}
100
AcDbEntity
  8
BORDER
100
AcDbCircle
 10
125.123281
 20
-36.777653
 30
0.0
 40
1.618303
100
AcDbArc
 50
90.0
 51
179.923004
  0
LINE
  5
1186
100
AcDbEntity
  8
BORDER
100
AcDbLine
 10
124.779096
 20
-42.549315
 30
0.0
 11
123.777924
 21
-41.242647
 31
0.0
  0
LINE
  5
1187
100
AcDbEntity
  8
BORDER
100
AcDbLine
 10
123.777924
 20
-41.242647
 30
0.0
 11
123.777924
 21
-42.549315
 31
0.0
  0
LINE
  5
1188
100
AcDbEntity
  8
BORDER
100
AcDbLine
 10
123.205826
 20
-41.242647
 30
0.0
 11
123.205826
 21
-42.549315
 31
0.0
  0
LINE
  5
1189
100
AcDbEntity
  8
BORDER
100
AcDbLine
 10
122.938266
 20
-42.549315
 30
0.0
 11
123.473387
 21
-42.549315
 31
0.0
  0
LINE
  5
118A
100
AcDbEntity
  8
BORDER
100
AcDbLine
 10
122.938266
 20
-41.242647
 30
0.0
 11
123.473387
 21
-41.242647
 31
0.0
  0
LINE
  5
118B
102
{ACAD_REACTORS
330
1176
102
}
100
AcDbEntity
  8
BORDER
100
AcDbLine
 10
123.335721
 20
-36.775478
 30
0.0
 11
123.504978
 21
-36.775478
 31
0.0
  0
ARC
  5
118C
102
{ACAD_REACTORS
330
1176
102
}
100
AcDbEntity
  8
BORDER
100
AcDbCircle
 10
125.02613
 20
-39.621879
 30
0.0
 40
0.810835
100
AcDbArc
 50
270.0
 51
0.0
  0
ARC
  5
118D
102
{ACAD_REACTORS
330
1176
102
}
100
AcDbEntity
  8
BORDER
100
AcDbCircle
 10
128.049139
 20
-39.621879
 30
0.0
 40
0.810835
100
AcDbArc
 50
180.0
 51
270.0
  0
SPLINE
  5
118E
100
AcDbEntity
  8
BORDER
100
AcDbSpline
210
0.0
220
0.0
230
1.0
 70
    11
 71
     3
 72
    24
 73
    20
 74
     0
 42
0.0000001
 43
0.0000001
 40
0.0
 40
0.0
 40
0.0
 40
0.0
 40
0.474866629778075
 40
0.474866629778075
 40
1.277791044886493
 40
1.277791044886493
 40
2.080715459994911
 40
2.080715459994911
 40
2.883639875103329
 40
2.883639875103329
 40
3.686564290211747
 40
3.686564290211747
 40
4.489488705320165
 40
4.489488705320165
 40
5.292413120428583
 40
5.292413120428583
 40
6.095337535537001
 40
6.095337535537001
 40
6.283185307179586
 40
6.283185307179586
 40
6.283185307179586
 40
6.283185307179586
 10
127.0457645780678
 20
-41.2249242298601
 30
0.0
 10
126.9398616143648
 20
-41.2249242298601
 30
0.0
 10
126.8340478578734
 20
-41.25061277220247
 30
0.0
 10
126.5806237738585
 20
-41.38131190637275
 30
0.0
 10
126.4569875547043
 20
-41.53023674336358
 30
0.0
 10
126.3535723275621
 20
-41.87411112106587
 30
0.0
 10
126.3744808366795
 20
-42.06675675915002
 30
0.0
 10
126.5492531521816
 20
-42.38025777036303
 30
0.0
 10
126.7019523080687
 20
-42.49900774597129
 30
0.0
 10
127.048227944349
 20
-42.59065541780613
 30
0.0
 10
127.2394716790115
 20
-42.56293085827744
 30
0.0
 10
127.5457031946959
 20
-42.37670252399702
 30
0.0
 10
127.6586346333455
 20
-42.2194590807802
 30
0.0
 10
127.7377836828525
 20
-41.86916545056745
 30
0.0
 10
127.7034753764196
 20
-41.67846093791236
 30
0.0
 10
127.5072387016291
 20
-41.37800650809558
 30
0.0
 10
127.3466192635139
 20
-41.27027630486927
 30
0.0
 10
127.1295499080123
 20
-41.22888304676397
 30
0.0
 10
127.0876576791923
 20
-41.2249242298601
 30
0.0
 10
127.0457645780678
 20
-41.2249242298601
 30
0.0
  0
LINE
  5
118F
102
{ACAD_REACTORS
330
1176
102
}
100
AcDbEntity
  8
BORDER
100
AcDbLine
 10
124.765003
 20
-40.601844
 30
0.0
 11
128.310266
 21
-40.601844
 31
0.0
  0
LINE
  5
1190
100
AcDbEntity
  8
BORDER
100
AcDbLine
 10
124.779096
 20
-41.242647
 30
0.0
 11
124.779096
 21
-42.549315
 31
0.0
  0
ARC
  5
1191
100
AcDbEntity
  8
BORDER
100
AcDbCircle
 10
125.682275
 20
-41.950938
 30
0.0
 40
0.599223
100
AcDbArc
 50
174.737783
 51
327.723969
  0
ARC
  5
1192
100
AcDbEntity
  8
BORDER
100
AcDbCircle
 10
125.728722
 20
-41.885708
 30
0.0
 40
0.643228
100
AcDbArc
 50
44.321228
 51
180.91508
  0
LINE
  5
1193
102
{ACAD_REACTORS
330
1176
102
}
100
AcDbEntity
  8
BORDER
100
AcDbLine
 10
124.765003
 20
-40.432714
 30
0.0
 11
125.02613
 21
-40.432714
 31
0.0
  0
LINE
  5
1194
102
{ACAD_REACTORS
330
1176
102
}
100
AcDbEntity
  8
BORDER
100
AcDbLine
 10
124.765003
 20
-40.432714
 30
0.0
 11
124.765003
 21
-40.601844
 31
0.0
  0
LINE
  5
1195
100
AcDbEntity
  8
BORDER
100
AcDbLine
 10
129.40372
 20
-41.242647
 30
0.0
 11
129.40372
 21
-42.549315
 31
0.0
  0
LINE
  5
1196
100
AcDbEntity
  8
BORDER
100
AcDbLine
 10
128.381036
 20
-41.912638
 30
0.0
 11
128.899784
 21
-42.549315
 31
0.0
  0
LINE
  5
1197
100
AcDbEntity
  8
BORDER
100
AcDbLine
 10
128.023388
 20
-41.242647
 30
0.0
 11
128.023388
 21
-42.549315
 31
0.0
  0
LINE
  5
1198
102
{ACAD_REACTORS
330
1176
102
}
100
AcDbEntity
  8
BORDER
100
AcDbLine
 10
128.310266
 20
-40.432714
 30
0.0
 11
128.310266
 21
-40.601844
 31
0.0
  0
ARC
  5
1199
100
AcDbEntity
  8
BORDER
100
AcDbCircle
 10
128.475109
 20
-41.577642
 30
0.0
 40
0.334995
100
AcDbArc
 50
270.0
 51
90.0
  0
LINE
  5
119A
100
AcDbEntity
  8
BORDER
100
AcDbLine
 10
128.023388
 20
-41.912638
 30
0.0
 11
128.475109
 21
-41.912638
 31
0.0
  0
LINE
  5
119B
100
AcDbEntity
  8
BORDER
100
AcDbLine
 10
128.475109
 20
-41.242647
 30
0.0
 11
128.023388
 21
-41.242647
 31
0.0
  0
LINE
  5
119C
102
{ACAD_REACTORS
330
1176
102
}
100
AcDbEntity
  8
BORDER
100
AcDbLine
 10
128.310266
 20
-40.432714
 30
0.0
 11
128.049139
 21
-40.432714
 31
0.0
  0
ARC
  5
119D
100
AcDbEntity
  8
BORDER
100
AcDbCircle
 10
121.707458
 20
-34.660559
 30
0.0
 40
1.588694
100
AcDbArc
 50
90.0
 51
180.0
  0
LINE
  5
119E
102
{ACAD_REACTORS
330
1176
102
}
100
AcDbEntity
  8
BORDER
100
AcDbLine
 10
125.123281
 20
-35.159349
 30
0.0
 11
125.836965
 21
-35.159349
 31
0.0
  0
LINE
  5
119F
102
{ACAD_REACTORS
330
1176
102
}
100
AcDbEntity
  8
BORDER
100
AcDbLine
 10
127.951988
 20
-35.159349
 30
0.0
 11
127.238304
 21
-35.159349
 31
0.0
  0
LINE
  5
11A0
102
{ACAD_REACTORS
330
1176
102
}
100
AcDbEntity
  8
BORDER
100
AcDbLine
 10
129.739548
 20
-36.775478
 30
0.0
 11
129.739548
 21
-34.745921
 31
0.0
  0
HATCH
  5
11A1
100
AcDbEntity
  8
BORDER
100
AcDbHatch
 10
0.0
 20
0.0
 30
0.0
210
0.0
220
0.0
230
1.0
  2
ANSI37
 70
     0
 71
     1
 91
        2
 92
        7
 72
     1
 73
     1
 93
       16
 10
133.2933975797598
 20
-40.13909316586818
 42
-0.4142135623731033
 10
132.9586923188315
 20
-40.47379842679644
 42
0.0
 10
132.8038007697364
 20
-40.47379842679643
 42
0.0
 10
132.8038007697365
 20
-40.5620200800741
 42
0.0
 10
134.2565384940319
 20
-40.5620200800741
 42
0.0
 10
134.256538494032
 20
-40.47379842679645
 42
0.0
 10
134.1016469449371
 20
-40.47379842679644
 42
-0.4142135623731046
 10
133.7669416840088
 20
-40.13909316586823
 42
0.0
 10
133.7669416840088
 20
-38.96601367266613
 42
0.060911755802349
 10
134.3528525854593
 20
-39.03819465993408
 42
0.4291497434371741
 10
135.3882290683014
 20
-38.1078591437949
 42
0.3916311771393089
 10
134.3746083754916
 20
-37.1587268933235
 42
0.0
 10
132.8063174439361
 20
-37.15872689332349
 42
0.0
 10
132.8063174439362
 20
-37.25214481397006
 42
0.0
 10
132.9586923188315
 20
-37.25214481397006
 42
-0.4142135623731013
 10
133.2933975797598
 20
-37.58685007489833
 42
0.0
 97
        1
330
11A4
 92
       22
 72
     1
 73
     1
 93
        3
 10
133.7669416840088
 20
-37.41010776879008
 42
-0.5287425889464079
 10
134.8183703368209
 20
-38.14795980393098
 42
-0.5439228899220654
 10
133.7669416840088
 20
-38.8376913592526
 42
0.0
 97
        1
330
11A3
 75
     0
 76
     1
 52
0.0
 41
0.024614
 77
     0
 78
     2
 53
45.0
 43
117.570821
 44
-129.465255
 45
-0.0021756301671622
 46
0.0021756301671622
 79
     0
 53
135.0
 43
117.570821
 44
-129.465255
 45
-0.0021756301671622
 46
-0.0021756301671622
 79
     0
 47
0.027301
 98
        2
 10
133.483455
 20
-38.02518
 10
133.483455
 20
-38.02518
  0
LINE
  5
11A2
100
AcDbEntity
  8
BORDER
100
AcDbLine
 10
129.957187
 20
-36.761361
 30
0.0
 11
138.098728
 21
-36.761361
 31
0.0
  0
LWPOLYLINE
  5
11A3
102
{ACAD_REACTORS
330
11A1
102
}
100
AcDbEntity
  8
BORDER
100
AcDbPolyline
 90
        3
 70
     1
 43
0.0
 10
133.766942
 20
-38.837691
 42
0.543923
 10
134.81837
 20
-38.14796
 42
0.528743
 10
133.766942
 20
-37.410108
  0
LWPOLYLINE
  5
11A4
102
{ACAD_REACTORS
330
11A1
102
}
100
AcDbEntity
  8
BORDER
100
AcDbPolyline
 90
       17
 70
     0
 43
0.0
 10
134.352853
 20
-39.038195
 42
-0.060912
 10
133.766942
 20
-38.966014
 10
133.766942
 20
-40.139093
 42
0.414214
 10
134.101647
 20
-40.473798
 10
134.256538
 20
-40.473798
 10
134.256538
 20
-40.56202
 10
132.803801
 20
-40.56202
 10
132.803801
 20
-40.473798
 10
132.958692
 20
-40.473798
 42
0.414214
 10
133.293398
 20
-40.139093
 10
133.293398
 20
-37.58685
 42
0.414214
 10
132.958692
 20
-37.252145
 10
132.806317
 20
-37.252145
 10
132.806317
 20
-37.158727
 10
134.362316
 20
-37.158727
 42
-0.395102
 10
135.388229
 20
-38.107859
 42
-0.42915
 10
134.352853
 20
-39.038195
  0
LINE
  5
11A5
100
AcDbEntity
  8
BORDER
100
AcDbLine
 10
134.482724
 20
-41.242647
 30
0.0
 11
135.589934
 21
-41.242647
 31
0.0
  0
ELLIPSE
  5
11A6
102
{ACAD_REACTORS
330
1175
102
}
100
AcDbEntity
  8
BORDER
100
AcDbEllipse
 10
130.861102
 20
-38.858306
 30
0.0
 11
0.000000000000012
 21
1.592554790241038
 31
0.0
210
0.0
220
0.0
230
1.0
 40
0.683214
 41
0.0
 42
6.283185307179586
  0
LINE
  5
11A7
100
AcDbEntity
  8
BORDER
100
AcDbLine
 10
132.414985
 20
-41.242647
 30
0.0
 11
131.963264
 21
-41.242647
 31
0.0
  0
LINE
  5
11A8
100
AcDbEntity
  8
BORDER
100
AcDbLine
 10
131.963264
 20
-41.912638
 30
0.0
 11
132.414985
 21
-41.912638
 31
0.0
  0
LINE
  5
11A9
100
AcDbEntity
  8
BORDER
100
AcDbLine
 10
131.963264
 20
-41.242647
 30
0.0
 11
131.963264
 21
-42.549315
 31
0.0
  0
SPLINE
  5
11AA
100
AcDbEntity
  8
BORDER
100
AcDbSpline
210
0.0
220
0.0
230
1.0
 70
    11
 71
     3
 72
    24
 73
    20
 74
     0
 42
0.0000001
 43
0.0000001
 40
0.0
 40
0.0
 40
0.0
 40
0.0
 40
0.474866629778075
 40
0.474866629778075
 40
1.277791044886493
 40
1.277791044886493
 40
2.080715459994911
 40
2.080715459994911
 40
2.883639875103329
 40
2.883639875103329
 40
3.686564290211747
 40
3.686564290211747
 40
4.489488705320165
 40
4.489488705320165
 40
5.292413120428583
 40
5.292413120428583
 40
6.095337535537001
 40
6.095337535537001
 40
6.283185307179586
 40
6.283185307179586
 40
6.283185307179586
 40
6.283185307179586
 10
130.9336939421439
 20
-41.2249242298601
 30
0.0
 10
130.8277909784405
 20
-41.2249242298601
 30
0.0
 10
130.7219772219492
 20
-41.25061277220247
 30
0.0
 10
130.4685531379343
 20
-41.38131190637275
 30
0.0
 10
130.3449169187804
 20
-41.53023674336358
 30
0.0
 10
130.2415016916382
 20
-41.87411112106587
 30
0.0
 10
130.2624102007557
 20
-42.06675675915002
 30
0.0
 10
130.4371825162575
 20
-42.38025777036303
 30
0.0
 10
130.5898816721445
 20
-42.49900774597129
 30
0.0
 10
130.9361573084249
 20
-42.59065541780613
 30
0.0
 10
131.1274010430873
 20
-42.56293085827744
 30
0.0
 10
131.4336325587718
 20
-42.37670252399702
 30
0.0
 10
131.5465639974212
 20
-42.2194590807802
 30
0.0
 10
131.6257130469288
 20
-41.86916545056745
 30
0.0
 10
131.5914047404958
 20
-41.67846093791236
 30
0.0
 10
131.3951680657053
 20
-41.37800650809558
 30
0.0
 10
131.2345486275897
 20
-41.27027630486927
 30
0.0
 10
131.0174792720881
 20
-41.22888304676397
 30
0.0
 10
130.9755870432685
 20
-41.2249242298601
 30
0.0
 10
130.9336939421439
 20
-41.2249242298601
 30
0.0
  0
ARC
  5
11AB
100
AcDbEntity
  8
BORDER
100
AcDbCircle
 10
129.742859
 20
-41.577642
 30
0.0
 40
0.334995
100
AcDbArc
 50
270.0
 51
90.0
  0
LINE
  5
11AC
100
AcDbEntity
  8
BORDER
100
AcDbLine
 10
134.216987
 20
-42.549315
 30
0.0
 11
133.698765
 21
-41.242647
 31
0.0
  0
LINE
  5
11AD
100
AcDbEntity
  8
BORDER
100
AcDbLine
 10
132.320912
 20
-41.912638
 30
0.0
 11
132.839659
 21
-42.549315
 31
0.0
  0
LINE
  5
11AE
100
AcDbEntity
  8
BORDER
100
AcDbLine
 10
133.698765
 20
-41.242647
 30
0.0
 11
133.198291
 21
-42.549315
 31
0.0
  0
LINE
  5
11AF
100
AcDbEntity
  8
BORDER
100
AcDbLine
 10
133.380776
 20
-42.072872
 30
0.0
 11
134.02803
 21
-42.072872
 31
0.0
  0
ARC
  5
11B0
100
AcDbEntity
  8
BORDER
100
AcDbCircle
 10
132.414985
 20
-41.577642
 30
0.0
 40
0.334995
100
AcDbArc
 50
270.0
 51
90.0
  0
HATCH
  5
11B1
100
AcDbEntity
  8
BORDER
100
AcDbHatch
 10
0.0
 20
0.0
 30
0.0
210
0.0
220
0.0
230
1.0
  2
ANSI37
 70
     0
 71
     1
 91
        2
 92
        7
 72
     1
 73
     1
 93
       16
 10
136.1510128183844
 20
-40.1519861928346
 42
-0.4142135623729107
 10
135.816307557456
 20
-40.48669145376277
 42
0.0
 10
135.6614160083611
 20
-40.48669145376277
 42
0.0
 10
135.6614160083611
 20
-40.5749131070398
 42
0.0
 10
137.1141537326564
 20
-40.5749131070398
 42
0.0
 10
137.1141537326563
 20
-40.48669145376277
 42
0.0
 10
136.959262183562
 20
-40.48669145376277
 42
-0.414213562373546
 10
136.6245569226331
 20
-40.15198619283439
 42
0.0
 10
136.6245569226331
 20
-38.97890669963192
 42
0.0609117558028006
 10
137.2104678240879
 20
-39.05108768689991
 42
0.4291497434354183
 10
138.2458443069263
 20
-38.1207521707625
 42
0.3916311771492565
 10
137.2322236140822
 20
-37.1716199202892
 42
0.0
 10
135.6639326825608
 20
-37.1716199202892
 42
0.0
 10
135.6639326825608
 20
-37.26503784093643
 42
0.0
 10
135.8163075574561
 20
-37.26503784093643
 42
-0.4142135623729989
 10
136.1510128183844
 20
-37.59974310186481
 42
0.0
 97
       16
330
11C5
330
11CC
330
11C9
330
11C8
330
11CA
330
11B2
330
11BE
330
11BC
330
11BD
330
11B9
330
11C0
330
11C1
330
11C2
330
11B3
330
11CD
330
11C4
 92
       22
 72
     1
 73
     1
 93
        3
 10
136.6245569226331
 20
-37.42300079575564
 42
-0.5287425889417858
 10
137.6759855754455
 20
-38.16085283088521
 42
-0.5439228899274264
 10
136.6245569226331
 20
-38.85058438621877
 42
0.0
 97
        3
330
11C7
330
11C6
330
11CB
 75
     0
 76
     1
 52
0.0
 41
0.024614
 77
     0
 78
     2
 53
45.0
 43
117.570821
 44
-129.465255
 45
-0.0021756301671622
 46
0.0021756301671622
 79
     0
 53
135.0
 43
117.570821
 44
-129.465255
 45
-0.0021756301671622
 46
-0.0021756301671622
 79
     0
 47
0.027301
 98
        2
 10
136.348314
 20
-38.320861
 10
136.348314
 20
-38.320861
  0
LINE
  5
11B2
102
{ACAD_REACTORS
330
11B1
102
}
100
AcDbEntity
  8
BORDER
100
AcDbLine
 10
136.151013
 20
-40.151986
 30
0.0
 11
136.151013
 21
-37.599743
 31
0.0
  0
LINE
  5
11B3
102
{ACAD_REACTORS
330
11B1
102
}
100
AcDbEntity
  8
BORDER
100
AcDbLine
 10
136.624557
 20
-38.978907
 30
0.0
 11
136.624557
 21
-40.151986
 31
0.0
  0
LINE
  5
11B4
100
AcDbEntity
  8
BORDER
100
AcDbLine
 10
137.085948
 20
-42.549315
 30
0.0
 11
137.579104
 21
-42.549315
 31
0.0
  0
LINE
  5
11B5
100
AcDbEntity
  8
BORDER
100
AcDbLine
 10
137.579104
 20
-41.242647
 30
0.0
 11
137.085948
 21
-41.242647
 31
0.0
  0
LINE
  5
11B6
100
AcDbEntity
  8
BORDER
100
AcDbLine
 10
135.878771
 20
-41.895981
 30
0.0
 11
136.439392
 21
-41.895981
 31
0.0
  0
LINE
  5
11B7
100
AcDbEntity
  8
BORDER
100
AcDbLine
 10
136.721796
 20
-42.549315
 30
0.0
 11
135.878771
 21
-42.549315
 31
0.0
  0
LINE
  5
11B8
100
AcDbEntity
  8
BORDER
100
AcDbLine
 10
135.878771
 20
-41.242647
 30
0.0
 11
136.721796
 21
-41.242647
 31
0.0
  0
LINE
  5
11B9
102
{ACAD_REACTORS
330
11B1
102
}
100
AcDbEntity
  8
BORDER
100
AcDbLine
 10
135.661416
 20
-40.574913
 30
0.0
 11
137.114154
 21
-40.574913
 31
0.0
  0
LINE
  5
11BA
100
AcDbEntity
  8
BORDER
100
AcDbLine
 10
135.036329
 20
-41.242647
 30
0.0
 11
135.036329
 21
-42.549315
 31
0.0
  0
LINE
  5
11BB
100
AcDbEntity
  8
BORDER
100
AcDbLine
 10
135.878771
 20
-42.549315
 30
0.0
 11
135.878771
 21
-41.242647
 31
0.0
  0
LINE
  5
11BC
102
{ACAD_REACTORS
330
11B1
102
}
100
AcDbEntity
  8
BORDER
100
AcDbLine
 10
135.661416
 20
-40.486691
 30
0.0
 11
135.816308
 21
-40.486691
 31
0.0
  0
LINE
  5
11BD
102
{ACAD_REACTORS
330
11B1
102
}
100
AcDbEntity
  8
BORDER
100
AcDbLine
 10
135.661416
 20
-40.486691
 30
0.0
 11
135.661416
 21
-40.574913
 31
0.0
  0
ARC
  5
11BE
102
{ACAD_REACTORS
330
11B1
102
}
100
AcDbEntity
  8
BORDER
100
AcDbCircle
 10
135.816308
 20
-40.151986
 30
0.0
 40
0.334705
100
AcDbArc
 50
270.0
 51
360.0
  0
LINE
  5
11BF
100
AcDbEntity
  8
BORDER
100
AcDbLine
 10
137.085948
 20
-41.242647
 30
0.0
 11
137.085948
 21
-42.549315
 31
0.0
  0
LINE
  5
11C0
102
{ACAD_REACTORS
330
11B1
102
}
100
AcDbEntity
  8
BORDER
100
AcDbLine
 10
137.114154
 20
-40.486691
 30
0.0
 11
137.114154
 21
-40.574913
 31
0.0
  0
LINE
  5
11C1
102
{ACAD_REACTORS
330
11B1
102
}
100
AcDbEntity
  8
BORDER
100
AcDbLine
 10
136.959262
 20
-40.486691
 30
0.0
 11
137.114154
 21
-40.486691
 31
0.0
  0
ARC
  5
11C2
102
{ACAD_REACTORS
330
11B1
102
}
100
AcDbEntity
  8
BORDER
100
AcDbCircle
 10
136.959262
 20
-40.151986
 30
0.0
 40
0.334705
100
AcDbArc
 50
180.0
 51
270.0
  0
ARC
  5
11C3
100
AcDbEntity
  8
BORDER
100
AcDbCircle
 10
137.579104
 20
-41.895981
 30
0.0
 40
0.653334
100
AcDbArc
 50
270.0
 51
90.0
  0
ARC
  5
11C4
102
{ACAD_REACTORS
330
11B1
102
}
100
AcDbEntity
  8
BORDER
100
AcDbCircle
 10
137.286005
 20
-38.093847
 30
0.0
 40
0.960216
100
AcDbArc
 50
265.488062
 51
358.394374
  0
ARC
  5
11C5
102
{ACAD_REACTORS
330
11B1
102
}
100
AcDbEntity
  8
BORDER
100
AcDbCircle
 10
137.226077
 20
-38.193995
 30
0.0
 40
1.022394
100
AcDbArc
 50
4.10812
 51
90.34444
  0
ARC
  5
11C6
102
{ACAD_REACTORS
330
11B1
102
}
100
AcDbEntity
  8
BORDER
100
AcDbCircle
 10
136.927044
 20
-38.165431
 30
0.0
 40
0.748955
100
AcDbArc
 50
246.179097
 51
0.350223
  0
ARC
  5
11C7
102
{ACAD_REACTORS
330
11B1
102
}
100
AcDbEntity
  8
BORDER
100
AcDbCircle
 10
136.898934
 20
-38.150079
 30
0.0
 40
0.777127
100
AcDbArc
 50
359.205673
 51
110.674935
  0
LINE
  5
11C8
102
{ACAD_REACTORS
330
11B1
102
}
100
AcDbEntity
  8
BORDER
100
AcDbLine
 10
135.663933
 20
-37.265038
 30
0.0
 11
135.816308
 21
-37.265038
 31
0.0
  0
LINE
  5
11C9
102
{ACAD_REACTORS
330
11B1
102
}
100
AcDbEntity
  8
BORDER
100
AcDbLine
 10
135.663933
 20
-37.17162
 30
0.0
 11
135.663933
 21
-37.265038
 31
0.0
  0
ARC
  5
11CA
102
{ACAD_REACTORS
330
11B1
102
}
100
AcDbEntity
  8
BORDER
100
AcDbCircle
 10
135.816308
 20
-37.599743
 30
0.0
 40
0.334705
100
AcDbArc
 50
0.0
 51
90.0
  0
LINE
  5
11CB
102
{ACAD_REACTORS
330
11B1
102
}
100
AcDbEntity
  8
BORDER
100
AcDbLine
 10
136.624557
 20
-37.423001
 30
0.0
 11
136.624557
 21
-38.850584
 31
0.0
  0
LINE
  5
11CC
102
{ACAD_REACTORS
330
11B1
102
}
100
AcDbEntity
  8
BORDER
100
AcDbLine
 10
135.663933
 20
-37.17162
 30
0.0
 11
137.232224
 21
-37.17162
 31
0.0
  0
ARC
  5
11CD
102
{ACAD_REACTORS
330
11B1
102
}
100
AcDbEntity
  8
BORDER
100
AcDbCircle
 10
137.212665
 20
-36.619166
 30
0.0
 40
2.431922
100
AcDbArc
 50
256.005504
 51
269.948223
  0
LINE
  5
11CE
100
AcDbEntity
  8
BORDER
100
AcDbLine
 10
134.370002
 20
-35.368146
 30
0.0
 11
135.153717
 21
-35.368146
 31
0.0
  0
ARC
  5
11CF
100
AcDbEntity
  8
BORDER
100
AcDbCircle
 10
131.876527
 20
-35.845055
 30
0.0
 40
0.476909
100
AcDbArc
 50
270.0
 51
90.0
  0
LINE
  5
11D0
100
AcDbEntity
  8
BORDER
100
AcDbLine
 10
131.673493
 20
-35.368146
 30
0.0
 11
131.673493
 21
-36.321963
 31
0.0
  0
LINE
  5
11D1
100
AcDbEntity
  8
BORDER
100
AcDbLine
 10
131.268142
 20
-35.368146
 30
0.0
 11
131.268142
 21
-36.321963
 31
0.0
  0
LINE
  5
11D2
100
AcDbEntity
  8
BORDER
100
AcDbLine
 10
131.673493
 20
-36.321963
 30
0.0
 11
131.876527
 21
-36.321963
 31
0.0
  0
LINE
  5
11D3
100
AcDbEntity
  8
BORDER
100
AcDbLine
 10
131.876527
 20
-35.368146
 30
0.0
 11
131.673493
 21
-35.368146
 31
0.0
  0
LINE
  5
11D4
100
AcDbEntity
  8
BORDER
100
AcDbLine
 10
130.61435
 20
-35.348205
 30
0.0
 11
130.61435
 21
-36.321963
 31
0.0
  0
LINE
  5
11D5
100
AcDbEntity
  8
BORDER
100
AcDbLine
 10
130.182848
 20
-35.368146
 30
0.0
 11
130.182848
 21
-36.321963
 31
0.0
  0
LINE
  5
11D6
100
AcDbEntity
  8
BORDER
100
AcDbLine
 10
130.182848
 20
-35.368146
 30
0.0
 11
130.329683
 21
-35.368146
 31
0.0
  0
LINE
  5
11D7
100
AcDbEntity
  8
BORDER
100
AcDbLine
 10
131.268142
 20
-36.321963
 30
0.0
 11
130.61435
 21
-35.348205
 31
0.0
  0
LINE
  5
11D8
100
AcDbEntity
  8
BORDER
100
AcDbLine
 10
130.036014
 20
-36.321963
 30
0.0
 11
130.329683
 21
-36.321963
 31
0.0
  0
LINE
  5
11D9
100
AcDbEntity
  8
BORDER
100
AcDbLine
 10
130.036014
 20
-35.368146
 30
0.0
 11
130.182848
 21
-35.368146
 31
0.0
  0
LINE
  5
11DA
100
AcDbEntity
  8
BORDER
100
AcDbLine
 10
134.76186
 20
-35.368146
 30
0.0
 11
134.76186
 21
-36.321963
 31
0.0
  0
ARC
  5
11DB
100
AcDbEntity
  8
BORDER
100
AcDbCircle
 10
133.757501
 20
-35.571485
 30
0.0
 40
0.13469
100
AcDbArc
 50
140.101426
 51
236.383068
  0
ARC
  5
11DC
100
AcDbEntity
  8
BORDER
100
AcDbCircle
 10
133.890598
 20
-35.662944
 30
0.0
 40
0.295856
100
AcDbArc
 50
25.379638
 51
143.047804
  0
ARC
  5
11DD
100
AcDbEntity
  8
BORDER
100
AcDbCircle
 10
133.928995
 20
-36.019498
 30
0.0
 40
0.301989
100
AcDbArc
 50
200.502447
 51
334.026213
  0
ARC
  5
11DE
100
AcDbEntity
  8
BORDER
100
AcDbCircle
 10
138.097439
 20
-29.043539
 30
0.0
 40
7.973641
100
AcDbArc
 50
236.383068
 51
240.315223
  0
ARC
  5
11DF
100
AcDbEntity
  8
BORDER
100
AcDbCircle
 10
134.081967
 20
-36.087758
 30
0.0
 40
0.13469
100
AcDbArc
 50
331.630608
 51
60.315223
  0
ARC
  5
11E0
100
AcDbEntity
  8
BORDER
100
AcDbCircle
 10
133.013765
 20
-36.001605
 30
0.0
 40
0.320358
100
AcDbArc
 50
180.0
 51
0.0
  0
LINE
  5
11E1
100
AcDbEntity
  8
BORDER
100
AcDbLine
 10
132.693407
 20
-36.001605
 30
0.0
 11
132.693407
 21
-35.368146
 31
0.0
  0
LINE
  5
11E2
100
AcDbEntity
  8
BORDER
100
AcDbLine
 10
133.334123
 20
-35.368146
 30
0.0
 11
133.334123
 21
-36.001605
 31
0.0
  0
LINE
  5
11E3
100
AcDbEntity
  8
BORDER
100
AcDbLine
 10
137.400208
 20
-36.321963
 30
0.0
 11
136.826066
 21
-36.321963
 31
0.0
  0
LINE
  5
11E4
100
AcDbEntity
  8
BORDER
100
AcDbLine
 10
136.826066
 20
-35.368146
 30
0.0
 11
137.400208
 21
-35.368146
 31
0.0
  0
LINE
  5
11E5
100
AcDbEntity
  8
BORDER
100
AcDbLine
 10
136.23717
 20
-36.321963
 30
0.0
 11
136.530839
 21
-36.321963
 31
0.0
  0
LINE
  5
11E6
100
AcDbEntity
  8
BORDER
100
AcDbLine
 10
136.23717
 20
-35.368146
 30
0.0
 11
136.530839
 21
-35.368146
 31
0.0
  0
LINE
  5
11E7
100
AcDbEntity
  8
BORDER
100
AcDbLine
 10
135.356176
 20
-35.849651
 30
0.0
 11
135.703117
 21
-35.849651
 31
0.0
  0
LINE
  5
11E8
100
AcDbEntity
  8
BORDER
100
AcDbLine
 10
135.703117
 20
-35.368146
 30
0.0
 11
135.356176
 21
-35.368146
 31
0.0
  0
LINE
  5
11E9
100
AcDbEntity
  8
BORDER
100
AcDbLine
 10
135.356176
 20
-35.368146
 30
0.0
 11
135.356176
 21
-36.321963
 31
0.0
  0
LINE
  5
11EA
100
AcDbEntity
  8
BORDER
100
AcDbLine
 10
135.636612
 20
-35.849651
 30
0.0
 11
135.93912
 21
-36.321963
 31
0.0
  0
ARC
  5
11EB
100
AcDbEntity
  8
BORDER
100
AcDbCircle
 10
135.703117
 20
-35.608899
 30
0.0
 40
0.240752
100
AcDbArc
 50
270.0
 51
90.0
  0
LINE
  5
11EC
100
AcDbEntity
  8
BORDER
100
AcDbLine
 10
136.826066
 20
-36.321963
 30
0.0
 11
136.826066
 21
-35.368146
 31
0.0
  0
LINE
  5
11ED
100
AcDbEntity
  8
BORDER
100
AcDbLine
 10
136.384004
 20
-35.368146
 30
0.0
 11
136.384004
 21
-36.321963
 31
0.0
  0
LINE
  5
11EE
100
AcDbEntity
  8
BORDER
100
AcDbLine
 10
136.826066
 20
-35.845055
 30
0.0
 11
137.275019
 21
-35.845055
 31
0.0
  0
ARC
  5
11EF
100
AcDbEntity
  8
BORDER
100
AcDbCircle
 10
137.896514
 20
-36.019498
 30
0.0
 40
0.301989
100
AcDbArc
 50
200.502447
 51
334.026213
  0
ARC
  5
11F0
100
AcDbEntity
  8
BORDER
100
AcDbCircle
 10
137.858118
 20
-35.662944
 30
0.0
 40
0.295856
100
AcDbArc
 50
25.379638
 51
143.047804
  0
ARC
  5
11F1
100
AcDbEntity
  8
BORDER
100
AcDbCircle
 10
142.064959
 20
-29.043539
 30
0.0
 40
7.973641
100
AcDbArc
 50
236.383068
 51
240.315223
  0
ARC
  5
11F2
100
AcDbEntity
  8
BORDER
100
AcDbCircle
 10
137.72502
 20
-35.571485
 30
0.0
 40
0.13469
100
AcDbArc
 50
140.101426
 51
236.383068
  0
ARC
  5
11F3
100
AcDbEntity
  8
BORDER
100
AcDbCircle
 10
138.049487
 20
-36.087758
 30
0.0
 40
0.13469
100
AcDbArc
 50
331.630608
 51
60.315223
  0
TEXT
  5
11F4
100
AcDbEntity
  8
BORDER
 62
     6
100
AcDbText
 10
217.596262
 20
-35.195557
 30
0.0
 40
1.069214
  1
Revisions
  7
ROMANC
100
AcDbText
  0
LWPOLYLINE
  5
11F5
100
AcDbEntity
  8
BORDER
 62
     5
100
AcDbPolyline
 90
        2
 70
     0
 43
0.794347
 10
230.571254
 20
-31.48317
 10
213.095618
 20
-31.48317
  0
LINE
  5
11F6
100
AcDbEntity
  8
BORDER
100
AcDbLine
 10
230.571254
 20
-33.071864
 30
0.0
 11
213.095618
 21
-33.071864
 31
0.0
  0
LINE
  5
11F7
100
AcDbEntity
  8
BORDER
100
AcDbLine
 10
230.571254
 20
-35.907073
 30
0.0
 11
213.095618
 21
-35.907073
 31
0.0
  0
LINE
  5
11F8
100
AcDbEntity
  8
BORDER
100
AcDbLine
 10
230.571254
 20
-37.495767
 30
0.0
 11
213.095618
 21
-37.495767
 31
0.0
  0
LINE
  5
11F9
100
AcDbEntity
  8
BORDER
100
AcDbLine
 10
230.571254
 20
-39.084462
 30
0.0
 11
213.095618
 21
-39.084462
 31
0.0
  0
LINE
  5
11FA
100
AcDbEntity
  8
BORDER
100
AcDbLine
 10
230.571254
 20
-40.673156
 30
0.0
 11
213.095618
 21
-40.673156
 31
0.0
  0
LINE
  5
11FB
100
AcDbEntity
  8
BORDER
100
AcDbLine
 10
230.571254
 20
-42.26185
 30
0.0
 11
213.095618
 21
-42.26185
 31
0.0
  0
TEXT
  5
11FC
100
AcDbEntity
  8
BORDER
 62
     6
100
AcDbText
 10
214.820827
 20
-37.097239
 30
0.0
 40
0.794347
  1
First Released 06/27/03
  7
ROMAND
100
AcDbText
  0
LINE
  5
11FD
100
AcDbEntity
  8
BORDER
100
AcDbLine
 10
230.571254
 20
-44.192724
 30
0.0
 11
211.506923
 21
-44.192724
 31
0.0
  0
TEXT
  5
11FE
100
AcDbEntity
  8
BORDER
 62
     6
100
AcDbText
 10
177.785482
 20
-43.554426
 30
0.0
 40
0.913499
  1
06/26/03
  7
ROMAND
100
AcDbText
  0
LINE
  5
11FF
100
AcDbEntity
  8
BORDER
100
AcDbLine
 10
145.537871
 20
-44.192724
 30
0.0
 11
183.014501
 21
-44.192724
 31
0.0
  0
LINE
  5
1200
100
AcDbEntity
  8
BORDER
100
AcDbLine
 10
147.126566
 20
-33.071864
 30
0.0
 11
183.014501
 21
-33.071864
 31
0.0
  0
LINE
  5
1201
100
AcDbEntity
  8
BORDER
100
AcDbLine
 10
145.537871
 20
-39.426641
 30
0.0
 11
183.014501
 21
-39.426641
 31
0.0
  0
LINE
  5
1202
100
AcDbEntity
  8
BORDER
100
AcDbLine
 10
145.537871
 20
-40.567885
 30
0.0
 11
183.014501
 21
-40.567885
 31
0.0
  0
LWPOLYLINE
  5
1203
100
AcDbEntity
  8
BORDER
 62
     5
100
AcDbPolyline
 90
        2
 70
     0
 43
0.794347
 10
147.126566
 20
-31.48317
 10
205.152147
 20
-31.48317
  0
LINE
  5
1204
100
AcDbEntity
  8
BORDER
100
AcDbLine
 10
169.753423
 20
-33.071864
 30
0.0
 11
205.152147
 21
-33.071864
 31
0.0
  0
LINE
  5
1205
100
AcDbEntity
  8
BORDER
100
AcDbLine
 10
169.753423
 20
-39.426641
 30
0.0
 11
206.740841
 21
-39.426641
 31
0.0
  0
LINE
  5
1206
100
AcDbEntity
  8
BORDER
100
AcDbLine
 10
169.753423
 20
-44.192724
 30
0.0
 11
187.67651
 21
-44.192724
 31
0.0
  0
LINE
  5
1207
100
AcDbEntity
  8
BORDER
100
AcDbLine
 10
169.753423
 20
-40.567885
 30
0.0
 11
187.67651
 21
-40.567885
 31
0.0
  0
TEXT
  5
1208
100
AcDbEntity
  8
BORDER
 62
     6
100
AcDbText
 10
152.125116
 20
-42.710246
 30
0.0
 40
0.605888
  1
Rochester, IN  46975
  7
ROMANC
100
AcDbText
  0
TEXT
  5
1209
100
AcDbEntity
  8
BORDER
 62
     6
100
AcDbText
 10
149.515992
 20
-41.634245
 30
0.0
 40
0.605888
  1
Highway 25 North P.O. Box 420
  7
ROMANC
100
AcDbText
  0
TEXT
  5
120A
100
AcDbEntity
  8
BORDER
 62
     6
100
AcDbText
 10
150.443637
 20
-35.342059
 30
0.0
 40
0.819731
  1
SIMPLEX STEEL COVER
  7
ROMANC
100
AcDbText
  0
LINE
  5
120B
100
AcDbEntity
  8
BORDER
100
AcDbLine
 10
145.537871
 20
-36.740774
 30
0.0
 11
169.753423
 21
-36.740774
 31
0.0
  0
TEXT
  5
120C
100
AcDbEntity
  8
BORDER
 62
     6
100
AcDbText
 10
146.654756
 20
-43.928811
 30
0.0
 40
0.605888
  1
Phone: 800/354-4534  Fax: 574/223-6106
  7
ROMANC
100
AcDbText
  0
LINE
  5
120D
100
AcDbEntity
  8
BORDER
100
AcDbLine
 10
145.537871
 20
-44.192724
 30
0.0
 11
145.537871
 21
-40.567885
 31
0.0
  0
LWPOLYLINE
  5
120E
100
AcDbEntity
  8
BORDER
 62
     5
100
AcDbPolyline
 90
        2
 70
     0
 43
0.794347
 10
143.949177
 20
-34.660559
 10
143.949177
 20
-44.192724
  0
LWPOLYLINE
  5
120F
100
AcDbEntity
  8
BORDER
 62
     5
100
AcDbPolyline
 90
        2
 70
     0
 43
0.794347
 10
142.360483
 20
-44.192724
 10
142.360483
 20
-34.660559
  0
LINE
  5
1210
100
AcDbEntity
  8
BORDER
100
AcDbLine
 10
140.771789
 20
-44.192724
 30
0.0
 11
140.771789
 21
-34.660559
 31
0.0
  0
TEXT
  5
1211
100
AcDbEntity
  8
BORDER
 62
     6
100
AcDbText
 10
145.768069
 20
-37.799162
 30
0.0
 40
0.712809
  1
Reference:
  7
ROMANC
100
AcDbText
  0
LINE
  5
1212
100
AcDbEntity
  8
BORDER
100
AcDbLine
 10
145.537871
 20
-39.426641
 30
0.0
 11
145.537871
 21
-34.660559
 31
0.0
  0
LWPOLYLINE
  5
1213
100
AcDbEntity
  8
BORDER
 62
     5
100
AcDbPolyline
 90
        2
 70
     0
 43
0.794347
 10
147.126566
 20
-31.48317
 42
0.414214
 10
143.949177
 20
-34.660559
 42
-0.560527
  0
ARC
  5
1214
100
AcDbEntity
  8
BORDER
100
AcDbCircle
 10
147.126566
 20
-34.660559
 30
0.0
 40
1.588694
100
AcDbArc
 50
90.0
 51
180.0
  0
TEXT
  5
1215
100
AcDbEntity
  8
BORDER
 62
     6
100
AcDbText
 10
157.023855
 20
-38.304532
 30
0.0
 40
0.712809
  1
-
  7
ROMANC
100
AcDbText
  0
LINE
  5
1216
100
AcDbEntity
  8
BORDER
100
AcDbLine
 10
169.753423
 20
-44.192724
 30
0.0
 11
169.753423
 21
-40.567885
 31
0.0
  0
TEXT
  5
1217
100
AcDbEntity
  8
BORDER
 62
     6
100
AcDbText
 10
170.119679
 20
-42.96228
 30
0.0
 40
0.712809
  1
Prior To:
  7
ROMANC
100
AcDbText
  0
TEXT
  5
1218
100
AcDbEntity
  8
BORDER
 62
     6
100
AcDbText
 10
170.079046
 20
-35.821836
 30
0.0
 40
0.712809
  1
Drawn By:
  7
ROMANC
100
AcDbText
  0
TEXT
  5
1219
100
AcDbEntity
  8
BORDER
 62
     6
100
AcDbText
 10
170.119679
 20
-41.808209
 30
0.0
 40
0.712809
  1
Supersedes Prints
  7
ROMANC
100
AcDbText
  0
TEXT
  5
121A
100
AcDbEntity
  8
BORDER
 62
     6
100
AcDbText
 10
170.079046
 20
-39.21861
 30
0.0
 40
0.712809
  1
Date: 06/26/03
  7
ROMANC
100
AcDbText
  0
TEXT
  5
121B
100
AcDbEntity
  8
BORDER
 62
     6
100
AcDbText
 10
170.079046
 20
-37.520223
 30
0.0
 40
0.712809
  1
Appv'd By: .
  7
ROMANC
100
AcDbText
  0
TEXT
  5
121C
100
AcDbEntity
  8
BORDER
 62
     6
100
AcDbText
 10
170.079046
 20
-34.12345
 30
0.0
 40
0.712809
  1
Scale: None
  7
ROMANC
100
AcDbText
  0
LINE
  5
121D
100
AcDbEntity
  8
BORDER
100
AcDbLine
 10
169.753423
 20
-39.426641
 30
0.0
 11
169.753423
 21
-33.071864
 31
0.0
  0
TEXT
  5
121E
100
AcDbEntity
  8
BORDER
 62
     6
100
AcDbText
 10
176.620664
 20
-35.89775
 30
0.0
 40
0.972207
  1
RM
  7
COUNTRYBLUEPRINT
100
AcDbText
  0
LINE
  5
121F
100
AcDbEntity
  8
BORDER
100
AcDbLine
 10
188.817753
 20
-40.567885
 30
0.0
 11
206.740841
 21
-40.567885
 31
0.0
  0
LINE
  5
1220
100
AcDbEntity
  8
BORDER
100
AcDbLine
 10
188.817753
 20
-44.192724
 30
0.0
 11
206.740841
 21
-44.192724
 31
0.0
  0
TEXT
  5
1221
100
AcDbEntity
  8
BORDER
 62
     6
100
AcDbText
 10
195.289608
 20
-43.382384
 30
0.0
 40
2.138427
  1
10083
  7
ROMANC
100
AcDbText
  0
TEXT
  5
1222
100
AcDbEntity
  8
BORDER
 62
     6
100
AcDbText
 10
181.742345
 20
-34.163745
 30
0.0
 40
0.596286
  1
This print is and contains confidential proprietary information owned exclusively
 41
0.656934
  7
ROMANS
 72
     5
 11
206.308821
 21
-34.163745
 31
0.0
100
AcDbText
  0
TEXT
  5
1223
100
AcDbEntity
  8
BORDER
 62
     6
100
AcDbText
 10
181.742345
 20
-35.129161
 30
0.0
 40
0.596286
  1
by TOPP INDUSTRIES, INC. It is furnished on a strictly confidential basis.  This
 41
0.659437
  7
ROMANS
 72
     5
 11
206.308821
 21
-35.129161
 31
0.0
100
AcDbText
  0
TEXT
  5
1224
100
AcDbEntity
  8
BORDER
 62
     6
100
AcDbText
 10
181.742345
 20
-36.094576
 30
0.0
 40
0.596286
  1
restriction includes, but is not limited to the condition that this print will not only
 41
0.626489
  7
ROMANS
 72
     5
 11
206.308821
 21
-36.094576
 31
0.0
100
AcDbText
  0
TEXT
  5
1225
100
AcDbEntity
  8
BORDER
 62
     6
100
AcDbText
 10
181.742345
 20
-37.059992
 30
0.0
 40
0.596286
  1
be used as a record or to identify or inspect parts or for other information purposes
 41
0.596266
  7
ROMANS
 72
     5
 11
206.308821
 21
-37.059992
 31
0.0
100
AcDbText
  0
TEXT
  5
1226
100
AcDbEntity
  8
BORDER
 62
     6
100
AcDbText
 10
181.742345
 20
-38.025408
 30
0.0
 40
0.596286
  1
and will not be used to manufacture or procure the manufacture of the items shown
 41
0.600404
  7
ROMANS
 72
     5
 11
206.308821
 21
-38.025408
 31
0.0
100
AcDbText
  0
TEXT
  5
1227
100
AcDbEntity
  8
BORDER
 62
     6
100
AcDbText
 10
181.742345
 20
-38.990823
 30
0.0
 40
0.596286
  1
in this print by any other source than TOPP INDUSTRIES, INC.
 41
0.839168
  7
ROMANS
 72
     5
 11
206.308821
 21
-38.990823
 31
0.0
100
AcDbText
  0
LINE
  5
1228
100
AcDbEntity
  8
BORDER
100
AcDbLine
 10
188.817753
 20
-40.567885
 30
0.0
 11
188.817753
 21
-44.192724
 31
0.0
  0
LINE
  5
1229
100
AcDbEntity
  8
BORDER
100
AcDbLine
 10
187.67651
 20
-40.567885
 30
0.0
 11
187.67651
 21
-44.192724
 31
0.0
  0
TEXT
  5
122A
100
AcDbEntity
  8
BORDER
 62
     6
100
AcDbText
 10
189.19289
 20
-41.72922
 30
0.0
 40
0.712809
  1
Reference
  7
ROMANC
100
AcDbText
  0
TEXT
  5
122B
100
AcDbEntity
  8
BORDER
 62
     6
100
AcDbText
 10
189.19289
 20
-42.883292
 30
0.0
 40
0.712809
  1
No:
  7
ROMANC
100
AcDbText
  0
LWPOLYLINE
  5
122C
100
AcDbEntity
  8
BORDER
 62
     5
100
AcDbPolyline
 90
        2
 70
     0
 43
0.794347
 10
208.329535
 20
-44.192724
 10
208.329535
 20
-34.660559
  0
LWPOLYLINE
  5
122D
100
AcDbEntity
  8
BORDER
 62
     5
100
AcDbPolyline
 90
        2
 70
     0
 43
0.794347
 10
209.918229
 20
-44.192724
 10
209.918229
 20
-34.660559
  0
LINE
  5
122E
100
AcDbEntity
  8
BORDER
100
AcDbLine
 10
211.506923
 20
-44.192724
 30
0.0
 11
211.506923
 21
-34.660559
 31
0.0
  0
LINE
  5
122F
100
AcDbEntity
  8
BORDER
100
AcDbLine
 10
206.740841
 20
-40.567885
 30
0.0
 11
206.740841
 21
-44.192724
 31
0.0
  0
LWPOLYLINE
  5
1230
100
AcDbEntity
  8
BORDER
 62
     5
100
AcDbPolyline
 90
        2
 70
     0
 43
0.794347
 10
213.095618
 20
-31.48317
 42
0.414214
 10
209.918229
 20
-34.660559
 42
-0.560527
  0
ARC
  5
1231
100
AcDbEntity
  8
BORDER
100
AcDbCircle
 10
213.095618
 20
-34.660559
 30
0.0
 40
1.588694
100
AcDbArc
 50
90.0
 51
180.0
  0
LINE
  5
1232
100
AcDbEntity
  8
BORDER
100
AcDbLine
 10
206.740841
 20
-34.660559
 30
0.0
 11
206.740841
 21
-39.426641
 31
0.0
  0
LWPOLYLINE
  5
1233
100
AcDbEntity
  8
BORDER
 62
     5
100
AcDbPolyline
 90
        2
 70
     0
 43
0.794347
 10
205.152147
 20
-31.48317
 42
-0.414214
 10
208.329535
 20
-34.660559
 42
0.560527
  0
ARC
  5
1234
100
AcDbEntity
  8
BORDER
100
AcDbCircle
 10
205.152147
 20
-34.660559
 30
0.0
 40
1.588694
100
AcDbArc
 50
0.0
 51
90.0
  0
LINE
  5
1235
100
AcDbEntity
  8
BORDER
100
AcDbLine
 10
214.684312
 20
-35.907073
 30
0.0
 11
214.684312
 21
-42.26185
 31
0.0
  0
LINE
  5
1236
100
AcDbEntity
  8
BORDER
100
AcDbLine
 10
213.095618
 20
-35.907073
 30
0.0
 11
213.095618
 21
-42.26185
 31
0.0
  0
LWPOLYLINE
  5
1237
100
AcDbEntity
  8
BORDER
100
AcDbPolyline
 90
        6
 70
     1
 43
0.0
 10
214.228195
 20
-37.290508
 10
214.566667
 20
-36.704258
 10
214.228195
 20
-36.118007
 10
213.551251
 20
-36.118007
 10
213.212779
 20
-36.704258
 10
213.551251
 20
-37.290508
  0
TEXT
  5
1238
100
AcDbEntity
  8
BORDER
 62
     6
100
AcDbText
 10
213.512469
 20
-37.097239
 30
0.0
 40
0.794347
  1
1
  7
ROMAND
100
AcDbText
  0
ARC
  5
1239
100
AcDbEntity
  8
BORDER
100
AcDbCircle
 10
230.571254
 20
-42.60403
 30
0.0
 40
1.588694
100
AcDbArc
 50
270.0
 51
0.0
  0
LWPOLYLINE
  5
123A
100
AcDbEntity
  8
BORDER
 62
     5
100
AcDbPolyline
 90
        2
 70
     0
 43
0.794347
 10
230.571254
 20
-45.781418
 42
0.414214
 10
233.748643
 20
-42.60403
 42
-0.560527
  0
LWPOLYLINE
  5
123B
100
AcDbEntity
  8
BORDER
 62
     5
100
AcDbPolyline
 90
        2
 70
     0
 43
0.794347
 10
230.571254
 20
-31.48317
 42
-0.414214
 10
233.748643
 20
-34.660559
 42
0.560527
  0
LWPOLYLINE
  5
123C
100
AcDbEntity
  8
BORDER
 62
     5
100
AcDbPolyline
 90
        2
 70
     0
 43
0.794347
 10
233.748643
 20
-34.660559
 10
233.748643
 20
-42.60403
  0
LINE
  5
123D
100
AcDbEntity
  8
BORDER
100
AcDbLine
 10
232.159948
 20
-42.60403
 30
0.0
 11
232.159948
 21
-34.660559
 31
0.0
  0
LINE
  5
123E
100
AcDbEntity
  8
BORDER
100
AcDbLine
 10
230.571254
 20
-35.907073
 30
0.0
 11
230.571254
 21
-42.26185
 31
0.0
  0
ARC
  5
123F
100
AcDbEntity
  8
BORDER
100
AcDbCircle
 10
230.571254
 20
-34.660559
 30
0.0
 40
1.588694
100
AcDbArc
 50
0.0
 51
90.0
  0
LINE
  5
1240
100
AcDbEntity
  8
LIMITS
 62
     7
100
AcDbLine
 10
236.290553
 20
106.726645
 30
0.0
 11
115.988159
 21
106.726645
 31
0.0
  0
LINE
  5
1241
100
AcDbEntity
  8
BORDER
 62
     5
100
AcDbLine
 10
232.477687
 20
104.184735
 30
0.0
 11
119.801025
 21
104.184735
 31
0.0
  0
LWPOLYLINE
  5
1242
100
AcDbEntity
  8
BORDER
 62
     5
100
AcDbPolyline
 90
        2
 70
     0
 43
0.317739
 10
232.477687
 20
104.184735
 10
119.801025
 20
104.184735
  0
TEXT
  5
1243
100
AcDbEntity
  8
DIM
 62
     6
100
AcDbText
 10
172.427166
 20
76.278928
 30
0.0
 40
1.5
  1
(OPTIONAL)
  7
ROMANS
100
AcDbText
  0
TEXT
  5
1244
100
AcDbEntity
  8
DIM
 62
     6
100
AcDbText
 10
172.427166
 20
61.328524
 30
0.0
 40
1.5
  1
(OPTIONAL)
  7
ROMANS
100
AcDbText
  0
TEXT
  5
1245
100
AcDbEntity
  8
DIM
 62
     6
100
AcDbText
 10
174.134476
 20
8.152214
 30
0.0
 40
1.275
  1
.25
  7
ROMANS
100
AcDbText
  0
TEXT
  5
1246
100
AcDbEntity
  8
DIM
 62
     6
100
AcDbText
 10
174.134476
 20
9.852214
 30
0.0
 40
1.275
  1
.25
  7
ROMANS
100
AcDbText
  0
LWPOLYLINE
  5
1247
100
AcDbEntity
  8
DIM
 62
     6
100
AcDbPolyline
 90
        2
 70
     0
 43
0.2125
 39
17.0
 10
125.925945
 20
7.31891
 10
224.423741
 20
7.31891
  0
LINE
  5
1248
100
AcDbEntity
  8
DIM
 62
     6
100
AcDbLine
 39
25.0
 10
172.681525
 20
59.266053
 30
0.0
 11
182.844606
 21
59.266053
 31
0.0
  0
LINE
  5
1249
100
AcDbEntity
  8
DIM
 62
     6
100
AcDbLine
 39
25.0
 10
172.993963
 20
74.266271
 30
0.0
 11
183.355451
 21
74.266271
 31
0.0
  0
TEXT
  5
124A
100
AcDbEntity
  8
DIM
 62
     6
100
AcDbText
 10
172.801641
 20
45.612629
 30
0.0
 40
0.9375
  1
SPECIFY CORD GRIPS
  7
ROMAND
100
AcDbText
  0
TEXT
  5
124B
100
AcDbEntity
  8
DIM
 62
     6
100
AcDbText
 10
172.80771
 20
47.456488
 30
0.0
 40
0.9375
  1
3/8"  IF OVER 3/8" 
  7
ROMAND
100
AcDbText
  0
TEXT
  5
124C
100
AcDbEntity
  8
DIM
 62
     6
100
AcDbText
 10
172.612194
 20
49.202122
 30
0.0
 40
0.9375
  1
USE FOR CORDS UP TO
  7
ROMAND
100
AcDbText
  0
TEXT
  5
124D
100
AcDbEntity
  8
DIM
 62
     6
100
AcDbText
 10
172.92405
 20
55.993946
 30
0.0
 40
0.9375
  1
3" OR 4"
  7
ROMAND
100
AcDbText
  0
TEXT
  5
124E
100
AcDbEntity
  8
DIM
 62
     6
100
AcDbText
 10
172.74979
 20
57.641116
 30
0.0
 40
0.9375
  1
1.25" 1.5" 2" 
  7
ROMAND
100
AcDbText
  0
TEXT
  5
124F
100
AcDbEntity
  8
DIM
 62
     6
100
AcDbText
 10
172.722178
 20
59.541697
 30
0.0
 40
0.9375
  1
SPECIFY SIZE:
  7
ROMAND
100
AcDbText
  0
TEXT
  5
1250
100
AcDbEntity
  8
DIM
 62
     6
100
AcDbText
 10
172.883334
 20
70.976068
 30
0.0
 40
0.9375
  1
3" OR 4"
  7
ROMAND
100
AcDbText
  0
TEXT
  5
1251
100
AcDbEntity
  8
DIM
 62
     6
100
AcDbText
 10
173.103786
 20
74.523819
 30
0.0
 40
0.9375
  1
SPECIFY SIZE:
  7
ROMAND
100
AcDbText
  0
TEXT
  5
1252
100
AcDbEntity
  8
DIM
 62
     6
100
AcDbText
 10
172.821239
 20
72.623238
 30
0.0
 40
0.9375
  1
1.25" 1.5" 2" 
  7
ROMAND
100
AcDbText
  0
TEXT
  5
1253
100
AcDbEntity
  8
DIM
 62
     6
100
AcDbText
 10
172.584006
 20
34.344354
 30
0.0
 40
1.5
  1
ACCESS OPENING
  7
ROMANS
100
AcDbText
  0
TEXT
  5
1254
100
AcDbEntity
  8
DIM
 62
     6
100
AcDbText
 10
172.584006
 20
36.394073
 30
0.0
 40
1.5
  1
DIA. CLEAR 
  7
ROMANS
100
AcDbText
  0
TEXT
  5
1255
100
AcDbEntity
  8
DIM
 62
     6
100
AcDbText
 10
161.531986
 20
84.042197
 30
0.0
 40
1.5
  1
GASKET TAPE PROVIDED
  7
ROMANS
 72
     1
 11
175.174843
 21
84.042197
 31
0.0
100
AcDbText
  0
TEXT
  5
1256
100
AcDbEntity
  8
DIM
 62
     6
100
AcDbText
 10
152.496271
 20
86.112662
 30
0.0
 40
1.5
  1
STAINLESS STEEL HARDWARE STANDARD
  7
ROMANS
 72
     1
 11
175.174843
 21
86.112662
 31
0.0
100
AcDbText
  0
LWPOLYLINE
  5
1257
100
AcDbEntity
  8
DIM
 62
     6
100
AcDbPolyline
 90
        2
 70
     0
 43
0.25
 39
20.0
 10
141.441335
 20
88.44405
 10
207.568345
 20
88.44405
  0
TEXT
  5
1258
100
AcDbEntity
  8
DIM
 62
     6
100
AcDbText
 10
172.687121
 20
78.396304
 30
0.0
 40
1.5
  1
VENT
  7
ROMANS
100
AcDbText
  0
TEXT
  5
1259
100
AcDbEntity
  8
DIM
 62
     6
100
AcDbText
 10
173.427881
 20
13.319148
 30
0.0
 40
1.275
  1
THICKNESS
 41
0.612153
  7
ROMAND
 72
     5
 11
179.671839
 21
13.319148
 31
0.0
100
AcDbText
  0
LWPOLYLINE
  5
125A
100
AcDbEntity
  8
DIM
 62
     6
100
AcDbPolyline
 90
        2
 70
     0
 43
0.2125
 39
17.0
 10
125.925945
 20
21.844477
 10
224.423741
 20
21.844477
  0
TEXT
  5
125B
100
AcDbEntity
  8
DIM
 62
     6
100
AcDbText
 10
172.560395
 20
32.099667
 30
0.0
 40
1.5
  1
(OPTIONAL)
  7
ROMANS
100
AcDbText
  0
TEXT
  5
125C
100
AcDbEntity
  8
DIM
 62
     6
100
AcDbText
 10
172.584006
 20
38.301947
 30
0.0
 40
1.5
  1
PLATE w/ 8" 
  7
ROMANS
100
AcDbText
  0
TEXT
  5
125D
100
AcDbEntity
  8
DIM
 62
     6
100
AcDbText
 10
172.189357
 20
40.263713
 30
0.0
 40
1.5
  1
10" INSPECTION
  7
ROMANS
100
AcDbText
  0
LWPOLYLINE
  5
125E
100
AcDbEntity
  8
DIM
 62
     6
100
AcDbPolyline
 90
        2
 70
     0
 43
0.2125
 39
17.0
 10
125.925945
 20
-23.28109
 10
224.423741
 20
-23.28109
  0
LWPOLYLINE
  5
125F
100
AcDbEntity
  8
DIM
 62
     6
100
AcDbPolyline
 90
        2
 70
     0
 43
0.2125
 39
17.0
 10
125.925945
 20
-18.18109
 10
224.423741
 20
-18.18109
  0
LWPOLYLINE
  5
1260
100
AcDbEntity
  8
DIM
 62
     6
100
AcDbPolyline
 90
        2
 70
     0
 43
0.2125
 39
17.0
 10
125.925945
 20
-13.08109
 10
224.423741
 20
-13.08109
  0
LWPOLYLINE
  5
1261
100
AcDbEntity
  8
DIM
 62
     6
100
AcDbPolyline
 90
        2
 70
     0
 43
0.2125
 39
17.0
 10
125.925945
 20
-7.98109
 10
224.423741
 20
-7.98109
  0
LWPOLYLINE
  5
1262
100
AcDbEntity
  8
DIM
 62
     6
100
AcDbPolyline
 90
        2
 70
     0
 43
0.2125
 39
17.0
 10
125.925945
 20
-2.88109
 10
224.423741
 20
-2.88109
  0
LWPOLYLINE
  5
1263
100
AcDbEntity
  8
DIM
 62
     6
100
AcDbPolyline
 90
        2
 70
     0
 43
0.2125
 39
17.0
 10
125.925945
 20
2.21891
 10
224.423741
 20
2.21891
  0
LWPOLYLINE
  5
1264
100
AcDbEntity
  8
DIM
 62
     6
100
AcDbPolyline
 90
        2
 70
     0
 43
0.2125
 39
17.0
 10
125.925945
 20
12.41891
 10
224.423741
 20
12.41891
  0
TEXT
  5
1265
100
AcDbEntity
  8
DIM
 62
     6
100
AcDbText
 10
172.488088
 20
52.677845
 30
0.0
 40
1.5
  1
ELECTRIC
  7
ROMANS
100
AcDbText
  0
TEXT
  5
1266
100
AcDbEntity
  8
DIM
 62
     6
100
AcDbText
 10
172.427166
 20
63.523746
 30
0.0
 40
1.5
  1
DISCHARGE
  7
ROMANS
100
AcDbText
  0
TEXT
  5
1267
100
AcDbEntity
  8
DIM
 62
     6
100
AcDbText
 10
172.488088
 20
50.613559
 30
0.0
 40
1.5
  1
CORD SEAL
  7
ROMANS
100
AcDbText
  0
TEXT
  5
1268
100
AcDbEntity
  8
DIM
 62
     6
100
AcDbText
 10
140.459983
 20
89.56788
 30
0.0
 40
3.0
  1
SIMPLEX STEEL BASIN COVER
  7
ROMAND
 72
     1
 11
174.531411
 21
89.56788
 31
0.0
100
AcDbText
  0
TEXT
  5
1269
100
AcDbEntity
  8
DIM
 62
     6
100
AcDbText
 10
174.134476
 20
-22.447786
 30
0.0
 40
1.275
  1
.375
  7
ROMANS
100
AcDbText
  0
TEXT
  5
126A
100
AcDbEntity
  8
DIM
 62
     6
100
AcDbText
 10
174.134476
 20
-20.747786
 30
0.0
 40
1.275
  1
.375
  7
ROMANS
100
AcDbText
  0
TEXT
  5
126B
100
AcDbEntity
  8
DIM
 62
     6
100
AcDbText
 10
174.134476
 20
-15.647786
 30
0.0
 40
1.275
  1
.375
  7
ROMANS
100
AcDbText
  0
TEXT
  5
126C
100
AcDbEntity
  8
DIM
 62
     6
100
AcDbText
 10
174.134476
 20
-17.347786
 30
0.0
 40
1.275
  1
.375
  7
ROMANS
100
AcDbText
  0
TEXT
  5
126D
100
AcDbEntity
  8
DIM
 62
     6
100
AcDbText
 10
174.134476
 20
-10.547786
 30
0.0
 40
1.275
  1
.25
  7
ROMANS
100
AcDbText
  0
TEXT
  5
126E
100
AcDbEntity
  8
DIM
 62
     6
100
AcDbText
 10
174.134476
 20
-12.247786
 30
0.0
 40
1.275
  1
.25
  7
ROMANS
100
AcDbText
  0
TEXT
  5
126F
100
AcDbEntity
  8
DIM
 62
     6
100
AcDbText
 10
174.134476
 20
-0.347786
 30
0.0
 40
1.275
  1
.25
  7
ROMANS
100
AcDbText
  0
TEXT
  5
1270
100
AcDbEntity
  8
DIM
 62
     6
100
AcDbText
 10
174.134476
 20
-2.047786
 30
0.0
 40
1.275
  1
.25
  7
ROMANS
100
AcDbText
  0
TEXT
  5
1271
100
AcDbEntity
  8
DIM
 62
     6
100
AcDbText
 10
174.134476
 20
-5.447786
 30
0.0
 40
1.275
  1
.25
  7
ROMANS
100
AcDbText
  0
TEXT
  5
1272
100
AcDbEntity
  8
DIM
 62
     6
100
AcDbText
 10
174.134476
 20
-7.147786
 30
0.0
 40
1.275
  1
.25
  7
ROMANS
100
AcDbText
  0
TEXT
  5
1273
100
AcDbEntity
  8
DIM
 62
     6
100
AcDbText
 10
174.134476
 20
4.752214
 30
0.0
 40
1.275
  1
.25
  7
ROMANS
100
AcDbText
  0
TEXT
  5
1274
100
AcDbEntity
  8
DIM
 62
     6
100
AcDbText
 10
174.134476
 20
3.052214
 30
0.0
 40
1.275
  1
.25
  7
ROMANS
100
AcDbText
  0
TEXT
  5
1275
100
AcDbEntity
  8
DIM
 62
     6
100
AcDbText
 10
126.85744
 20
-26.595121
 30
0.0
 40
0.95625
  1
N/A= NOT APPLICABLE
  7
ROMANS
100
AcDbText
  0
TEXT
  5
1276
100
AcDbEntity
  8
DIM
 62
     6
100
AcDbText
 10
126.85744
 20
-25.089451
 30
0.0
 40
0.95625
  1
ALL DIMENSIONS IN INCHES
  7
ROMANS
100
AcDbText
  0
LINE
  5
1277
100
AcDbEntity
  8
DIM
 62
     6
100
AcDbLine
 39
25.0
 10
129.660199
 20
25.159614
 30
0.0
 11
150.418965
 21
25.159614
 31
0.0
  0
TEXT
  5
1278
100
AcDbEntity
  8
DIM
 62
     6
100
AcDbText
 10
129.595209
 20
25.489858
 30
0.0
 40
1.875
  1
ROUND COVER
  7
ROMAND
 72
     1
 11
139.907709
 21
25.489858
 31
0.0
100
AcDbText
  0
LWPOLYLINE
  5
1279
100
AcDbEntity
  8
DIM
 62
     6
100
AcDbPolyline
 90
        2
 70
     0
 43
0.2125
 39
17.0
 10
125.925945
 20
21.844477
 10
125.925945
 20
-23.28109
  0
LINE
  5
127A
100
AcDbEntity
  8
DIM
 62
     6
100
AcDbLine
 39
17.0
 10
135.718479
 20
21.844477
 30
0.0
 11
135.718479
 21
-23.28109
 31
0.0
  0
TEXT
  5
127B
100
AcDbEntity
  8
DIM
 62
     6
100
AcDbText
 10
127.271931
 20
-20.747786
 30
0.0
 40
1.275
  1
C72SSA
  7
ROMANS
100
AcDbText
  0
TEXT
  5
127C
100
AcDbEntity
  8
DIM
 62
     6
100
AcDbText
 10
127.271931
 20
-10.547786
 30
0.0
 40
1.275
  1
C48SSA
  7
ROMANS
100
AcDbText
  0
TEXT
  5
127D
100
AcDbEntity
  8
DIM
 62
     6
100
AcDbText
 10
127.271931
 20
-15.647786
 30
0.0
 40
1.275
  1
C60SSA
  7
ROMANS
100
AcDbText
  0
TEXT
  5
127E
100
AcDbEntity
  8
DIM
 62
     6
100
AcDbText
 10
127.271931
 20
-0.347786
 30
0.0
 40
1.275
  1
C36SSA 
  7
ROMANS
100
AcDbText
  0
TEXT
  5
127F
100
AcDbEntity
  8
DIM
 62
     6
100
AcDbText
 10
127.271931
 20
-5.447786
 30
0.0
 40
1.275
  1
C42SSA
  7
ROMANS
100
AcDbText
  0
TEXT
  5
1280
100
AcDbEntity
  8
DIM
 62
     6
100
AcDbText
 10
128.423998
 20
15.386058
 30
0.0
 40
1.275
  1
PART
  7
ROMAND
 72
     1
 11
130.822212
 21
15.386058
 31
0.0
100
AcDbText
  0
TEXT
  5
1281
100
AcDbEntity
  8
DIM
 62
     6
100
AcDbText
 10
127.271931
 20
9.852214
 30
0.0
 40
1.275
  1
C24SSA
  7
ROMANS
100
AcDbText
  0
TEXT
  5
1282
100
AcDbEntity
  8
DIM
 62
     6
100
AcDbText
 10
129.152569
 20
13.321772
 30
0.0
 40
1.275
  1
NO.
  7
ROMAND
 72
     1
 11
130.822212
 21
13.321772
 31
0.0
100
AcDbText
  0
TEXT
  5
1283
100
AcDbEntity
  8
DIM
 62
     6
100
AcDbText
 10
127.271931
 20
4.752214
 30
0.0
 40
1.275
  1
C30SSA
  7
ROMANS
100
AcDbText
  0
LINE
  5
1284
100
AcDbEntity
  8
DIM
 62
     6
100
AcDbLine
 39
17.0
 10
162.024407
 20
21.844477
 30
0.0
 11
162.024407
 21
-23.28109
 31
0.0
  0
LINE
  5
1285
100
AcDbEntity
  8
DIM
 62
     6
100
AcDbLine
 39
17.0
 10
173.179462
 20
21.844477
 30
0.0
 11
173.179462
 21
-23.28109
 31
0.0
  0
LINE
  5
1286
100
AcDbEntity
  8
DIM
 62
     6
100
AcDbLine
 39
17.0
 10
154.03273
 20
21.844477
 30
0.0
 11
154.03273
 21
-23.28109
 31
0.0
  0
LINE
  5
1287
100
AcDbEntity
  8
DIM
 62
     6
100
AcDbLine
 39
17.0
 10
146.041054
 20
21.844477
 30
0.0
 11
146.041054
 21
-23.28109
 31
0.0
  0
TEXT
  5
1288
100
AcDbEntity
  8
DIM
 62
     6
100
AcDbText
 10
155.313253
 20
-22.447786
 30
0.0
 40
1.275
  1
78x78
  7
ROMANS
100
AcDbText
  0
TEXT
  5
1289
100
AcDbEntity
  8
DIM
 62
     6
100
AcDbText
 10
162.884424
 20
-22.447786
 30
0.0
 40
1.275
  1
75.0x75.0
  7
ROMANS
100
AcDbText
  0
TEXT
  5
128A
100
AcDbEntity
  8
DIM
 62
     6
100
AcDbText
 10
137.174016
 20
-22.447786
 30
0.0
 40
1.275
  1
SQUARE
  7
ROMANS
100
AcDbText
  0
TEXT
  5
128B
100
AcDbEntity
  8
DIM
 62
     6
100
AcDbText
 10
147.242585
 20
-22.447786
 30
0.0
 40
1.275
  1
72x72
  7
ROMANS
100
AcDbText
  0
TEXT
  5
128C
100
AcDbEntity
  8
DIM
 62
     6
100
AcDbText
 10
155.313253
 20
9.852214
 30
0.0
 40
1.275
  1
28
  7
ROMANS
100
AcDbText
  0
TEXT
  5
128D
100
AcDbEntity
  8
DIM
 62
     6
100
AcDbText
 10
155.313253
 20
8.152214
 30
0.0
 40
1.275
  1
28x28
  7
ROMANS
100
AcDbText
  0
TEXT
  5
128E
100
AcDbEntity
  8
DIM
 62
     6
100
AcDbText
 10
154.08214
 20
15.35898
 30
0.0
 40
1.275
  1
OUTSIDE
  7
ROMAND
 72
     1
 11
158.028568
 21
15.35898
 31
0.0
100
AcDbText
  0
TEXT
  5
128F
100
AcDbEntity
  8
DIM
 62
     6
100
AcDbText
 10
155.313253
 20
-20.747786
 30
0.0
 40
1.275
  1
78
  7
ROMANS
100
AcDbText
  0
TEXT
  5
1290
100
AcDbEntity
  8
DIM
 62
     6
100
AcDbText
 10
155.313253
 20
-15.647786
 30
0.0
 40
1.275
  1
66
  7
ROMANS
100
AcDbText
  0
TEXT
  5
1291
100
AcDbEntity
  8
DIM
 62
     6
100
AcDbText
 10
155.313253
 20
-10.547786
 30
0.0
 40
1.275
  1
54
  7
ROMANS
100
AcDbText
  0
TEXT
  5
1292
100
AcDbEntity
  8
DIM
 62
     6
100
AcDbText
 10
155.313253
 20
-5.447786
 30
0.0
 40
1.275
  1
46
  7
ROMANS
100
AcDbText
  0
TEXT
  5
1293
100
AcDbEntity
  8
DIM
 62
     6
100
AcDbText
 10
155.313253
 20
-0.347786
 30
0.0
 40
1.275
  1
40
  7
ROMANS
100
AcDbText
  0
TEXT
  5
1294
100
AcDbEntity
  8
DIM
 62
     6
100
AcDbText
 10
155.313253
 20
4.752214
 30
0.0
 40
1.275
  1
34
  7
ROMANS
100
AcDbText
  0
TEXT
  5
1295
100
AcDbEntity
  8
DIM
 62
     6
100
AcDbText
 10
155.313253
 20
-12.247786
 30
0.0
 40
1.275
  1
54x54
  7
ROMANS
100
AcDbText
  0
TEXT
  5
1296
100
AcDbEntity
  8
DIM
 62
     6
100
AcDbText
 10
155.313253
 20
-17.347786
 30
0.0
 40
1.275
  1
66x66
  7
ROMANS
100
AcDbText
  0
TEXT
  5
1297
100
AcDbEntity
  8
DIM
 62
     6
100
AcDbText
 10
155.313253
 20
-2.047786
 30
0.0
 40
1.275
  1
40x40
  7
ROMANS
100
AcDbText
  0
TEXT
  5
1298
100
AcDbEntity
  8
DIM
 62
     6
100
AcDbText
 10
155.313253
 20
-7.147786
 30
0.0
 40
1.275
  1
46x46
  7
ROMANS
100
AcDbText
  0
TEXT
  5
1299
100
AcDbEntity
  8
DIM
 62
     6
100
AcDbText
 10
155.313253
 20
3.052214
 30
0.0
 40
1.275
  1
34x34
  7
ROMANS
100
AcDbText
  0
TEXT
  5
129A
100
AcDbEntity
  8
DIM
 62
     6
100
AcDbText
 10
137.174016
 20
3.052214
 30
0.0
 40
1.275
  1
SQUARE
  7
ROMANS
100
AcDbText
  0
TEXT
  5
129B
100
AcDbEntity
  8
DIM
 62
     6
100
AcDbText
 10
147.242585
 20
3.052214
 30
0.0
 40
1.275
  1
30x30
  7
ROMANS
100
AcDbText
  0
TEXT
  5
129C
100
AcDbEntity
  8
DIM
 62
     6
100
AcDbText
 10
137.174016
 20
-20.747786
 30
0.0
 40
1.275
  1
ROUND
  7
ROMANS
100
AcDbText
  0
TEXT
  5
129D
100
AcDbEntity
  8
DIM
 62
     6
100
AcDbText
 10
137.174016
 20
-12.247786
 30
0.0
 40
1.275
  1
SQUARE
  7
ROMANS
100
AcDbText
  0
TEXT
  5
129E
100
AcDbEntity
  8
DIM
 62
     6
100
AcDbText
 10
137.174016
 20
-17.347786
 30
0.0
 40
1.275
  1
SQUARE
  7
ROMANS
100
AcDbText
  0
TEXT
  5
129F
100
AcDbEntity
  8
DIM
 62
     6
100
AcDbText
 10
137.174016
 20
-10.547786
 30
0.0
 40
1.275
  1
ROUND
  7
ROMANS
100
AcDbText
  0
TEXT
  5
12A0
100
AcDbEntity
  8
DIM
 62
     6
100
AcDbText
 10
137.174016
 20
-15.647786
 30
0.0
 40
1.275
  1
ROUND
  7
ROMANS
100
AcDbText
  0
TEXT
  5
12A1
100
AcDbEntity
  8
DIM
 62
     6
100
AcDbText
 10
137.174016
 20
-2.047786
 30
0.0
 40
1.275
  1
SQUARE
  7
ROMANS
100
AcDbText
  0
TEXT
  5
12A2
100
AcDbEntity
  8
DIM
 62
     6
100
AcDbText
 10
137.174016
 20
-7.147786
 30
0.0
 40
1.275
  1
SQUARE
  7
ROMANS
100
AcDbText
  0
TEXT
  5
12A3
100
AcDbEntity
  8
DIM
 62
     6
100
AcDbText
 10
137.174016
 20
-0.347786
 30
0.0
 40
1.275
  1
ROUND
  7
ROMANS
100
AcDbText
  0
TEXT
  5
12A4
100
AcDbEntity
  8
DIM
 62
     6
100
AcDbText
 10
137.174016
 20
-5.447786
 30
0.0
 40
1.275
  1
ROUND
  7
ROMANS
100
AcDbText
  0
TEXT
  5
12A5
100
AcDbEntity
  8
DIM
 62
     6
100
AcDbText
 10
147.242585
 20
-12.247786
 30
0.0
 40
1.275
  1
48x48
  7
ROMANS
100
AcDbText
  0
TEXT
  5
12A6
100
AcDbEntity
  8
DIM
 62
     6
100
AcDbText
 10
147.242585
 20
-17.347786
 30
0.0
 40
1.275
  1
60x60
  7
ROMANS
100
AcDbText
  0
TEXT
  5
12A7
100
AcDbEntity
  8
DIM
 62
     6
100
AcDbText
 10
147.242585
 20
-15.647786
 30
0.0
 40
1.275
  1
60
  7
ROMANS
100
AcDbText
  0
TEXT
  5
12A8
100
AcDbEntity
  8
DIM
 62
     6
100
AcDbText
 10
147.242585
 20
-20.747786
 30
0.0
 40
1.275
  1
72
  7
ROMANS
100
AcDbText
  0
TEXT
  5
12A9
100
AcDbEntity
  8
DIM
 62
     6
100
AcDbText
 10
147.242585
 20
-10.547786
 30
0.0
 40
1.275
  1
48
  7
ROMANS
100
AcDbText
  0
TEXT
  5
12AA
100
AcDbEntity
  8
DIM
 62
     6
100
AcDbText
 10
147.242585
 20
-2.047786
 30
0.0
 40
1.275
  1
36x36
  7
ROMANS
100
AcDbText
  0
TEXT
  5
12AB
100
AcDbEntity
  8
DIM
 62
     6
100
AcDbText
 10
147.242585
 20
-7.147786
 30
0.0
 40
1.275
  1
42x42
  7
ROMANS
100
AcDbText
  0
TEXT
  5
12AC
100
AcDbEntity
  8
DIM
 62
     6
100
AcDbText
 10
147.242585
 20
-5.447786
 30
0.0
 40
1.275
  1
42
  7
ROMANS
100
AcDbText
  0
TEXT
  5
12AD
100
AcDbEntity
  8
DIM
 62
     6
100
AcDbText
 10
147.242585
 20
-0.347786
 30
0.0
 40
1.275
  1
36
  7
ROMANS
100
AcDbText
  0
TEXT
  5
12AE
100
AcDbEntity
  8
DIM
 62
     6
100
AcDbText
 10
137.174016
 20
9.852214
 30
0.0
 40
1.275
  1
ROUND
  7
ROMANS
100
AcDbText
  0
TEXT
  5
12AF
100
AcDbEntity
  8
DIM
 62
     6
100
AcDbText
 10
137.174016
 20
8.152214
 30
0.0
 40
1.275
  1
SQUARE
  7
ROMANS
100
AcDbText
  0
TEXT
  5
12B0
100
AcDbEntity
  8
DIM
 62
     6
100
AcDbText
 10
138.086909
 20
13.313259
 30
0.0
 40
1.275
  1
STYLE
  7
ROMAND
 72
     1
 11
140.879767
 21
13.313259
 31
0.0
100
AcDbText
  0
TEXT
  5
12B1
100
AcDbEntity
  8
DIM
 62
     6
100
AcDbText
 10
137.174016
 20
4.752214
 30
0.0
 40
1.275
  1
ROUND
  7
ROMANS
100
AcDbText
  0
TEXT
  5
12B2
100
AcDbEntity
  8
DIM
 62
     6
100
AcDbText
 10
146.970821
 20
15.396817
 30
0.0
 40
1.275
  1
INSIDE
  7
ROMAND
 72
     1
 11
150.036892
 21
15.396817
 31
0.0
100
AcDbText
  0
TEXT
  5
12B3
100
AcDbEntity
  8
DIM
 62
     6
100
AcDbText
 10
147.242585
 20
8.152214
 30
0.0
 40
1.275
  1
24x24
  7
ROMANS
100
AcDbText
  0
TEXT
  5
12B4
100
AcDbEntity
  8
DIM
 62
     6
100
AcDbText
 10
148.063678
 20
13.332531
 30
0.0
 40
1.275
  1
DIM.
  7
ROMAND
 72
     1
 11
150.036892
 21
13.332531
 31
0.0
100
AcDbText
  0
TEXT
  5
12B5
100
AcDbEntity
  8
DIM
 62
     6
100
AcDbText
 10
147.242585
 20
4.752214
 30
0.0
 40
1.275
  1
30
  7
ROMANS
100
AcDbText
  0
TEXT
  5
12B6
100
AcDbEntity
  8
DIM
 62
     6
100
AcDbText
 10
147.242585
 20
9.852214
 30
0.0
 40
1.275
  1
24
  7
ROMANS
100
AcDbText
  0
CIRCLE
  5
12B7
100
AcDbEntity
  8
DIM
 62
     6
100
AcDbCircle
 39
17.0
 10
150.040698
 20
20.169201
 30
0.0
 40
1.008846
  0
TEXT
  5
12B8
100
AcDbEntity
  8
DIM
 62
     6
100
AcDbText
 10
147.274392
 20
17.461103
 30
0.0
 40
1.275
  1
BASIN
  7
ROMAND
 72
     1
 11
150.036892
 21
17.461103
 31
0.0
100
AcDbText
  0
TEXT
  5
12B9
100
AcDbEntity
  8
DIM
 62
     6
100
AcDbText
 10
149.429749
 20
19.656406
 30
0.0
 40
1.275
  1
A
  7
ROMAND
 72
     1
 11
150.036892
 21
19.656406
 31
0.0
100
AcDbText
  0
TEXT
  5
12BA
100
AcDbEntity
  8
DIM
 62
     6
100
AcDbText
 10
162.884424
 20
3.052214
 30
0.0
 40
1.275
  1
32.5x32.5
  7
ROMANS
100
AcDbText
  0
TEXT
  5
12BB
100
AcDbEntity
  8
DIM
 62
     6
100
AcDbText
 10
162.884424
 20
-20.747786
 30
0.0
 40
1.275
  1
75.0
  7
ROMANS
100
AcDbText
  0
TEXT
  5
12BC
100
AcDbEntity
  8
DIM
 62
     6
100
AcDbText
 10
162.884424
 20
-15.647786
 30
0.0
 40
1.275
  1
63.0
  7
ROMANS
100
AcDbText
  0
TEXT
  5
12BD
100
AcDbEntity
  8
DIM
 62
     6
100
AcDbText
 10
162.884424
 20
-10.547786
 30
0.0
 40
1.275
  1
51.0
  7
ROMANS
100
AcDbText
  0
TEXT
  5
12BE
100
AcDbEntity
  8
DIM
 62
     6
100
AcDbText
 10
162.884424
 20
-5.447786
 30
0.0
 40
1.275
  1
44.5
  7
ROMANS
100
AcDbText
  0
TEXT
  5
12BF
100
AcDbEntity
  8
DIM
 62
     6
100
AcDbText
 10
162.884424
 20
-0.347786
 30
0.0
 40
1.275
  1
38.5
  7
ROMANS
100
AcDbText
  0
TEXT
  5
12C0
100
AcDbEntity
  8
DIM
 62
     6
100
AcDbText
 10
162.884424
 20
-12.247786
 30
0.0
 40
1.275
  1
51.0x51.0
  7
ROMANS
100
AcDbText
  0
TEXT
  5
12C1
100
AcDbEntity
  8
DIM
 62
     6
100
AcDbText
 10
162.884424
 20
-17.347786
 30
0.0
 40
1.275
  1
63.0x63.0
  7
ROMANS
100
AcDbText
  0
TEXT
  5
12C2
100
AcDbEntity
  8
DIM
 62
     6
100
AcDbText
 10
162.884424
 20
-2.047786
 30
0.0
 40
1.275
  1
38.5x38.5
  7
ROMANS
100
AcDbText
  0
TEXT
  5
12C3
100
AcDbEntity
  8
DIM
 62
     6
100
AcDbText
 10
162.884424
 20
-7.147786
 30
0.0
 40
1.275
  1
44.5x44.5
  7
ROMANS
100
AcDbText
  0
TEXT
  5
12C4
100
AcDbEntity
  8
DIM
 62
     6
100
AcDbText
 10
162.884424
 20
8.152214
 30
0.0
 40
1.275
  1
26.5x26.5
  7
ROMANS
100
AcDbText
  0
TEXT
  5
12C5
100
AcDbEntity
  8
DIM
 62
     6
100
AcDbText
 10
162.884424
 20
9.852214
 30
0.0
 40
1.275
  1
26.5
  7
ROMANS
100
AcDbText
  0
TEXT
  5
12C6
100
AcDbEntity
  8
DIM
 62
     6
100
AcDbText
 10
164.35372
 20
13.322197
 30
0.0
 40
1.275
  1
CIRCLE
  7
ROMAND
 72
     1
 11
167.601934
 21
13.322197
 31
0.0
100
AcDbText
  0
TEXT
  5
12C7
100
AcDbEntity
  8
DIM
 62
     6
100
AcDbText
 10
165.234077
 20
15.386483
 30
0.0
 40
1.275
  1
BOLT
  7
ROMAND
 72
     1
 11
167.601934
 21
15.386483
 31
0.0
100
AcDbText
  0
TEXT
  5
12C8
100
AcDbEntity
  8
DIM
 62
     6
100
AcDbText
 10
162.884424
 20
4.752214
 30
0.0
 40
1.275
  1
32.5
  7
ROMANS
100
AcDbText
  0
TEXT
  5
12C9
100
AcDbEntity
  8
DIM
 62
     6
100
AcDbText
 10
156.055354
 20
13.294694
 30
0.0
 40
1.275
  1
DIM.
  7
ROMAND
 72
     1
 11
158.028568
 21
13.294694
 31
0.0
100
AcDbText
  0
CIRCLE
  5
12CA
100
AcDbEntity
  8
DIM
 62
     6
100
AcDbCircle
 39
17.0
 10
158.001201
 20
20.169201
 30
0.0
 40
1.008846
  0
TEXT
  5
12CB
100
AcDbEntity
  8
DIM
 62
     6
100
AcDbText
 10
157.391068
 20
19.495466
 30
0.0
 40
1.275
  1
B
  7
ROMAND
 72
     1
 11
158.028568
 21
19.495466
 31
0.0
100
AcDbText
  0
CIRCLE
  5
12CC
100
AcDbEntity
  8
DIM
 62
     6
100
AcDbCircle
 39
17.0
 10
167.642231
 20
20.174795
 30
0.0
 40
1.008846
  0
TEXT
  5
12CD
100
AcDbEntity
  8
DIM
 62
     6
100
AcDbText
 10
166.964434
 20
19.541295
 30
0.0
 40
1.275
  1
C
  7
ROMAND
 72
     1
 11
167.601934
 21
19.541295
 31
0.0
100
AcDbText
  0
LINE
  5
12CE
100
AcDbEntity
  8
CENTER
 62
     3
100
AcDbLine
 10
144.298709
 20
64.605715
 30
0.0
 11
135.516709
 21
64.605715
 31
0.0
  0
LINE
  5
12CF
100
AcDbEntity
  8
CENTER
 62
     3
100
AcDbLine
 10
136.595209
 20
64.605715
 30
0.0
 11
143.220209
 21
64.605715
 31
0.0
  0
DIMENSION
  5
12D0
100
AcDbEntity
  8
DIM
 62
     6
100
AcDbDimension
  2
*D4
 10
139.907709
 20
80.0
 30
0.0
 11
135.157709
 21
80.0
 31
0.0
 12
138.572657
 22
0.0
 32
0.0
 70
    32
  1
H
  3
STANDARD
100
AcDbAlignedDimension
 13
130.407709
 23
60.105715
 33
0.0
 14
139.907709
 24
72.105715
 34
0.0
100
AcDbRotatedDimension
1001
ACAD
1000
DSTYLE
1002
{
1070
   340
1005
29
1070
   174
1070
     1
1070
   147
1040
0.75
1070
   287
1070
     5
1070
    42
1040
0.75
1070
    44
1040
1.5
1070
   141
1040
-1.5
1070
    41
1040
1.5
1002
}
  0
LINE
  5
12D1
100
AcDbEntity
  8
CENTER
 62
     3
100
AcDbLine
 10
133.407709
 20
53.605715
 30
0.0
 11
136.907709
 21
53.605715
 31
0.0
  0
LINE
  5
12D2
100
AcDbEntity
  8
CENTER
 62
     3
100
AcDbLine
 10
136.595209
 20
64.605715
 30
0.0
 11
143.220209
 21
64.605715
 31
0.0
  0
LINE
  5
12D3
100
AcDbEntity
  8
CENTER
 62
     3
100
AcDbLine
 10
136.907709
 20
53.605715
 30
0.0
 11
121.407709
 21
53.605715
 31
0.0
  0
CIRCLE
  5
12D4
100
AcDbEntity
  8
CENTER
 62
     3
100
AcDbCircle
 39
20.0
 10
139.907709
 20
53.605715
 30
0.0
 40
16.0
  0
CIRCLE
  5
12D5
100
AcDbEntity
  8
OBJECT
 62
     2
100
AcDbCircle
 39
20.0
 10
139.907709
 20
53.605715
 30
0.0
 40
17.0
  0
CIRCLE
  5
12D6
100
AcDbEntity
  8
HIDDEN
 62
     1
100
AcDbCircle
 39
20.0
 10
139.907709
 20
53.605715
 30
0.0
 40
15.0
  0
LINE
  5
12D7
100
AcDbEntity
  8
CENTER
 62
     3
100
AcDbLine
 10
130.407709
 20
52.105715
 30
0.0
 11
130.407709
 21
55.105715
 31
0.0
  0
TEXT
  5
12D8
100
AcDbEntity
  8
DIM
 62
     6
100
AcDbText
 10
120.794791
 20
52.744882
 30
0.0
 40
1.125
  1
L
  7
ROMANS
100
AcDbText
  0
TEXT
  5
12D9
100
AcDbEntity
  8
DIM
 62
     6
100
AcDbText
 10
120.451858
 20
53.310413
 30
0.0
 40
1.125
  1
C
  7
ROMANS
100
AcDbText
  0
CIRCLE
  5
12DA
100
AcDbEntity
  8
OBJECT
 62
     2
100
AcDbCircle
 39
20.0
 10
130.407709
 20
53.605715
 30
0.0
 40
5.0
  0
CIRCLE
  5
12DB
100
AcDbEntity
  8
HIDDEN
 62
     1
100
AcDbCircle
 39
20.0
 10
130.407709
 20
53.605715
 30
0.0
 40
4.0
  0
LWPOLYLINE
  5
12DC
100
AcDbEntity
  8
OBJECT
 62
     2
100
AcDbPolyline
 90
        6
 70
     1
 43
0.0
 39
20.0
 10
127.009223
 20
50.423734
 10
127.117476
 20
50.236234
 10
127.333982
 20
50.236234
 10
127.442235
 20
50.423734
 10
127.333982
 20
50.611234
 10
127.117476
 20
50.611234
  0
LWPOLYLINE
  5
12DE
100
AcDbEntity
  8
OBJECT
 62
     2
100
AcDbPolyline
 90
        6
 70
     1
 43
0.0
 39
20.0
 10
133.58969
 20
50.207228
 10
133.77719
 20
50.315481
 10
133.77719
 20
50.531988
 10
133.58969
 20
50.640241
 10
133.40219
 20
50.531988
 10
133.40219
 20
50.315481
  0
LINE
  5
12DF
100
AcDbEntity
  8
CENTER
 62
     3
100
AcDbLine
 10
130.407709
 20
50.605715
 30
0.0
 11
130.407709
 21
47.105715
 31
0.0
  0
LINE
  5
12E0
100
AcDbEntity
  8
CENTER
 62
     3
100
AcDbLine
 10
127.407709
 20
53.605715
 30
0.0
 11
123.907709
 21
53.605715
 31
0.0
  0
LWPOLYLINE
  5
12E1
100
AcDbEntity
  8
OBJECT
 62
     2
100
AcDbPolyline
 90
        6
 70
     1
 43
0.0
 39
20.0
 10
127.225729
 20
57.004202
 10
127.038229
 20
56.895949
 10
127.038229
 20
56.679442
 10
127.225729
 20
56.571189
 10
127.413229
 20
56.679442
 10
127.413229
 20
56.895949
  0
LWPOLYLINE
  5
12E2
100
AcDbEntity
  8
OBJECT
 62
     2
100
AcDbPolyline
 90
        6
 70
     1
 43
0.0
 39
20.0
 10
124.095209
 20
53.713968
 10
123.907709
 20
53.822221
 10
123.720209
 20
53.713968
 10
123.720209
 20
53.497462
 10
123.907709
 20
53.389208
 10
124.095209
 20
53.497462
  0
LWPOLYLINE
  5
12E3
100
AcDbEntity
  8
OBJECT
 62
     2
100
AcDbPolyline
 90
        6
 70
     1
 43
0.0
 39
20.0
 10
133.806196
 20
56.787695
 10
133.697943
 20
56.975195
 10
133.481437
 20
56.975195
 10
133.373184
 20
56.787695
 10
133.481437
 20
56.600195
 10
133.697943
 20
56.600195
  0
LINE
  5
12E4
100
AcDbEntity
  8
CENTER
 62
     3
100
AcDbLine
 10
130.407709
 20
56.605715
 30
0.0
 11
130.407709
 21
60.105715
 31
0.0
  0
LINE
  5
12E5
100
AcDbEntity
  8
CENTER
 62
     3
100
AcDbLine
 10
128.907709
 20
53.605715
 30
0.0
 11
131.907709
 21
53.605715
 31
0.0
  0
DIMENSION
  5
12E6
100
AcDbEntity
  8
DIM
 62
     6
100
AcDbDimension
  2
*D5
 10
146.907709
 20
80.0
 30
0.0
 11
143.407709
 21
80.0
 31
0.0
 12
138.572657
 22
0.0
 32
0.0
 70
    32
  1
K
  3
STANDARD
100
AcDbAlignedDimension
 13
139.907709
 23
72.105715
 33
0.0
 14
146.907709
 24
63.105715
 34
0.0
100
AcDbRotatedDimension
1001
ACAD
1000
DSTYLE
1002
{
1070
   340
1005
29
1070
   174
1070
     1
1070
   147
1040
0.75
1070
   287
1070
     5
1070
    42
1040
0.75
1070
    44
1040
1.5
1070
   141
1040
-1.5
1070
    41
1040
1.5
1002
}
  0
LINE
  5
12E7
100
AcDbEntity
  8
DIM
 62
     6
100
AcDbLine
 10
149.696966
 20
66.887983
 30
0.0
 11
159.052285
 21
79.366826
 31
0.0
  0
TEXT
  5
12E8
100
AcDbEntity
  8
DIM
 62
     6
100
AcDbText
 10
162.186415
 20
78.330513
 30
0.0
 40
1.5
  1
A
  7
ROMAND
 11
162.186415
 21
79.080513
 31
0.0
100
AcDbText
 73
     2
  0
CIRCLE
  5
12E9
100
AcDbEntity
  8
DIM
 62
     6
100
AcDbCircle
 39
20.0
 10
162.863914
 20
78.978936
 30
0.0
 40
1.186877
  0
LINE
  5
12EA
100
AcDbEntity
  8
DIM
 62
     6
100
AcDbLine
 10
149.723996
 20
42.364125
 30
0.0
 11
159.013457
 21
34.0
 31
0.0
  0
LINE
  5
12EB
100
AcDbEntity
  8
CENTER
 62
     3
100
AcDbLine
 10
149.907709
 20
53.605715
 30
0.0
 11
156.407709
 21
53.605715
 31
0.0
  0
LINE
  5
12EC
100
AcDbEntity
  8
DIM
 62
     6
100
AcDbLine
 10
153.732498
 20
41.496837
 30
0.0
 11
159.186415
 21
39.631127
 31
0.0
  0
LINE
  5
12ED
100
AcDbEntity
  8
DIM
 62
     6
100
AcDbLine
 10
149.7481
 20
61.084497
 30
0.0
 11
159.052285
 21
75.366826
 31
0.0
  0
LINE
  5
12EE
100
AcDbEntity
  8
DIM
 62
     6
100
AcDbLine
 10
150.553149
 20
59.581564
 30
0.0
 11
159.052285
 21
71.366826
 31
0.0
  0
LINE
  5
12EF
100
AcDbEntity
  8
DIM
 62
     6
100
AcDbLine
 10
154.937959
 20
62.801102
 30
0.0
 11
159.052285
 21
67.366826
 31
0.0
  0
DIMENSION
  5
12F0
100
AcDbEntity
  8
DIM
 62
     6
100
AcDbDimension
  2
*D0
 10
164.968833
 20
53.605715
 30
0.0
 11
164.968833
 21
59.105715
 31
0.0
 12
138.572657
 22
0.0
 32
0.0
 70
    32
  1
I
  3
STANDARD
100
AcDbAlignedDimension
 13
143.220209
 23
64.605715
 33
0.0
 14
158.407709
 24
53.605715
 34
0.0
 50
90.0
100
AcDbRotatedDimension
1001
ACAD
1000
DSTYLE
1002
{
1070
   340
1005
29
1070
   174
1070
     1
1070
   147
1040
0.75
1070
   287
1070
     5
1070
    42
1040
0.75
1070
    44
1040
1.5
1070
   141
1040
-1.5
1070
    41
1040
1.5
1002
}
  0
ARC
  5
12F1
100
AcDbEntity
  8
OBJECT
 62
     2
100
AcDbCircle
 10
151.907709
 20
53.605715
 30
0.0
 40
2.172
100
AcDbArc
 50
298.703991
 51
61.296009
  0
LINE
  5
12F2
100
AcDbEntity
  8
CENTER
 62
     3
100
AcDbLine
 10
151.907709
 20
49.214715
 30
0.0
 11
151.907709
 21
57.996715
 31
0.0
  0
ARC
  5
12F3
100
AcDbEntity
  8
OBJECT
 62
     2
100
AcDbCircle
 10
151.907709
 20
53.605715
 30
0.0
 40
2.172
100
AcDbArc
 50
118.703991
 51
241.296009
  0
CIRCLE
  5
12F4
100
AcDbEntity
  8
OBJECT
 62
     2
100
AcDbCircle
 10
151.907709
 20
53.605715
 30
0.0
 40
1.5
  0
CIRCLE
  5
12F5
100
AcDbEntity
  8
OBJECT
 62
     2
100
AcDbCircle
 10
151.907709
 20
53.605715
 30
0.0
 40
1.781
  0
LINE
  5
12F6
100
AcDbEntity
  8
CENTER
 62
     3
100
AcDbLine
 10
146.907709
 20
52.105715
 30
0.0
 11
146.907709
 21
55.105715
 31
0.0
  0
LINE
  5
12F7
100
AcDbEntity
  8
CENTER
 62
     3
100
AcDbLine
 10
139.907709
 20
52.105715
 30
0.0
 11
139.907709
 21
55.105715
 31
0.0
  0
LINE
  5
12F8
100
AcDbEntity
  8
CENTER
 62
     3
100
AcDbLine
 10
141.907709
 20
52.105715
 30
0.0
 11
141.907709
 21
55.105715
 31
0.0
  0
CIRCLE
  5
12F9
100
AcDbEntity
  8
OBJECT
 62
     2
100
AcDbCircle
 39
20.0
 10
141.907709
 20
53.605715
 30
0.0
 40
1.375
  0
CIRCLE
  5
12FA
100
AcDbEntity
  8
OBJECT
 62
     2
100
AcDbCircle
 39
20.0
 10
141.907709
 20
53.605715
 30
0.0
 40
0.2188
  0
CIRCLE
  5
12FB
100
AcDbEntity
  8
OBJECT
 62
     2
100
AcDbCircle
 39
20.0
 10
146.907709
 20
53.605715
 30
0.0
 40
8.0
  0
CIRCLE
  5
12FC
100
AcDbEntity
  8
HIDDEN
 62
     1
100
AcDbCircle
 39
20.0
 10
146.907709
 20
53.605715
 30
0.0
 40
7.0
  0
LINE
  5
12FD
100
AcDbEntity
  8
CENTER
 62
     3
100
AcDbLine
 10
139.907709
 20
52.105715
 30
0.0
 11
139.907709
 21
55.105715
 31
0.0
  0
DIMENSION
  5
12FE
100
AcDbEntity
  8
DIM
 62
     6
100
AcDbDimension
  2
*D2
 10
146.907709
 20
32.036643
 30
0.0
 11
144.976449
 21
33.761928
 31
0.0
 12
138.572657
 22
0.0
 32
0.0
 70
   160
  1
5"
  3
STANDARD
100
AcDbAlignedDimension
 13
141.907709
 23
52.105715
 33
0.0
 14
146.907709
 24
44.105715
 34
0.0
100
AcDbRotatedDimension
1001
ACAD
1000
DSTYLE
1002
{
1070
   340
1005
29
1070
   174
1070
     1
1070
   147
1040
0.75
1070
   287
1070
     5
1070
    42
1040
0.75
1070
    44
1040
1.5
1070
   141
1040
-1.5
1070
    41
1040
1.5
1002
}
  0
LINE
  5
12FF
100
AcDbEntity
  8
CENTER
 62
     3
100
AcDbLine
 10
139.907709
 20
50.605715
 30
0.0
 11
139.907709
 21
35.105715
 31
0.0
  0
TEXT
  5
1301
100
AcDbEntity
  8
DIM
 62
     6
100
AcDbText
 10
139.258915
 20
34.026207
 30
0.0
 40
1.125
  1
C
  7
ROMANS
100
AcDbText
  0
TEXT
  5
1302
100
AcDbEntity
  8
DIM
 62
     6
100
AcDbText
 10
139.601848
 20
33.460676
 30
0.0
 40
1.125
  1
L
  7
ROMANS
100
AcDbText
  0
LWPOLYLINE
  5
1303
100
AcDbEntity
  8
OBJECT
 62
     2
100
AcDbPolyline
 90
        6
 70
     1
 43
0.0
 39
20.0
 10
141.820915
 20
48.302414
 10
141.712662
 20
48.489914
 10
141.496155
 20
48.489914
 10
141.387902
 20
48.302414
 10
141.496155
 20
48.114914
 10
141.712662
 20
48.114914
  0
DIMENSION
  5
1304
100
AcDbEntity
  8
DIM
 62
     6
100
AcDbDimension
  2
*D3
 10
151.907709
 20
32.058686
 30
0.0
 11
149.955748
 21
33.761928
 31
0.0
 12
138.572657
 22
0.0
 32
0.0
 70
   160
  1
5"
  3
STANDARD
100
AcDbAlignedDimension
 13
146.907709
 23
44.105715
 33
0.0
 14
151.907709
 24
52.105715
 34
0.0
100
AcDbRotatedDimension
1001
ACAD
1000
DSTYLE
1002
{
1070
   340
1005
29
1070
   174
1070
     1
1070
   147
1040
0.75
1070
   287
1070
     5
1070
    42
1040
0.75
1070
    44
1040
1.5
1070
   141
1040
-1.5
1070
    41
1040
1.5
1002
}
  0
LWPOLYLINE
  5
1305
100
AcDbEntity
  8
OBJECT
 62
     2
100
AcDbPolyline
 90
        6
 70
     1
 43
0.0
 39
20.0
 10
152.21101
 20
48.51892
 10
152.02351
 20
48.410667
 10
152.02351
 20
48.194161
 10
152.21101
 20
48.085908
 10
152.39851
 20
48.194161
 10
152.39851
 20
48.410667
  0
LWPOLYLINE
  5
1306
100
AcDbEntity
  8
OBJECT
 62
     2
100
AcDbPolyline
 90
        6
 70
     1
 43
0.0
 39
20.0
 10
155.720209
 20
53.497462
 10
155.907709
 20
53.389208
 10
156.095209
 20
53.497462
 10
156.095209
 20
53.713968
 10
155.907709
 20
53.822221
 10
155.720209
 20
53.713968
  0
ARC
  5
1307
100
AcDbEntity
  8
OBJECT
 62
     2
100
AcDbCircle
 10
150.384247
 20
50.823513
 30
0.0
 40
1.0
100
AcDbArc
 50
17.904648
 51
61.296009
  0
LINE
  5
1308
100
AcDbEntity
  8
CENTER
 62
     3
100
AcDbLine
 10
146.907709
 20
50.605715
 30
0.0
 11
146.907709
 21
44.105715
 31
0.0
  0
SOLID
  5
1309
100
AcDbEntity
  8
DIM
 62
     6
100
AcDbTrace
 10
149.556715
 20
42.178338
 30
0.0
 11
149.891277
 21
42.549913
 31
0.0
 12
148.609271
 22
43.367812
 32
0.0
 13
148.609271
 23
43.367812
 33
0.0
  0
TEXT
  5
130A
100
AcDbEntity
  8
DIM
 62
     6
100
AcDbText
 10
147.878055
 20
44.555622
 30
0.0
 40
1.5
  1
~
 50
258.499384
  7
ROMAND
100
AcDbText
  0
SOLID
  5
130B
100
AcDbEntity
  8
DIM
 62
     6
100
AcDbTrace
 10
153.65158
 20
41.260295
 30
0.0
 11
153.813416
 21
41.73338
 31
0.0
 12
152.313243
 22
41.982345
 32
0.0
 13
152.313243
 23
41.982345
 33
0.0
  0
ARC
  5
130C
100
AcDbEntity
  8
OBJECT
 62
     2
100
AcDbCircle
 10
151.907709
 20
51.315715
 30
0.0
 40
0.601
100
AcDbArc
 50
197.904648
 51
342.095352
  0
CIRCLE
  5
130D
100
AcDbEntity
  8
OBJECT
 62
     2
100
AcDbCircle
 10
151.907709
 20
51.315715
 30
0.0
 40
0.242
  0
ARC
  5
130E
100
AcDbEntity
  8
OBJECT
 62
     2
100
AcDbCircle
 10
153.431172
 20
50.823513
 30
0.0
 40
1.0
100
AcDbArc
 50
118.703991
 51
162.095352
  0
LINE
  5
130F
100
AcDbEntity
  8
CENTER
 62
     3
100
AcDbLine
 10
145.407709
 20
53.605715
 30
0.0
 11
148.407709
 21
53.605715
 31
0.0
  0
LINE
  5
1310
100
AcDbEntity
  8
CENTER
 62
     3
100
AcDbLine
 10
139.907709
 20
63.105715
 30
0.0
 11
139.907709
 21
66.105715
 31
0.0
  0
ARC
  5
1311
100
AcDbEntity
  8
OBJECT
 62
     2
100
AcDbCircle
 10
139.907709
 20
64.605715
 30
0.0
 40
2.172
100
AcDbArc
 50
28.703991
 51
151.296009
  0
CIRCLE
  5
1312
100
AcDbEntity
  8
OBJECT
 62
     2
100
AcDbCircle
 10
139.907709
 20
64.605715
 30
0.0
 40
1.5
  0
LINE
  5
1313
100
AcDbEntity
  8
CENTER
 62
     3
100
AcDbLine
 10
139.907709
 20
56.605715
 30
0.0
 11
139.907709
 21
72.105715
 31
0.0
  0
CIRCLE
  5
1314
100
AcDbEntity
  8
OBJECT
 62
     2
100
AcDbCircle
 39
20.0
 10
139.907709
 20
64.605715
 30
0.0
 40
1.8125
  0
LWPOLYLINE
  5
1315
100
AcDbEntity
  8
OBJECT
 62
     2
100
AcDbPolyline
 90
        6
 70
     1
 43
0.0
 39
20.0
 10
141.604409
 20
58.692509
 10
141.791909
 20
58.800763
 10
141.791909
 20
59.017269
 10
141.604409
 20
59.125522
 10
141.416909
 20
59.017269
 10
141.416909
 20
58.800763
  0
ARC
  5
1316
100
AcDbEntity
  8
OBJECT
 62
     2
100
AcDbCircle
 10
139.907709
 20
64.605715
 30
0.0
 40
2.172
100
AcDbArc
 50
208.703991
 51
331.296009
  0
LINE
  5
1317
100
AcDbEntity
  8
CENTER
 62
     3
100
AcDbLine
 10
140.407709
 20
53.605715
 30
0.0
 11
143.407709
 21
53.605715
 31
0.0
  0
LINE
  5
1318
100
AcDbEntity
  8
CENTER
 62
     3
100
AcDbLine
 10
138.407709
 20
53.605715
 30
0.0
 11
141.407709
 21
53.605715
 31
0.0
  0
ARC
  5
1319
100
AcDbEntity
  8
OBJECT
 62
     2
100
AcDbCircle
 10
137.125508
 20
66.129178
 30
0.0
 40
1.0
100
AcDbArc
 50
287.904648
 51
331.296009
  0
ARC
  5
131A
100
AcDbEntity
  8
OBJECT
 62
     2
100
AcDbCircle
 10
137.125508
 20
63.082252
 30
0.0
 40
1.0
100
AcDbArc
 50
28.703991
 51
72.095352
  0
CIRCLE
  5
131B
100
AcDbEntity
  8
OBJECT
 62
     2
100
AcDbCircle
 10
137.617709
 20
64.605715
 30
0.0
 40
0.242
  0
ARC
  5
131C
100
AcDbEntity
  8
OBJECT
 62
     2
100
AcDbCircle
 10
137.617709
 20
64.605715
 30
0.0
 40
0.601
100
AcDbArc
 50
107.904648
 51
252.095352
  0
ARC
  5
131D
100
AcDbEntity
  8
OBJECT
 62
     2
100
AcDbCircle
 10
142.197709
 20
64.605715
 30
0.0
 40
0.601
100
AcDbArc
 50
287.904648
 51
72.095352
  0
CIRCLE
  5
131E
100
AcDbEntity
  8
OBJECT
 62
     2
100
AcDbCircle
 10
142.197709
 20
64.605715
 30
0.0
 40
0.242
  0
ARC
  5
131F
100
AcDbEntity
  8
OBJECT
 62
     2
100
AcDbCircle
 10
142.689911
 20
63.082252
 30
0.0
 40
1.0
100
AcDbArc
 50
107.904648
 51
151.296009
  0
ARC
  5
1320
100
AcDbEntity
  8
OBJECT
 62
     2
100
AcDbCircle
 10
142.689911
 20
66.129178
 30
0.0
 40
1.0
100
AcDbArc
 50
208.703991
 51
252.095352
  0
SOLID
  5
1322
100
AcDbEntity
  8
DIM
 62
     6
100
AcDbTrace
 10
149.896996
 20
66.738022
 30
0.0
 11
149.496937
 21
67.037944
 31
0.0
 12
148.797201
 22
65.687807
 32
0.0
 13
148.797201
 23
65.687807
 33
0.0
  0
LWPOLYLINE
  5
1323
100
AcDbEntity
  8
OBJECT
 62
     2
100
AcDbPolyline
 90
        6
 70
     1
 43
0.0
 39
20.0
 10
151.994504
 20
58.909016
 10
152.102757
 20
58.721516
 10
152.319264
 20
58.721516
 10
152.427517
 20
58.909016
 10
152.319264
 20
59.096516
 10
152.102757
 20
59.096516
  0
ARC
  5
1325
100
AcDbEntity
  8
OBJECT
 62
     2
100
AcDbCircle
 10
150.384247
 20
56.387916
 30
0.0
 40
1.0
100
AcDbArc
 50
298.703991
 51
342.095352
  0
LINE
  5
1326
100
AcDbEntity
  8
CENTER
 62
     3
100
AcDbLine
 10
150.407709
 20
53.605715
 30
0.0
 11
153.407709
 21
53.605715
 31
0.0
  0
SOLID
  5
1327
100
AcDbEntity
  8
DIM
 62
     6
100
AcDbTrace
 10
151.633312
 20
60.65196
 30
0.0
 11
151.227769
 21
60.944424
 31
0.0
 12
150.553149
 22
59.581564
 32
0.0
 13
150.553149
 23
59.581564
 33
0.0
  0
LINE
  5
1328
100
AcDbEntity
  8
CENTER
 62
     3
100
AcDbLine
 10
146.907709
 20
56.605715
 30
0.0
 11
146.907709
 21
63.105715
 31
0.0
  0
SOLID
  5
1329
100
AcDbEntity
  8
DIM
 62
     6
100
AcDbTrace
 10
150.776333
 20
62.20487
 30
0.0
 11
150.357388
 21
62.477791
 31
0.0
 12
149.7481
 22
61.084497
 32
0.0
 13
149.7481
 23
61.084497
 33
0.0
  0
ARC
  5
132A
100
AcDbEntity
  8
OBJECT
 62
     2
100
AcDbCircle
 10
151.907709
 20
55.895715
 30
0.0
 40
0.601
100
AcDbArc
 50
17.904648
 51
162.095352
  0
CIRCLE
  5
132B
100
AcDbEntity
  8
OBJECT
 62
     2
100
AcDbCircle
 10
151.907709
 20
55.895715
 30
0.0
 40
0.242
  0
ARC
  5
132C
100
AcDbEntity
  8
OBJECT
 62
     2
100
AcDbCircle
 10
153.431172
 20
56.387916
 30
0.0
 40
1.0
100
AcDbArc
 50
197.904648
 51
241.296009
  0
SOLID
  5
132D
100
AcDbEntity
  8
DIM
 62
     6
100
AcDbTrace
 10
155.123678
 20
62.633744
 30
0.0
 11
154.75224
 21
62.968459
 31
0.0
 12
153.933814
 22
61.686789
 32
0.0
 13
153.933814
 23
61.686789
 33
0.0
  0
CIRCLE
  5
132E
100
AcDbEntity
  8
DIM
 62
     6
100
AcDbCircle
 39
20.0
 10
162.863914
 20
33.78182
 30
0.0
 40
1.186877
  0
CIRCLE
  5
132F
100
AcDbEntity
  8
DIM
 62
     6
100
AcDbCircle
 39
20.0
 10
162.863914
 20
39.78182
 30
0.0
 40
1.186877
  0
LINE
  5
1330
100
AcDbEntity
  8
DIM
 62
     6
100
AcDbLine
 10
159.013457
 20
34.0
 30
0.0
 11
160.513457
 21
34.0
 31
0.0
  0
LINE
  5
1331
100
AcDbEntity
  8
DIM
 62
     6
100
AcDbLine
 10
159.186415
 20
39.631127
 30
0.0
 11
160.686415
 21
39.631127
 31
0.0
  0
TEXT
  5
1332
100
AcDbEntity
  8
DIM
 62
     6
100
AcDbText
 10
162.111327
 20
33.008397
 30
0.0
 40
1.5
  1
D
  7
ROMAND
 11
162.111327
 21
33.758397
 31
0.0
100
AcDbText
 73
     2
  0
TEXT
  5
1333
100
AcDbEntity
  8
DIM
 62
     6
100
AcDbText
 10
162.111327
 20
39.008397
 30
0.0
 40
1.5
  1
B
  7
ROMAND
 11
162.111327
 21
39.758397
 31
0.0
100
AcDbText
 73
     2
  0
LINE
  5
1334
100
AcDbEntity
  8
DIM
 62
     6
100
AcDbLine
 39
20.0
 10
159.157709
 20
53.605715
 30
0.0
 11
157.669432
 21
53.605715
 31
0.0
  0
CIRCLE
  5
1335
100
AcDbEntity
  8
DIM
 62
     6
100
AcDbCircle
 39
20.0
 10
162.863914
 20
71.214327
 30
0.0
 40
1.186877
  0
CIRCLE
  5
1336
100
AcDbEntity
  8
DIM
 62
     6
100
AcDbCircle
 39
20.0
 10
162.863914
 20
75.389635
 30
0.0
 40
1.186877
  0
CIRCLE
  5
1337
100
AcDbEntity
  8
DIM
 62
     6
100
AcDbCircle
 39
20.0
 10
162.863914
 20
67.379836
 30
0.0
 40
1.186877
  0
LINE
  5
1338
100
AcDbEntity
  8
DIM
 62
     6
100
AcDbLine
 10
159.052285
 20
67.366826
 30
0.0
 11
160.552285
 21
67.366826
 31
0.0
  0
LINE
  5
1339
100
AcDbEntity
  8
DIM
 62
     6
100
AcDbLine
 10
159.052285
 20
71.366826
 30
0.0
 11
160.552285
 21
71.366826
 31
0.0
  0
LINE
  5
133A
100
AcDbEntity
  8
DIM
 62
     6
100
AcDbLine
 10
159.052285
 20
75.366826
 30
0.0
 11
160.552285
 21
75.366826
 31
0.0
  0
TEXT
  5
133B
100
AcDbEntity
  8
DIM
 62
     6
100
AcDbText
 10
162.181178
 20
70.363604
 30
0.0
 40
1.5
  1
F
  7
ROMAND
 11
162.181178
 21
71.113604
 31
0.0
100
AcDbText
 73
     2
  0
TEXT
  5
133C
100
AcDbEntity
  8
DIM
 62
     6
100
AcDbText
 10
162.049643
 20
66.594801
 30
0.0
 40
1.5
  1
C
  7
ROMAND
 11
162.049643
 21
67.344801
 31
0.0
100
AcDbText
 73
     2
  0
TEXT
  5
133D
100
AcDbEntity
  8
DIM
 62
     6
100
AcDbText
 10
162.115411
 20
74.620879
 30
0.0
 40
1.5
  1
E
  7
ROMAND
 11
162.115411
 21
75.370879
 31
0.0
100
AcDbText
 73
     2
  0
LINE
  5
133E
100
AcDbEntity
  8
DIM
 62
     6
100
AcDbLine
 10
159.052285
 20
79.366826
 30
0.0
 11
160.552285
 21
79.366826
 31
0.0
  0
TEXT
  5
133F
100
AcDbEntity
  8
DIM
 62
     6
100
AcDbText
 10
213.110899
 20
9.431036
 30
0.0
 40
1.275
  1
10
  7
ROMANS
100
AcDbText
  0
TEXT
  5
1340
100
AcDbEntity
  8
DIM
 62
     6
100
AcDbText
 10
213.110899
 20
7.731036
 30
0.0
 40
1.275
  1
10
  7
ROMANS
100
AcDbText
  0
LINE
  5
1341
100
AcDbEntity
  8
DIM
 62
     6
100
AcDbLine
 39
25.0
 10
199.136127
 20
25.159614
 30
0.0
 11
219.894892
 21
25.159614
 31
0.0
  0
TEXT
  5
1342
100
AcDbEntity
  8
DIM
 62
     6
100
AcDbText
 10
198.397928
 20
25.489858
 30
0.0
 40
1.875
  1
SQUARE COVER
  7
ROMAND
 72
     1
 11
209.380071
 21
25.489858
 31
0.0
100
AcDbText
  0
TEXT
  5
1343
100
AcDbEntity
  8
DIM
 62
     6
100
AcDbText
 10
211.755956
 20
13.259098
 30
0.0
 40
1.275
  1
DISTANCE
 41
0.581694
  7
ROMAND
 72
     5
 11
216.912255
 21
13.259098
 31
0.0
100
AcDbText
  0
CIRCLE
  5
1344
100
AcDbEntity
  8
DIM
 62
     6
100
AcDbCircle
 39
17.0
 10
214.374234
 20
20.165079
 30
0.0
 40
1.008846
  0
TEXT
  5
1345
100
AcDbEntity
  8
DIM
 62
     6
100
AcDbText
 10
213.110899
 20
-7.568964
 30
0.0
 40
1.275
  1
14
  7
ROMANS
100
AcDbText
  0
TEXT
  5
1346
100
AcDbEntity
  8
DIM
 62
     6
100
AcDbText
 10
213.110899
 20
-5.868964
 30
0.0
 40
1.275
  1
14
  7
ROMANS
100
AcDbText
  0
TEXT
  5
1347
100
AcDbEntity
  8
DIM
 62
     6
100
AcDbText
 10
213.110899
 20
-12.668964
 30
0.0
 40
1.275
  1
20
  7
ROMANS
100
AcDbText
  0
TEXT
  5
1348
100
AcDbEntity
  8
DIM
 62
     6
100
AcDbText
 10
213.110899
 20
-10.968964
 30
0.0
 40
1.275
  1
20
  7
ROMANS
100
AcDbText
  0
TEXT
  5
1349
100
AcDbEntity
  8
DIM
 62
     6
100
AcDbText
 10
213.110899
 20
2.631036
 30
0.0
 40
1.275
  1
11
  7
ROMANS
100
AcDbText
  0
TEXT
  5
134A
100
AcDbEntity
  8
DIM
 62
     6
100
AcDbText
 10
213.110899
 20
4.331036
 30
0.0
 40
1.275
  1
11
  7
ROMANS
100
AcDbText
  0
TEXT
  5
134B
100
AcDbEntity
  8
DIM
 62
     6
100
AcDbText
 10
213.110899
 20
-2.468964
 30
0.0
 40
1.275
  1
14
  7
ROMANS
100
AcDbText
  0
TEXT
  5
134C
100
AcDbEntity
  8
DIM
 62
     6
100
AcDbText
 10
213.110899
 20
-0.768964
 30
0.0
 40
1.275
  1
14
  7
ROMANS
100
AcDbText
  0
TEXT
  5
134D
100
AcDbEntity
  8
DIM
 62
     6
100
AcDbText
 10
213.110899
 20
-17.768964
 30
0.0
 40
1.275
  1
25
  7
ROMANS
100
AcDbText
  0
TEXT
  5
134E
100
AcDbEntity
  8
DIM
 62
     6
100
AcDbText
 10
213.110899
 20
-16.068964
 30
0.0
 40
1.275
  1
25
  7
ROMANS
100
AcDbText
  0
TEXT
  5
134F
100
AcDbEntity
  8
DIM
 62
     6
100
AcDbText
 10
213.110899
 20
-21.168964
 30
0.0
 40
1.275
  1
30
  7
ROMANS
100
AcDbText
  0
TEXT
  5
1350
100
AcDbEntity
  8
DIM
 62
     6
100
AcDbText
 10
213.110899
 20
-22.868964
 30
0.0
 40
1.275
  1
30
  7
ROMANS
100
AcDbText
  0
LINE
  5
1351
100
AcDbEntity
  8
DIM
 62
     6
100
AcDbLine
 39
17.0
 10
195.909852
 20
21.844477
 30
0.0
 11
195.909852
 21
-23.28109
 31
0.0
  0
LINE
  5
1352
100
AcDbEntity
  8
DIM
 62
     6
100
AcDbLine
 39
17.0
 10
187.918176
 20
21.844477
 30
0.0
 11
187.918176
 21
-23.28109
 31
0.0
  0
LINE
  5
1353
100
AcDbEntity
  8
DIM
 62
     6
100
AcDbLine
 39
17.0
 10
211.512375
 20
21.844477
 30
0.0
 11
211.512375
 21
-23.28109
 31
0.0
  0
LINE
  5
1354
100
AcDbEntity
  8
DIM
 62
     6
100
AcDbLine
 39
17.0
 10
203.711114
 20
21.844477
 30
0.0
 11
203.711114
 21
-23.28109
 31
0.0
  0
LINE
  5
1355
100
AcDbEntity
  8
DIM
 62
     6
100
AcDbLine
 39
17.0
 10
179.9265
 20
21.844477
 30
0.0
 11
179.9265
 21
-23.28109
 31
0.0
  0
TEXT
  5
1356
100
AcDbEntity
  8
DIM
 62
     6
100
AcDbText
 10
196.428052
 20
-22.447786
 30
0.0
 40
1.275
  1
 N/A
  7
ROMANS
100
AcDbText
  0
TEXT
  5
1357
100
AcDbEntity
  8
DIM
 62
     6
100
AcDbText
 10
204.806845
 20
-22.447786
 30
0.0
 40
1.275
  1
15.50
  7
ROMANS
100
AcDbText
  0
TEXT
  5
1359
100
AcDbEntity
  8
DIM
 62
     6
100
AcDbText
 10
182.451124
 20
-22.447786
 30
0.0
 40
1.275
  1
28
  7
ROMANS
100
AcDbText
  0
TEXT
  5
135A
100
AcDbEntity
  8
DIM
 62
     6
100
AcDbText
 10
189.07694
 20
15.354427
 30
0.0
 40
1.275
  1
ACCESS
 41
0.742214
  7
ROMAND
 72
     5
 11
194.394375
 21
15.354427
 31
0.0
100
AcDbText
  0
TEXT
  5
135B
100
AcDbEntity
  8
DIM
 62
     6
100
AcDbText
 10
189.157506
 20
17.510009
 30
0.0
 40
1.275
  1
CLEAR
 41
0.924657
  7
ROMAND
 72
     5
 11
194.434657
 21
17.510009
 31
0.0
100
AcDbText
  0
TEXT
  5
135C
100
AcDbEntity
  8
DIM
 62
     6
100
AcDbText
 10
190.515123
 20
3.052214
 30
0.0
 40
1.275
  1
16
  7
ROMANS
100
AcDbText
  0
TEXT
  5
135D
100
AcDbEntity
  8
DIM
 62
     6
100
AcDbText
 10
182.451124
 20
3.052214
 30
0.0
 40
1.275
  1
18
  7
ROMANS
100
AcDbText
  0
TEXT
  5
135E
100
AcDbEntity
  8
DIM
 62
     6
100
AcDbText
 10
182.451124
 20
-15.647786
 30
0.0
 40
1.275
  1
28
  7
ROMANS
100
AcDbText
  0
TEXT
  5
135F
100
AcDbEntity
  8
DIM
 62
     6
100
AcDbText
 10
182.451124
 20
-20.747786
 30
0.0
 40
1.275
  1
28
  7
ROMANS
100
AcDbText
  0
TEXT
  5
1360
100
AcDbEntity
  8
DIM
 62
     6
100
AcDbText
 10
182.451124
 20
-17.347786
 30
0.0
 40
1.275
  1
28
  7
ROMANS
100
AcDbText
  0
TEXT
  5
1361
100
AcDbEntity
  8
DIM
 62
     6
100
AcDbText
 10
182.451124
 20
-12.247786
 30
0.0
 40
1.275
  1
22
  7
ROMANS
100
AcDbText
  0
TEXT
  5
1362
100
AcDbEntity
  8
DIM
 62
     6
100
AcDbText
 10
182.451124
 20
-10.547786
 30
0.0
 40
1.275
  1
22
  7
ROMANS
100
AcDbText
  0
TEXT
  5
1363
100
AcDbEntity
  8
DIM
 62
     6
100
AcDbText
 10
182.451124
 20
-7.147786
 30
0.0
 40
1.275
  1
22
  7
ROMANS
100
AcDbText
  0
TEXT
  5
1364
100
AcDbEntity
  8
DIM
 62
     6
100
AcDbText
 10
182.451124
 20
-5.447786
 30
0.0
 40
1.275
  1
22
  7
ROMANS
100
AcDbText
  0
TEXT
  5
1365
100
AcDbEntity
  8
DIM
 62
     6
100
AcDbText
 10
182.451124
 20
-0.347786
 30
0.0
 40
1.275
  1
18
  7
ROMANS
100
AcDbText
  0
TEXT
  5
1366
100
AcDbEntity
  8
DIM
 62
     6
100
AcDbText
 10
182.451124
 20
-2.047786
 30
0.0
 40
1.275
  1
18
  7
ROMANS
100
AcDbText
  0
TEXT
  5
1367
100
AcDbEntity
  8
DIM
 62
     6
100
AcDbText
 10
189.11924
 20
-15.647786
 30
0.0
 40
1.275
  1
25.50
  7
ROMANS
100
AcDbText
  0
TEXT
  5
1368
100
AcDbEntity
  8
DIM
 62
     6
100
AcDbText
 10
189.11924
 20
-17.347786
 30
0.0
 40
1.275
  1
25.50
  7
ROMANS
100
AcDbText
  0
TEXT
  5
136A
100
AcDbEntity
  8
DIM
 62
     6
100
AcDbText
 10
190.515123
 20
-12.247786
 30
0.0
 40
1.275
  1
20
  7
ROMANS
100
AcDbText
  0
TEXT
  5
136B
100
AcDbEntity
  8
DIM
 62
     6
100
AcDbText
 10
190.515123
 20
-10.547786
 30
0.0
 40
1.275
  1
20
  7
ROMANS
100
AcDbText
  0
TEXT
  5
136C
100
AcDbEntity
  8
DIM
 62
     6
100
AcDbText
 10
190.515123
 20
-7.147786
 30
0.0
 40
1.275
  1
20
  7
ROMANS
100
AcDbText
  0
TEXT
  5
136D
100
AcDbEntity
  8
DIM
 62
     6
100
AcDbText
 10
190.515123
 20
-5.447786
 30
0.0
 40
1.275
  1
20
  7
ROMANS
100
AcDbText
  0
TEXT
  5
136E
100
AcDbEntity
  8
DIM
 62
     6
100
AcDbText
 10
190.515123
 20
-2.047786
 30
0.0
 40
1.275
  1
16
  7
ROMANS
100
AcDbText
  0
TEXT
  5
136F
100
AcDbEntity
  8
DIM
 62
     6
100
AcDbText
 10
190.515123
 20
-0.347786
 30
0.0
 40
1.275
  1
16
  7
ROMANS
100
AcDbText
  0
TEXT
  5
1370
100
AcDbEntity
  8
DIM
 62
     6
100
AcDbText
 10
181.157565
 20
17.51324
 30
0.0
 40
1.275
  1
ACCESS
 41
0.742214
  7
ROMAND
 72
     5
 11
186.475001
 21
17.51324
 31
0.0
100
AcDbText
  0
TEXT
  5
1371
100
AcDbEntity
  8
DIM
 62
     6
100
AcDbText
 10
181.842299
 20
13.265814
 30
0.0
 40
1.275
  1
DIM.
  7
ROMAND
 72
     1
 11
183.815513
 21
13.265814
 31
0.0
100
AcDbText
  0
TEXT
  5
1372
100
AcDbEntity
  8
DIM
 62
     6
100
AcDbText
 10
180.961942
 20
15.388203
 30
0.0
 40
1.275
  1
PLATE
  7
ROMAND
 72
     1
 11
183.815513
 21
15.388203
 31
0.0
100
AcDbText
  0
CIRCLE
  5
1373
100
AcDbEntity
  8
DIM
 62
     6
100
AcDbCircle
 39
17.0
 10
183.867043
 20
20.168891
 30
0.0
 40
1.008846
  0
TEXT
  5
1374
100
AcDbEntity
  8
DIM
 62
     6
100
AcDbText
 10
182.451124
 20
4.752214
 30
0.0
 40
1.275
  1
18
  7
ROMANS
100
AcDbText
  0
TEXT
  5
1375
100
AcDbEntity
  8
DIM
 62
     6
100
AcDbText
 10
180.789016
 20
8.152214
 30
0.0
 40
1.275
  1
 16
  7
ROMANS
100
AcDbText
  0
TEXT
  5
1376
100
AcDbEntity
  8
DIM
 62
     6
100
AcDbText
 10
180.789016
 20
9.852214
 30
0.0
 40
1.275
  1
 16
  7
ROMANS
100
AcDbText
  0
CIRCLE
  5
1377
100
AcDbEntity
  8
DIM
 62
     6
100
AcDbCircle
 39
17.0
 10
176.485468
 20
20.164231
 30
0.0
 40
1.008846
  0
TEXT
  5
1378
100
AcDbEntity
  8
DIM
 62
     6
100
AcDbText
 10
175.885124
 20
19.530732
 30
0.0
 40
1.275
  1
D
  7
ROMAND
 72
     1
 11
176.552981
 21
19.530732
 31
0.0
100
AcDbText
  0
TEXT
  5
1379
100
AcDbEntity
  8
DIM
 62
     6
100
AcDbText
 10
183.20837
 20
19.535392
 30
0.0
 40
1.275
  1
E
  7
ROMAND
 72
     1
 11
183.815513
 21
19.535392
 31
0.0
100
AcDbText
  0
TEXT
  5
137A
100
AcDbEntity
  8
DIM
 62
     6
100
AcDbText
 10
188.853015
 20
8.152214
 30
0.0
 40
1.275
  1
 14
  7
ROMANS
100
AcDbText
  0
TEXT
  5
137B
100
AcDbEntity
  8
DIM
 62
     6
100
AcDbText
 10
190.515123
 20
4.752214
 30
0.0
 40
1.275
  1
16
  7
ROMANS
100
AcDbText
  0
TEXT
  5
137C
100
AcDbEntity
  8
DIM
 62
     6
100
AcDbText
 10
188.853015
 20
9.852214
 30
0.0
 40
1.275
  1
 14
  7
ROMANS
100
AcDbText
  0
TEXT
  5
137D
100
AcDbEntity
  8
DIM
 62
     6
100
AcDbText
 10
190.003375
 20
13.280578
 30
0.0
 40
1.275
  1
DIM.
  7
ROMAND
 72
     1
 11
191.976589
 21
13.280578
 31
0.0
100
AcDbText
  0
CIRCLE
  5
137E
100
AcDbEntity
  8
DIM
 62
     6
100
AcDbCircle
 39
17.0
 10
191.745069
 20
20.185403
 30
0.0
 40
1.008846
  0
TEXT
  5
137F
100
AcDbEntity
  8
DIM
 62
     6
100
AcDbText
 10
191.180854
 20
19.592139
 30
0.0
 40
1.275
  1
F
  7
ROMAND
 72
     1
 11
191.787997
 21
19.592139
 31
0.0
100
AcDbText
  0
TEXT
  5
1380
100
AcDbEntity
  8
DIM
 62
     6
100
AcDbText
 10
196.428052
 20
3.052214
 30
0.0
 40
1.275
  1
 N/A
  7
ROMANS
100
AcDbText
  0
TEXT
  5
1381
100
AcDbEntity
  8
DIM
 62
     6
100
AcDbText
 10
204.806845
 20
3.052214
 30
0.0
 40
1.275
  1
 9.50
  7
ROMANS
100
AcDbText
  0
TEXT
  5
1382
100
AcDbEntity
  8
DIM
 62
     6
100
AcDbText
 10
196.428052
 20
-10.547786
 30
0.0
 40
1.275
  1
 N/A
  7
ROMANS
100
AcDbText
  0
TEXT
  5
1383
100
AcDbEntity
  8
DIM
 62
     6
100
AcDbText
 10
196.428052
 20
-20.747786
 30
0.0
 40
1.275
  1
 N/A
  7
ROMANS
100
AcDbText
  0
TEXT
  5
1384
100
AcDbEntity
  8
DIM
 62
     6
100
AcDbText
 10
196.428052
 20
-15.647786
 30
0.0
 40
1.275
  1
 N/A
  7
ROMANS
100
AcDbText
  0
TEXT
  5
1385
100
AcDbEntity
  8
DIM
 62
     6
100
AcDbText
 10
196.428052
 20
-17.347786
 30
0.0
 40
1.275
  1
 N/A
  7
ROMANS
100
AcDbText
  0
TEXT
  5
1386
100
AcDbEntity
  8
DIM
 62
     6
100
AcDbText
 10
196.428052
 20
-12.247786
 30
0.0
 40
1.275
  1
 N/A
  7
ROMANS
100
AcDbText
  0
TEXT
  5
1387
100
AcDbEntity
  8
DIM
 62
     6
100
AcDbText
 10
196.428052
 20
-5.447786
 30
0.0
 40
1.275
  1
 N/A
  7
ROMANS
100
AcDbText
  0
TEXT
  5
1388
100
AcDbEntity
  8
DIM
 62
     6
100
AcDbText
 10
196.428052
 20
-7.147786
 30
0.0
 40
1.275
  1
 N/A
  7
ROMANS
100
AcDbText
  0
TEXT
  5
1389
100
AcDbEntity
  8
DIM
 62
     6
100
AcDbText
 10
196.428052
 20
-0.347786
 30
0.0
 40
1.275
  1
 N/A
  7
ROMANS
100
AcDbText
  0
TEXT
  5
138A
100
AcDbEntity
  8
DIM
 62
     6
100
AcDbText
 10
196.428052
 20
-2.047786
 30
0.0
 40
1.275
  1
 N/A
  7
ROMANS
100
AcDbText
  0
TEXT
  5
138B
100
AcDbEntity
  8
DIM
 62
     6
100
AcDbText
 10
204.806845
 20
-12.247786
 30
0.0
 40
1.275
  1
18.00
  7
ROMANS
100
AcDbText
  0
TEXT
  5
138C
100
AcDbEntity
  8
DIM
 62
     6
100
AcDbText
 10
204.806845
 20
-10.547786
 30
0.0
 40
1.275
  1
18.00
  7
ROMANS
100
AcDbText
  0
TEXT
  5
138D
100
AcDbEntity
  8
DIM
 62
     6
100
AcDbText
 10
204.806845
 20
-17.347786
 30
0.0
 40
1.275
  1
15.50
  7
ROMANS
100
AcDbText
  0
TEXT
  5
138E
100
AcDbEntity
  8
DIM
 62
     6
100
AcDbText
 10
204.806845
 20
-15.647786
 30
0.0
 40
1.275
  1
15.50
  7
ROMANS
100
AcDbText
  0
TEXT
  5
138F
100
AcDbEntity
  8
DIM
 62
     6
100
AcDbText
 10
204.806845
 20
-20.747786
 30
0.0
 40
1.275
  1
15.50
  7
ROMANS
100
AcDbText
  0
TEXT
  5
1390
100
AcDbEntity
  8
DIM
 62
     6
100
AcDbText
 10
204.806845
 20
-2.047786
 30
0.0
 40
1.275
  1
13.00
  7
ROMANS
100
AcDbText
  0
TEXT
  5
1391
100
AcDbEntity
  8
DIM
 62
     6
100
AcDbText
 10
204.806845
 20
-0.347786
 30
0.0
 40
1.275
  1
13.00
  7
ROMANS
100
AcDbText
  0
TEXT
  5
1392
100
AcDbEntity
  8
DIM
 62
     6
100
AcDbText
 10
204.806845
 20
-7.147786
 30
0.0
 40
1.275
  1
14.00
  7
ROMANS
100
AcDbText
  0
TEXT
  5
1393
100
AcDbEntity
  8
DIM
 62
     6
100
AcDbText
 10
204.806845
 20
-5.447786
 30
0.0
 40
1.275
  1
14.00
  7
ROMANS
100
AcDbText
  0
TEXT
  5
1394
100
AcDbEntity
  8
DIM
 62
     6
100
AcDbText
 10
197.254308
 20
13.259098
 30
0.0
 40
1.275
  1
DISTANCE
 41
0.581694
  7
ROMAND
 72
     5
 11
202.410607
 21
13.259098
 31
0.0
100
AcDbText
  0
TEXT
  5
1395
100
AcDbEntity
  8
DIM
 62
     6
100
AcDbText
 10
196.428052
 20
8.152214
 30
0.0
 40
1.275
  1
 N/A
  7
ROMANS
100
AcDbText
  0
TEXT
  5
1396
100
AcDbEntity
  8
DIM
 62
     6
100
AcDbText
 10
196.428052
 20
9.852214
 30
0.0
 40
1.275
  1
 N/A
  7
ROMANS
100
AcDbText
  0
TEXT
  5
1397
100
AcDbEntity
  8
DIM
 62
     6
100
AcDbText
 10
196.428052
 20
4.752214
 30
0.0
 40
1.275
  1
 N/A
  7
ROMANS
100
AcDbText
  0
CIRCLE
  5
1398
100
AcDbEntity
  8
DIM
 62
     6
100
AcDbCircle
 39
17.0
 10
199.855313
 20
20.197046
 30
0.0
 40
1.008846
  0
TEXT
  5
1399
100
AcDbEntity
  8
DIM
 62
     6
100
AcDbText
 10
199.172983
 20
19.563547
 30
0.0
 40
1.275
  1
G
  7
ROMAND
 72
     1
 11
199.810483
 21
19.563547
 31
0.0
100
AcDbText
  0
TEXT
  5
139A
100
AcDbEntity
  8
DIM
 62
     6
100
AcDbText
 10
204.882353
 20
13.259098
 30
0.0
 40
1.275
  1
DISTANCE
 41
0.581694
  7
ROMAND
 72
     5
 11
210.038652
 21
13.259098
 31
0.0
100
AcDbText
  0
TEXT
  5
139B
100
AcDbEntity
  8
DIM
 62
     6
100
AcDbText
 10
204.806845
 20
9.852214
 30
0.0
 40
1.275
  1
 7.75
  7
ROMANS
100
AcDbText
  0
TEXT
  5
139C
100
AcDbEntity
  8
DIM
 62
     6
100
AcDbText
 10
204.806845
 20
8.152214
 30
0.0
 40
1.275
  1
 7.75
  7
ROMANS
100
AcDbText
  0
TEXT
  5
139D
100
AcDbEntity
  8
DIM
 62
     6
100
AcDbText
 10
204.806845
 20
4.752214
 30
0.0
 40
1.275
  1
 9.50
  7
ROMANS
100
AcDbText
  0
CIRCLE
  5
139E
100
AcDbEntity
  8
DIM
 62
     6
100
AcDbCircle
 39
17.0
 10
207.681875
 20
20.176405
 30
0.0
 40
1.008846
  0
TEXT
  5
139F
100
AcDbEntity
  8
DIM
 62
     6
100
AcDbText
 10
206.943887
 20
19.623375
 30
0.0
 40
1.275
  1
H
  7
ROMAND
 72
     1
 11
207.611745
 21
19.623375
 31
0.0
100
AcDbText
  0
TEXT
  5
13A0
100
AcDbEntity
  8
DIM
 62
     6
100
AcDbText
 10
217.976458
 20
-22.868964
 30
0.0
 40
1.275
  1
15.50
  7
ROMANS
100
AcDbText
  0
LINE
  5
13A1
100
AcDbEntity
  8
DIM
 62
     6
100
AcDbLine
 39
17.0
 10
224.423741
 20
21.844477
 30
0.0
 11
224.423741
 21
-23.28109
 31
0.0
  0
LWPOLYLINE
  5
13A2
100
AcDbEntity
  8
DIM
 62
     6
100
AcDbPolyline
 90
        2
 70
     0
 43
0.2125
 39
17.0
 10
224.423741
 20
21.844477
 10
224.423741
 20
-23.28109
  0
LINE
  5
13A3
100
AcDbEntity
  8
DIM
 62
     6
100
AcDbLine
 39
17.0
 10
217.205188
 20
21.844477
 30
0.0
 11
217.205188
 21
-23.28109
 31
0.0
  0
TEXT
  5
13A4
100
AcDbEntity
  8
DIM
 62
     6
100
AcDbText
 10
217.976458
 20
2.631036
 30
0.0
 40
1.275
  1
 7.00
  7
ROMANS
100
AcDbText
  0
TEXT
  5
13A5
100
AcDbEntity
  8
DIM
 62
     6
100
AcDbText
 10
217.976458
 20
-17.768964
 30
0.0
 40
1.275
  1
15.50
  7
ROMANS
100
AcDbText
  0
TEXT
  5
13A6
100
AcDbEntity
  8
DIM
 62
     6
100
AcDbText
 10
217.976458
 20
-21.168964
 30
0.0
 40
1.275
  1
15.50
  7
ROMANS
100
AcDbText
  0
TEXT
  5
13A7
100
AcDbEntity
  8
DIM
 62
     6
100
AcDbText
 10
217.976458
 20
-2.468964
 30
0.0
 40
1.275
  1
 7.00
  7
ROMANS
100
AcDbText
  0
TEXT
  5
13A8
100
AcDbEntity
  8
DIM
 62
     6
100
AcDbText
 10
217.976458
 20
-10.968964
 30
0.0
 40
1.275
  1
 9.00
  7
ROMANS
100
AcDbText
  0
TEXT
  5
13A9
100
AcDbEntity
  8
DIM
 62
     6
100
AcDbText
 10
217.976458
 20
-16.068964
 30
0.0
 40
1.275
  1
15.50
  7
ROMANS
100
AcDbText
  0
TEXT
  5
13AA
100
AcDbEntity
  8
DIM
 62
     6
100
AcDbText
 10
217.976458
 20
-12.668964
 30
0.0
 40
1.275
  1
 9.00
  7
ROMANS
100
AcDbText
  0
TEXT
  5
13AB
100
AcDbEntity
  8
DIM
 62
     6
100
AcDbText
 10
217.976458
 20
-7.568964
 30
0.0
 40
1.275
  1
11.00
  7
ROMANS
100
AcDbText
  0
TEXT
  5
13AC
100
AcDbEntity
  8
DIM
 62
     6
100
AcDbText
 10
217.976458
 20
-5.868964
 30
0.0
 40
1.275
  1
11.00
  7
ROMANS
100
AcDbText
  0
TEXT
  5
13AD
100
AcDbEntity
  8
DIM
 62
     6
100
AcDbText
 10
217.976458
 20
-0.768964
 30
0.0
 40
1.275
  1
 7.00
  7
ROMANS
100
AcDbText
  0
TEXT
  5
13AE
100
AcDbEntity
  8
DIM
 62
     6
100
AcDbText
 10
217.976458
 20
4.331036
 30
0.0
 40
1.275
  1
 7.00
  7
ROMANS
100
AcDbText
  0
TEXT
  5
13AF
100
AcDbEntity
  8
DIM
 62
     6
100
AcDbText
 10
217.976458
 20
9.431036
 30
0.0
 40
1.275
  1
 5.50
  7
ROMANS
100
AcDbText
  0
TEXT
  5
13B0
100
AcDbEntity
  8
DIM
 62
     6
100
AcDbText
 10
217.976458
 20
7.731036
 30
0.0
 40
1.275
  1
 5.50
  7
ROMANS
100
AcDbText
  0
TEXT
  5
13B1
100
AcDbEntity
  8
DIM
 62
     6
100
AcDbText
 10
218.137285
 20
13.259098
 30
0.0
 40
1.275
  1
DISTANCE
 41
0.581694
  7
ROMAND
 72
     5
 11
223.293584
 21
13.259098
 31
0.0
100
AcDbText
  0
CIRCLE
  5
13B2
100
AcDbEntity
  8
DIM
 62
     6
100
AcDbCircle
 39
17.0
 10
220.677722
 20
20.165079
 30
0.0
 40
1.008846
  0
TEXT
  5
13B3
100
AcDbEntity
  8
DIM
 62
     6
100
AcDbText
 10
214.085568
 20
19.510176
 30
0.0
 40
1.275
  1
I
  7
ROMAND
 72
     1
 11
214.358782
 21
19.510176
 31
0.0
100
AcDbText
  0
TEXT
  5
13B4
100
AcDbEntity
  8
DIM
 62
     6
100
AcDbText
 10
219.994412
 20
19.510176
 30
0.0
 40
1.275
  1
K
  7
ROMAND
 72
     1
 11
220.662269
 21
19.510176
 31
0.0
100
AcDbText
  0
LINE
  5
13B5
100
AcDbEntity
  8
CENTER
 62
     3
100
AcDbLine
 10
213.771071
 20
64.605715
 30
0.0
 11
204.989071
 21
64.605715
 31
0.0
  0
LINE
  5
13B6
100
AcDbEntity
  8
DIM
 62
     6
100
AcDbLine
 10
219.139734
 20
55.001351
 30
0.0
 11
189.256899
 21
64.184726
 31
0.0
  0
CIRCLE
  5
13B7
100
AcDbEntity
  8
HIDDEN
 62
     1
100
AcDbCircle
 39
20.0
 10
216.380071
 20
53.605715
 30
0.0
 40
7.0
  0
CIRCLE
  5
13B8
100
AcDbEntity
  8
OBJECT
 62
     2
100
AcDbCircle
 39
20.0
 10
216.380071
 20
53.605715
 30
0.0
 40
8.0
  0
DIMENSION
  5
13B9
100
AcDbEntity
  8
DIM
 62
     6
100
AcDbDimension
  2
*D1
 10
226.380071
 20
77.742873
 30
0.0
 11
209.380071
 21
77.742873
 31
0.0
 12
138.572657
 22
0.0
 32
0.0
 70
    32
  1
B
  3
STANDARD
100
AcDbAlignedDimension
 13
192.380071
 23
70.605715
 33
0.0
 14
226.380071
 24
70.605715
 34
0.0
100
AcDbRotatedDimension
1001
ACAD
1000
DSTYLE
1002
{
1070
   340
1005
29
1070
   174
1070
     1
1070
   147
1040
0.75
1070
   287
1070
     5
1070
    42
1040
0.75
1070
    44
1040
1.5
1070
   141
1040
-1.5
1070
    41
1040
1.5
1002
}
  0
LINE
  5
13BA
100
AcDbEntity
  8
HIDDEN
 62
     1
100
AcDbLine
 39
20.0
 10
224.380071
 20
38.605715
 30
0.0
 11
194.380071
 21
38.605715
 31
0.0
  0
LINE
  5
13BB
100
AcDbEntity
  8
HIDDEN
 62
     1
100
AcDbLine
 39
20.0
 10
224.380071
 20
68.605715
 30
0.0
 11
194.380071
 21
68.605715
 31
0.0
  0
LINE
  5
13BC
100
AcDbEntity
  8
CENTER
 62
     3
100
AcDbLine
 39
20.0
 10
225.380071
 20
69.605715
 30
0.0
 11
193.380071
 21
69.605715
 31
0.0
  0
LINE
  5
13BD
100
AcDbEntity
  8
CENTER
 62
     3
100
AcDbLine
 39
20.0
 10
225.380071
 20
37.605715
 30
0.0
 11
193.380071
 21
37.605715
 31
0.0
  0
LINE
  5
13BE
100
AcDbEntity
  8
OBJECT
 62
     2
100
AcDbLine
 39
20.0
 10
226.380071
 20
36.605715
 30
0.0
 11
192.380071
 21
36.605715
 31
0.0
  0
LINE
  5
13BF
100
AcDbEntity
  8
OBJECT
 62
     2
100
AcDbLine
 39
20.0
 10
226.380071
 20
70.605715
 30
0.0
 11
192.380071
 21
70.605715
 31
0.0
  0
LINE
  5
13C0
100
AcDbEntity
  8
CENTER
 62
     3
100
AcDbLine
 10
212.380071
 20
53.605715
 30
0.0
 11
227.880071
 21
53.605715
 31
0.0
  0
LINE
  5
13C1
100
AcDbEntity
  8
DIM
 62
     6
100
AcDbLine
 10
206.861455
 20
66.740131
 30
0.0
 11
189.256899
 21
79.121182
 31
0.0
  0
LINE
  5
13C2
100
AcDbEntity
  8
DIM
 62
     6
100
AcDbLine
 10
196.662532
 20
47.995335
 30
0.0
 11
191.016191
 21
41.340751
 31
0.0
  0
LINE
  5
13C3
100
AcDbEntity
  8
DIM
 62
     6
100
AcDbLine
 10
206.703193
 20
48.662533
 30
0.0
 11
189.256899
 21
53.348485
 31
0.0
  0
LINE
  5
13C4
100
AcDbEntity
  8
CENTER
 62
     3
100
AcDbLine
 10
206.380071
 20
53.605715
 30
0.0
 11
190.880071
 21
53.605715
 31
0.0
  0
LINE
  5
13C5
100
AcDbEntity
  8
CENTER
 62
     3
100
AcDbLine
 39
20.0
 10
193.380071
 20
37.605715
 30
0.0
 11
193.380071
 21
69.605715
 31
0.0
  0
LINE
  5
13C6
100
AcDbEntity
  8
OBJECT
 62
     2
100
AcDbLine
 39
20.0
 10
192.380071
 20
36.605715
 30
0.0
 11
192.380071
 21
70.605715
 31
0.0
  0
LINE
  5
13C7
100
AcDbEntity
  8
DIM
 62
     6
100
AcDbLine
 39
20.0
 10
187.756899
 20
53.348485
 30
0.0
 11
183.539194
 21
53.348485
 31
0.0
  0
LWPOLYLINE
  5
13C8
100
AcDbEntity
  8
OBJECT
 62
     2
100
AcDbPolyline
 90
        6
 70
     1
 43
0.0
 39
20.0
 10
193.488324
 20
45.793215
 10
193.271817
 20
45.793215
 10
193.163564
 20
45.605715
 10
193.271817
 20
45.418215
 10
193.488324
 20
45.418215
 10
193.596577
 20
45.605715
  0
LINE
  5
13C9
100
AcDbEntity
  8
DIM
 62
     6
100
AcDbLine
 10
189.256899
 20
53.348485
 30
0.0
 11
187.756899
 21
53.348485
 31
0.0
  0
LINE
  5
13CA
100
AcDbEntity
  8
DIM
 62
     6
100
AcDbLine
 39
20.0
 10
187.756899
 20
64.184726
 30
0.0
 11
185.151888
 21
64.184726
 31
0.0
  0
LWPOLYLINE
  5
13CB
100
AcDbEntity
  8
OBJECT
 62
     2
100
AcDbPolyline
 90
        6
 70
     1
 43
0.0
 39
20.0
 10
193.488324
 20
61.418215
 10
193.271817
 20
61.418215
 10
193.163564
 20
61.605715
 10
193.271817
 20
61.793215
 10
193.488324
 20
61.793215
 10
193.596577
 20
61.605715
  0
LINE
  5
13CC
100
AcDbEntity
  8
DIM
 62
     6
100
AcDbLine
 10
189.256899
 20
64.184726
 30
0.0
 11
187.756899
 21
64.184726
 31
0.0
  0
LINE
  5
13CD
100
AcDbEntity
  8
CENTER
 62
     3
100
AcDbLine
 10
199.880071
 20
52.105715
 30
0.0
 11
199.880071
 21
55.105715
 31
0.0
  0
LINE
  5
13CE
100
AcDbEntity
  8
CENTER
 62
     3
100
AcDbLine
 10
209.380071
 20
52.105715
 30
0.0
 11
209.380071
 21
55.105715
 31
0.0
  0
LINE
  5
13CF
100
AcDbEntity
  8
CENTER
 62
     3
100
AcDbLine
 10
209.380071
 20
52.105715
 30
0.0
 11
209.380071
 21
55.105715
 31
0.0
  0
LINE
  5
13D0
100
AcDbEntity
  8
CENTER
 62
     3
100
AcDbLine
 10
211.380071
 20
52.105715
 30
0.0
 11
211.380071
 21
55.105715
 31
0.0
  0
CIRCLE
  5
13D1
100
AcDbEntity
  8
OBJECT
 62
     2
100
AcDbCircle
 39
20.0
 10
211.380071
 20
53.605715
 30
0.0
 40
1.375
  0
CIRCLE
  5
13D2
100
AcDbEntity
  8
OBJECT
 62
     2
100
AcDbCircle
 39
20.0
 10
211.380071
 20
53.605715
 30
0.0
 40
0.2188
  0
CIRCLE
  5
13D3
100
AcDbEntity
  8
OBJECT
 62
     2
100
AcDbCircle
 39
20.0
 10
199.880071
 20
53.605715
 30
0.0
 40
5.0
  0
CIRCLE
  5
13D4
100
AcDbEntity
  8
HIDDEN
 62
     1
100
AcDbCircle
 39
20.0
 10
199.880071
 20
53.605715
 30
0.0
 40
4.0
  0
LINE
  5
13D5
100
AcDbEntity
  8
HIDDEN
 62
     1
100
AcDbLine
 39
20.0
 10
194.380071
 20
38.605715
 30
0.0
 11
194.380071
 21
68.605715
 31
0.0
  0
LWPOLYLINE
  5
13D6
100
AcDbEntity
  8
OBJECT
 62
     2
100
AcDbPolyline
 90
        6
 70
     1
 43
0.0
 39
20.0
 10
196.481584
 20
50.423734
 10
196.589837
 20
50.236234
 10
196.806343
 20
50.236234
 10
196.914596
 20
50.423734
 10
196.806343
 20
50.611234
 10
196.589837
 20
50.611234
  0
LWPOLYLINE
  5
13D7
100
AcDbEntity
  8
OBJECT
 62
     2
100
AcDbPolyline
 90
        6
 70
     1
 43
0.0
 39
20.0
 10
203.062051
 20
50.207228
 10
203.249551
 20
50.315481
 10
203.249551
 20
50.531988
 10
203.062051
 20
50.640241
 10
202.874551
 20
50.531988
 10
202.874551
 20
50.315481
  0
SOLID
  5
13D8
100
AcDbEntity
  8
DIM
 62
     6
100
AcDbTrace
 10
196.471905
 20
48.15708
 30
0.0
 11
196.853158
 21
47.833591
 31
0.0
 12
197.633
 22
49.139097
 32
0.0
 13
197.633
 23
49.139097
 33
0.0
  0
LINE
  5
13D9
100
AcDbEntity
  8
CENTER
 62
     3
100
AcDbLine
 10
199.880071
 20
50.605715
 30
0.0
 11
199.880071
 21
47.105715
 31
0.0
  0
LINE
  5
13DA
100
AcDbEntity
  8
CENTER
 62
     3
100
AcDbLine
 10
209.380071
 20
50.605715
 30
0.0
 11
209.380071
 21
35.105715
 31
0.0
  0
TEXT
  5
13DC
100
AcDbEntity
  8
DIM
 62
     6
100
AcDbText
 10
208.770531
 20
33.890205
 30
0.0
 40
1.125
  1
C
  7
ROMANS
100
AcDbText
  0
TEXT
  5
13DD
100
AcDbEntity
  8
DIM
 62
     6
100
AcDbText
 10
209.113464
 20
33.324673
 30
0.0
 40
1.125
  1
L
  7
ROMANS
100
AcDbText
  0
LWPOLYLINE
  5
13DE
100
AcDbEntity
  8
OBJECT
 62
     2
100
AcDbPolyline
 90
        6
 70
     1
 43
0.0
 39
20.0
 10
211.293276
 20
48.302414
 10
211.185023
 20
48.489914
 10
210.968516
 20
48.489914
 10
210.860263
 20
48.302414
 10
210.968516
 20
48.114914
 10
211.185023
 20
48.114914
  0
LINE
  5
13DF
100
AcDbEntity
  8
DIM
 62
     6
100
AcDbLine
 10
209.433333
 20
51.491277
 30
0.0
 11
206.703193
 21
48.662533
 31
0.0
  0
SOLID
  5
13E0
100
AcDbEntity
  8
DIM
 62
     6
100
AcDbTrace
 10
209.253449
 20
51.664891
 30
0.0
 11
209.613217
 21
51.317664
 31
0.0
 12
210.475016
 22
52.570582
 32
0.0
 13
210.475016
 23
52.570582
 33
0.0
  0
LWPOLYLINE
  5
13E1
100
AcDbEntity
  8
OBJECT
 62
     2
100
AcDbPolyline
 90
        6
 70
     1
 43
0.0
 39
20.0
 10
196.69809
 20
57.004202
 10
196.51059
 20
56.895949
 10
196.51059
 20
56.679442
 10
196.69809
 20
56.571189
 10
196.88559
 20
56.679442
 10
196.88559
 20
56.895949
  0
LWPOLYLINE
  5
13E2
100
AcDbEntity
  8
OBJECT
 62
     2
100
AcDbPolyline
 90
        6
 70
     1
 43
0.0
 39
20.0
 10
203.278557
 20
56.787695
 10
203.170304
 20
56.975195
 10
202.953798
 20
56.975195
 10
202.845545
 20
56.787695
 10
202.953798
 20
56.600195
 10
203.170304
 20
56.600195
  0
LINE
  5
13E3
100
AcDbEntity
  8
CENTER
 62
     3
100
AcDbLine
 10
198.380071
 20
53.605715
 30
0.0
 11
201.380071
 21
53.605715
 31
0.0
  0
LINE
  5
13E4
100
AcDbEntity
  8
CENTER
 62
     3
100
AcDbLine
 10
199.880071
 20
56.605715
 30
0.0
 11
199.880071
 21
60.105715
 31
0.0
  0
ARC
  5
13E5
100
AcDbEntity
  8
OBJECT
 62
     2
100
AcDbCircle
 10
209.380071
 20
64.605715
 30
0.0
 40
2.172
100
AcDbArc
 50
28.703991
 51
151.296009
  0
LINE
  5
13E6
100
AcDbEntity
  8
CENTER
 62
     3
100
AcDbLine
 10
209.380071
 20
63.105715
 30
0.0
 11
209.380071
 21
66.105715
 31
0.0
  0
CIRCLE
  5
13E7
100
AcDbEntity
  8
OBJECT
 62
     2
100
AcDbCircle
 10
209.380071
 20
64.605715
 30
0.0
 40
1.5
  0
CIRCLE
  5
13E8
100
AcDbEntity
  8
OBJECT
 62
     2
100
AcDbCircle
 39
20.0
 10
209.380071
 20
64.605715
 30
0.0
 40
1.8125
  0
LINE
  5
13E9
100
AcDbEntity
  8
CENTER
 62
     3
100
AcDbLine
 10
209.380071
 20
56.605715
 30
0.0
 11
209.380071
 21
72.105715
 31
0.0
  0
LWPOLYLINE
  5
13EA
100
AcDbEntity
  8
OBJECT
 62
     2
100
AcDbPolyline
 90
        6
 70
     1
 43
0.0
 39
20.0
 10
211.07677
 20
58.692509
 10
211.26427
 20
58.800763
 10
211.26427
 20
59.017269
 10
211.07677
 20
59.125522
 10
210.88927
 20
59.017269
 10
210.88927
 20
58.800763
  0
ARC
  5
13EB
100
AcDbEntity
  8
OBJECT
 62
     2
100
AcDbCircle
 10
209.380071
 20
64.605715
 30
0.0
 40
2.172
100
AcDbArc
 50
208.703991
 51
331.296009
  0
LINE
  5
13EC
100
AcDbEntity
  8
CENTER
 62
     3
100
AcDbLine
 10
206.067571
 20
64.605715
 30
0.0
 11
212.692571
 21
64.605715
 31
0.0
  0
LINE
  5
13ED
100
AcDbEntity
  8
CENTER
 62
     3
100
AcDbLine
 10
207.880071
 20
53.605715
 30
0.0
 11
210.880071
 21
53.605715
 31
0.0
  0
ARC
  5
13EE
100
AcDbEntity
  8
OBJECT
 62
     2
100
AcDbCircle
 10
206.597869
 20
66.129178
 30
0.0
 40
1.0
100
AcDbArc
 50
287.904648
 51
331.296009
  0
ARC
  5
13EF
100
AcDbEntity
  8
OBJECT
 62
     2
100
AcDbCircle
 10
206.597869
 20
63.082252
 30
0.0
 40
1.0
100
AcDbArc
 50
28.703991
 51
72.095352
  0
ARC
  5
13F0
100
AcDbEntity
  8
OBJECT
 62
     2
100
AcDbCircle
 10
207.090071
 20
64.605715
 30
0.0
 40
0.601
100
AcDbArc
 50
107.904648
 51
252.095352
  0
CIRCLE
  5
13F1
100
AcDbEntity
  8
OBJECT
 62
     2
100
AcDbCircle
 10
207.090071
 20
64.605715
 30
0.0
 40
0.242
  0
LINE
  5
13F2
100
AcDbEntity
  8
CENTER
 62
     3
100
AcDbLine
 10
209.880071
 20
53.605715
 30
0.0
 11
212.880071
 21
53.605715
 31
0.0
  0
ARC
  5
13F3
100
AcDbEntity
  8
OBJECT
 62
     2
100
AcDbCircle
 10
212.162272
 20
66.129178
 30
0.0
 40
1.0
100
AcDbArc
 50
208.703991
 51
252.095352
  0
ARC
  5
13F4
100
AcDbEntity
  8
OBJECT
 62
     2
100
AcDbCircle
 10
212.162272
 20
63.082252
 30
0.0
 40
1.0
100
AcDbArc
 50
107.904648
 51
151.296009
  0
ARC
  5
13F5
100
AcDbEntity
  8
OBJECT
 62
     2
100
AcDbCircle
 10
211.670071
 20
64.605715
 30
0.0
 40
0.601
100
AcDbArc
 50
287.904648
 51
72.095352
  0
CIRCLE
  5
13F6
100
AcDbEntity
  8
OBJECT
 62
     2
100
AcDbCircle
 10
211.670071
 20
64.605715
 30
0.0
 40
0.242
  0
SOLID
  5
13F8
100
AcDbEntity
  8
DIM
 62
     6
100
AcDbTrace
 10
206.667562
 20
67.178139
 30
0.0
 11
206.379929
 21
66.769155
 31
0.0
 12
207.750696
 22
66.110749
 32
0.0
 13
207.750696
 23
66.110749
 33
0.0
  0
LINE
  5
13F9
100
AcDbEntity
  8
DIM
 62
     6
100
AcDbLine
 39
20.0
 10
187.756899
 20
79.121182
 30
0.0
 11
178.554545
 21
79.121182
 31
0.0
  0
LINE
  5
13FA
100
AcDbEntity
  8
DIM
 62
     6
100
AcDbLine
 10
189.256899
 20
79.121182
 30
0.0
 11
187.756899
 21
79.121182
 31
0.0
  0
CIRCLE
  5
13FB
100
AcDbEntity
  8
OBJECT
 62
     2
100
AcDbCircle
 10
221.380071
 20
53.605715
 30
0.0
 40
1.781
  0
CIRCLE
  5
13FC
100
AcDbEntity
  8
OBJECT
 62
     2
100
AcDbCircle
 10
221.380071
 20
53.605715
 30
0.0
 40
1.5
  0
ARC
  5
13FD
100
AcDbEntity
  8
OBJECT
 62
     2
100
AcDbCircle
 10
221.380071
 20
53.605715
 30
0.0
 40
2.172
100
AcDbArc
 50
118.703991
 51
241.296009
  0
ARC
  5
13FE
100
AcDbEntity
  8
OBJECT
 62
     2
100
AcDbCircle
 10
221.380071
 20
53.605715
 30
0.0
 40
2.172
100
AcDbArc
 50
298.703991
 51
61.296009
  0
LINE
  5
13FF
100
AcDbEntity
  8
CENTER
 62
     3
100
AcDbLine
 10
216.380071
 20
52.105715
 30
0.0
 11
216.380071
 21
55.105715
 31
0.0
  0
LINE
  5
1400
100
AcDbEntity
  8
CENTER
 62
     3
100
AcDbLine
 10
221.380071
 20
49.214715
 30
0.0
 11
221.380071
 21
57.996715
 31
0.0
  0
TEXT
  5
1401
100
AcDbEntity
  8
DIM
 62
     6
100
AcDbText
 10
227.856318
 20
52.926894
 30
0.0
 40
1.125
  1
L
  7
ROMANS
100
AcDbText
  0
TEXT
  5
1402
100
AcDbEntity
  8
DIM
 62
     6
100
AcDbText
 10
227.513385
 20
53.492425
 30
0.0
 40
1.125
  1
C
  7
ROMANS
100
AcDbText
  0
LINE
  5
1403
100
AcDbEntity
  8
HIDDEN
 62
     1
100
AcDbLine
 39
20.0
 10
224.380071
 20
68.605715
 30
0.0
 11
224.380071
 21
38.605715
 31
0.0
  0
LINE
  5
1404
100
AcDbEntity
  8
CENTER
 62
     3
100
AcDbLine
 39
20.0
 10
225.380071
 20
69.605715
 30
0.0
 11
225.380071
 21
37.605715
 31
0.0
  0
LINE
  5
1405
100
AcDbEntity
  8
OBJECT
 62
     2
100
AcDbLine
 39
20.0
 10
226.380071
 20
70.605715
 30
0.0
 11
226.380071
 21
36.605715
 31
0.0
  0
LWPOLYLINE
  5
1406
100
AcDbEntity
  8
OBJECT
 62
     2
100
AcDbPolyline
 90
        6
 70
     1
 43
0.0
 39
20.0
 10
221.683371
 20
48.51892
 10
221.495871
 20
48.410667
 10
221.495871
 20
48.194161
 10
221.683371
 20
48.085908
 10
221.870871
 20
48.194161
 10
221.870871
 20
48.410667
  0
LINE
  5
1407
100
AcDbEntity
  8
CENTER
 62
     3
100
AcDbLine
 10
216.380071
 20
50.605715
 30
0.0
 11
216.380071
 21
44.105715
 31
0.0
  0
ARC
  5
1408
100
AcDbEntity
  8
OBJECT
 62
     2
100
AcDbCircle
 10
219.856608
 20
50.823513
 30
0.0
 40
1.0
100
AcDbArc
 50
17.904648
 51
61.296009
  0
ARC
  5
1409
100
AcDbEntity
  8
OBJECT
 62
     2
100
AcDbCircle
 10
222.903533
 20
50.823513
 30
0.0
 40
1.0
100
AcDbArc
 50
118.703991
 51
162.095352
  0
ARC
  5
140A
100
AcDbEntity
  8
OBJECT
 62
     2
100
AcDbCircle
 10
221.380071
 20
51.315715
 30
0.0
 40
0.601
100
AcDbArc
 50
197.904648
 51
342.095352
  0
CIRCLE
  5
140B
100
AcDbEntity
  8
OBJECT
 62
     2
100
AcDbCircle
 10
221.380071
 20
51.315715
 30
0.0
 40
0.242
  0
LWPOLYLINE
  5
140C
100
AcDbEntity
  8
OBJECT
 62
     2
100
AcDbPolyline
 90
        6
 70
     1
 43
0.0
 39
20.0
 10
225.271817
 20
45.793215
 10
225.488324
 20
45.793215
 10
225.596577
 20
45.605715
 10
225.488324
 20
45.418215
 10
225.271817
 20
45.418215
 10
225.163564
 20
45.605715
  0
LWPOLYLINE
  5
140D
100
AcDbEntity
  8
OBJECT
 62
     2
100
AcDbPolyline
 90
        6
 70
     1
 43
0.0
 39
20.0
 10
221.466865
 20
58.909016
 10
221.575118
 20
58.721516
 10
221.791625
 20
58.721516
 10
221.899878
 20
58.909016
 10
221.791625
 20
59.096516
 10
221.575118
 20
59.096516
  0
SOLID
  5
140E
100
AcDbEntity
  8
DIM
 62
     6
100
AcDbTrace
 10
218.267713
 20
55.530879
 30
0.0
 11
218.120836
 21
55.052939
 31
0.0
 12
219.628096
 22
54.851278
 32
0.0
 13
219.628096
 23
54.851278
 33
0.0
  0
LINE
  5
140F
100
AcDbEntity
  8
CENTER
 62
     3
100
AcDbLine
 10
216.380071
 20
56.605715
 30
0.0
 11
216.380071
 21
63.105715
 31
0.0
  0
ARC
  5
1410
100
AcDbEntity
  8
OBJECT
 62
     2
100
AcDbCircle
 10
219.856608
 20
56.387916
 30
0.0
 40
1.0
100
AcDbArc
 50
298.703991
 51
342.095352
  0
LINE
  5
1411
100
AcDbEntity
  8
CENTER
 62
     3
100
AcDbLine
 10
219.880071
 20
53.605715
 30
0.0
 11
222.880071
 21
53.605715
 31
0.0
  0
ARC
  5
1412
100
AcDbEntity
  8
OBJECT
 62
     2
100
AcDbCircle
 10
221.380071
 20
55.895715
 30
0.0
 40
0.601
100
AcDbArc
 50
17.904648
 51
162.095352
  0
ARC
  5
1413
100
AcDbEntity
  8
OBJECT
 62
     2
100
AcDbCircle
 10
222.903533
 20
56.387916
 30
0.0
 40
1.0
100
AcDbArc
 50
197.904648
 51
241.296009
  0
CIRCLE
  5
1414
100
AcDbEntity
  8
OBJECT
 62
     2
100
AcDbCircle
 10
221.380071
 20
55.895715
 30
0.0
 40
0.242
  0
LWPOLYLINE
  5
1415
100
AcDbEntity
  8
OBJECT
 62
     2
100
AcDbPolyline
 90
        6
 70
     1
 43
0.0
 39
20.0
 10
225.271817
 20
61.418215
 10
225.488324
 20
61.418215
 10
225.596577
 20
61.605715
 10
225.488324
 20
61.793215
 10
225.271817
 20
61.793215
 10
225.163564
 20
61.605715
  0
LWPOLYLINE
  5
147D
100
AcDbEntity
  8
OBJECT
 62
     2
100
AcDbPolyline
 90
        6
 70
     1
 43
0.0
 39
20.0
 10
147.907709
 20
67.245615
 10
148.095209
 20
67.353868
 10
148.095209
 20
67.570374
 10
147.907709
 20
67.678628
 10
147.720209
 20
67.570374
 10
147.720209
 20
67.353868
  0
LWPOLYLINE
  5
147E
100
AcDbEntity
  8
OBJECT
 62
     2
100
AcDbPolyline
 90
        6
 70
     1
 43
0.0
 39
20.0
 10
132.095209
 20
67.353868
 10
132.095209
 20
67.570374
 10
131.907709
 20
67.678628
 10
131.720209
 20
67.570374
 10
131.720209
 20
67.353868
 10
131.907709
 20
67.245615
  0
LWPOLYLINE
  5
1480
100
AcDbEntity
  8
OBJECT
 62
     2
100
AcDbPolyline
 90
        6
 70
     1
 43
0.0
 39
20.0
 10
131.907709
 20
39.965815
 10
131.720209
 20
39.857562
 10
131.720209
 20
39.641055
 10
131.907709
 20
39.532802
 10
132.095209
 20
39.641055
 10
132.095209
 20
39.857562
  0
LWPOLYLINE
  5
1481
100
AcDbEntity
  8
OBJECT
 62
     2
100
AcDbPolyline
 90
        6
 70
     1
 43
0.0
 39
20.0
 10
147.720209
 20
39.857562
 10
147.720209
 20
39.641055
 10
147.907709
 20
39.532802
 10
148.095209
 20
39.641055
 10
148.095209
 20
39.857562
 10
147.907709
 20
39.965815
  0
LWPOLYLINE
  5
1482
100
AcDbEntity
  8
OBJECT
 62
     2
100
AcDbPolyline
 90
        6
 70
     1
 43
0.0
 39
20.0
 10
201.567571
 20
37.713968
 10
201.567571
 20
37.497462
 10
201.380071
 20
37.389208
 10
201.192571
 20
37.497462
 10
201.192571
 20
37.713968
 10
201.380071
 20
37.822221
  0
LWPOLYLINE
  5
1483
100
AcDbEntity
  8
OBJECT
 62
     2
100
AcDbPolyline
 90
        6
 70
     1
 43
0.0
 39
20.0
 10
217.192571
 20
37.713968
 10
217.192571
 20
37.497462
 10
217.380071
 20
37.389208
 10
217.567571
 20
37.497462
 10
217.567571
 20
37.713968
 10
217.380071
 20
37.822221
  0
LWPOLYLINE
  5
1484
100
AcDbEntity
  8
OBJECT
 62
     2
100
AcDbPolyline
 90
        6
 70
     1
 43
0.0
 39
20.0
 10
201.567571
 20
69.497462
 10
201.567571
 20
69.713968
 10
201.380071
 20
69.822221
 10
201.192571
 20
69.713968
 10
201.192571
 20
69.497462
 10
201.380071
 20
69.389208
  0
LWPOLYLINE
  5
1485
100
AcDbEntity
  8
OBJECT
 62
     2
100
AcDbPolyline
 90
        6
 70
     1
 43
0.0
 39
20.0
 10
217.192571
 20
69.497462
 10
217.192571
 20
69.713968
 10
217.380071
 20
69.822221
 10
217.567571
 20
69.713968
 10
217.567571
 20
69.497462
 10
217.380071
 20
69.389208
  0
TEXT
  5
1496
100
AcDbEntity
  8
DIM
 62
     6
100
AcDbText
 10
189.11924
 20
-20.747786
 30
0.0
 40
1.275
  1
25.50
  7
ROMANS
100
AcDbText
  0
TEXT
  5
1497
100
AcDbEntity
  8
DIM
 62
     6
100
AcDbText
 10
189.11924
 20
-22.447786
 30
0.0
 40
1.275
  1
25.50
  7
ROMANS
100
AcDbText
  0
ENDSEC
  0
SECTION
  2
OBJECTS
  0
DICTIONARY
  5
C
100
AcDbDictionary
  3
ACAD_GROUP
350
D
  3
ACAD_MLINESTYLE
350
1A
  3
ACDBVARIABLEDICTIONARY
350
3E
  0
DICTIONARY
  5
D
102
{ACAD_REACTORS
330
C
102
}
100
AcDbDictionary
  0
DICTIONARY
  5
1A
102
{ACAD_REACTORS
330
C
102
}
100
AcDbDictionary
  3
STANDARD
350
1B
  0
DICTIONARY
  5
3E
102
{ACAD_REACTORS
330
C
102
}
100
AcDbDictionary
  3
DIMADEC
350
3F
  0
MLINESTYLE
  5
1B
102
{ACAD_REACTORS
330
1A
102
}
100
AcDbMlineStyle
  2
STANDARD
 70
     0
  3

 62
   256
 51
90.0
 52
90.0
 71
     2
 49
0.5
 62
   256
  6
BYLAYER
 49
-0.5
 62
   256
  6
BYLAYER
  0
DICTIONARYVAR
  5
3F
102
{ACAD_REACTORS
330
3E
102
}
100
DictionaryVariables
280
     0
  1
0
  0
ENDSEC
  0
EOF
