  0
SECTION
  2
HEADER
  9
$ACADVER
  1
AC1014
  9
$ACADMAINTVER
 70
     0
  9
$DWGCODEPAGE
  3
ANSI_1252
  9
$INSBASE
 10
0.0
 20
0.0
 30
0.0
  9
$EXTMIN
 10
-45.871052
 20
-96.687087
 30
-6.835116
  9
$EXTMAX
 10
49.753948
 20
27.062913
 30
0.0
  9
$LIMMIN
 10
-43.850559
 20
-94.16147
  9
$LIMMAX
 10
47.733454
 20
25.042419
  9
$ORTHOMODE
 70
     1
  9
$REGENMODE
 70
     1
  9
$FILLMODE
 70
     1
  9
$QTEXTMODE
 70
     0
  9
$MIRRTEXT
 70
     1
  9
$DRAGMODE
 70
     2
  9
$LTSCALE
 40
3.0
  9
$OSMODE
 70
    33
  9
$ATTMODE
 70
     1
  9
$TEXTSIZE
 40
1.0
  9
$TRACEWID
 40
0.05
  9
$TEXTSTYLE
  7
ROMAND
  9
$CLAYER
  8
DIM
  9
$CELTYPE
  6
BYLAYER
  9
$CECOLOR
 62
   256
  9
$CELTSCALE
 40
1.0
  9
$DELOBJ
 70
     1
  9
$DISPSILH
 70
     0
  9
$DIMSCALE
 40
1.0
  9
$DIMASZ
 40
1.0
  9
$DIMEXO
 40
0.25
  9
$DIMDLI
 40
0.38
  9
$DIMRND
 40
0.0
  9
$DIMDLE
 40
0.0
  9
$DIMEXE
 40
1.0
  9
$DIMTP
 40
0.0
  9
$DIMTM
 40
0.0
  9
$DIMTXT
 40
0.18
  9
$DIMCEN
 40
0.09
  9
$DIMTSZ
 40
0.0
  9
$DIMTOL
 70
     0
  9
$DIMLIM
 70
     0
  9
$DIMTIH
 70
     1
  9
$DIMTOH
 70
     1
  9
$DIMSE1
 70
     0
  9
$DIMSE2
 70
     0
  9
$DIMTAD
 70
     0
  9
$DIMZIN
 70
     0
  9
$DIMBLK
  1

  9
$DIMASO
 70
     1
  9
$DIMSHO
 70
     1
  9
$DIMPOST
  1

  9
$DIMAPOST
  1

  9
$DIMALT
 70
     0
  9
$DIMALTD
 70
     2
  9
$DIMALTF
 40
25.4
  9
$DIMLFAC
 40
1.0
  9
$DIMTOFL
 70
     0
  9
$DIMTVP
 40
0.0
  9
$DIMTIX
 70
     0
  9
$DIMSOXD
 70
     0
  9
$DIMSAH
 70
     0
  9
$DIMBLK1
  1

  9
$DIMBLK2
  1

  9
$DIMSTYLE
  2
STANDARD
  9
$DIMCLRD
 70
     0
  9
$DIMCLRE
 70
     0
  9
$DIMCLRT
 70
     0
  9
$DIMTFAC
 40
1.0
  9
$DIMGAP
 40
1.0
  9
$DIMJUST
 70
     0
  9
$DIMSD1
 70
     0
  9
$DIMSD2
 70
     0
  9
$DIMTOLJ
 70
     1
  9
$DIMTZIN
 70
     0
  9
$DIMALTZ
 70
     0
  9
$DIMALTTZ
 70
     0
  9
$DIMFIT
 70
     5
  9
$DIMUPT
 70
     0
  9
$DIMUNIT
 70
     5
  9
$DIMDEC
 70
     4
  9
$DIMTDEC
 70
     4
  9
$DIMALTU
 70
     5
  9
$DIMALTTD
 70
     2
  9
$DIMTXSTY
  7
ROMAND
  9
$DIMAUNIT
 70
     0
  9
$LUNITS
 70
     5
  9
$LUPREC
 70
     4
  9
$SKETCHINC
 40
0.1
  9
$FILLETRAD
 40
0.0
  9
$AUNITS
 70
     0
  9
$AUPREC
 70
     2
  9
$MENU
  1
acad
  9
$ELEVATION
 40
0.0
  9
$PELEVATION
 40
0.0
  9
$THICKNESS
 40
0.0
  9
$LIMCHECK
 70
     0
  9
$BLIPMODE
 70
     0
  9
$CHAMFERA
 40
0.0
  9
$CHAMFERB
 40
0.0
  9
$CHAMFERC
 40
0.0
  9
$CHAMFERD
 40
0.0
  9
$SKPOLY
 70
     0
  9
$TDCREATE
 40
2450126.570299421
  9
$TDUPDATE
 40
2453075.631860787
  9
$TDINDWG
 40
0.0509838194
  9
$TDUSRTIMER
 40
0.0509838194
  9
$USRTIMER
 70
     1
  9
$ANGBASE
 50
0.0
  9
$ANGDIR
 70
     0
  9
$PDMODE
 70
     0
  9
$PDSIZE
 40
0.0
  9
$PLINEWID
 40
0.0
  9
$COORDS
 70
     1
  9
$SPLFRAME
 70
     0
  9
$SPLINETYPE
 70
     6
  9
$SPLINESEGS
 70
     8
  9
$ATTDIA
 70
     0
  9
$ATTREQ
 70
     1
  9
$HANDLING
 70
     1
  9
$HANDSEED
  5
F21
  9
$SURFTAB1
 70
     6
  9
$SURFTAB2
 70
     6
  9
$SURFTYPE
 70
     6
  9
$SURFU
 70
     6
  9
$SURFV
 70
     6
  9
$UCSNAME
  2

  9
$UCSORG
 10
0.0
 20
0.0
 30
0.0
  9
$UCSXDIR
 10
1.0
 20
0.0
 30
0.0
  9
$UCSYDIR
 10
0.0
 20
1.0
 30
0.0
  9
$PUCSNAME
  2

  9
$PUCSORG
 10
0.0
 20
0.0
 30
0.0
  9
$PUCSXDIR
 10
1.0
 20
0.0
 30
0.0
  9
$PUCSYDIR
 10
0.0
 20
1.0
 30
0.0
  9
$USERI1
 70
     0
  9
$USERI2
 70
     0
  9
$USERI3
 70
     0
  9
$USERI4
 70
     0
  9
$USERI5
 70
     0
  9
$USERR1
 40
0.0
  9
$USERR2
 40
0.0
  9
$USERR3
 40
0.0
  9
$USERR4
 40
0.0
  9
$USERR5
 40
0.0
  9
$WORLDVIEW
 70
     1
  9
$SHADEDGE
 70
     3
  9
$SHADEDIF
 70
    70
  9
$TILEMODE
 70
     1
  9
$MAXACTVP
 70
    16
  9
$PINSBASE
 10
0.0
 20
0.0
 30
0.0
  9
$PLIMCHECK
 70
     0
  9
$PEXTMIN
 10
1.000000E+20
 20
1.000000E+20
 30
1.000000E+20
  9
$PEXTMAX
 10
-1.000000E+20
 20
-1.000000E+20
 30
-1.000000E+20
  9
$PLIMMIN
 10
0.0
 20
0.0
  9
$PLIMMAX
 10
12.0
 20
9.0
  9
$UNITMODE
 70
     0
  9
$VISRETAIN
 70
     0
  9
$PLINEGEN
 70
     0
  9
$PSLTSCALE
 70
     1
  9
$TREEDEPTH
 70
  3020
  9
$PICKSTYLE
 70
     1
  9
$CMLSTYLE
  2
STANDARD
  9
$CMLJUST
 70
     0
  9
$CMLSCALE
 40
1.0
  9
$PROXYGRAPHICS
 70
     1
  9
$MEASUREMENT
 70
     0
  0
ENDSEC
  0
SECTION
  2
CLASSES
  0
CLASS
  1
DICTIONARYVAR
  2
AcDbDictionaryVar
  3
"AutoCAD"
 90
        0
280
     0
281
     0
  0
CLASS
  1
LWPOLYLINE
  2
AcDbPolyline
  3
"AutoCAD"
 90
        0
280
     0
281
     1
  0
CLASS
  1
HATCH
  2
AcDbHatch
  3
"ACAD_SEDONA"
 90
        0
280
     0
281
     1
  0
ENDSEC
  0
SECTION
  2
TABLES
  0
TABLE
  2
VPORT
  5
8
100
AcDbSymbolTable
 70
     1
  0
VPORT
  5
F16
100
AcDbSymbolTableRecord
100
AcDbViewportTableRecord
  2
*ACTIVE
 70
     0
 10
0.0
 20
0.0
 11
1.0
 21
1.0
 12
13.846017
 22
-34.7696
 13
0.0
 23
0.0
 14
1.0
 24
1.0
 15
0.0
 25
0.0
 16
0.0
 26
0.0
 36
1.0
 17
0.0
 27
0.0
 37
0.0
 40
122.011634
 41
1.750909
 42
50.0
 43
0.0
 44
0.0
 50
0.0
 51
0.0
 71
     0
 72
   100
 73
     1
 74
     0
 75
     0
 76
     0
 77
     0
 78
     0
  0
ENDTAB
  0
TABLE
  2
LTYPE
  5
5
100
AcDbSymbolTable
 70
     3
  0
LTYPE
  5
11
100
AcDbSymbolTableRecord
100
AcDbLinetypeTableRecord
  2
BYBLOCK
 70
     0
  3

 72
    65
 73
     0
 40
0.0
  0
LTYPE
  5
12
100
AcDbSymbolTableRecord
100
AcDbLinetypeTableRecord
  2
BYLAYER
 70
     0
  3

 72
    65
 73
     0
 40
0.0
  0
LTYPE
  5
13
100
AcDbSymbolTableRecord
100
AcDbLinetypeTableRecord
  2
CONTINUOUS
 70
     0
  3
Solid line
 72
    65
 73
     0
 40
0.0
  0
LTYPE
  5
3F
100
AcDbSymbolTableRecord
100
AcDbLinetypeTableRecord
  2
HIDDEN
 70
     0
  3
__ __ __ __ __ __ __ __ __ __ __ __ __ __ __ __
 72
    65
 73
     2
 40
0.375
 49
0.25
 74
     0
 49
-0.125
 74
     0
  0
LTYPE
  5
40
100
AcDbSymbolTableRecord
100
AcDbLinetypeTableRecord
  2
CENTER
 70
     0
  3
____ _ ____ _ ____ _ ____ _ ____ _ ____ _ ____ 
 72
    65
 73
     4
 40
2.0
 49
1.25
 74
     0
 49
-0.25
 74
     0
 49
0.25
 74
     0
 49
-0.25
 74
     0
  0
ENDTAB
  0
TABLE
  2
LAYER
  5
2
100
AcDbSymbolTable
 70
     8
  0
LAYER
  5
E
100
AcDbSymbolTableRecord
100
AcDbLayerTableRecord
  2
0
 70
     0
 62
     7
  6
CONTINUOUS
  0
LAYER
  5
43
100
AcDbSymbolTableRecord
100
AcDbLayerTableRecord
  2
BORDER
 70
     0
 62
     5
  6
CONTINUOUS
  0
LAYER
  5
44
100
AcDbSymbolTableRecord
100
AcDbLayerTableRecord
  2
LIMITS
 70
     0
 62
     7
  6
CONTINUOUS
  0
LAYER
  5
45
100
AcDbSymbolTableRecord
100
AcDbLayerTableRecord
  2
DIM
 70
     0
 62
     6
  6
CONTINUOUS
  0
LAYER
  5
46
100
AcDbSymbolTableRecord
100
AcDbLayerTableRecord
  2
HIDDEN
 70
     0
 62
     1
  6
HIDDEN
  0
LAYER
  5
47
100
AcDbSymbolTableRecord
100
AcDbLayerTableRecord
  2
CENTER
 70
     0
 62
     3
  6
CENTER
  0
LAYER
  5
48
100
AcDbSymbolTableRecord
100
AcDbLayerTableRecord
  2
OBJECT
 70
     0
 62
     2
  6
CONTINUOUS
  0
LAYER
  5
49
100
AcDbSymbolTableRecord
100
AcDbLayerTableRecord
  2
DEFPOINTS
 70
     0
 62
     7
  6
CONTINUOUS
  0
ENDTAB
  0
TABLE
  2
STYLE
  5
3
100
AcDbSymbolTable
 70
     8
  0
STYLE
  5
F
100
AcDbSymbolTableRecord
100
AcDbTextStyleTableRecord
  2
STANDARD
 70
     0
 40
0.0
 41
1.0
 50
0.0
 71
     0
 42
0.2
  3
txt
  4

  0
STYLE
  5
38
100
AcDbSymbolTableRecord
100
AcDbTextStyleTableRecord
  2
SANSSERIF
 70
     0
 40
0.052321
 41
1.0
 50
0.0
 71
     0
 42
0.052321
  3
sas_____.pfb
  4

  0
STYLE
  5
39
100
AcDbSymbolTableRecord
100
AcDbTextStyleTableRecord
  2
ROMAND
 70
     0
 40
1.0
 41
1.0
 50
0.0
 71
     0
 42
1.0
  3
romand
  4

  0
STYLE
  5
3A
100
AcDbSymbolTableRecord
100
AcDbTextStyleTableRecord
  2
ROMANS
 70
     0
 40
0.040706
 41
1.0
 50
0.0
 71
     0
 42
0.040706
  3
romans
  4

  0
STYLE
  5
3B
100
AcDbSymbolTableRecord
100
AcDbTextStyleTableRecord
  2
ROMANT
 70
     0
 40
0.179898
 41
1.0
 50
0.0
 71
     0
 42
0.179898
  3
romant
  4

  0
STYLE
  5
3C
100
AcDbSymbolTableRecord
100
AcDbTextStyleTableRecord
  2
ITALICT
 70
     0
 40
0.146873
 41
1.0
 50
0.0
 71
     0
 42
0.146873
  3
italict
  4

  0
STYLE
  5
3D
100
AcDbSymbolTableRecord
100
AcDbTextStyleTableRecord
  2
COUNTRYBLUEPRINT
 70
     0
 40
0.061059
 41
1.0
 50
0.0
 71
     0
 42
0.061059
  3
cobt____.pfb
  4

  0
STYLE
  5
3E
100
AcDbSymbolTableRecord
100
AcDbTextStyleTableRecord
  2
ROMANC
 70
     0
 40
0.050364
 41
1.0
 50
0.0
 71
     0
 42
0.050364
  3
romanc
  4

  0
ENDTAB
  0
TABLE
  2
VIEW
  5
6
100
AcDbSymbolTable
 70
     0
  0
ENDTAB
  0
TABLE
  2
UCS
  5
7
100
AcDbSymbolTable
 70
     0
  0
ENDTAB
  0
TABLE
  2
APPID
  5
9
100
AcDbSymbolTable
 70
     1
  0
APPID
  5
10
100
AcDbSymbolTableRecord
100
AcDbRegAppTableRecord
  2
ACAD
 70
     0
  0
ENDTAB
  0
TABLE
  2
DIMSTYLE
  5
A
100
AcDbSymbolTable
 70
     1
  0
DIMSTYLE
105
E58
100
AcDbSymbolTableRecord
100
AcDbDimStyleTableRecord
  2
STANDARD
 70
     0
  3

  4

  5

  6

  7

 40
1.0
 41
0.18
 42
0.0625
 43
0.38
 44
0.18
 45
0.0
 46
0.0
 47
0.0
 48
0.0
140
0.18
141
0.09
142
0.0
143
25.4
144
1.0
145
0.0
146
1.0
147
0.09
 71
     0
 72
     0
 73
     1
 74
     1
 75
     0
 76
     0
 77
     0
 78
     0
170
     0
171
     2
172
     0
173
     0
174
     0
175
     0
176
     0
177
     0
178
     0
270
     2
271
     4
272
     4
273
     2
274
     2
340
F
275
     0
280
     0
281
     0
282
     0
283
     1
284
     0
285
     0
286
     0
287
     3
288
     0
  0
ENDTAB
  0
TABLE
  2
BLOCK_RECORD
  5
1
100
AcDbSymbolTable
 70
     7
  0
BLOCK_RECORD
  5
17
100
AcDbSymbolTableRecord
100
AcDbBlockTableRecord
  2
*MODEL_SPACE
  0
BLOCK_RECORD
  5
14
100
AcDbSymbolTableRecord
100
AcDbBlockTableRecord
  2
*PAPER_SPACE
  0
BLOCK_RECORD
  5
29
100
AcDbSymbolTableRecord
100
AcDbBlockTableRecord
  2
*D0
  0
BLOCK_RECORD
  5
2A
100
AcDbSymbolTableRecord
100
AcDbBlockTableRecord
  2
*D1
  0
BLOCK_RECORD
  5
2B
100
AcDbSymbolTableRecord
100
AcDbBlockTableRecord
  2
*D2
  0
BLOCK_RECORD
  5
2C
100
AcDbSymbolTableRecord
100
AcDbBlockTableRecord
  2
*D3
  0
BLOCK_RECORD
  5
35
100
AcDbSymbolTableRecord
100
AcDbBlockTableRecord
  2
*D4
  0
BLOCK_RECORD
  5
37
100
AcDbSymbolTableRecord
100
AcDbBlockTableRecord
  2
*D5
  0
BLOCK_RECORD
  5
E60
100
AcDbSymbolTableRecord
100
AcDbBlockTableRecord
  2
TOPPLOGO
  0
ENDTAB
  0
ENDSEC
  0
SECTION
  2
BLOCKS
  0
BLOCK
  5
4C
100
AcDbEntity
  8
0
100
AcDbBlockBegin
  2
*MODEL_SPACE
 70
     0
 10
0.0
 20
0.0
 30
0.0
  3
*MODEL_SPACE
  1

  0
ENDBLK
  5
4D
100
AcDbEntity
  8
0
100
AcDbBlockEnd
  0
BLOCK
  5
4A
100
AcDbEntity
 67
     1
  8
0
100
AcDbBlockBegin
  2
*PAPER_SPACE
 70
     0
 10
0.0
 20
0.0
 30
0.0
  3
*PAPER_SPACE
  1

  0
ENDBLK
  5
4B
100
AcDbEntity
 67
     1
  8
0
100
AcDbBlockEnd
  0
BLOCK
  5
852
100
AcDbEntity
  8
0
100
AcDbBlockBegin
  2
*D0
 70
     1
 10
0.0
 20
0.0
 30
0.0
  3
*D0
  1

  0
LINE
  5
853
100
AcDbEntity
  8
0
  6
BYBLOCK
 62
     0
100
AcDbLine
 10
-6.054242
 20
-73.491036
 30
0.0
 11
-6.054242
 21
-77.179865
 31
0.0
  0
LINE
  5
854
100
AcDbEntity
  8
0
  6
BYBLOCK
 62
     0
100
AcDbLine
 10
9.941448
 20
-73.491036
 30
0.0
 11
9.941448
 21
-77.179865
 31
0.0
  0
LINE
  5
855
100
AcDbEntity
  8
0
  6
BYBLOCK
 62
     0
100
AcDbLine
 10
-5.054242
 20
-76.179865
 30
0.0
 11
-0.199254
 21
-76.179865
 31
0.0
  0
LINE
  5
856
100
AcDbEntity
  8
0
  6
BYBLOCK
 62
     0
100
AcDbLine
 10
8.941448
 20
-76.179865
 30
0.0
 11
4.08646
 21
-76.179865
 31
0.0
  0
SOLID
  5
857
100
AcDbEntity
  8
0
  6
BYBLOCK
 62
     0
100
AcDbTrace
 10
-5.054242
 20
-76.013199
 30
0.0
 11
-5.054242
 21
-76.346532
 31
0.0
 12
-6.054242
 22
-76.179865
 32
0.0
 13
-6.054242
 23
-76.179865
 33
0.0
  0
SOLID
  5
858
100
AcDbEntity
  8
0
  6
BYBLOCK
 62
     0
100
AcDbTrace
 10
8.941448
 20
-76.013199
 30
0.0
 11
8.941448
 21
-76.346532
 31
0.0
 12
9.941448
 22
-76.179865
 32
0.0
 13
9.941448
 23
-76.179865
 33
0.0
  0
TEXT
  5
859
100
AcDbEntity
  8
0
  6
BYBLOCK
 62
     0
100
AcDbText
 10
0.515031
 20
-76.679865
 30
0.0
 40
1.0
  1
16"
  7
ROMAND
 72
     1
 11
1.943603
 21
-76.179865
 31
0.0
100
AcDbText
 73
     2
  0
POINT
  5
85B
100
AcDbEntity
  8
DEFPOINTS
  6
BYBLOCK
 62
     0
100
AcDbPoint
 10
-6.054242
 20
-73.241036
 30
0.0
  0
POINT
  5
85C
100
AcDbEntity
  8
DEFPOINTS
  6
BYBLOCK
 62
     0
100
AcDbPoint
 10
9.941448
 20
-73.241036
 30
0.0
  0
POINT
  5
85D
100
AcDbEntity
  8
DEFPOINTS
  6
BYBLOCK
 62
     0
100
AcDbPoint
 10
9.941448
 20
-76.179865
 30
0.0
  0
ENDBLK
  5
85E
100
AcDbEntity
  8
0
100
AcDbBlockEnd
  0
BLOCK
  5
85F
100
AcDbEntity
  8
0
100
AcDbBlockBegin
  2
*D1
 70
     1
 10
0.0
 20
0.0
 30
0.0
  3
*D1
  1

  0
LINE
  5
860
100
AcDbEntity
  8
0
  6
BYBLOCK
 62
     0
100
AcDbLine
 10
-14.308552
 20
-15.462524
 30
0.0
 11
-18.438764
 21
-15.462524
 31
0.0
  0
LINE
  5
861
100
AcDbEntity
  8
0
  6
BYBLOCK
 62
     0
100
AcDbLine
 10
-6.304242
 20
-73.962524
 30
0.0
 11
-18.438764
 21
-73.962524
 31
0.0
  0
LINE
  5
862
100
AcDbEntity
  8
0
  6
BYBLOCK
 62
     0
100
AcDbLine
 10
-17.438764
 20
-16.462524
 30
0.0
 11
-17.438764
 21
-43.622524
 31
0.0
  0
LINE
  5
863
100
AcDbEntity
  8
0
  6
BYBLOCK
 62
     0
100
AcDbLine
 10
-17.438764
 20
-72.962524
 30
0.0
 11
-17.438764
 21
-45.802524
 31
0.0
  0
SOLID
  5
864
100
AcDbEntity
  8
0
  6
BYBLOCK
 62
     0
100
AcDbTrace
 10
-17.605431
 20
-16.462524
 30
0.0
 11
-17.272097
 21
-16.462524
 31
0.0
 12
-17.438764
 22
-15.462524
 32
0.0
 13
-17.438764
 23
-15.462524
 33
0.0
  0
SOLID
  5
865
100
AcDbEntity
  8
0
  6
BYBLOCK
 62
     0
100
AcDbTrace
 10
-17.605431
 20
-72.962524
 30
0.0
 11
-17.272097
 21
-72.962524
 31
0.0
 12
-17.438764
 22
-73.962524
 32
0.0
 13
-17.438764
 23
-73.962524
 33
0.0
  0
TEXT
  5
866
100
AcDbEntity
  8
0
  6
BYBLOCK
 62
     0
100
AcDbText
 10
-18.795907
 20
-45.212524
 30
0.0
 40
1.0
  1
58"
  7
ROMAND
 72
     1
 11
-17.438764
 21
-44.712524
 31
0.0
100
AcDbText
 73
     2
  0
POINT
  5
867
100
AcDbEntity
  8
DEFPOINTS
  6
BYBLOCK
 62
     0
100
AcDbPoint
 10
-14.058552
 20
-15.462524
 30
0.0
  0
POINT
  5
868
100
AcDbEntity
  8
DEFPOINTS
  6
BYBLOCK
 62
     0
100
AcDbPoint
 10
-6.054242
 20
-73.962524
 30
0.0
  0
POINT
  5
869
100
AcDbEntity
  8
DEFPOINTS
  6
BYBLOCK
 62
     0
100
AcDbPoint
 10
-17.438764
 20
-73.962524
 30
0.0
  0
ENDBLK
  5
86A
100
AcDbEntity
  8
0
100
AcDbBlockEnd
  0
BLOCK
  5
86B
100
AcDbEntity
  8
0
100
AcDbBlockBegin
  2
*D2
 70
     1
 10
0.0
 20
0.0
 30
0.0
  3
*D2
  1

  0
LINE
  5
86C
100
AcDbEntity
  8
0
  6
BYBLOCK
 62
     0
100
AcDbLine
 10
-6.558552
 20
-15.712524
 30
0.0
 11
-6.558552
 21
-17.676833
 31
0.0
  0
LINE
  5
86D
100
AcDbEntity
  8
0
  6
BYBLOCK
 62
     0
100
AcDbLine
 10
10.441448
 20
-15.712524
 30
0.0
 11
10.441448
 21
-17.676833
 31
0.0
  0
LINE
  5
86E
100
AcDbEntity
  8
0
  6
BYBLOCK
 62
     0
100
AcDbLine
 10
-5.558552
 20
-16.676833
 30
0.0
 11
-0.201409
 21
-16.676833
 31
0.0
  0
LINE
  5
86F
100
AcDbEntity
  8
0
  6
BYBLOCK
 62
     0
100
AcDbLine
 10
9.441448
 20
-16.676833
 30
0.0
 11
4.084305
 21
-16.676833
 31
0.0
  0
SOLID
  5
870
100
AcDbEntity
  8
0
  6
BYBLOCK
 62
     0
100
AcDbTrace
 10
-5.558552
 20
-16.510166
 30
0.0
 11
-5.558552
 21
-16.8435
 31
0.0
 12
-6.558552
 22
-16.676833
 32
0.0
 13
-6.558552
 23
-16.676833
 33
0.0
  0
SOLID
  5
871
100
AcDbEntity
  8
0
  6
BYBLOCK
 62
     0
100
AcDbTrace
 10
9.441448
 20
-16.510166
 30
0.0
 11
9.441448
 21
-16.8435
 31
0.0
 12
10.441448
 22
-16.676833
 32
0.0
 13
10.441448
 23
-16.676833
 33
0.0
  0
TEXT
  5
872
100
AcDbEntity
  8
0
  6
BYBLOCK
 62
     0
100
AcDbText
 10
0.512876
 20
-17.176833
 30
0.0
 40
1.0
  1
17"
  7
ROMAND
 72
     1
 11
1.941448
 21
-16.676833
 31
0.0
100
AcDbText
 73
     2
  0
POINT
  5
873
100
AcDbEntity
  8
DEFPOINTS
  6
BYBLOCK
 62
     0
100
AcDbPoint
 10
-6.558552
 20
-15.462524
 30
0.0
  0
POINT
  5
874
100
AcDbEntity
  8
DEFPOINTS
  6
BYBLOCK
 62
     0
100
AcDbPoint
 10
10.441448
 20
-15.462524
 30
0.0
  0
POINT
  5
875
100
AcDbEntity
  8
DEFPOINTS
  6
BYBLOCK
 62
     0
100
AcDbPoint
 10
10.441448
 20
-16.676833
 30
0.0
  0
ENDBLK
  5
876
100
AcDbEntity
  8
0
100
AcDbBlockEnd
  0
BLOCK
  5
877
100
AcDbEntity
  8
0
100
AcDbBlockBegin
  2
*D3
 70
     1
 10
0.0
 20
0.0
 30
0.0
  3
*D3
  1

  0
LINE
  5
878
100
AcDbEntity
  8
0
  6
BYBLOCK
 62
     0
100
AcDbLine
 10
12.536426
 20
2.04757
 30
0.0
 11
21.476871
 21
-1.655684
 31
0.0
  0
LINE
  5
879
100
AcDbEntity
  8
0
  6
BYBLOCK
 62
     0
100
AcDbLine
 10
19.924681
 20
6.436154
 30
0.0
 11
23.086438
 21
6.436154
 31
0.0
  0
ARC
  5
87A
100
AcDbEntity
  8
0
  6
BYBLOCK
 62
     0
100
AcDbCircle
 10
1.941448
 20
6.436154
 30
0.0
 40
20.14499
100
AcDbArc
 50
340.344462
 51
345.569937
  0
ARC
  5
87B
100
AcDbEntity
  8
0
  6
BYBLOCK
 62
     0
100
AcDbCircle
 10
1.941448
 20
6.436154
 30
0.0
 40
20.14499
100
AcDbArc
 50
351.895292
 51
357.155538
  0
SOLID
  5
87C
100
AcDbEntity
  8
0
  6
BYBLOCK
 62
     0
100
AcDbTrace
 10
21.068142
 20
-0.399846
 30
0.0
 11
20.757111
 21
-0.279968
 31
0.0
 12
20.552992
 22
-1.273
 32
0.0
 13
20.552992
 23
-1.273
 33
0.0
  0
SOLID
  5
87D
100
AcDbEntity
  8
0
  6
BYBLOCK
 62
     0
100
AcDbTrace
 10
21.895002
 20
5.440599
 30
0.0
 11
22.228233
 21
5.432325
 31
0.0
 12
22.086438
 22
6.436154
 32
0.0
 13
22.086438
 23
6.436154
 33
0.0
  0
TEXT
  5
87E
100
AcDbEntity
  8
0
  6
BYBLOCK
 62
     0
100
AcDbText
 10
19.294596
 20
2.006061
 30
0.0
 40
1.0
  1
22.50%%d
  7
ROMAND
 72
     1
 11
21.699358
 21
2.506061
 31
0.0
100
AcDbText
 73
     2
  0
POINT
  5
87F
100
AcDbEntity
  8
DEFPOINTS
  6
BYBLOCK
 62
     0
100
AcDbPoint
 10
21.644908
 20
2.241602
 30
0.0
  0
POINT
  5
880
100
AcDbEntity
  8
DEFPOINTS
  6
BYBLOCK
 62
     0
100
AcDbPoint
 10
-15.791785
 20
6.436154
 30
0.0
  0
POINT
  5
881
100
AcDbEntity
  8
DEFPOINTS
  6
BYBLOCK
 62
     0
100
AcDbPoint
 10
1.941448
 20
6.436154
 30
0.0
  0
POINT
  5
882
100
AcDbEntity
  8
DEFPOINTS
  6
BYBLOCK
 62
     0
100
AcDbPoint
 10
12.305456
 20
2.143241
 30
0.0
  0
POINT
  5
883
100
AcDbEntity
  8
DEFPOINTS
  6
BYBLOCK
 62
     0
100
AcDbPoint
 10
19.674681
 20
6.436154
 30
0.0
  0
ENDBLK
  5
884
100
AcDbEntity
  8
0
100
AcDbBlockEnd
  0
BLOCK
  5
8AB
100
AcDbEntity
  8
0
100
AcDbBlockBegin
  2
*D4
 70
     1
 10
0.0
 20
0.0
 30
0.0
  3
*D4
  1

  0
LINE
  5
8AC
100
AcDbEntity
  8
0
  6
BYBLOCK
 62
     0
100
AcDbLine
 10
10.191448
 20
-73.962524
 30
0.0
 11
15.692196
 21
-73.962524
 31
0.0
  0
LINE
  5
8AD
100
AcDbEntity
  8
0
  6
BYBLOCK
 62
     0
100
AcDbLine
 10
13.488484
 20
-48.712524
 30
0.0
 11
15.692196
 21
-48.712524
 31
0.0
  0
LINE
  5
8AE
100
AcDbEntity
  8
0
  6
BYBLOCK
 62
     0
100
AcDbLine
 10
14.692196
 20
-72.962524
 30
0.0
 11
14.692196
 21
-62.427524
 31
0.0
  0
LINE
  5
8AF
100
AcDbEntity
  8
0
  6
BYBLOCK
 62
     0
100
AcDbLine
 10
14.692196
 20
-49.712524
 30
0.0
 11
14.692196
 21
-60.247524
 31
0.0
  0
SOLID
  5
8B0
100
AcDbEntity
  8
0
  6
BYBLOCK
 62
     0
100
AcDbTrace
 10
14.52553
 20
-72.962524
 30
0.0
 11
14.858863
 21
-72.962524
 31
0.0
 12
14.692196
 22
-73.962524
 32
0.0
 13
14.692196
 23
-73.962524
 33
0.0
  0
SOLID
  5
8B1
100
AcDbEntity
  8
0
  6
BYBLOCK
 62
     0
100
AcDbTrace
 10
14.52553
 20
-49.712524
 30
0.0
 11
14.858863
 21
-49.712524
 31
0.0
 12
14.692196
 22
-48.712524
 32
0.0
 13
14.692196
 23
-48.712524
 33
0.0
  0
TEXT
  5
8B2
100
AcDbEntity
  8
0
  6
BYBLOCK
 62
     0
100
AcDbText
 10
11.716006
 20
-61.837524
 30
0.0
 40
1.0
  1
25 1/4
  7
ROMAND
 72
     1
 11
14.692196
 21
-61.337524
 31
0.0
100
AcDbText
 73
     2
  0
POINT
  5
8B3
100
AcDbEntity
  8
DEFPOINTS
  6
BYBLOCK
 62
     0
100
AcDbPoint
 10
9.941448
 20
-73.962524
 30
0.0
  0
POINT
  5
8B4
100
AcDbEntity
  8
DEFPOINTS
  6
BYBLOCK
 62
     0
100
AcDbPoint
 10
13.238484
 20
-48.712524
 30
0.0
  0
POINT
  5
8B5
100
AcDbEntity
  8
DEFPOINTS
  6
BYBLOCK
 62
     0
100
AcDbPoint
 10
14.692196
 20
-48.712524
 30
0.0
  0
ENDBLK
  5
8B6
100
AcDbEntity
  8
0
100
AcDbBlockEnd
  0
BLOCK
  5
8B7
100
AcDbEntity
  8
0
100
AcDbBlockBegin
  2
*D5
 70
     1
 10
0.0
 20
0.0
 30
0.0
  3
*D5
  1

  0
LINE
  5
8B8
100
AcDbEntity
  8
0
  6
BYBLOCK
 62
     0
100
AcDbLine
 10
-6.062844
 20
-14.712524
 30
0.0
 11
-6.062844
 21
-10.260037
 31
0.0
  0
LINE
  5
8B9
100
AcDbEntity
  8
0
  6
BYBLOCK
 62
     0
100
AcDbLine
 10
-13.558552
 20
-14.212524
 30
0.0
 11
-13.558552
 21
-10.260037
 31
0.0
  0
LINE
  5
8BA
100
AcDbEntity
  8
0
  6
BYBLOCK
 62
     0
100
AcDbLine
 10
-7.062844
 20
-11.260037
 30
0.0
 11
-12.558552
 21
-11.260037
 31
0.0
  0
SOLID
  5
8BB
100
AcDbEntity
  8
0
  6
BYBLOCK
 62
     0
100
AcDbTrace
 10
-7.062844
 20
-11.09337
 30
0.0
 11
-7.062844
 21
-11.426704
 31
0.0
 12
-6.062844
 22
-11.260037
 32
0.0
 13
-6.062844
 23
-11.260037
 33
0.0
  0
SOLID
  5
8BC
100
AcDbEntity
  8
0
  6
BYBLOCK
 62
     0
100
AcDbTrace
 10
-12.558552
 20
-11.09337
 30
0.0
 11
-12.558552
 21
-11.426704
 31
0.0
 12
-13.558552
 22
-11.260037
 32
0.0
 13
-13.558552
 23
-11.260037
 33
0.0
  0
TEXT
  5
8BD
100
AcDbEntity
  8
0
  6
BYBLOCK
 62
     0
100
AcDbText
 10
-12.497009
 20
-10.187419
 30
0.0
 40
1.0
  1
7 1/2
  7
ROMAND
 72
     1
 11
-10.020818
 21
-9.687419
 31
0.0
100
AcDbText
 73
     2
  0
POINT
  5
8BE
100
AcDbEntity
  8
DEFPOINTS
  6
BYBLOCK
 62
     0
100
AcDbPoint
 10
-6.062844
 20
-14.962524
 30
0.0
  0
POINT
  5
8BF
100
AcDbEntity
  8
DEFPOINTS
  6
BYBLOCK
 62
     0
100
AcDbPoint
 10
-13.558552
 20
-14.462524
 30
0.0
  0
POINT
  5
8C0
100
AcDbEntity
  8
DEFPOINTS
  6
BYBLOCK
 62
     0
100
AcDbPoint
 10
-13.558552
 20
-11.260037
 30
0.0
  0
ENDBLK
  5
8C1
100
AcDbEntity
  8
0
100
AcDbBlockEnd
  0
BLOCK
  5
EE3
100
AcDbEntity
  8
0
100
AcDbBlockBegin
  2
TOPPLOGO
 70
     0
 10
0.0
 20
0.0
 30
0.0
  3
TOPPLOGO
  1

  0
LINE
  5
E61
100
AcDbEntity
  8
0
100
AcDbLine
 10
-0.103155
 20
0.270337
 30
0.0
 11
1.408005
 21
0.270337
 31
0.0
  0
LINE
  5
E62
100
AcDbEntity
  8
0
100
AcDbLine
 10
-1.486334
 20
-0.483416
 30
0.0
 11
1.477747
 21
-0.483416
 31
0.0
  0
LINE
  5
E63
100
AcDbEntity
  8
0
100
AcDbLine
 10
-1.271629
 20
-0.949911
 30
0.0
 11
1.259155
 21
-0.949911
 31
0.0
  0
LINE
  5
E64
100
AcDbEntity
  8
0
100
AcDbLine
 10
-1.31053
 20
0.883887
 30
0.0
 11
1.298452
 21
0.883887
 31
0.0
  0
LINE
  5
E65
100
AcDbEntity
  8
0
100
AcDbLine
 10
-1.486334
 20
-0.483416
 30
0.0
 11
1.477747
 21
-0.483416
 31
0.0
  0
ARC
  5
E66
100
AcDbEntity
  8
0
100
AcDbCircle
 10
1.259155
 20
-0.555291
 30
0.0
 40
0.394621
100
AcDbArc
 50
270.0
 51
0.0
  0
ARC
  5
E67
100
AcDbEntity
  8
0
100
AcDbCircle
 10
1.259155
 20
0.491227
 30
0.0
 40
0.394621
100
AcDbArc
 50
0.0
 51
84.284953
  0
LINE
  5
E68
100
AcDbEntity
  8
0
100
AcDbLine
 10
1.653776
 20
-0.555291
 30
0.0
 11
1.653776
 21
0.491227
 31
0.0
  0
LINE
  5
E69
100
AcDbEntity
  8
0
100
AcDbLine
 10
-1.665856
 20
-0.555291
 30
0.0
 11
-1.665856
 21
0.491227
 31
0.0
  0
ARC
  5
E6A
100
AcDbEntity
  8
0
100
AcDbCircle
 10
-1.271235
 20
-0.555291
 30
0.0
 40
0.394621
100
AcDbArc
 50
180.0
 51
270.0
  0
ARC
  5
E6B
100
AcDbEntity
  8
0
100
AcDbCircle
 10
-1.271235
 20
0.491227
 30
0.0
 40
0.394621
100
AcDbArc
 50
95.714761
 51
180.0
  0
LINE
  5
E6C
102
{ACAD_REACTORS
330
EE2
102
}
100
AcDbEntity
  8
0
100
AcDbLine
 10
0.956081
 20
0.194188
 30
0.0
 11
1.247173
 21
0.194188
 31
0.0
  0
LINE
  5
E6D
102
{ACAD_REACTORS
330
EE2
102
}
100
AcDbEntity
  8
0
100
AcDbLine
 10
0.956081
 20
0.194188
 30
0.0
 11
0.956081
 21
0.176849
 31
0.0
  0
LINE
  5
E6E
102
{ACAD_REACTORS
330
EE2
102
}
100
AcDbEntity
  8
0
100
AcDbLine
 10
0.955613
 20
-0.437501
 30
0.0
 11
1.225258
 21
-0.437501
 31
0.0
  0
LINE
  5
E6F
102
{ACAD_REACTORS
330
EE2
102
}
100
AcDbEntity
  8
0
100
AcDbLine
 10
1.225258
 20
-0.421126
 30
0.0
 11
1.225258
 21
-0.437501
 31
0.0
  0
LINE
  5
E70
102
{ACAD_REACTORS
330
EE2
102
}
100
AcDbEntity
  8
0
100
AcDbLine
 10
0.955613
 20
-0.421126
 30
0.0
 11
0.955613
 21
-0.437501
 31
0.0
  0
LINE
  5
E71
102
{ACAD_REACTORS
330
EE2
102
}
100
AcDbEntity
  8
0
100
AcDbLine
 10
1.046488
 20
-0.359001
 30
0.0
 11
1.046488
 21
0.114724
 31
0.0
  0
LINE
  5
E72
102
{ACAD_REACTORS
330
EE2
102
}
100
AcDbEntity
  8
0
100
AcDbLine
 10
0.956081
 20
0.176849
 30
0.0
 11
0.984363
 21
0.176849
 31
0.0
  0
LINE
  5
E73
102
{ACAD_REACTORS
330
EE2
102
}
100
AcDbEntity
  8
0
100
AcDbLine
 10
1.134383
 20
0.147529
 30
0.0
 11
1.134383
 21
-0.117446
 31
0.0
  0
LINE
  5
E74
102
{ACAD_REACTORS
330
EE2
102
}
100
AcDbEntity
  8
0
100
AcDbLine
 10
0.955613
 20
-0.421126
 30
0.0
 11
0.984363
 21
-0.421126
 31
0.0
  0
LINE
  5
E75
102
{ACAD_REACTORS
330
EE2
102
}
100
AcDbEntity
  8
0
100
AcDbLine
 10
1.196508
 20
-0.421126
 30
0.0
 11
1.225258
 21
-0.421126
 31
0.0
  0
ARC
  5
E76
102
{ACAD_REACTORS
330
EE2
102
}
100
AcDbEntity
  8
0
100
AcDbCircle
 10
1.196508
 20
-0.359001
 30
0.0
 40
0.062125
100
AcDbArc
 50
180.0
 51
270.0
  0
ARC
  5
E77
102
{ACAD_REACTORS
330
EE2
102
}
100
AcDbEntity
  8
0
100
AcDbCircle
 10
0.984363
 20
-0.359001
 30
0.0
 40
0.062125
100
AcDbArc
 50
270.0
 51
360.0
  0
ARC
  5
E78
102
{ACAD_REACTORS
330
EE2
102
}
100
AcDbEntity
  8
0
100
AcDbCircle
 10
0.984363
 20
0.114724
 30
0.0
 40
0.062125
100
AcDbArc
 50
0.0
 51
90.0
  0
LINE
  5
E79
102
{ACAD_REACTORS
330
EE2
102
}
100
AcDbEntity
  8
0
100
AcDbLine
 10
1.134383
 20
-0.141264
 30
0.0
 11
1.134383
 21
-0.359001
 31
0.0
  0
ARC
  5
E7A
102
{ACAD_REACTORS
330
EE2
102
}
100
AcDbEntity
  8
0
100
AcDbCircle
 10
1.190528
 20
0.009726
 30
0.0
 40
0.139014
100
AcDbArc
 50
246.179097
 51
0.350223
  0
ARC
  5
E7B
102
{ACAD_REACTORS
330
EE2
102
}
100
AcDbEntity
  8
0
100
AcDbCircle
 10
1.18531
 20
0.012575
 30
0.0
 40
0.144243
100
AcDbArc
 50
359.205673
 51
110.674935
  0
ARC
  5
E7C
102
{ACAD_REACTORS
330
EE2
102
}
100
AcDbEntity
  8
0
100
AcDbCircle
 10
1.257155
 20
0.023012
 30
0.0
 40
0.178227
100
AcDbArc
 50
265.488062
 51
358.394374
  0
ARC
  5
E7D
102
{ACAD_REACTORS
330
EE2
102
}
100
AcDbEntity
  8
0
100
AcDbCircle
 10
1.246032
 20
0.004424
 30
0.0
 40
0.189768
100
AcDbArc
 50
4.10812
 51
90.34444
  0
ARC
  5
E7E
102
{ACAD_REACTORS
330
EE2
102
}
100
AcDbEntity
  8
0
100
AcDbCircle
 10
1.243542
 20
0.296729
 30
0.0
 40
0.451392
100
AcDbArc
 50
256.005504
 51
269.948223
  0
ELLIPSE
  5
E7F
102
{ACAD_REACTORS
330
EDF
102
}
100
AcDbEntity
  8
0
100
AcDbEllipse
 10
0.064622
 20
-0.120756
 30
0.0
 11
0.0000000000000022
 21
0.3293781537507501
 31
0.0
210
0.0
220
0.0
230
1.0
 40
0.93822
 41
0.0
 42
6.283185307179586
  0
ELLIPSE
  5
E80
102
{ACAD_REACTORS
330
EDF
102
}
100
AcDbEntity
  8
0
100
AcDbEllipse
 10
0.064622
 20
-0.11888
 30
0.0
 11
0.0000000000000022
 21
0.2955957909633699
 31
0.0
210
0.0
220
0.0
230
1.0
 40
0.683214
 41
0.0
 42
6.283185307179586
  0
LINE
  5
E81
102
{ACAD_REACTORS
330
EDE
102
}
100
AcDbEntity
  8
0
100
AcDbLine
 10
-1.332172
 20
0.644425
 30
0.0
 11
-0.143551
 21
0.644425
 31
0.0
  0
LINE
  5
E82
102
{ACAD_REACTORS
330
EDE
102
}
100
AcDbEntity
  8
0
100
AcDbLine
 10
-1.332172
 20
0.267716
 30
0.0
 11
-1.332172
 21
0.644425
 31
0.0
  0
LINE
  5
E83
102
{ACAD_REACTORS
330
EDE
102
}
100
AcDbEntity
  8
0
100
AcDbLine
 10
-1.000381
 20
0.567688
 30
0.0
 11
-0.867913
 21
0.567688
 31
0.0
  0
LINE
  5
E84
102
{ACAD_REACTORS
330
EDE
102
}
100
AcDbEntity
  8
0
100
AcDbLine
 10
-1.332172
 20
0.267716
 30
0.0
 11
-1.300756
 21
0.267716
 31
0.0
  0
LINE
  5
E85
102
{ACAD_REACTORS
330
EDE
102
}
100
AcDbEntity
  8
0
100
AcDbLine
 10
-0.867913
 20
-0.260607
 30
0.0
 11
-0.867913
 21
0.567688
 31
0.0
  0
ARC
  5
E86
102
{ACAD_REACTORS
330
EDE
102
}
100
AcDbEntity
  8
0
100
AcDbCircle
 10
-1.000381
 20
0.267313
 30
0.0
 40
0.300375
100
AcDbArc
 50
90.0
 51
179.923004
  0
LINE
  5
E87
102
{ACAD_REACTORS
330
EDE
102
}
100
AcDbEntity
  8
0
100
AcDbLine
 10
-1.066881
 20
-0.4425
 30
0.0
 11
-0.408841
 21
-0.4425
 31
0.0
  0
LINE
  5
E88
102
{ACAD_REACTORS
330
EDE
102
}
100
AcDbEntity
  8
0
100
AcDbLine
 10
-1.066881
 20
-0.411107
 30
0.0
 11
-1.066881
 21
-0.4425
 31
0.0
  0
LINE
  5
E89
102
{ACAD_REACTORS
330
EDE
102
}
100
AcDbEntity
  8
0
100
AcDbLine
 10
-1.066881
 20
-0.411107
 30
0.0
 11
-1.018413
 21
-0.411107
 31
0.0
  0
ARC
  5
E8A
102
{ACAD_REACTORS
330
EDE
102
}
100
AcDbEntity
  8
0
100
AcDbCircle
 10
-1.018413
 20
-0.260607
 30
0.0
 40
0.1505
100
AcDbArc
 50
270.0
 51
0.0
  0
LINE
  5
E8B
102
{ACAD_REACTORS
330
EDE
102
}
100
AcDbEntity
  8
0
100
AcDbLine
 10
-0.475342
 20
0.567688
 30
0.0
 11
-0.607809
 21
0.567688
 31
0.0
  0
LINE
  5
E8C
102
{ACAD_REACTORS
330
EDE
102
}
100
AcDbEntity
  8
0
100
AcDbLine
 10
-0.607809
 20
-0.260607
 30
0.0
 11
-0.607809
 21
0.567688
 31
0.0
  0
LINE
  5
E8D
102
{ACAD_REACTORS
330
EDE
102
}
100
AcDbEntity
  8
0
100
AcDbLine
 10
-0.408841
 20
-0.411107
 30
0.0
 11
-0.408841
 21
-0.4425
 31
0.0
  0
LINE
  5
E8E
102
{ACAD_REACTORS
330
EDE
102
}
100
AcDbEntity
  8
0
100
AcDbLine
 10
-0.408841
 20
-0.411107
 30
0.0
 11
-0.457309
 21
-0.411107
 31
0.0
  0
ARC
  5
E8F
102
{ACAD_REACTORS
330
EDE
102
}
100
AcDbEntity
  8
0
100
AcDbCircle
 10
-0.457309
 20
-0.260607
 30
0.0
 40
0.1505
100
AcDbArc
 50
180.0
 51
270.0
  0
LINE
  5
E90
102
{ACAD_REACTORS
330
EDE
102
}
100
AcDbEntity
  8
0
100
AcDbLine
 10
-0.143551
 20
0.267716
 30
0.0
 11
-0.143551
 21
0.644425
 31
0.0
  0
LINE
  5
E91
102
{ACAD_REACTORS
330
EDE
102
}
100
AcDbEntity
  8
0
100
AcDbLine
 10
-0.143551
 20
0.267716
 30
0.0
 11
-0.174967
 21
0.267716
 31
0.0
  0
ARC
  5
E92
102
{ACAD_REACTORS
330
EDE
102
}
100
AcDbEntity
  8
0
100
AcDbCircle
 10
-0.475342
 20
0.267313
 30
0.0
 40
0.300375
100
AcDbArc
 50
0.076996
 51
90.0
  0
LINE
  5
E93
100
AcDbEntity
  8
0
100
AcDbLine
 10
-0.061269
 20
0.491547
 30
0.0
 11
-0.061269
 21
0.314508
 31
0.0
  0
LINE
  5
E94
100
AcDbEntity
  8
0
100
AcDbLine
 10
0.018822
 20
0.491547
 30
0.0
 11
0.018822
 21
0.314508
 31
0.0
  0
LINE
  5
E95
100
AcDbEntity
  8
0
100
AcDbLine
 10
0.140173
 20
0.491547
 30
0.0
 11
0.140173
 21
0.314508
 31
0.0
  0
LINE
  5
E96
100
AcDbEntity
  8
0
100
AcDbLine
 10
0.140173
 20
0.314508
 30
0.0
 11
0.018822
 21
0.495248
 31
0.0
  0
LINE
  5
E97
100
AcDbEntity
  8
0
100
AcDbLine
 10
0.215411
 20
0.491547
 30
0.0
 11
0.215411
 21
0.314508
 31
0.0
  0
LINE
  5
E98
100
AcDbEntity
  8
0
100
AcDbLine
 10
0.404718
 20
0.491547
 30
0.0
 11
0.404718
 21
0.37397
 31
0.0
  0
LINE
  5
E99
100
AcDbEntity
  8
0
100
AcDbLine
 10
0.523642
 20
0.491547
 30
0.0
 11
0.523642
 21
0.37397
 31
0.0
  0
LINE
  5
E9A
100
AcDbEntity
  8
0
100
AcDbLine
 10
0.715913
 20
0.491547
 30
0.0
 11
0.861379
 21
0.491547
 31
0.0
  0
LINE
  5
E9B
100
AcDbEntity
  8
0
100
AcDbLine
 10
1.171785
 20
0.314508
 30
0.0
 11
1.278352
 21
0.314508
 31
0.0
  0
ARC
  5
E9C
100
AcDbEntity
  8
0
100
AcDbCircle
 10
0.46418
 20
0.37397
 30
0.0
 40
0.059462
100
AcDbArc
 50
180.0
 51
0.0
  0
ARC
  5
E9D
100
AcDbEntity
  8
0
100
AcDbCircle
 10
0.253096
 20
0.403027
 30
0.0
 40
0.088519
100
AcDbArc
 50
270.0
 51
90.0
  0
LINE
  5
E9E
100
AcDbEntity
  8
0
100
AcDbLine
 10
0.215411
 20
0.491547
 30
0.0
 11
0.253096
 21
0.491547
 31
0.0
  0
LINE
  5
E9F
100
AcDbEntity
  8
0
100
AcDbLine
 10
0.215411
 20
0.314508
 30
0.0
 11
0.253096
 21
0.314508
 31
0.0
  0
ARC
  5
EA0
100
AcDbEntity
  8
0
100
AcDbCircle
 10
0.62693
 20
0.436829
 30
0.0
 40
0.054914
100
AcDbArc
 50
25.379638
 51
143.047804
  0
ARC
  5
EA1
100
AcDbEntity
  8
0
100
AcDbCircle
 10
1.407766
 20
1.665464
 30
0.0
 40
1.479996
100
AcDbArc
 50
236.383068
 51
240.315223
  0
ARC
  5
EA2
100
AcDbEntity
  8
0
100
AcDbCircle
 10
0.634057
 20
0.370649
 30
0.0
 40
0.056053
100
AcDbArc
 50
200.502447
 51
334.026213
  0
ARC
  5
EA3
100
AcDbEntity
  8
0
100
AcDbCircle
 10
0.602226
 20
0.453805
 30
0.0
 40
0.025
100
AcDbArc
 50
140.101426
 51
236.383068
  0
ARC
  5
EA4
100
AcDbEntity
  8
0
100
AcDbCircle
 10
0.66245
 20
0.357979
 30
0.0
 40
0.025
100
AcDbArc
 50
331.630608
 51
60.315223
  0
LINE
  5
EA5
100
AcDbEntity
  8
0
100
AcDbLine
 10
0.898957
 20
0.491547
 30
0.0
 11
0.963354
 21
0.491547
 31
0.0
  0
LINE
  5
EA6
100
AcDbEntity
  8
0
100
AcDbLine
 10
0.788646
 20
0.491547
 30
0.0
 11
0.788646
 21
0.314508
 31
0.0
  0
LINE
  5
EA7
100
AcDbEntity
  8
0
100
AcDbLine
 10
0.898957
 20
0.491547
 30
0.0
 11
0.898957
 21
0.314508
 31
0.0
  0
LINE
  5
EA8
100
AcDbEntity
  8
0
100
AcDbLine
 10
0.898957
 20
0.402174
 30
0.0
 11
0.963354
 21
0.402174
 31
0.0
  0
ARC
  5
EA9
100
AcDbEntity
  8
0
100
AcDbCircle
 10
0.963354
 20
0.44686
 30
0.0
 40
0.044686
100
AcDbArc
 50
270.0
 51
90.0
  0
LINE
  5
EAA
100
AcDbEntity
  8
0
100
AcDbLine
 10
1.171785
 20
0.491547
 30
0.0
 11
1.278352
 21
0.491547
 31
0.0
  0
LINE
  5
EAB
100
AcDbEntity
  8
0
100
AcDbLine
 10
0.951009
 20
0.402174
 30
0.0
 11
1.007158
 21
0.314508
 31
0.0
  0
LINE
  5
EAC
100
AcDbEntity
  8
0
100
AcDbLine
 10
1.089734
 20
0.491547
 30
0.0
 11
1.089734
 21
0.314508
 31
0.0
  0
LINE
  5
EAD
100
AcDbEntity
  8
0
100
AcDbLine
 10
1.171785
 20
0.491547
 30
0.0
 11
1.171785
 21
0.314508
 31
0.0
  0
LINE
  5
EAE
100
AcDbEntity
  8
0
100
AcDbLine
 10
1.171785
 20
0.403027
 30
0.0
 11
1.255116
 21
0.403027
 31
0.0
  0
ARC
  5
EAF
100
AcDbEntity
  8
0
100
AcDbCircle
 10
1.363346
 20
0.436829
 30
0.0
 40
0.054914
100
AcDbArc
 50
25.379638
 51
143.047804
  0
ARC
  5
EB0
100
AcDbEntity
  8
0
100
AcDbCircle
 10
2.144182
 20
1.665464
 30
0.0
 40
1.479996
100
AcDbArc
 50
236.383068
 51
240.315223
  0
ARC
  5
EB1
100
AcDbEntity
  8
0
100
AcDbCircle
 10
1.370472
 20
0.370649
 30
0.0
 40
0.056053
100
AcDbArc
 50
200.502447
 51
334.026213
  0
ARC
  5
EB2
100
AcDbEntity
  8
0
100
AcDbCircle
 10
1.338641
 20
0.453805
 30
0.0
 40
0.025
100
AcDbArc
 50
140.101426
 51
236.383068
  0
ARC
  5
EB3
100
AcDbEntity
  8
0
100
AcDbCircle
 10
1.398866
 20
0.357979
 30
0.0
 40
0.025
100
AcDbArc
 50
331.630608
 51
60.315223
  0
LINE
  5
EB4
100
AcDbEntity
  8
0
100
AcDbLine
 10
-0.462089
 20
-0.56144
 30
0.0
 11
-0.378245
 21
-0.56144
 31
0.0
  0
LINE
  5
EB5
100
AcDbEntity
  8
0
100
AcDbLine
 10
0.995957
 20
-0.803972
 30
0.0
 11
1.152432
 21
-0.803972
 31
0.0
  0
LINE
  5
EB6
100
AcDbEntity
  8
0
100
AcDbLine
 10
-1.356282
 20
-0.56144
 30
0.0
 11
-1.356282
 21
-0.803972
 31
0.0
  0
LINE
  5
EB7
100
AcDbEntity
  8
0
100
AcDbLine
 10
-1.250094
 20
-0.56144
 30
0.0
 11
-1.250094
 21
-0.803972
 31
0.0
  0
LINE
  5
EB8
100
AcDbEntity
  8
0
100
AcDbLine
 10
-1.064266
 20
-0.56144
 30
0.0
 11
-1.064266
 21
-0.803972
 31
0.0
  0
ARC
  5
EB9
100
AcDbEntity
  8
0
100
AcDbCircle
 10
-0.896626
 20
-0.692906
 30
0.0
 40
0.111222
100
AcDbArc
 50
174.737783
 51
327.723969
  0
ARC
  5
EBA
100
AcDbEntity
  8
0
100
AcDbCircle
 10
-0.888004
 20
-0.680799
 30
0.0
 40
0.11939
100
AcDbArc
 50
44.321228
 51
180.91508
  0
ELLIPSE
  5
EBB
100
AcDbEntity
  8
0
100
AcDbEllipse
 10
-0.643547
 20
-0.682706
 30
0.0
 11
0.0
 21
0.1212660660226783
 31
0.0
210
0.0
220
0.0
230
1.0
 40
0.996841
 41
0.0
 42
6.283185307179586
  0
ELLIPSE
  5
EBC
100
AcDbEntity
  8
0
100
AcDbEllipse
 10
0.078096
 20
-0.682706
 30
0.0
 11
0.0
 21
0.1212660660226783
 31
0.0
210
0.0
220
0.0
230
1.0
 40
0.996841
 41
0.0
 42
6.283185307179586
  0
LINE
  5
EBD
100
AcDbEntity
  8
0
100
AcDbLine
 10
-0.462089
 20
-0.56144
 30
0.0
 11
-0.462089
 21
-0.803972
 31
0.0
  0
LINE
  5
EBE
100
AcDbEntity
  8
0
100
AcDbLine
 10
-0.462089
 20
-0.685797
 30
0.0
 11
-0.378245
 21
-0.685797
 31
0.0
  0
ARC
  5
EBF
100
AcDbEntity
  8
0
100
AcDbCircle
 10
-0.378245
 20
-0.623619
 30
0.0
 40
0.062179
100
AcDbArc
 50
270.0
 51
90.0
  0
LINE
  5
EC0
100
AcDbEntity
  8
0
100
AcDbLine
 10
-0.395706
 20
-0.685797
 30
0.0
 11
-0.29942
 21
-0.803972
 31
0.0
  0
LINE
  5
EC1
100
AcDbEntity
  8
0
100
AcDbLine
 10
-0.205884
 20
-0.81824
 30
0.0
 11
-0.205884
 21
-0.768275
 31
0.0
  0
LINE
  5
EC2
100
AcDbEntity
  8
0
100
AcDbLine
 10
-0.205884
 20
-0.56144
 30
0.0
 11
-0.142936
 21
-0.56144
 31
0.0
  0
LINE
  5
EC3
100
AcDbEntity
  8
0
100
AcDbLine
 10
-0.205884
 20
-0.56144
 30
0.0
 11
-0.205884
 21
-0.803972
 31
0.0
  0
LINE
  5
EC4
100
AcDbEntity
  8
0
100
AcDbLine
 10
-0.205884
 20
-0.685797
 30
0.0
 11
-0.142936
 21
-0.685797
 31
0.0
  0
ARC
  5
EC5
100
AcDbEntity
  8
0
100
AcDbCircle
 10
-0.142936
 20
-0.623619
 30
0.0
 40
0.062179
100
AcDbArc
 50
270.0
 51
90.0
  0
LINE
  5
EC6
100
AcDbEntity
  8
0
100
AcDbLine
 10
0.736835
 20
-0.56144
 30
0.0
 11
0.942346
 21
-0.56144
 31
0.0
  0
LINE
  5
EC7
100
AcDbEntity
  8
0
100
AcDbLine
 10
0.269195
 20
-0.56144
 30
0.0
 11
0.35304
 21
-0.56144
 31
0.0
  0
LINE
  5
EC8
100
AcDbEntity
  8
0
100
AcDbLine
 10
0.269195
 20
-0.56144
 30
0.0
 11
0.269195
 21
-0.803972
 31
0.0
  0
LINE
  5
EC9
100
AcDbEntity
  8
0
100
AcDbLine
 10
0.269195
 20
-0.685797
 30
0.0
 11
0.35304
 21
-0.685797
 31
0.0
  0
ARC
  5
ECA
100
AcDbEntity
  8
0
100
AcDbCircle
 10
0.35304
 20
-0.623619
 30
0.0
 40
0.062179
100
AcDbArc
 50
270.0
 51
90.0
  0
LINE
  5
ECB
100
AcDbEntity
  8
0
100
AcDbLine
 10
0.335579
 20
-0.685797
 30
0.0
 11
0.431864
 21
-0.803972
 31
0.0
  0
LINE
  5
ECC
100
AcDbEntity
  8
0
100
AcDbLine
 10
0.532301
 20
-0.715539
 30
0.0
 11
0.652439
 21
-0.715539
 31
0.0
  0
LINE
  5
ECD
100
AcDbEntity
  8
0
100
AcDbLine
 10
0.591324
 20
-0.56144
 30
0.0
 11
0.687511
 21
-0.803972
 31
0.0
  0
LINE
  5
ECE
100
AcDbEntity
  8
0
100
AcDbLine
 10
0.591324
 20
-0.56144
 30
0.0
 11
0.49843
 21
-0.803972
 31
0.0
  0
LINE
  5
ECF
100
AcDbEntity
  8
0
100
AcDbLine
 10
0.83959
 20
-0.56144
 30
0.0
 11
0.83959
 21
-0.803972
 31
0.0
  0
LINE
  5
ED0
100
AcDbEntity
  8
0
100
AcDbLine
 10
0.995957
 20
-0.56144
 30
0.0
 11
0.995957
 21
-0.803972
 31
0.0
  0
LINE
  5
ED1
100
AcDbEntity
  8
0
100
AcDbLine
 10
0.995957
 20
-0.56144
 30
0.0
 11
1.152432
 21
-0.56144
 31
0.0
  0
LINE
  5
ED2
100
AcDbEntity
  8
0
100
AcDbLine
 10
0.995957
 20
-0.682706
 30
0.0
 11
1.100014
 21
-0.682706
 31
0.0
  0
LINE
  5
ED3
100
AcDbEntity
  8
0
100
AcDbLine
 10
1.220022
 20
-0.56144
 30
0.0
 11
1.220022
 21
-0.803972
 31
0.0
  0
LINE
  5
ED4
100
AcDbEntity
  8
0
100
AcDbLine
 10
1.220022
 20
-0.56144
 30
0.0
 11
1.311558
 21
-0.56144
 31
0.0
  0
LINE
  5
ED5
100
AcDbEntity
  8
0
100
AcDbLine
 10
1.220022
 20
-0.803972
 30
0.0
 11
1.311558
 21
-0.803972
 31
0.0
  0
ARC
  5
ED6
100
AcDbEntity
  8
0
100
AcDbCircle
 10
1.311558
 20
-0.682706
 30
0.0
 40
0.121266
100
AcDbArc
 50
270.0
 51
90.0
  0
LINE
  5
ED7
100
AcDbEntity
  8
0
100
AcDbLine
 10
-1.250094
 20
-0.56144
 30
0.0
 11
-1.064266
 21
-0.803972
 31
0.0
  0
LINE
  5
ED8
100
AcDbEntity
  8
0
100
AcDbLine
 10
-0.088524
 20
0.491547
 30
0.0
 11
-0.034015
 21
0.491547
 31
0.0
  0
LINE
  5
ED9
100
AcDbEntity
  8
0
100
AcDbLine
 10
-0.088524
 20
0.314508
 30
0.0
 11
-0.034015
 21
0.314508
 31
0.0
  0
LINE
  5
EDA
100
AcDbEntity
  8
0
100
AcDbLine
 10
1.06248
 20
0.491547
 30
0.0
 11
1.116988
 21
0.491547
 31
0.0
  0
LINE
  5
EDB
100
AcDbEntity
  8
0
100
AcDbLine
 10
1.06248
 20
0.314508
 30
0.0
 11
1.116988
 21
0.314508
 31
0.0
  0
LINE
  5
EDC
100
AcDbEntity
  8
0
100
AcDbLine
 10
-1.405944
 20
-0.56144
 30
0.0
 11
-1.30662
 21
-0.56144
 31
0.0
  0
LINE
  5
EDD
100
AcDbEntity
  8
0
100
AcDbLine
 10
-1.405944
 20
-0.803972
 30
0.0
 11
-1.30662
 21
-0.803972
 31
0.0
  0
HATCH
  5
EDE
100
AcDbEntity
  8
0
100
AcDbHatch
 10
0.0
 20
0.0
 30
0.0
210
0.0
220
0.0
230
1.0
  2
SOLID
 70
     1
 71
     1
 91
        1
 92
        7
 72
     1
 73
     1
 93
       18
 10
-0.8679133911958523
 20
-0.2606071831671208
 42
-0.4142135623730977
 10
-1.018413391195853
 20
-0.4111071831671223
 42
0.0
 10
-1.066881354670773
 20
-0.4111071831671223
 42
0.0
 10
-1.066881354670773
 20
-0.4424995350334662
 42
0.0
 10
-0.4088414159569887
 20
-0.442499535033468
 42
0.0
 10
-0.4088414159569887
 20
-0.4111071831671223
 42
0.0
 10
-0.4573093794319086
 20
-0.4111071831671223
 42
-0.4142135623730959
 10
-0.6078093794319095
 20
-0.2606071831671217
 42
0.0
 10
-0.6078093794319095
 20
0.5676876654535099
 42
0.0
 10
-0.4753417555833721
 20
0.5676876654535077
 42
-0.4138200196737916
 10
-0.1749670268020829
 20
0.2677163169912164
 42
0.0
 10
-0.1435507979904358
 20
0.2677163169912169
 42
0.0
 10
-0.1435507979904358
 20
0.6444245393874018
 42
0.0
 10
-1.332171972637322
 20
0.6444245393874013
 42
0.0
 10
-1.332171972637322
 20
0.2677163169912164
 42
0.0
 10
-1.300755743825682
 20
0.2677163169912164
 42
-0.4138200196737916
 10
-1.000381015044393
 20
0.5676876654535077
 42
0.0
 10
-0.8679133911958523
 20
0.5676876654535095
 42
0.0
 97
       18
330
E8B
330
E92
330
E91
330
E90
330
E81
330
E82
330
E84
330
E86
330
E83
330
E85
330
E8A
330
E89
330
E88
330
E87
330
E8D
330
E8E
330
E8F
330
E8C
 75
     0
 76
     1
 47
0.006025
 98
       28
 10
-0.761158
 20
0.47536
 10
0.269849
 20
0.041578
 10
0.836601
 20
-0.000595
 10
0.836601
 20
-0.000595
 10
0.836601
 20
-0.000595
 10
0.836601
 20
-0.000595
 10
0.836601
 20
-0.000595
 10
0.836601
 20
-0.000595
 10
0.836601
 20
-0.000595
 10
0.836601
 20
-0.000595
 10
0.836601
 20
-0.000595
 10
0.836601
 20
-0.000595
 10
0.836601
 20
-0.000595
 10
0.836601
 20
-0.000595
 10
0.836601
 20
-0.000595
 10
1.09586
 20
0.023504
 10
1.09586
 20
0.023504
 10
1.09586
 20
0.023504
 10
1.09586
 20
0.023504
 10
1.09586
 20
0.023504
 10
1.09586
 20
0.023504
 10
1.09586
 20
0.023504
 10
1.09586
 20
0.023504
 10
1.09586
 20
0.023504
 10
1.09586
 20
0.023504
 10
1.09586
 20
0.023504
 10
1.09586
 20
0.023504
 10
1.09586
 20
0.023504
  0
HATCH
  5
EDF
100
AcDbEntity
  8
0
100
AcDbHatch
 10
0.0
 20
0.0
 30
0.0
210
0.0
220
0.0
230
1.0
  2
SOLID
 70
     1
 71
     1
 91
        2
 92
        5
 93
        1
 72
     3
 10
0.064622
 20
-0.120756
 11
0.0
 21
0.329378
 40
0.93822
 50
0.0
 51
360.0
 73
     1
 97
        1
330
E7F
 92
       20
 93
        1
 72
     3
 10
0.064622
 20
-0.11888
 11
0.0
 21
0.295596
 40
0.683214
 50
0.0
 51
360.0
 73
     1
 97
        1
330
E80
 75
     0
 76
     1
 47
0.001462
 98
        2
 10
0.275418
 20
0.039124
 10
0.275418
 20
0.039124
  0
LWPOLYLINE
  5
EE0
102
{ACAD_REACTORS
330
EE2
102
}
100
AcDbEntity
  8
0
100
AcDbPolyline
 90
        3
 70
     1
 43
0.0
 10
0.603978
 20
-0.115053
 42
0.543923
 10
0.799135
 20
0.012968
 42
0.528743
 10
0.603978
 20
0.149922
  0
LWPOLYLINE
  5
EE1
102
{ACAD_REACTORS
330
EE2
102
}
100
AcDbEntity
  8
0
100
AcDbPolyline
 90
       17
 70
     0
 43
0.0
 10
0.71273
 20
-0.152269
 42
-0.060912
 10
0.603978
 20
-0.138871
 10
0.603978
 20
-0.356608
 42
0.414214
 10
0.666103
 20
-0.418733
 10
0.694853
 20
-0.418733
 10
0.694853
 20
-0.435108
 10
0.425208
 20
-0.435108
 10
0.425208
 20
-0.418733
 10
0.453958
 20
-0.418733
 42
0.414214
 10
0.516083
 20
-0.356608
 10
0.516083
 20
0.117117
 42
0.414214
 10
0.453958
 20
0.179242
 10
0.425676
 20
0.179242
 10
0.425676
 20
0.196581
 10
0.714486
 20
0.196581
 42
-0.395102
 10
0.904907
 20
0.020412
 42
-0.42915
 10
0.71273
 20
-0.152269
  0
HATCH
  5
EE2
100
AcDbEntity
  8
0
100
AcDbHatch
 10
0.0
 20
0.0
 30
0.0
210
0.0
220
0.0
230
1.0
  2
SOLID
 70
     1
 71
     1
 91
        4
 92
        7
 72
     1
 73
     1
 93
       16
 10
0.7144860509303293
 20
0.1965810478951546
 42
0.0
 10
0.425675507790178
 20
0.1965810478951551
 42
0.0
 10
0.4256755077901744
 20
0.1792416481376495
 42
0.0
 10
0.4539579706250941
 20
0.1792416481376522
 42
-0.4142135623731348
 10
0.5160829706251029
 20
0.1171166481376513
 42
0.0
 10
0.5160829706251029
 20
-0.3566079105582975
 42
-0.4142135623731003
 10
0.4539579706251012
 20
-0.4187329105582989
 42
0.0
 10
0.4252083852112812
 20
-0.4187329105582985
 42
0.0
 10
0.4252083852112812
 20
-0.4351078255943977
 42
0.0
 10
0.6948525816350753
 20
-0.4351078255943977
 42
0.0
 10
0.6948525816350717
 20
-0.4187329105582985
 42
0.0
 10
0.6661029962212517
 20
-0.4187329105582985
 42
-0.4142135623731055
 10
0.60397799622125
 20
-0.3566079105582967
 42
0.0
 10
0.6039779962212535
 20
-0.1388713762921059
 42
0.060911755802347
 10
0.7127295427360672
 20
-0.152268966224173
 42
0.4291497434371206
 10
0.9049068745717683
 20
0.0204115998947936
 42
0.3951020987303913
 97
        1
330
EE1
 92
       22
 72
     1
 73
     1
 93
        3
 10
0.7991347884233626
 20
0.0129684736527263
 42
-0.5439228899216945
 10
0.6039779962212535
 20
-0.1150533350139677
 42
0.0
 10
0.6039779962212535
 20
0.1499219758356327
 42
-0.5287425889467566
 97
        1
330
EE0
 92
        7
 72
     1
 73
     1
 93
       16
 10
1.046487978921465
 20
-0.3590009990267897
 42
-0.414213562373094
 10
0.9843629789214638
 20
-0.4211259990267893
 42
0.0
 10
0.9556133935076474
 20
-0.4211259990267893
 42
0.0
 10
0.9556133935076474
 20
-0.4375009140628885
 42
0.0
 10
1.225257589931437
 20
-0.4375009140628885
 42
0.0
 10
1.225257589931437
 20
-0.4211259990267893
 42
0.0
 10
1.196508004517621
 20
-0.4211259990267893
 42
-0.4142135623730992
 10
1.134383004517619
 20
-0.3590009990267884
 42
0.0
 10
1.134383004517619
 20
-0.1412644647605972
 42
0.0609117558023489
 10
1.243134551032433
 20
-0.1546620546926638
 42
0.4291497434369985
 10
1.435311882868138
 20
0.0180185114262246
 42
0.3916311771398275
 10
1.247172666393804
 20
0.1941879594266647
 42
0.0
 10
0.9560805160865406
 20
0.1941879594266642
 42
0.0
 10
0.9560805160865406
 20
0.1768485596691613
 42
0.0
 10
0.9843629789214674
 20
0.1768485596691613
 42
-0.4142135623730824
 10
1.046487978921465
 20
0.1147235596691605
 42
0.0
 97
       16
330
E6C
330
E6D
330
E72
330
E78
330
E71
330
E77
330
E74
330
E70
330
E6E
330
E6F
330
E75
330
E76
330
E79
330
E7E
330
E7C
330
E7D
 92
       22
 72
     1
 73
     1
 93
        3
 10
1.134383004517619
 20
0.1475288873671419
 42
-0.5287425889467566
 10
1.329539796719728
 20
0.0105753851842354
 42
-0.5439228899216945
 10
1.134383004517619
 20
-0.1174464234824586
 42
0.0
 97
        3
330
E7B
330
E7A
330
E73
 75
     0
 76
     1
 47
0.001778
 98
        4
 10
0.82298
 20
0.03744
 10
0.82298
 20
0.03744
 10
1.112939
 20
0.065881
 10
1.112939
 20
0.065881
  0
ENDBLK
  5
EE4
100
AcDbEntity
  8
0
100
AcDbBlockEnd
  0
ENDSEC
  0
SECTION
  2
ENTITIES
  0
LINE
  5
8C2
100
AcDbEntity
  8
HIDDEN
100
AcDbLine
 10
-5.558534
 20
-73.462524
 30
0.0
 11
9.441429
 21
-73.462524
 31
0.0
  0
LINE
  5
8C3
100
AcDbEntity
  8
OBJECT
100
AcDbLine
 10
-14.058552
 20
-15.462524
 30
0.0
 11
-6.558552
 21
-15.462524
 31
0.0
  0
LINE
  5
8C4
100
AcDbEntity
  8
OBJECT
100
AcDbLine
 10
-6.558552
 20
-15.462524
 30
0.0
 11
-6.054242
 21
-73.962524
 31
0.0
  0
LINE
  5
8C5
100
AcDbEntity
  8
OBJECT
100
AcDbLine
 10
-14.058552
 20
-15.462524
 30
0.0
 11
-14.058552
 21
-14.462524
 31
0.0
  0
LINE
  5
8C6
100
AcDbEntity
  8
OBJECT
100
AcDbLine
 10
-14.058552
 20
-14.462524
 30
0.0
 11
-13.558552
 21
-14.462524
 31
0.0
  0
LINE
  5
8C7
100
AcDbEntity
  8
HIDDEN
100
AcDbLine
 10
-13.558552
 20
-14.962524
 30
0.0
 11
-13.558552
 21
-14.462524
 31
0.0
  0
LINE
  5
8C8
100
AcDbEntity
  8
HIDDEN
100
AcDbLine
 10
-13.558552
 20
-14.962524
 30
0.0
 11
17.441448
 21
-14.962524
 31
0.0
  0
LINE
  5
8C9
100
AcDbEntity
  8
HIDDEN
100
AcDbLine
 10
-6.062844
 20
-14.962524
 30
0.0
 11
-5.558534
 21
-73.462524
 31
0.0
  0
LINE
  5
8CA
100
AcDbEntity
  8
OBJECT
100
AcDbLine
 10
-6.054242
 20
-73.962524
 30
0.0
 11
9.941448
 21
-73.962524
 31
0.0
  0
LINE
  5
8CB
100
AcDbEntity
  8
OBJECT
100
AcDbLine
 10
17.941448
 20
-15.462524
 30
0.0
 11
10.441448
 21
-15.462524
 31
0.0
  0
LINE
  5
8CC
100
AcDbEntity
  8
HIDDEN
100
AcDbLine
 10
17.441448
 20
-14.962524
 30
0.0
 11
17.441448
 21
-14.462524
 31
0.0
  0
LINE
  5
8CD
100
AcDbEntity
  8
OBJECT
100
AcDbLine
 10
17.941448
 20
-15.462524
 30
0.0
 11
17.941448
 21
-14.462524
 31
0.0
  0
LINE
  5
8CE
100
AcDbEntity
  8
OBJECT
100
AcDbLine
 10
17.941448
 20
-14.462524
 30
0.0
 11
17.441448
 21
-14.462524
 31
0.0
  0
LINE
  5
8CF
100
AcDbEntity
  8
OBJECT
100
AcDbLine
 10
10.441448
 20
-15.462524
 30
0.0
 11
9.937137
 21
-73.962524
 31
0.0
  0
LINE
  5
8D0
100
AcDbEntity
  8
HIDDEN
100
AcDbLine
 10
9.945739
 20
-14.962524
 30
0.0
 11
9.441429
 21
-73.462524
 31
0.0
  0
LINE
  5
8D1
100
AcDbEntity
  8
OBJECT
100
AcDbLine
 10
-13.558552
 20
-14.462524
 30
0.0
 11
17.441448
 21
-14.462524
 31
0.0
  0
LINE
  5
8D2
100
AcDbEntity
  8
LIMITS
100
AcDbLine
 10
49.753948
 20
-96.687087
 30
0.0
 11
49.753948
 21
24.542528
 31
0.0
  0
LINE
  5
8D3
100
AcDbEntity
  8
BORDER
 62
     5
100
AcDbLine
 10
46.723207
 20
25.042419
 30
0.0
 11
-42.840312
 21
25.042419
 31
0.0
  0
ARC
  5
8D4
100
AcDbEntity
  8
BORDER
 62
     8
100
AcDbCircle
 10
46.723207
 20
24.032172
 30
0.0
 40
1.010247
100
AcDbArc
 50
0.0
 51
90.0
  0
LINE
  5
8D5
100
AcDbEntity
  8
BORDER
100
AcDbLine
 10
-22.382814
 20
-92.898662
 30
0.0
 11
7.406308
 21
-92.898662
 31
0.0
  0
LINE
  5
8D6
100
AcDbEntity
  8
BORDER
100
AcDbLine
 10
-22.382814
 20
-92.898662
 30
0.0
 11
-22.382814
 21
-90.017379
 31
0.0
  0
ARC
  5
8D7
100
AcDbEntity
  8
BORDER
100
AcDbCircle
 10
-21.120006
 20
-85.321811
 30
0.0
 40
1.262808
100
AcDbArc
 50
90.0
 51
180.0
  0
LWPOLYLINE
  5
8D8
100
AcDbEntity
  8
BORDER
 62
     5
100
AcDbPolyline
 90
        2
 70
     0
 43
0.631404
 10
25.002901
 20
-82.796194
 42
-0.414214
 10
27.528518
 20
-85.321811
 42
0.560527
  0
LWPOLYLINE
  5
8DC
100
AcDbEntity
  8
BORDER
 62
     5
100
AcDbPolyline
 90
        2
 70
     0
 43
0.631404
 10
27.528518
 20
-92.898662
 10
27.528518
 20
-85.321811
  0
LWPOLYLINE
  5
8E0
100
AcDbEntity
  8
BORDER
 62
     5
100
AcDbPolyline
 90
        2
 70
     0
 43
0.631404
 10
-21.120006
 20
-82.796194
 42
0.414214
 10
-23.645623
 20
-85.321811
 42
-0.560527
  0
LWPOLYLINE
  5
8E4
100
AcDbEntity
  8
BORDER
 62
     5
100
AcDbPolyline
 90
        2
 70
     0
 43
0.631404
 10
-23.645623
 20
-85.321811
 10
-23.645623
 20
-92.898662
  0
LINE
  5
8E8
100
AcDbEntity
  8
BORDER
100
AcDbLine
 10
-21.120006
 20
-84.059002
 30
0.0
 11
7.406308
 21
-84.059002
 31
0.0
  0
LINE
  5
8E9
100
AcDbEntity
  8
BORDER
100
AcDbLine
 10
26.26571
 20
-85.321811
 30
0.0
 11
26.26571
 21
-89.110236
 31
0.0
  0
ARC
  5
8EA
100
AcDbEntity
  8
BORDER
100
AcDbCircle
 10
25.002901
 20
-85.321811
 30
0.0
 40
1.262808
100
AcDbArc
 50
0.0
 51
90.0
  0
LWPOLYLINE
  5
8EB
100
AcDbEntity
  8
BORDER
 62
     5
100
AcDbPolyline
 90
        2
 70
     0
 43
0.631404
 10
-41.324942
 20
-94.16147
 42
-0.414214
 10
-43.850559
 20
-91.635853
 42
0.560527
  0
LWPOLYLINE
  5
8EF
100
AcDbEntity
  8
BORDER
 62
     5
100
AcDbPolyline
 90
        2
 70
     0
 43
0.631404
 10
-41.324942
 20
-82.796194
 42
0.414214
 10
-43.850559
 20
-85.321811
 42
-0.560527
  0
LWPOLYLINE
  5
8F6
100
AcDbEntity
  8
BORDER
 62
     5
100
AcDbPolyline
 90
        2
 70
     0
 43
0.631404
 10
-27.434048
 20
-82.796194
 42
-0.414214
 10
-24.908431
 20
-85.321811
 42
0.560527
  0
LWPOLYLINE
  5
8FA
100
AcDbEntity
  8
BORDER
 62
     5
100
AcDbPolyline
 90
        2
 70
     0
 43
0.631404
 10
-24.908431
 20
-92.898662
 10
-24.908431
 20
-85.321811
  0
LWPOLYLINE
  5
902
100
AcDbEntity
  8
BORDER
 62
     5
100
AcDbPolyline
 90
        2
 70
     0
 43
0.631404
 10
-41.324942
 20
-82.796194
 10
-27.434048
 20
-82.796194
  0
LWPOLYLINE
  5
906
100
AcDbEntity
  8
BORDER
 62
     5
100
AcDbPolyline
 90
        2
 70
     0
 43
0.631404
 10
28.791327
 20
-92.898662
 10
28.791327
 20
-85.321811
  0
LINE
  5
90A
100
AcDbEntity
  8
BORDER
100
AcDbLine
 10
30.054135
 20
-92.898662
 30
0.0
 11
30.054135
 21
-85.321811
 31
0.0
  0
LINE
  5
90B
100
AcDbEntity
  8
BORDER
100
AcDbLine
 10
46.470646
 20
-91.635853
 30
0.0
 11
46.470646
 21
-85.321811
 31
0.0
  0
LWPOLYLINE
  5
90C
100
AcDbEntity
  8
BORDER
 62
     5
100
AcDbPolyline
 90
        2
 70
     0
 43
0.631404
 10
47.733454
 20
-85.321811
 10
47.733454
 20
-91.635853
  0
LINE
  5
910
100
AcDbEntity
  8
BORDER
100
AcDbLine
 10
45.207837
 20
-92.898662
 30
0.0
 11
30.054135
 21
-92.898662
 31
0.0
  0
ARC
  5
911
100
AcDbEntity
  8
BORDER
100
AcDbCircle
 10
45.207837
 20
-91.635853
 30
0.0
 40
1.262808
100
AcDbArc
 50
270.0
 51
0.0
  0
LWPOLYLINE
  5
912
100
AcDbEntity
  8
BORDER
 62
     5
100
AcDbPolyline
 90
        2
 70
     0
 43
0.631404
 10
45.207837
 20
-94.16147
 42
0.414214
 10
47.733454
 20
-91.635853
 42
-0.560527
  0
LWPOLYLINE
  5
916
100
AcDbEntity
  8
BORDER
 62
     5
100
AcDbPolyline
 90
        2
 70
     0
 43
0.631404
 10
45.207837
 20
-82.796194
 10
31.316944
 20
-82.796194
  0
LINE
  5
91A
100
AcDbEntity
  8
BORDER
100
AcDbLine
 10
45.207837
 20
-84.059002
 30
0.0
 11
31.316944
 21
-84.059002
 31
0.0
  0
ARC
  5
91B
100
AcDbEntity
  8
BORDER
100
AcDbCircle
 10
45.207837
 20
-85.321811
 30
0.0
 40
1.262808
100
AcDbArc
 50
0.0
 51
90.0
  0
LWPOLYLINE
  5
91C
100
AcDbEntity
  8
BORDER
 62
     5
100
AcDbPolyline
 90
        2
 70
     0
 43
0.631404
 10
45.207837
 20
-82.796194
 42
-0.414214
 10
47.733454
 20
-85.321811
 42
0.560527
  0
ARC
  5
920
100
AcDbEntity
  8
BORDER
100
AcDbCircle
 10
31.316944
 20
-85.321811
 30
0.0
 40
1.262808
100
AcDbArc
 50
90.0
 51
180.0
  0
LWPOLYLINE
  5
921
100
AcDbEntity
  8
BORDER
 62
     5
100
AcDbPolyline
 90
        2
 70
     0
 43
0.631404
 10
31.316944
 20
-82.796194
 42
0.414214
 10
28.791327
 20
-85.321811
 42
-0.560527
  0
LINE
  5
925
100
AcDbEntity
  8
BORDER
100
AcDbLine
 10
45.207837
 20
-86.31263
 30
0.0
 11
31.316944
 21
-86.31263
 31
0.0
  0
LINE
  5
926
100
AcDbEntity
  8
BORDER
100
AcDbLine
 10
45.207837
 20
-87.575439
 30
0.0
 11
31.316944
 21
-87.575439
 31
0.0
  0
LINE
  5
927
100
AcDbEntity
  8
BORDER
100
AcDbLine
 10
45.207837
 20
-88.838247
 30
0.0
 11
31.316944
 21
-88.838247
 31
0.0
  0
LINE
  5
928
100
AcDbEntity
  8
BORDER
100
AcDbLine
 10
45.207837
 20
-90.101056
 30
0.0
 11
31.316944
 21
-90.101056
 31
0.0
  0
LINE
  5
929
100
AcDbEntity
  8
BORDER
100
AcDbLine
 10
45.207837
 20
-91.363864
 30
0.0
 11
31.316944
 21
-91.363864
 31
0.0
  0
LINE
  5
92A
100
AcDbEntity
  8
BORDER
100
AcDbLine
 10
31.316944
 20
-86.31263
 30
0.0
 11
31.316944
 21
-91.363864
 31
0.0
  0
LINE
  5
92B
100
AcDbEntity
  8
BORDER
100
AcDbLine
 10
45.207837
 20
-86.31263
 30
0.0
 11
45.207837
 21
-91.363864
 31
0.0
  0
LINE
  5
92C
100
AcDbEntity
  8
BORDER
100
AcDbLine
 10
32.579752
 20
-86.31263
 30
0.0
 11
32.579752
 21
-91.363864
 31
0.0
  0
TEXT
  5
92D
100
AcDbEntity
  8
BORDER
 62
     6
100
AcDbText
 10
31.648287
 20
-87.25866
 30
0.0
 40
0.631404
  1
1
  7
ROMAND
100
AcDbText
  0
LWPOLYLINE
  5
92E
100
AcDbEntity
  8
BORDER
100
AcDbPolyline
 90
        6
 70
     1
 43
0.0
 10
32.217198
 20
-87.412284
 10
32.486239
 20
-86.94629
 10
32.217198
 20
-86.480296
 10
31.679114
 20
-86.480296
 10
31.410072
 20
-86.94629
 10
31.679114
 20
-87.412284
  0
TEXT
  5
936
100
AcDbEntity
  8
BORDER
 62
     6
100
AcDbText
 10
33.647413
 20
-87.25866
 30
0.0
 40
0.631404
  1
First Released.
  7
ROMAND
100
AcDbText
  0
LINE
  5
937
100
AcDbEntity
  8
BORDER
100
AcDbLine
 10
-22.382814
 20
-89.110236
 30
0.0
 11
7.406308
 21
-89.110236
 31
0.0
  0
LINE
  5
938
100
AcDbEntity
  8
BORDER
100
AcDbLine
 10
-22.382814
 20
-90.017379
 30
0.0
 11
7.406308
 21
-90.017379
 31
0.0
  0
LINE
  5
939
100
AcDbEntity
  8
BORDER
100
AcDbLine
 10
-22.382814
 20
-89.110236
 30
0.0
 11
-22.382814
 21
-85.321811
 31
0.0
  0
LINE
  5
93A
100
AcDbEntity
  8
BORDER
100
AcDbLine
 10
-3.134552
 20
-92.898662
 30
0.0
 11
-3.134552
 21
-90.017379
 31
0.0
  0
LINE
  5
93B
100
AcDbEntity
  8
BORDER
100
AcDbLine
 10
-3.134552
 20
-89.110236
 30
0.0
 11
-3.134552
 21
-84.059002
 31
0.0
  0
LINE
  5
93C
100
AcDbEntity
  8
BORDER
100
AcDbLine
 10
-3.134552
 20
-84.059002
 30
0.0
 11
25.002901
 21
-84.059002
 31
0.0
  0
LINE
  5
93D
100
AcDbEntity
  8
BORDER
100
AcDbLine
 10
-3.134552
 20
-89.110236
 30
0.0
 11
26.26571
 21
-89.110236
 31
0.0
  0
LINE
  5
93E
100
AcDbEntity
  8
BORDER
100
AcDbLine
 10
12.01915
 20
-90.017379
 30
0.0
 11
26.26571
 21
-90.017379
 31
0.0
  0
LINE
  5
93F
100
AcDbEntity
  8
BORDER
100
AcDbLine
 10
12.01915
 20
-92.898662
 30
0.0
 11
26.26571
 21
-92.898662
 31
0.0
  0
LINE
  5
940
100
AcDbEntity
  8
BORDER
100
AcDbLine
 10
26.26571
 20
-90.017379
 30
0.0
 11
26.26571
 21
-92.898662
 31
0.0
  0
LINE
  5
941
100
AcDbEntity
  8
BORDER
100
AcDbLine
 10
11.112008
 20
-90.017379
 30
0.0
 11
11.112008
 21
-92.898662
 31
0.0
  0
LINE
  5
942
100
AcDbEntity
  8
BORDER
100
AcDbLine
 10
12.01915
 20
-90.017379
 30
0.0
 11
12.01915
 21
-92.898662
 31
0.0
  0
LINE
  5
943
100
AcDbEntity
  8
BORDER
100
AcDbLine
 10
-3.134552
 20
-90.017379
 30
0.0
 11
11.112008
 21
-90.017379
 31
0.0
  0
LINE
  5
944
100
AcDbEntity
  8
BORDER
100
AcDbLine
 10
-3.134552
 20
-92.898662
 30
0.0
 11
11.112008
 21
-92.898662
 31
0.0
  0
TEXT
  5
945
100
AcDbEntity
  8
BORDER
 62
     6
100
AcDbText
 10
3.249907
 20
-92.391296
 30
0.0
 40
0.726115
  1
05/03/00
  7
ROMAND
100
AcDbText
  0
LWPOLYLINE
  5
946
100
AcDbEntity
  8
BORDER
 62
     8
100
AcDbPolyline
 90
        2
 70
     0
 43
0.252562
 10
47.733454
 20
24.032172
 42
0.414214
 10
46.723207
 20
25.042419
 42
0.76155
  0
LINE
  5
94A
100
AcDbEntity
  8
LIMITS
100
AcDbLine
 10
49.753948
 20
24.542528
 30
0.0
 11
49.753948
 21
-96.687087
 31
0.0
  0
LINE
  5
DCD
100
AcDbEntity
  8
LIMITS
 62
     7
100
AcDbLine
 10
-45.871052
 20
-96.687087
 30
0.0
 11
49.753948
 21
-96.687087
 31
0.0
  0
LINE
  5
DCE
100
AcDbEntity
  8
LIMITS
 62
     7
100
AcDbLine
 10
49.753948
 20
-96.687087
 30
0.0
 11
49.753948
 21
27.062913
 31
0.0
  0
LINE
  5
DCF
100
AcDbEntity
  8
LIMITS
 62
     7
100
AcDbLine
 10
49.753948
 20
27.062913
 30
0.0
 11
-45.871052
 21
27.062913
 31
0.0
  0
LINE
  5
DD0
100
AcDbEntity
  8
LIMITS
 62
     7
100
AcDbLine
 10
-45.871052
 20
27.062913
 30
0.0
 11
-45.871052
 21
-96.687087
 31
0.0
  0
ARC
  5
DD1
100
AcDbEntity
  8
BORDER
 62
     5
100
AcDbCircle
 10
-42.840312
 20
24.032172
 30
0.0
 40
1.010247
100
AcDbArc
 50
90.0
 51
180.0
  0
LWPOLYLINE
  5
DD2
100
AcDbEntity
  8
BORDER
 62
     5
100
AcDbPolyline
 90
        2
 70
     0
 43
0.252562
 10
-43.850559
 20
24.032172
 42
-0.414214
 10
-42.840312
 20
25.042419
 42
-0.76155
  0
LWPOLYLINE
  5
DD6
100
AcDbEntity
  8
BORDER
 62
     5
100
AcDbPolyline
 90
        2
 70
     0
 43
0.252562
 10
46.723207
 20
25.042419
 10
-42.840312
 20
25.042419
  0
LWPOLYLINE
  5
DDA
100
AcDbEntity
  8
BORDER
 62
     5
100
AcDbPolyline
 90
        2
 70
     0
 43
0.631404
 10
-43.850559
 20
-85.321811
 10
-43.850559
 20
-91.635853
  0
LWPOLYLINE
  5
DDE
100
AcDbEntity
  8
BORDER
 62
     5
100
AcDbPolyline
 90
        2
 70
     0
 43
0.631404
 10
-21.120006
 20
-82.796194
 10
25.002901
 20
-82.796194
  0
LWPOLYLINE
  5
DE2
100
AcDbEntity
  8
BORDER
 62
     5
100
AcDbPolyline
 90
        2
 70
     0
 43
0.631404
 10
45.207837
 20
-94.16147
 10
-41.324942
 20
-94.16147
  0
LWPOLYLINE
  5
DE6
100
AcDbEntity
  8
BORDER
 62
     5
100
AcDbPolyline
 90
        2
 70
     0
 43
0.252562
 10
-43.850559
 20
-82.314373
 10
-43.850559
 20
24.032172
  0
LWPOLYLINE
  5
DEA
100
AcDbEntity
  8
BORDER
 62
     5
100
AcDbPolyline
 90
        2
 70
     0
 43
0.252562
 10
47.733454
 20
-82.314373
 10
47.733454
 20
24.032172
  0
LWPOLYLINE
  5
DEE
100
AcDbEntity
  8
BORDER
 62
     5
100
AcDbPolyline
 90
        6
 70
     0
 43
0.45
 10
-43.850559
 20
-85.321811
 10
-43.850559
 20
24.032172
 42
-0.414214
 10
-42.840312
 20
25.042419
 10
46.723207
 20
25.042419
 42
-0.414214
 10
47.733454
 20
24.032172
 10
47.733454
 20
-85.321811
  0
LINE
  5
DF6
100
AcDbEntity
  8
BORDER
100
AcDbLine
 10
-22.382814
 20
-86.975316
 30
0.0
 11
-3.134552
 21
-86.975316
 31
0.0
  0
TEXT
  5
DF7
100
AcDbEntity
  8
BORDER
 62
     6
100
AcDbText
 10
2.324026
 20
-86.30522
 30
0.0
 40
0.77278
  1
K. HIVELY
  7
COUNTRYBLUEPRINT
100
AcDbText
  0
TEXT
  5
DF9
100
AcDbEntity
  8
BORDER
 62
     6
100
AcDbText
 10
6.395107
 20
-84.926908
 30
0.0
 40
0.473971
  1
This print is and contains confidential proprietary information owned exclusively
 41
0.656934
  7
ROMANS
 72
     5
 11
25.922309
 21
-84.926908
 31
0.0
100
AcDbText
  0
TEXT
  5
DFB
100
AcDbEntity
  8
BORDER
 62
     6
100
AcDbText
 10
6.395107
 20
-85.694289
 30
0.0
 40
0.473971
  1
by TOPP INDUSTRIES, INC. It is furnished on a strictly confidential basis.  This
 41
0.659437
  7
ROMANS
 72
     5
 11
25.922309
 21
-85.694289
 31
0.0
100
AcDbText
  0
TEXT
  5
DFC
100
AcDbEntity
  8
BORDER
 62
     6
100
AcDbText
 10
6.395107
 20
-86.461671
 30
0.0
 40
0.473971
  1
restriction includes, but is not limited to the condition that this print will not only
 41
0.626489
  7
ROMANS
 72
     5
 11
25.922309
 21
-86.461671
 31
0.0
100
AcDbText
  0
TEXT
  5
DFD
100
AcDbEntity
  8
BORDER
 62
     6
100
AcDbText
 10
6.395107
 20
-87.229053
 30
0.0
 40
0.473971
  1
be used as a record or to identify or inspect parts or for other information purposes
 41
0.596266
  7
ROMANS
 72
     5
 11
25.922309
 21
-87.229053
 31
0.0
100
AcDbText
  0
TEXT
  5
DFE
100
AcDbEntity
  8
BORDER
 62
     6
100
AcDbText
 10
6.395107
 20
-87.996435
 30
0.0
 40
0.473971
  1
and will not be used to manufacture or procure the manufacture of the items shown
 41
0.600404
  7
ROMANS
 72
     5
 11
25.922309
 21
-87.996435
 31
0.0
100
AcDbText
  0
TEXT
  5
DFF
100
AcDbEntity
  8
BORDER
 62
     6
100
AcDbText
 10
6.395107
 20
-88.763817
 30
0.0
 40
0.473971
  1
in this print by any other source than TOPP INDUSTRIES, INC.
 41
0.839168
  7
ROMANS
 72
     5
 11
25.922309
 21
-88.763817
 31
0.0
100
AcDbText
  0
TEXT
  5
E00
100
AcDbEntity
  8
BORDER
 62
     6
100
AcDbText
 10
-19.220718
 20
-90.864998
 30
0.0
 40
0.481603
  1
Highway 25 North P.O. Box 420
  7
ROMANC
100
AcDbText
  0
TEXT
  5
E02
100
AcDbEntity
  8
BORDER
 62
     6
100
AcDbText
 10
-17.146799
 20
-91.720282
 30
0.0
 40
0.481603
  1
Rochester, IN  46975
  7
ROMANC
100
AcDbText
  0
TEXT
  5
E03
100
AcDbEntity
  8
BORDER
 62
     6
100
AcDbText
 10
-21.495034
 20
-92.688884
 30
0.0
 40
0.481603
  1
Phone: 800/354-4534  Fax: 219/223-6106
  7
ROMANC
100
AcDbText
  0
TEXT
  5
E04
100
AcDbEntity
  8
BORDER
 62
     6
100
AcDbText
 10
-20.728909
 20
-85.938818
 30
0.0
 40
0.651581
  1
Polyethylene Pump Chamber
  7
ROMANC
100
AcDbText
  0
TEXT
  5
E05
100
AcDbEntity
  8
BORDER
 62
     6
100
AcDbText
 10
-22.199837
 20
-87.816599
 30
0.0
 40
0.566592
  1
Reference:
  7
ROMANC
100
AcDbText
  0
TEXT
  5
E06
100
AcDbEntity
  8
BORDER
 62
     6
100
AcDbText
 10
-13.252928
 20
-88.218303
 30
0.0
 40
0.566592
  1
1200 gal.
  7
ROMANC
100
AcDbText
  0
TEXT
  5
E07
100
AcDbEntity
  8
BORDER
 62
     6
100
AcDbText
 10
-2.875723
 20
-84.894878
 30
0.0
 40
0.566592
  1
Scale: None
  7
ROMANC
100
AcDbText
  0
TEXT
  5
E08
100
AcDbEntity
  8
BORDER
 62
     6
100
AcDbText
 10
-2.875723
 20
-86.244878
 30
0.0
 40
0.566592
  1
Drawn By:
  7
ROMANC
100
AcDbText
  0
TEXT
  5
E09
100
AcDbEntity
  8
BORDER
 62
     6
100
AcDbText
 10
-2.875723
 20
-87.594878
 30
0.0
 40
0.566592
  1
Appv'd By:
  7
ROMANC
100
AcDbText
  0
TEXT
  5
E0A
100
AcDbEntity
  8
BORDER
 62
     6
100
AcDbText
 10
-2.875723
 20
-88.944878
 30
0.0
 40
0.566592
  1
Date: 02/12/96
  7
ROMANC
100
AcDbText
  0
TEXT
  5
E0B
100
AcDbEntity
  8
BORDER
 62
     6
100
AcDbText
 10
-2.843424
 20
-91.003277
 30
0.0
 40
0.566592
  1
Supersedes Prints
  7
ROMANC
100
AcDbText
  0
TEXT
  5
E0C
100
AcDbEntity
  8
BORDER
 62
     6
100
AcDbText
 10
-2.843424
 20
-91.920617
 30
0.0
 40
0.566592
  1
Prior To:
  7
ROMANC
100
AcDbText
  0
TEXT
  5
E0D
100
AcDbEntity
  8
BORDER
 62
     6
100
AcDbText
 10
12.317336
 20
-90.940492
 30
0.0
 40
0.566592
  1
Reference
  7
ROMANC
100
AcDbText
  0
TEXT
  5
E0E
100
AcDbEntity
  8
BORDER
 62
     6
100
AcDbText
 10
12.317336
 20
-91.857831
 30
0.0
 40
0.566592
  1
No:
  7
ROMANC
100
AcDbText
  0
TEXT
  5
E0F
100
AcDbEntity
  8
BORDER
 62
     6
100
AcDbText
 10
17.163446
 20
-92.254545
 30
0.0
 40
1.699776
  1
11369
  7
ROMANC
100
AcDbText
  0
TEXT
  5
E10
100
AcDbEntity
  8
BORDER
 62
     6
100
AcDbText
 10
34.89438
 20
-85.747066
 30
0.0
 40
0.849888
  1
Revisions
  7
ROMANC
100
AcDbText
  0
DIMENSION
  5
E11
100
AcDbEntity
  8
DIM
100
AcDbDimension
  2
*D0
 10
9.941448
 20
-76.901354
 30
0.0
 11
1.943603
 21
-76.901354
 31
0.0
 12
0.0
 22
-0.721488
 32
0.0
  1
16"
100
AcDbAlignedDimension
 13
-6.054242
 23
-73.962524
 33
0.0
 14
9.941448
 24
-73.962524
 34
0.0
100
AcDbRotatedDimension
  0
DIMENSION
  5
E12
100
AcDbEntity
  8
DIM
100
AcDbDimension
  2
*D2
 10
10.441448
 20
-17.394869
 30
0.0
 11
1.941448
 21
-17.394869
 31
0.0
 12
0.0
 22
-0.718036
 32
0.0
  1
17"
100
AcDbAlignedDimension
 13
-6.558552
 23
-16.18056
 33
0.0
 14
10.441448
 24
-16.18056
 34
0.0
100
AcDbRotatedDimension
  0
TEXT
  5
E13
100
AcDbEntity
  8
DIM
100
AcDbText
 10
-4.617958
 20
-18.914395
 30
0.0
 40
1.0
  1
Maximum Outside
  7
ROMAND
100
AcDbText
  0
TEXT
  5
E14
100
AcDbEntity
  8
DIM
100
AcDbText
 10
-1.404516
 20
-20.406875
 30
0.0
 40
1.0
  1
Diameter
  7
ROMAND
100
AcDbText
  0
TEXT
  5
E15
100
AcDbEntity
  8
DIM
100
AcDbText
 10
-11.41231
 20
-12.771498
 30
0.0
 40
1.0
  1
Typ.
  7
ROMAND
100
AcDbText
  0
CIRCLE
  5
E16
100
AcDbEntity
  8
OBJECT
100
AcDbCircle
 10
1.941448
 20
6.436154
 30
0.0
 40
15.5
  0
CIRCLE
  5
E17
100
AcDbEntity
  8
OBJECT
100
AcDbCircle
 10
1.941448
 20
6.436154
 30
0.0
 40
8.004292
  0
CIRCLE
  5
E18
100
AcDbEntity
  8
OBJECT
100
AcDbCircle
 10
1.941448
 20
6.436154
 30
0.0
 40
16.007811
  0
LINE
  5
E19
100
AcDbEntity
  8
CENTER
100
AcDbLine
 10
-15.791785
 20
6.436154
 30
0.0
 11
19.674681
 21
6.436154
 31
0.0
  0
LINE
  5
E1A
100
AcDbEntity
  8
CENTER
100
AcDbLine
 10
1.941448
 20
24.169387
 30
0.0
 11
1.941448
 21
-11.297079
 31
0.0
  0
DIMENSION
  5
E1B
100
AcDbEntity
  8
DIM
100
AcDbDimension
  2
*D1
 10
-17.438764
 20
-73.962524
 30
0.0
 11
-17.438764
 21
-44.712524
 31
0.0
  1
58"
100
AcDbAlignedDimension
 13
-14.058552
 23
-15.462524
 33
0.0
 14
-6.054242
 24
-73.962524
 34
0.0
 50
90.0
100
AcDbRotatedDimension
  0
LINE
  5
E1C
100
AcDbEntity
  8
CENTER
100
AcDbLine
 10
1.748279
 20
-48.712524
 30
0.0
 11
13.238484
 21
-48.712524
 31
0.0
  0
LINE
  5
E1D
100
AcDbEntity
  8
CENTER
100
AcDbLine
 10
1.941448
 20
6.436154
 30
0.0
 11
6.234361
 21
16.800162
 31
0.0
  0
LINE
  5
E1E
100
AcDbEntity
  8
CENTER
100
AcDbLine
 10
1.941448
 20
6.436154
 30
0.0
 11
9.873716
 21
14.368423
 31
0.0
  0
LINE
  5
E1F
100
AcDbEntity
  8
CENTER
100
AcDbLine
 10
1.941448
 20
6.436154
 30
0.0
 11
12.305456
 21
10.729067
 31
0.0
  0
LINE
  5
E20
100
AcDbEntity
  8
CENTER
100
AcDbLine
 10
1.941448
 20
6.436154
 30
0.0
 11
13.15937
 21
6.436154
 31
0.0
  0
LINE
  5
E21
100
AcDbEntity
  8
CENTER
100
AcDbLine
 10
1.941448
 20
6.436154
 30
0.0
 11
9.873716
 21
-1.496115
 31
0.0
  0
LINE
  5
E22
100
AcDbEntity
  8
CENTER
100
AcDbLine
 10
1.941448
 20
6.436154
 30
0.0
 11
12.305456
 21
2.143241
 31
0.0
  0
LINE
  5
E23
100
AcDbEntity
  8
CENTER
100
AcDbLine
 10
1.941448
 20
6.436154
 30
0.0
 11
6.234361
 21
-3.927855
 31
0.0
  0
ARC
  5
E24
100
AcDbEntity
  8
OBJECT
100
AcDbCircle
 10
9.336449
 20
-45.712524
 30
0.0
 40
0.125
100
AcDbArc
 50
0.0
 51
180.0
  0
ARC
  5
E25
100
AcDbEntity
  8
OBJECT
100
AcDbCircle
 10
9.336449
 20
-51.712524
 30
0.0
 40
0.125
100
AcDbArc
 50
180.0
 51
0.0
  0
LINE
  5
E26
100
AcDbEntity
  8
OBJECT
100
AcDbLine
 10
9.461449
 20
-45.712524
 30
0.0
 11
9.461449
 21
-51.712524
 31
0.0
  0
LINE
  5
E27
100
AcDbEntity
  8
OBJECT
100
AcDbLine
 10
9.211449
 20
-45.712524
 30
0.0
 11
9.211449
 21
-51.712524
 31
0.0
  0
LINE
  5
E28
100
AcDbEntity
  8
OBJECT
100
AcDbLine
 10
7.726337
 20
-45.712524
 30
0.0
 11
7.726337
 21
-51.712524
 31
0.0
  0
LINE
  5
E29
100
AcDbEntity
  8
OBJECT
100
AcDbLine
 10
7.476337
 20
-45.712524
 30
0.0
 11
7.476337
 21
-51.712524
 31
0.0
  0
ARC
  5
E2A
100
AcDbEntity
  8
OBJECT
100
AcDbCircle
 10
7.601337
 20
-51.712524
 30
0.0
 40
0.125
100
AcDbArc
 50
180.0
 51
0.0
  0
ARC
  5
E2B
100
AcDbEntity
  8
OBJECT
100
AcDbCircle
 10
7.601337
 20
-45.712524
 30
0.0
 40
0.125
100
AcDbArc
 50
0.0
 51
180.0
  0
LINE
  5
E2C
100
AcDbEntity
  8
OBJECT
100
AcDbLine
 10
4.879558
 20
-45.712524
 30
0.0
 11
4.879558
 21
-51.712524
 31
0.0
  0
LINE
  5
E2D
100
AcDbEntity
  8
OBJECT
100
AcDbLine
 10
5.129558
 20
-45.712524
 30
0.0
 11
5.129558
 21
-51.712524
 31
0.0
  0
ARC
  5
E2E
100
AcDbEntity
  8
OBJECT
100
AcDbCircle
 10
5.004558
 20
-51.712524
 30
0.0
 40
0.125
100
AcDbArc
 50
180.0
 51
0.0
  0
ARC
  5
E2F
100
AcDbEntity
  8
OBJECT
100
AcDbCircle
 10
5.004558
 20
-45.712524
 30
0.0
 40
0.125
100
AcDbArc
 50
0.0
 51
180.0
  0
DIMENSION
  5
E32
100
AcDbEntity
  8
DIM
100
AcDbDimension
  2
*D3
 10
19.674681
 20
6.436154
 30
0.0
 11
21.699358
 21
2.506061
 31
0.0
 70
     2
100
AcDb2LineAngularDimension
 13
1.941448
 23
6.436154
 33
0.0
 14
12.305456
 24
2.143241
 34
0.0
 15
-15.791785
 25
6.436154
 35
0.0
 16
21.644908
 26
2.241602
 36
0.0
  0
TEXT
  5
E34
100
AcDbEntity
  8
DIM
100
AcDbText
 10
22.738377
 20
0.201564
 30
0.0
 40
1.0
  1
Typical Both
  7
ROMAND
100
AcDbText
  0
TEXT
  5
E35
100
AcDbEntity
  8
DIM
100
AcDbText
 10
25.70645
 20
-1.417484
 30
0.0
 40
1.0
  1
Sides
  7
ROMAND
100
AcDbText
  0
DIMENSION
  5
E42
100
AcDbEntity
  8
DIM
100
AcDbDimension
  2
*D4
 10
14.692196
 20
-48.712524
 30
0.0
 11
14.692196
 21
-61.337524
 31
0.0
100
AcDbAlignedDimension
 13
9.941448
 23
-73.962524
 33
0.0
 14
13.238484
 24
-48.712524
 34
0.0
 50
90.0
100
AcDbRotatedDimension
  0
SOLID
  5
E43
100
AcDbEntity
  8
DIM
100
AcDbTrace
 10
8.491931
 20
-46.054073
 30
0.0
 11
8.235013
 21
-45.841695
 31
0.0
 12
7.726337
 22
-46.718636
 32
0.0
 13
7.726337
 23
-46.718636
 33
0.0
  0
LINE
  5
E44
100
AcDbEntity
  8
DIM
100
AcDbLine
 10
8.363472
 20
-45.947884
 30
0.0
 11
13.92258
 21
-39.22295
 31
0.0
  0
LINE
  5
E45
100
AcDbEntity
  8
DIM
100
AcDbLine
 10
13.92258
 20
-39.22295
 30
0.0
 11
14.92258
 21
-39.22295
 31
0.0
  0
TEXT
  5
E46
100
AcDbEntity
  8
DIM
100
AcDbText
 10
15.92258
 20
-39.72295
 30
0.0
 40
1.0
  1
1/4" x 6" Slots Spaced
  7
ROMAND
 11
15.92258
 21
-39.22295
 31
0.0
100
AcDbText
 73
     2
  0
TEXT
  5
E47
100
AcDbEntity
  8
DIM
100
AcDbText
 10
15.92258
 20
-41.678346
 30
0.0
 40
1.0
  1
At 22.5%%d (As Shown Above)
  7
ROMAND
 11
15.92258
 21
-41.178346
 31
0.0
100
AcDbText
 73
     2
  0
SOLID
  5
E51
100
AcDbEntity
  8
DIM
100
AcDbTrace
 10
8.364976
 20
0.109457
 30
0.0
 11
8.53996
 21
0.393167
 31
0.0
 12
7.601337
 22
0.776265
 32
0.0
 13
7.601337
 23
0.776265
 33
0.0
  0
LINE
  5
E52
100
AcDbEntity
  8
DIM
100
AcDbLine
 10
8.452468
 20
0.251312
 30
0.0
 11
19.743956
 21
-6.712946
 31
0.0
  0
LINE
  5
E53
100
AcDbEntity
  8
DIM
100
AcDbLine
 10
19.743956
 20
-6.712946
 30
0.0
 11
20.743956
 21
-6.712946
 31
0.0
  0
TEXT
  5
E54
100
AcDbEntity
  8
DIM
100
AcDbText
 10
21.743956
 20
-7.212946
 30
0.0
 40
1.0
  1
Slot Placement
  7
ROMAND
 11
21.743956
 21
-6.712946
 31
0.0
100
AcDbText
 73
     2
  0
TEXT
  5
E55
100
AcDbEntity
  8
DIM
100
AcDbText
 10
15.92258
 20
-43.462338
 30
0.0
 40
1.0
  1
(7) Places
  7
ROMAND
 11
15.92258
 21
-42.962338
 31
0.0
100
AcDbText
 73
     2
  0
TEXT
  5
E56
100
AcDbEntity
  8
DIM
100
AcDbText
 10
21.743956
 20
-8.811697
 30
0.0
 40
1.0
  1
(7) Places
  7
ROMAND
 11
21.743956
 21
-8.311697
 31
0.0
100
AcDbText
 73
     2
  0
DIMENSION
  5
E57
100
AcDbEntity
  8
DIM
100
AcDbDimension
  2
*D5
 10
-13.558552
 20
-11.260037
 30
0.0
 11
-10.020818
 21
-9.687419
 31
0.0
 70
   128
100
AcDbAlignedDimension
 13
-6.062844
 23
-14.962524
 33
0.0
 14
-13.558552
 24
-14.462524
 34
0.0
100
AcDbRotatedDimension
  0
LWPOLYLINE
  5
E5D
100
AcDbEntity
  8
BORDER
100
AcDbPolyline
 90
        6
 70
     1
 43
0.0
 10
32.217198
 20
-88.675093
 10
32.486239
 20
-88.209098
 10
32.217198
 20
-87.743104
 10
31.679114
 20
-87.743104
 10
31.410072
 20
-88.209098
 10
31.679114
 20
-88.675093
  0
TEXT
  5
E5E
100
AcDbEntity
  8
BORDER
 62
     6
100
AcDbText
 10
31.648287
 20
-88.521468
 30
0.0
 40
0.631404
  1
2
  7
ROMAND
100
AcDbText
  0
TEXT
  5
E5F
100
AcDbEntity
  8
BORDER
 62
     6
100
AcDbText
 10
33.647413
 20
-88.521468
 30
0.0
 40
0.631404
  1
Updated for Catalog
  7
ROMAND
100
AcDbText
  0
INSERT
  5
EE5
100
AcDbEntity
  8
DIM
100
AcDbBlockReference
  2
TOPPLOGO
 10
-34.400674
 20
-88.578868
 30
-6.835116
 41
5.002284
 42
5.002284
 43
5.002284
  0
ENDSEC
  0
SECTION
  2
OBJECTS
  0
DICTIONARY
  5
C
100
AcDbDictionary
  3
ACAD_GROUP
350
D
  3
ACAD_MLINESTYLE
350
1A
  3
ACDBVARIABLEDICTIONARY
350
4E
  0
DICTIONARY
  5
D
102
{ACAD_REACTORS
330
C
102
}
100
AcDbDictionary
  0
DICTIONARY
  5
1A
102
{ACAD_REACTORS
330
C
102
}
100
AcDbDictionary
  3
STANDARD
350
1B
  0
DICTIONARY
  5
4E
102
{ACAD_REACTORS
330
C
102
}
100
AcDbDictionary
  3
DIMADEC
350
4F
  0
MLINESTYLE
  5
1B
102
{ACAD_REACTORS
330
1A
102
}
100
AcDbMlineStyle
  2
STANDARD
 70
     0
  3

 62
   256
 51
90.0
 52
90.0
 71
     2
 49
0.5
 62
   256
  6
BYLAYER
 49
-0.5
 62
   256
  6
BYLAYER
  0
DICTIONARYVAR
  5
4F
102
{ACAD_REACTORS
330
4E
102
}
100
DictionaryVariables
280
     0
  1
2
  0
ENDSEC
  0
EOF
