  0
SECTION
  2
HEADER
  9
$ACADVER
  1
AC1014
  9
$ACADMAINTVER
 70
     0
  9
$DWGCODEPAGE
  3
ANSI_1252
  9
$INSBASE
 10
0.0
 20
0.0
 30
0.0
  9
$EXTMIN
 10
59.139414
 20
3.547424
 30
0.0
  9
$EXTMAX
 10
131.438292
 20
97.110677
 30
9.164063
  9
$LIMMIN
 10
-21.491493
 20
4.214549
  9
$LIMMAX
 10
50.227257
 20
97.027049
  9
$ORTHOMODE
 70
     1
  9
$REGENMODE
 70
     1
  9
$FILLMODE
 70
     1
  9
$QTEXTMODE
 70
     0
  9
$MIRRTEXT
 70
     1
  9
$DRAGMODE
 70
     2
  9
$LTSCALE
 40
4.0
  9
$OSMODE
 70
   675
  9
$ATTMODE
 70
     1
  9
$TEXTSIZE
 40
0.875
  9
$TRACEWID
 40
0.05
  9
$TEXTSTYLE
  7
ROMANS
  9
$CLAYER
  8
DIM
  9
$CELTYPE
  6
BYLAYER
  9
$CECOLOR
 62
   256
  9
$CELTSCALE
 40
1.0
  9
$DELOBJ
 70
     1
  9
$DISPSILH
 70
     0
  9
$DIMSCALE
 40
1.0
  9
$DIMASZ
 40
0.874
  9
$DIMEXO
 40
0.25
  9
$DIMDLI
 40
0.38
  9
$DIMRND
 40
0.0
  9
$DIMDLE
 40
0.0
  9
$DIMEXE
 40
0.875
  9
$DIMTP
 40
0.0
  9
$DIMTM
 40
0.0
  9
$DIMTXT
 40
0.875
  9
$DIMCEN
 40
0.09
  9
$DIMTSZ
 40
0.0
  9
$DIMTOL
 70
     0
  9
$DIMLIM
 70
     0
  9
$DIMTIH
 70
     0
  9
$DIMTOH
 70
     1
  9
$DIMSE1
 70
     0
  9
$DIMSE2
 70
     0
  9
$DIMTAD
 70
     0
  9
$DIMZIN
 70
     0
  9
$DIMBLK
  1

  9
$DIMASO
 70
     1
  9
$DIMSHO
 70
     1
  9
$DIMPOST
  1

  9
$DIMAPOST
  1

  9
$DIMALT
 70
     0
  9
$DIMALTD
 70
     2
  9
$DIMALTF
 40
25.4
  9
$DIMLFAC
 40
1.0
  9
$DIMTOFL
 70
     0
  9
$DIMTVP
 40
0.0
  9
$DIMTIX
 70
     0
  9
$DIMSOXD
 70
     0
  9
$DIMSAH
 70
     0
  9
$DIMBLK1
  1

  9
$DIMBLK2
  1

  9
$DIMSTYLE
  2
STANDARD
  9
$DIMCLRD
 70
     0
  9
$DIMCLRE
 70
     0
  9
$DIMCLRT
 70
     0
  9
$DIMTFAC
 40
1.0
  9
$DIMGAP
 40
0.0625
  9
$DIMJUST
 70
     0
  9
$DIMSD1
 70
     0
  9
$DIMSD2
 70
     0
  9
$DIMTOLJ
 70
     1
  9
$DIMTZIN
 70
     0
  9
$DIMALTZ
 70
     0
  9
$DIMALTTZ
 70
     0
  9
$DIMFIT
 70
     3
  9
$DIMUPT
 70
     0
  9
$DIMUNIT
 70
     7
  9
$DIMDEC
 70
     4
  9
$DIMTDEC
 70
     4
  9
$DIMALTU
 70
     2
  9
$DIMALTTD
 70
     2
  9
$DIMTXSTY
  7
ROMANS
  9
$DIMAUNIT
 70
     0
  9
$LUNITS
 70
     5
  9
$LUPREC
 70
     4
  9
$SKETCHINC
 40
0.1
  9
$FILLETRAD
 40
0.0
  9
$AUNITS
 70
     0
  9
$AUPREC
 70
     0
  9
$MENU
  1
acad
  9
$ELEVATION
 40
0.0
  9
$PELEVATION
 40
0.0
  9
$THICKNESS
 40
0.0
  9
$LIMCHECK
 70
     0
  9
$BLIPMODE
 70
     0
  9
$CHAMFERA
 40
0.5
  9
$CHAMFERB
 40
0.5
  9
$CHAMFERC
 40
1.0
  9
$CHAMFERD
 40
0.0
  9
$SKPOLY
 70
     0
  9
$TDCREATE
 40
2450891.649172916
  9
$TDUPDATE
 40
2453075.475674641
  9
$TDINDWG
 40
0.1347012269
  9
$TDUSRTIMER
 40
0.1347012269
  9
$USRTIMER
 70
     1
  9
$ANGBASE
 50
0.0
  9
$ANGDIR
 70
     0
  9
$PDMODE
 70
     0
  9
$PDSIZE
 40
0.0
  9
$PLINEWID
 40
0.0
  9
$COORDS
 70
     1
  9
$SPLFRAME
 70
     0
  9
$SPLINETYPE
 70
     6
  9
$SPLINESEGS
 70
     8
  9
$ATTDIA
 70
     0
  9
$ATTREQ
 70
     1
  9
$HANDLING
 70
     1
  9
$HANDSEED
  5
35F2
  9
$SURFTAB1
 70
     6
  9
$SURFTAB2
 70
     6
  9
$SURFTYPE
 70
     6
  9
$SURFU
 70
     6
  9
$SURFV
 70
     6
  9
$UCSNAME
  2

  9
$UCSORG
 10
0.0
 20
0.0
 30
0.0
  9
$UCSXDIR
 10
1.0
 20
0.0
 30
0.0
  9
$UCSYDIR
 10
0.0
 20
1.0
 30
0.0
  9
$PUCSNAME
  2

  9
$PUCSORG
 10
0.0
 20
0.0
 30
0.0
  9
$PUCSXDIR
 10
1.0
 20
0.0
 30
0.0
  9
$PUCSYDIR
 10
0.0
 20
1.0
 30
0.0
  9
$USERI1
 70
     0
  9
$USERI2
 70
     0
  9
$USERI3
 70
     0
  9
$USERI4
 70
     0
  9
$USERI5
 70
     0
  9
$USERR1
 40
0.0
  9
$USERR2
 40
0.0
  9
$USERR3
 40
0.0
  9
$USERR4
 40
0.0
  9
$USERR5
 40
0.0
  9
$WORLDVIEW
 70
     1
  9
$SHADEDGE
 70
     3
  9
$SHADEDIF
 70
    70
  9
$TILEMODE
 70
     1
  9
$MAXACTVP
 70
    16
  9
$PINSBASE
 10
0.0
 20
0.0
 30
0.0
  9
$PLIMCHECK
 70
     0
  9
$PEXTMIN
 10
1.000000E+20
 20
1.000000E+20
 30
1.000000E+20
  9
$PEXTMAX
 10
-1.000000E+20
 20
-1.000000E+20
 30
-1.000000E+20
  9
$PLIMMIN
 10
0.0
 20
0.0
  9
$PLIMMAX
 10
12.0
 20
9.0
  9
$UNITMODE
 70
     0
  9
$VISRETAIN
 70
     0
  9
$PLINEGEN
 70
     0
  9
$PSLTSCALE
 70
     1
  9
$TREEDEPTH
 70
  3020
  9
$PICKSTYLE
 70
     1
  9
$CMLSTYLE
  2
STANDARD
  9
$CMLJUST
 70
     0
  9
$CMLSCALE
 40
1.0
  9
$PROXYGRAPHICS
 70
     1
  9
$MEASUREMENT
 70
     0
  0
ENDSEC
  0
SECTION
  2
CLASSES
  0
CLASS
  1
LWPOLYLINE
  2
AcDbPolyline
  3
"AutoCAD"
 90
        0
280
     0
281
     1
  0
CLASS
  1
HATCH
  2
AcDbHatch
  3
"ACAD_SEDONA"
 90
        0
280
     0
281
     1
  0
ENDSEC
  0
SECTION
  2
TABLES
  0
TABLE
  2
VPORT
  5
8
100
AcDbSymbolTable
 70
     1
  0
VPORT
  5
35EA
100
AcDbSymbolTableRecord
100
AcDbViewportTableRecord
  2
*ACTIVE
 70
     0
 10
0.0
 20
0.0
 11
1.0
 21
1.0
 12
95.286538
 22
50.33048
 13
0.0
 23
0.0
 14
0.2
 24
0.2
 15
0.0
 25
0.0
 16
0.0
 26
0.0
 36
1.0
 17
0.0
 27
0.0
 37
0.0
 40
94.587709
 41
1.750909
 42
50.0
 43
0.0
 44
0.0
 50
0.0
 51
0.0
 71
     0
 72
   100
 73
     1
 74
     0
 75
     0
 76
     0
 77
     0
 78
     0
  0
ENDTAB
  0
TABLE
  2
LTYPE
  5
5
100
AcDbSymbolTable
 70
     2
  0
LTYPE
  5
14
100
AcDbSymbolTableRecord
100
AcDbLinetypeTableRecord
  2
BYBLOCK
 70
     0
  3

 72
    65
 73
     0
 40
0.0
  0
LTYPE
  5
15
100
AcDbSymbolTableRecord
100
AcDbLinetypeTableRecord
  2
BYLAYER
 70
     0
  3

 72
    65
 73
     0
 40
0.0
  0
LTYPE
  5
16
100
AcDbSymbolTableRecord
100
AcDbLinetypeTableRecord
  2
CONTINUOUS
 70
     0
  3
Solid line
 72
    65
 73
     0
 40
0.0
  0
LTYPE
  5
858
100
AcDbSymbolTableRecord
100
AcDbLinetypeTableRecord
  2
CENTER
 70
     0
  3
____ _ ____ _ ____ _ ____ _ ____ _ ____ _ ____ 
 72
    65
 73
     4
 40
2.0
 49
1.25
 74
     0
 49
-0.25
 74
     0
 49
0.25
 74
     0
 49
-0.25
 74
     0
  0
ENDTAB
  0
TABLE
  2
LAYER
  5
2
100
AcDbSymbolTable
 70
     7
  0
LAYER
  5
F
100
AcDbSymbolTableRecord
100
AcDbLayerTableRecord
  2
0
 70
     0
 62
     7
  6
CONTINUOUS
  0
LAYER
  5
859
100
AcDbSymbolTableRecord
100
AcDbLayerTableRecord
  2
BORDER
 70
     0
 62
     5
  6
CONTINUOUS
  0
LAYER
  5
85A
100
AcDbSymbolTableRecord
100
AcDbLayerTableRecord
  2
LIMITS
 70
     0
 62
     7
  6
CONTINUOUS
  0
LAYER
  5
85B
100
AcDbSymbolTableRecord
100
AcDbLayerTableRecord
  2
CENTER
 70
     0
 62
     3
  6
CENTER
  0
LAYER
  5
85C
100
AcDbSymbolTableRecord
100
AcDbLayerTableRecord
  2
OBJECT
 70
     0
 62
     2
  6
CONTINUOUS
  0
LAYER
  5
85E
100
AcDbSymbolTableRecord
100
AcDbLayerTableRecord
  2
DIM
 70
     0
 62
     6
  6
CONTINUOUS
  0
LAYER
  5
1F72
100
AcDbSymbolTableRecord
100
AcDbLayerTableRecord
  2
DEFPOINTS
 70
     0
 62
     7
  6
CONTINUOUS
  0
ENDTAB
  0
TABLE
  2
STYLE
  5
3
100
AcDbSymbolTable
 70
     5
  0
STYLE
  5
10
100
AcDbSymbolTableRecord
100
AcDbTextStyleTableRecord
  2
STANDARD
 70
     0
 40
0.0
 41
1.0
 50
0.0
 71
     0
 42
0.875
  3
txt
  4

  0
STYLE
  5
85F
100
AcDbSymbolTableRecord
100
AcDbTextStyleTableRecord
  2
ROMAND
 70
     0
 40
0.0625
 41
1.0
 50
0.0
 71
     0
 42
0.0625
  3
romand
  4

  0
STYLE
  5
860
100
AcDbSymbolTableRecord
100
AcDbTextStyleTableRecord
  2
ROMANS
 70
     0
 40
0.875
 41
1.0
 50
0.0
 71
     0
 42
0.875
  3
romans
  4

  0
STYLE
  5
861
100
AcDbSymbolTableRecord
100
AcDbTextStyleTableRecord
  2
COUNTRYBLUEPRINT
 70
     0
 40
0.061059
 41
1.0
 50
0.0
 71
     0
 42
0.061059
  3
cobt____.pfb
  4

  0
STYLE
  5
3241
100
AcDbSymbolTableRecord
100
AcDbTextStyleTableRecord
  2
ROMANC
 70
     0
 40
0.068773
 41
1.0
 50
0.0
 71
     0
 42
0.068773
  3
romanc
  4

  0
ENDTAB
  0
TABLE
  2
VIEW
  5
6
100
AcDbSymbolTable
 70
     0
  0
ENDTAB
  0
TABLE
  2
UCS
  5
7
100
AcDbSymbolTable
 70
     0
  0
ENDTAB
  0
TABLE
  2
APPID
  5
9
100
AcDbSymbolTable
 70
     1
  0
APPID
  5
11
100
AcDbSymbolTableRecord
100
AcDbRegAppTableRecord
  2
ACAD
 70
     0
  0
ENDTAB
  0
TABLE
  2
DIMSTYLE
  5
A
100
AcDbSymbolTable
 70
     1
  0
DIMSTYLE
105
1D
102
{ACAD_REACTORS
330
2FE7
102
}
100
AcDbSymbolTableRecord
100
AcDbDimStyleTableRecord
  2
STANDARD
 70
     0
  3

  4

  5

  6

  7

 40
1.0
 41
0.18
 42
0.0625
 43
0.38
 44
0.18
 45
0.0
 46
0.0
 47
0.0
 48
0.0
140
0.18
141
0.09
142
0.0
143
25.4
144
1.0
145
0.0
146
1.0
147
0.09
 71
     0
 72
     0
 73
     1
 74
     1
 75
     0
 76
     0
 77
     0
 78
     0
170
     0
171
     2
172
     0
173
     0
174
     0
175
     0
176
     0
177
     0
178
     0
270
     2
271
     4
272
     4
273
     2
274
     2
340
10
275
     0
280
     0
281
     0
282
     0
283
     1
284
     0
285
     0
286
     0
287
     3
288
     0
  0
ENDTAB
  0
TABLE
  2
BLOCK_RECORD
  5
1
100
AcDbSymbolTable
 70
     6
  0
BLOCK_RECORD
  5
1A
100
AcDbSymbolTableRecord
100
AcDbBlockTableRecord
  2
*MODEL_SPACE
  0
BLOCK_RECORD
  5
17
100
AcDbSymbolTableRecord
100
AcDbBlockTableRecord
  2
*PAPER_SPACE
  0
BLOCK_RECORD
  5
1F69
100
AcDbSymbolTableRecord
100
AcDbBlockTableRecord
  2
*D0
  0
BLOCK_RECORD
  5
1F78
100
AcDbSymbolTableRecord
100
AcDbBlockTableRecord
  2
*D1
  0
BLOCK_RECORD
  5
1F86
100
AcDbSymbolTableRecord
100
AcDbBlockTableRecord
  2
*D2
  0
BLOCK_RECORD
  5
2FA8
100
AcDbSymbolTableRecord
100
AcDbBlockTableRecord
  2
*D3
  0
BLOCK_RECORD
  5
2FB6
100
AcDbSymbolTableRecord
100
AcDbBlockTableRecord
  2
*D4
  0
BLOCK_RECORD
  5
2FDA
100
AcDbSymbolTableRecord
100
AcDbBlockTableRecord
  2
*D5
  0
ENDTAB
  0
ENDSEC
  0
SECTION
  2
BLOCKS
  0
BLOCK
  5
1B
100
AcDbEntity
  8
0
100
AcDbBlockBegin
  2
*MODEL_SPACE
 70
     0
 10
0.0
 20
0.0
 30
0.0
  3
*MODEL_SPACE
  1

  0
ENDBLK
  5
1C
100
AcDbEntity
  8
0
100
AcDbBlockEnd
  0
BLOCK
  5
18
100
AcDbEntity
 67
     1
  8
0
100
AcDbBlockBegin
  2
*PAPER_SPACE
 70
     0
 10
0.0
 20
0.0
 30
0.0
  3
*PAPER_SPACE
  1

  0
ENDBLK
  5
19
100
AcDbEntity
 67
     1
  8
0
100
AcDbBlockEnd
  0
BLOCK
  5
3058
100
AcDbEntity
  8
0
100
AcDbBlockBegin
  2
*D0
 70
     1
 10
0.0
 20
0.0
 30
0.0
  3
*D0
  1

  0
LINE
  5
3059
100
AcDbEntity
  8
0
  6
BYBLOCK
 62
     0
100
AcDbLine
 10
2.626349
 20
35.55991
 30
0.0
 11
-7.994041
 21
35.55991
 31
0.0
  0
LINE
  5
305A
100
AcDbEntity
  8
0
  6
BYBLOCK
 62
     0
100
AcDbLine
 10
2.626349
 20
55.55991
 30
0.0
 11
-7.994041
 21
55.55991
 31
0.0
  0
LINE
  5
305B
100
AcDbEntity
  8
0
  6
BYBLOCK
 62
     0
100
AcDbLine
 10
-7.119041
 20
36.43391
 30
0.0
 11
-7.119041
 21
42.893244
 31
0.0
  0
LINE
  5
305C
100
AcDbEntity
  8
0
  6
BYBLOCK
 62
     0
100
AcDbLine
 10
-7.119041
 20
54.68591
 30
0.0
 11
-7.119041
 21
48.226577
 31
0.0
  0
SOLID
  5
305D
100
AcDbEntity
  8
0
  6
BYBLOCK
 62
     0
100
AcDbTrace
 10
-7.264707
 20
36.43391
 30
0.0
 11
-6.973374
 21
36.43391
 31
0.0
 12
-7.119041
 22
35.55991
 32
0.0
 13
-7.119041
 23
35.55991
 33
0.0
  0
SOLID
  5
305E
100
AcDbEntity
  8
0
  6
BYBLOCK
 62
     0
100
AcDbTrace
 10
-7.264707
 20
54.68591
 30
0.0
 11
-6.973374
 21
54.68591
 31
0.0
 12
-7.119041
 22
55.55991
 32
0.0
 13
-7.119041
 23
55.55991
 33
0.0
  0
MTEXT
  5
305F
100
AcDbEntity
  8
0
  6
BYBLOCK
 62
     0
100
AcDbMText
 10
-7.119041
 20
45.55991
 30
0.0
 40
0.875
 41
0.0
 71
     5
 72
     1
  1
\A1;(C)" Sq.
  7
ROMANS
 11
0.0
 21
1.0
 31
0.0
  0
POINT
  5
3060
100
AcDbEntity
  8
DEFPOINTS
  6
BYBLOCK
 62
     0
100
AcDbPoint
 10
2.876349
 20
35.55991
 30
0.0
  0
POINT
  5
3061
100
AcDbEntity
  8
DEFPOINTS
  6
BYBLOCK
 62
     0
100
AcDbPoint
 10
2.876349
 20
55.55991
 30
0.0
  0
POINT
  5
3062
100
AcDbEntity
  8
DEFPOINTS
  6
BYBLOCK
 62
     0
100
AcDbPoint
 10
-7.119041
 20
55.55991
 30
0.0
  0
ENDBLK
  5
3063
100
AcDbEntity
  8
0
100
AcDbBlockEnd
  0
BLOCK
  5
3028
100
AcDbEntity
  8
0
100
AcDbBlockBegin
  2
*D1
 70
     1
 10
0.0
 20
0.0
 30
0.0
  3
*D1
  1

  0
LINE
  5
3029
100
AcDbEntity
  8
0
  6
BYBLOCK
 62
     0
100
AcDbLine
 10
12.626349
 20
40.55991
 30
0.0
 11
-3.20566
 21
40.55991
 31
0.0
  0
LINE
  5
302A
100
AcDbEntity
  8
0
  6
BYBLOCK
 62
     0
100
AcDbLine
 10
12.626349
 20
50.55991
 30
0.0
 11
-3.20566
 21
50.55991
 31
0.0
  0
LINE
  5
302B
100
AcDbEntity
  8
0
  6
BYBLOCK
 62
     0
100
AcDbLine
 10
-2.33066
 20
39.68591
 30
0.0
 11
-2.33066
 21
38.81191
 31
0.0
  0
LINE
  5
302C
100
AcDbEntity
  8
0
  6
BYBLOCK
 62
     0
100
AcDbLine
 10
-2.33066
 20
51.43391
 30
0.0
 11
-2.33066
 21
52.30791
 31
0.0
  0
SOLID
  5
302D
100
AcDbEntity
  8
0
  6
BYBLOCK
 62
     0
100
AcDbTrace
 10
-2.476326
 20
39.68591
 30
0.0
 11
-2.184993
 21
39.68591
 31
0.0
 12
-2.33066
 22
40.55991
 32
0.0
 13
-2.33066
 23
40.55991
 33
0.0
  0
SOLID
  5
302E
100
AcDbEntity
  8
0
  6
BYBLOCK
 62
     0
100
AcDbTrace
 10
-2.476326
 20
51.43391
 30
0.0
 11
-2.184993
 21
51.43391
 31
0.0
 12
-2.33066
 22
50.55991
 32
0.0
 13
-2.33066
 23
50.55991
 33
0.0
  0
MTEXT
  5
302F
100
AcDbEntity
  8
0
  6
BYBLOCK
 62
     0
100
AcDbMText
 10
-2.33066
 20
45.55991
 30
0.0
 40
0.875
 41
0.0
 71
     5
 72
     1
  1
\A1;(B)" Dia. Hole
  7
ROMANS
 11
0.0
 21
1.0
 31
0.0
  0
POINT
  5
3030
100
AcDbEntity
  8
DEFPOINTS
  6
BYBLOCK
 62
     0
100
AcDbPoint
 10
12.876349
 20
40.55991
 30
0.0
  0
POINT
  5
3031
100
AcDbEntity
  8
DEFPOINTS
  6
BYBLOCK
 62
     0
100
AcDbPoint
 10
12.876349
 20
50.55991
 30
0.0
  0
POINT
  5
3032
100
AcDbEntity
  8
DEFPOINTS
  6
BYBLOCK
 62
     0
100
AcDbPoint
 10
-2.33066
 20
50.55991
 30
0.0
  0
ENDBLK
  5
3033
100
AcDbEntity
  8
0
100
AcDbBlockEnd
  0
BLOCK
  5
3034
100
AcDbEntity
  8
0
100
AcDbBlockBegin
  2
*D2
 70
     1
 10
0.0
 20
0.0
 30
0.0
  3
*D2
  1

  0
LINE
  5
3035
100
AcDbEntity
  8
0
  6
BYBLOCK
 62
     0
100
AcDbLine
 10
5.876349
 20
45.80991
 30
0.0
 11
5.876349
 21
61.495161
 31
0.0
  0
LINE
  5
3036
100
AcDbEntity
  8
0
  6
BYBLOCK
 62
     0
100
AcDbLine
 10
19.876349
 20
45.80991
 30
0.0
 11
19.876349
 21
61.495161
 31
0.0
  0
LINE
  5
3037
100
AcDbEntity
  8
0
  6
BYBLOCK
 62
     0
100
AcDbLine
 10
6.750349
 20
60.620161
 30
0.0
 11
10.668016
 21
60.620161
 31
0.0
  0
LINE
  5
3038
100
AcDbEntity
  8
0
  6
BYBLOCK
 62
     0
100
AcDbLine
 10
19.002349
 20
60.620161
 30
0.0
 11
15.084682
 21
60.620161
 31
0.0
  0
SOLID
  5
3039
100
AcDbEntity
  8
0
  6
BYBLOCK
 62
     0
100
AcDbTrace
 10
6.750349
 20
60.765828
 30
0.0
 11
6.750349
 21
60.474494
 31
0.0
 12
5.876349
 22
60.620161
 32
0.0
 13
5.876349
 23
60.620161
 33
0.0
  0
SOLID
  5
303A
100
AcDbEntity
  8
0
  6
BYBLOCK
 62
     0
100
AcDbTrace
 10
19.002349
 20
60.765828
 30
0.0
 11
19.002349
 21
60.474494
 31
0.0
 12
19.876349
 22
60.620161
 32
0.0
 13
19.876349
 23
60.620161
 33
0.0
  0
MTEXT
  5
303B
100
AcDbEntity
  8
0
  6
BYBLOCK
 62
     0
100
AcDbMText
 10
12.876349
 20
60.620161
 30
0.0
 40
0.875
 41
0.0
 71
     5
 72
     1
  1
\A1;(A)" ID
  7
ROMANS
  0
POINT
  5
303C
100
AcDbEntity
  8
DEFPOINTS
  6
BYBLOCK
 62
     0
100
AcDbPoint
 10
5.876349
 20
45.55991
 30
0.0
  0
POINT
  5
303D
100
AcDbEntity
  8
DEFPOINTS
  6
BYBLOCK
 62
     0
100
AcDbPoint
 10
19.876349
 20
45.55991
 30
0.0
  0
POINT
  5
303E
100
AcDbEntity
  8
DEFPOINTS
  6
BYBLOCK
 62
     0
100
AcDbPoint
 10
19.876349
 20
60.620161
 30
0.0
  0
ENDBLK
  5
303F
100
AcDbEntity
  8
0
100
AcDbBlockEnd
  0
BLOCK
  5
2FA9
100
AcDbEntity
  8
0
100
AcDbBlockBegin
  2
*D3
 70
     1
 10
0.0
 20
0.0
 30
0.0
  3
*D3
  1

  0
LINE
  5
2FAA
100
AcDbEntity
  8
0
  6
BYBLOCK
 62
     0
100
AcDbLine
 10
21.876349
 20
55.145224
 30
0.0
 11
21.876349
 21
57.999387
 31
0.0
  0
LINE
  5
2FAB
100
AcDbEntity
  8
0
  6
BYBLOCK
 62
     0
100
AcDbLine
 10
22.876349
 20
55.145224
 30
0.0
 11
22.876349
 21
57.999387
 31
0.0
  0
LINE
  5
2FAC
100
AcDbEntity
  8
0
  6
BYBLOCK
 62
     0
100
AcDbLine
 10
21.002349
 20
57.124387
 30
0.0
 11
20.128349
 21
57.124387
 31
0.0
  0
LINE
  5
2FAD
100
AcDbEntity
  8
0
  6
BYBLOCK
 62
     0
100
AcDbLine
 10
23.750349
 20
57.124387
 30
0.0
 11
24.624349
 21
57.124387
 31
0.0
  0
SOLID
  5
2FAE
100
AcDbEntity
  8
0
  6
BYBLOCK
 62
     0
100
AcDbTrace
 10
21.002349
 20
57.270054
 30
0.0
 11
21.002349
 21
56.97872
 31
0.0
 12
21.876349
 22
57.124387
 32
0.0
 13
21.876349
 23
57.124387
 33
0.0
  0
SOLID
  5
2FAF
100
AcDbEntity
  8
0
  6
BYBLOCK
 62
     0
100
AcDbTrace
 10
23.750349
 20
57.270054
 30
0.0
 11
23.750349
 21
56.97872
 31
0.0
 12
22.876349
 22
57.124387
 32
0.0
 13
22.876349
 23
57.124387
 33
0.0
  0
MTEXT
  5
2FB0
100
AcDbEntity
  8
0
  6
BYBLOCK
 62
     0
100
AcDbMText
 10
22.376349
 20
57.124387
 30
0.0
 40
0.875
 41
0.0
 71
     5
 72
     5
  1
\A1;1
  7
ROMANS
  0
POINT
  5
2FB1
100
AcDbEntity
  8
DEFPOINTS
  6
BYBLOCK
 62
     0
100
AcDbPoint
 10
21.876349
 20
54.895224
 30
0.0
  0
POINT
  5
2FB2
100
AcDbEntity
  8
DEFPOINTS
  6
BYBLOCK
 62
     0
100
AcDbPoint
 10
22.876349
 20
54.895224
 30
0.0
  0
POINT
  5
2FB3
100
AcDbEntity
  8
DEFPOINTS
  6
BYBLOCK
 62
     0
100
AcDbPoint
 10
22.876349
 20
57.124387
 30
0.0
  0
ENDBLK
  5
2FB4
100
AcDbEntity
  8
0
100
AcDbBlockEnd
  0
BLOCK
  5
2FB7
100
AcDbEntity
  8
0
100
AcDbBlockBegin
  2
*D4
 70
     1
 10
0.0
 20
0.0
 30
0.0
  3
*D4
  1

  0
LINE
  5
2FB8
100
AcDbEntity
  8
0
  6
BYBLOCK
 62
     0
100
AcDbLine
 10
22.461662
 20
54.55991
 30
0.0
 11
26.221703
 21
54.55991
 31
0.0
  0
LINE
  5
2FB9
100
AcDbEntity
  8
0
  6
BYBLOCK
 62
     0
100
AcDbLine
 10
23.126349
 20
55.55991
 30
0.0
 11
26.221703
 21
55.55991
 31
0.0
  0
LINE
  5
2FBA
100
AcDbEntity
  8
0
  6
BYBLOCK
 62
     0
100
AcDbLine
 10
25.346703
 20
53.68591
 30
0.0
 11
25.346703
 21
52.81191
 31
0.0
  0
LINE
  5
2FBB
100
AcDbEntity
  8
0
  6
BYBLOCK
 62
     0
100
AcDbLine
 10
25.346703
 20
56.43391
 30
0.0
 11
25.346703
 21
57.30791
 31
0.0
  0
SOLID
  5
2FBC
100
AcDbEntity
  8
0
  6
BYBLOCK
 62
     0
100
AcDbTrace
 10
25.201036
 20
53.68591
 30
0.0
 11
25.49237
 21
53.68591
 31
0.0
 12
25.346703
 22
54.55991
 32
0.0
 13
25.346703
 23
54.55991
 33
0.0
  0
SOLID
  5
2FBD
100
AcDbEntity
  8
0
  6
BYBLOCK
 62
     0
100
AcDbTrace
 10
25.201036
 20
56.43391
 30
0.0
 11
25.49237
 21
56.43391
 31
0.0
 12
25.346703
 22
55.55991
 32
0.0
 13
25.346703
 23
55.55991
 33
0.0
  0
MTEXT
  5
2FBE
100
AcDbEntity
  8
0
  6
BYBLOCK
 62
     0
100
AcDbMText
 10
25.346703
 20
55.05991
 30
0.0
 40
0.875
 41
0.0
 71
     5
 72
     5
  1
\A1;1
  7
ROMANS
 11
0.0
 21
1.0
 31
0.0
  0
POINT
  5
2FBF
100
AcDbEntity
  8
DEFPOINTS
  6
BYBLOCK
 62
     0
100
AcDbPoint
 10
22.211662
 20
54.55991
 30
0.0
  0
POINT
  5
2FC0
100
AcDbEntity
  8
DEFPOINTS
  6
BYBLOCK
 62
     0
100
AcDbPoint
 10
22.876349
 20
55.55991
 30
0.0
  0
POINT
  5
2FC1
100
AcDbEntity
  8
DEFPOINTS
  6
BYBLOCK
 62
     0
100
AcDbPoint
 10
25.346703
 20
55.55991
 30
0.0
  0
ENDBLK
  5
2FC2
100
AcDbEntity
  8
0
100
AcDbBlockEnd
  0
BLOCK
  5
3040
100
AcDbEntity
  8
0
100
AcDbBlockBegin
  2
*D5
 70
     1
 10
0.0
 20
0.0
 30
0.0
  3
*D5
  1

  0
LINE
  5
3041
100
AcDbEntity
  8
0
  6
BYBLOCK
 62
     0
100
AcDbLine
 10
5.626349
 20
75.726303
 30
0.0
 11
1.701145
 21
75.726303
 31
0.0
  0
LINE
  5
3042
100
AcDbEntity
  8
0
  6
BYBLOCK
 62
     0
100
AcDbLine
 10
5.626349
 20
69.039191
 30
0.0
 11
1.701145
 21
69.039191
 31
0.0
  0
LINE
  5
3043
100
AcDbEntity
  8
0
  6
BYBLOCK
 62
     0
100
AcDbLine
 10
2.576145
 20
74.852303
 30
0.0
 11
2.576145
 21
72.71608
 31
0.0
  0
LINE
  5
3044
100
AcDbEntity
  8
0
  6
BYBLOCK
 62
     0
100
AcDbLine
 10
2.576145
 20
69.913191
 30
0.0
 11
2.576145
 21
72.049414
 31
0.0
  0
SOLID
  5
3045
100
AcDbEntity
  8
0
  6
BYBLOCK
 62
     0
100
AcDbTrace
 10
2.430479
 20
74.852303
 30
0.0
 11
2.721812
 21
74.852303
 31
0.0
 12
2.576145
 22
75.726303
 32
0.0
 13
2.576145
 23
75.726303
 33
0.0
  0
SOLID
  5
3046
100
AcDbEntity
  8
0
  6
BYBLOCK
 62
     0
100
AcDbTrace
 10
2.430479
 20
69.913191
 30
0.0
 11
2.721812
 21
69.913191
 31
0.0
 12
2.576145
 22
69.039191
 32
0.0
 13
2.576145
 23
69.039191
 33
0.0
  0
MTEXT
  5
3047
100
AcDbEntity
  8
0
  6
BYBLOCK
 62
     0
100
AcDbMText
 10
2.576145
 20
72.382747
 30
0.0
 40
0.875
 41
0.0
 71
     5
 72
     1
  1
\A1;6
  7
ROMANS
 11
0.0
 21
1.0
 31
0.0
  0
POINT
  5
3048
100
AcDbEntity
  8
DEFPOINTS
  6
BYBLOCK
 62
     0
100
AcDbPoint
 10
5.876349
 20
75.726303
 30
0.0
  0
POINT
  5
3049
100
AcDbEntity
  8
DEFPOINTS
  6
BYBLOCK
 62
     0
100
AcDbPoint
 10
5.876349
 20
69.039191
 30
0.0
  0
POINT
  5
304A
100
AcDbEntity
  8
DEFPOINTS
  6
BYBLOCK
 62
     0
100
AcDbPoint
 10
2.576145
 20
69.039191
 30
0.0
  0
ENDBLK
  5
304B
100
AcDbEntity
  8
0
100
AcDbBlockEnd
  0
ENDSEC
  0
SECTION
  2
ENTITIES
  0
CIRCLE
  5
DA0
100
AcDbEntity
  8
OBJECT
100
AcDbCircle
 10
95.925696
 20
56.140496
 30
0.0
 40
5.0
  0
CIRCLE
  5
DA1
100
AcDbEntity
  8
OBJECT
100
AcDbCircle
 10
95.925696
 20
56.140496
 30
0.0
 40
7.0
  0
CIRCLE
  5
DA2
100
AcDbEntity
  8
OBJECT
100
AcDbCircle
 10
95.925696
 20
56.140496
 30
0.0
 40
7.25
1001
ACAD
1000
ASC_BOUNDS
1002
{
1070
    19
1002
}
  0
LINE
  5
DA3
100
AcDbEntity
  8
CENTER
100
AcDbLine
 10
95.925696
 20
69.418602
 30
0.0
 11
95.925696
 21
42.862389
 31
0.0
1001
ACAD
1000
ASC_BOUNDS
1002
{
1070
    19
1002
}
  0
LINE
  5
DA4
100
AcDbEntity
  8
CENTER
100
AcDbLine
 10
82.647589
 20
56.140496
 30
0.0
 11
109.203803
 21
56.140496
 31
0.0
1001
ACAD
1000
ASC_BOUNDS
1002
{
1070
    19
1002
}
  0
LINE
  5
DA5
100
AcDbEntity
  8
OBJECT
100
AcDbLine
 10
85.925696
 20
66.140496
 30
0.0
 11
85.925696
 21
46.140496
 31
0.0
1001
ACAD
1000
ASC_BOUNDS
1002
{
1070
    19
1002
}
  0
LINE
  5
DA6
100
AcDbEntity
  8
OBJECT
100
AcDbLine
 10
105.925696
 20
66.140496
 30
0.0
 11
105.925696
 21
46.140496
 31
0.0
  0
LINE
  5
DA7
100
AcDbEntity
  8
OBJECT
100
AcDbLine
 10
85.925696
 20
46.140496
 30
0.0
 11
105.925696
 21
46.140496
 31
0.0
  0
LINE
  5
DA8
100
AcDbEntity
  8
OBJECT
100
AcDbLine
 10
85.925696
 20
66.140496
 30
0.0
 11
105.925696
 21
66.140496
 31
0.0
1001
ACAD
1000
ASC_BOUNDS
1002
{
1070
    19
1002
}
  0
LINE
  5
1A27
100
AcDbEntity
  8
OBJECT
100
AcDbLine
 10
88.925696
 20
79.619776
 30
0.0
 11
102.925696
 21
79.619776
 31
0.0
  0
LINE
  5
1A29
100
AcDbEntity
  8
OBJECT
100
AcDbLine
 10
88.925696
 20
79.619776
 30
0.0
 11
88.925696
 21
86.306889
 31
0.0
  0
LINE
  5
1A2A
100
AcDbEntity
  8
OBJECT
100
AcDbLine
 10
102.925696
 20
79.619776
 30
0.0
 11
102.925696
 21
86.306889
 31
0.0
  0
ARC
  5
1A2C
100
AcDbEntity
  8
OBJECT
100
AcDbCircle
 10
95.925696
 20
121.619776
 30
0.0
 40
36.0
100
AcDbArc
 50
250.528779
 51
289.471221
  0
ARC
  5
1A2D
100
AcDbEntity
  8
OBJECT
100
AcDbCircle
 10
95.925696
 20
121.619776
 30
0.0
 40
35.75
100
AcDbArc
 50
250.387059
 51
289.612941
  0
LINE
  5
1A2E
100
AcDbEntity
  8
OBJECT
100
AcDbLine
 10
83.925696
 20
87.678651
 30
0.0
 11
83.925696
 21
87.943932
 31
0.0
  0
LINE
  5
1A2F
100
AcDbEntity
  8
OBJECT
100
AcDbLine
 10
107.925696
 20
87.678651
 30
0.0
 11
107.925696
 21
87.943932
 31
0.0
  0
LINE
  5
1A30
100
AcDbEntity
  8
CENTER
100
AcDbLine
 10
95.925696
 20
78.270808
 30
0.0
 11
95.925696
 21
89.961864
 31
0.0
  0
DIMENSION
  5
1F77
100
AcDbEntity
  8
DIM
100
AcDbDimension
  2
*D0
 10
75.930306
 20
66.140496
 30
0.0
 11
75.930306
 21
56.140496
 31
0.0
 12
83.049347
 22
10.580586
 32
0.0
 70
    32
  1
(C)" Sq.
  3
STANDARD
100
AcDbAlignedDimension
 13
85.925696
 23
46.140496
 33
0.0
 14
85.925696
 24
66.140496
 34
0.0
 50
90.0
100
AcDbRotatedDimension
1001
ACAD
1000
DSTYLE
1002
{
1070
   270
1070
     7
1070
   140
1040
0.875
1070
   340
1005
860
1070
    73
1070
     0
1070
   147
1040
0.0625
1070
    42
1040
0.25
1070
    44
1040
0.875
1070
    41
1040
0.874
1002
}
  0
DIMENSION
  5
1F85
100
AcDbEntity
  8
DIM
100
AcDbDimension
  2
*D1
 10
80.718687
 20
61.140496
 30
0.0
 11
80.718687
 21
56.140496
 31
0.0
 12
83.049347
 22
10.580586
 32
0.0
 70
    32
  1
(B)" Dia. Hole
  3
STANDARD
100
AcDbAlignedDimension
 13
95.925696
 23
51.140496
 33
0.0
 14
95.925696
 24
61.140496
 34
0.0
 50
90.0
100
AcDbRotatedDimension
1001
ACAD
1000
DSTYLE
1002
{
1070
   270
1070
     7
1070
   140
1040
0.875
1070
   340
1005
860
1070
    73
1070
     0
1070
   147
1040
0.0625
1070
    42
1040
0.25
1070
    44
1040
0.875
1070
    41
1040
0.874
1002
}
  0
DIMENSION
  5
1F93
100
AcDbEntity
  8
DIM
100
AcDbDimension
  2
*D2
 10
102.925696
 20
71.200746
 30
0.0
 11
95.925696
 21
71.200746
 31
0.0
 12
83.049347
 22
10.580586
 32
0.0
 70
    32
  1
(A)" ID
  3
STANDARD
100
AcDbAlignedDimension
 13
88.925696
 23
56.140496
 33
0.0
 14
102.925696
 24
56.140496
 34
0.0
100
AcDbRotatedDimension
1001
ACAD
1000
DSTYLE
1002
{
1070
   270
1070
     7
1070
   140
1040
0.875
1070
   340
1005
860
1070
    73
1070
     0
1070
   147
1040
0.0625
1070
    42
1040
0.25
1070
    44
1040
0.875
1070
    41
1040
0.874
1002
}
  0
TEXT
  5
1F94
100
AcDbEntity
  8
DIM
100
AcDbText
 10
112.834396
 20
91.282748
 30
0.0
 40
0.875
  1
__" Diameter
  7
ROMANS
100
AcDbText
  0
LINE
  5
1F97
100
AcDbEntity
  8
DIM
100
AcDbLine
 10
110.349571
 20
91.584967
 30
0.0
 11
112.088305
 21
91.584967
 31
0.0
  0
TEXT
  5
1F98
100
AcDbEntity
  8
DIM
100
AcDbText
 10
80.842617
 20
38.195977
 30
0.0
 40
0.875
  1
Material: 3/16" Thick Diamond Plate Aluminum
  7
ROMANS
100
AcDbText
  0
TEXT
  5
2F65
100
AcDbEntity
  8
DIM
100
AcDbText
 10
107.153613
 20
83.873326
 30
0.0
 40
0.875
  1
Weld Rolled Piece
  7
ROMANS
100
AcDbText
  0
TEXT
  5
2F66
100
AcDbEntity
  8
DIM
100
AcDbText
 10
107.153613
 20
82.456659
 30
0.0
 40
0.875
  1
To Plate
  7
ROMANS
100
AcDbText
  0
SOLID
  5
2F67
100
AcDbEntity
  8
DIM
100
AcDbTrace
 10
103.537136
 20
85.468025
 30
0.0
 11
103.742986
 21
85.674182
 31
0.0
 12
103.021591
 22
86.188655
 32
0.0
 13
103.021591
 23
86.188655
 33
0.0
  0
LINE
  5
2F68
100
AcDbEntity
  8
DIM
100
AcDbLine
 10
103.640061
 20
85.571103
 30
0.0
 11
105.777806
 21
83.436532
 31
0.0
  0
LINE
  5
2F69
100
AcDbEntity
  8
DIM
100
AcDbLine
 10
105.777806
 20
83.436532
 30
0.0
 11
106.860604
 21
83.436532
 31
0.0
  0
SOLID
  5
2F6A
100
AcDbEntity
  8
DIM
100
AcDbTrace
 10
104.981049
 20
87.202028
 30
0.0
 11
104.801588
 21
87.431526
 31
0.0
 12
104.202826
 22
86.778396
 32
0.0
 13
104.202826
 23
86.778396
 33
0.0
  0
LINE
  5
2F6B
100
AcDbEntity
  8
DIM
100
AcDbLine
 10
104.891318
 20
87.316777
 30
0.0
 11
110.349571
 21
91.584967
 31
0.0
  0
CIRCLE
  5
2F88
100
AcDbEntity
  8
OBJECT
100
AcDbCircle
 10
104.925696
 20
56.140496
 30
0.0
 40
0.125
  0
CIRCLE
  5
2F89
100
AcDbEntity
  8
OBJECT
100
AcDbCircle
 10
86.925696
 20
56.140496
 30
0.0
 40
0.125
  0
CIRCLE
  5
2F8A
100
AcDbEntity
  8
OBJECT
100
AcDbCircle
 10
104.925696
 20
65.140496
 30
0.0
 40
0.125
  0
CIRCLE
  5
2F8B
100
AcDbEntity
  8
OBJECT
100
AcDbCircle
 10
104.925696
 20
47.140496
 30
0.0
 40
0.125
  0
CIRCLE
  5
2F8C
100
AcDbEntity
  8
OBJECT
100
AcDbCircle
 10
95.925696
 20
65.140496
 30
0.0
 40
0.125
  0
CIRCLE
  5
2F8D
100
AcDbEntity
  8
OBJECT
100
AcDbCircle
 10
86.925696
 20
65.140496
 30
0.0
 40
0.125
  0
CIRCLE
  5
2F8E
100
AcDbEntity
  8
OBJECT
100
AcDbCircle
 10
86.925696
 20
47.140496
 30
0.0
 40
0.125
  0
CIRCLE
  5
2F8F
100
AcDbEntity
  8
OBJECT
100
AcDbCircle
 10
95.925696
 20
47.140496
 30
0.0
 40
0.125
  0
LINE
  5
2F90
100
AcDbEntity
  8
CENTER
100
AcDbLine
 10
104.925696
 20
65.475809
 30
0.0
 11
104.925696
 21
64.805182
 31
0.0
  0
LINE
  5
2F91
100
AcDbEntity
  8
CENTER
100
AcDbLine
 10
86.590383
 20
47.140496
 30
0.0
 11
87.26101
 21
47.140496
 31
0.0
  0
LINE
  5
2F92
100
AcDbEntity
  8
CENTER
100
AcDbLine
 10
86.590383
 20
65.140496
 30
0.0
 11
87.26101
 21
65.140496
 31
0.0
1001
ACAD
1000
ASC_BOUNDS
1002
{
1070
    19
1002
}
  0
LINE
  5
2F93
100
AcDbEntity
  8
CENTER
100
AcDbLine
 10
86.925696
 20
65.475809
 30
0.0
 11
86.925696
 21
64.805182
 31
0.0
1001
ACAD
1000
ASC_BOUNDS
1002
{
1070
    19
1002
}
  0
LINE
  5
2F9C
100
AcDbEntity
  8
CENTER
100
AcDbLine
 10
86.925696
 20
47.475809
 30
0.0
 11
86.925696
 21
46.805182
 31
0.0
1001
ACAD
1000
ASC_BOUNDS
1002
{
1070
    19
1002
}
  0
LINE
  5
2F9D
100
AcDbEntity
  8
CENTER
100
AcDbLine
 10
86.925696
 20
56.475809
 30
0.0
 11
86.925696
 21
55.805182
 31
0.0
1001
ACAD
1000
ASC_BOUNDS
1002
{
1070
    19
1002
}
  0
LINE
  5
2F9E
100
AcDbEntity
  8
CENTER
100
AcDbLine
 10
95.590383
 20
65.140496
 30
0.0
 11
96.26101
 21
65.140496
 31
0.0
1001
ACAD
1000
ASC_BOUNDS
1002
{
1070
    19
1002
}
  0
LINE
  5
2F9F
100
AcDbEntity
  8
CENTER
100
AcDbLine
 10
104.590383
 20
65.140496
 30
0.0
 11
105.26101
 21
65.140496
 31
0.0
1001
ACAD
1000
ASC_BOUNDS
1002
{
1070
    19
1002
}
  0
LINE
  5
2FA0
100
AcDbEntity
  8
CENTER
100
AcDbLine
 10
104.925696
 20
56.475809
 30
0.0
 11
104.925696
 21
55.805182
 31
0.0
  0
LINE
  5
2FA1
100
AcDbEntity
  8
CENTER
100
AcDbLine
 10
104.925696
 20
47.475809
 30
0.0
 11
104.925696
 21
46.805182
 31
0.0
  0
LINE
  5
2FA2
100
AcDbEntity
  8
CENTER
100
AcDbLine
 10
104.590383
 20
47.140496
 30
0.0
 11
105.26101
 21
47.140496
 31
0.0
  0
LINE
  5
2FA3
100
AcDbEntity
  8
CENTER
100
AcDbLine
 10
95.590383
 20
47.140496
 30
0.0
 11
96.26101
 21
47.140496
 31
0.0
  0
TEXT
  5
2FA4
100
AcDbEntity
  8
DIM
100
AcDbText
 10
95.486542
 20
41.96543
 30
0.0
 40
0.875
  1
C
  7
ROMANS
100
AcDbText
  0
TEXT
  5
2FA5
100
AcDbEntity
  8
DIM
100
AcDbText
 10
95.726571
 20
41.507453
 30
0.0
 40
0.875
  1
L
  7
ROMANS
100
AcDbText
  0
TEXT
  5
2FA6
100
AcDbEntity
  8
DIM
100
AcDbText
 10
109.492926
 20
55.573046
 30
0.0
 40
0.875
  1
L
  7
ROMANS
100
AcDbText
  0
TEXT
  5
2FA7
100
AcDbEntity
  8
DIM
100
AcDbText
 10
109.252897
 20
56.031023
 30
0.0
 40
0.875
  1
C
  7
ROMANS
100
AcDbText
  0
DIMENSION
  5
2FB5
100
AcDbEntity
  8
DIM
100
AcDbDimension
  2
*D3
 10
105.925696
 20
67.704972
 30
0.0
 11
105.425696
 21
67.704972
 31
0.0
 12
83.049347
 22
10.580586
 32
0.0
 70
    32
  3
STANDARD
100
AcDbAlignedDimension
 13
104.925696
 23
65.475809
 33
0.0
 14
105.925696
 24
65.475809
 34
0.0
100
AcDbRotatedDimension
1001
ACAD
1000
DSTYLE
1002
{
1070
   270
1070
     7
1070
   140
1040
0.875
1070
   340
1005
860
1070
    73
1070
     0
1070
   147
1040
0.0625
1070
    42
1040
0.25
1070
    44
1040
0.875
1070
    41
1040
0.874
1002
}
  0
DIMENSION
  5
2FC3
100
AcDbEntity
  8
DIM
100
AcDbDimension
  2
*D4
 10
108.39605
 20
66.140496
 30
0.0
 11
108.39605
 21
65.640496
 31
0.0
 12
83.049347
 22
10.580586
 32
0.0
 70
    32
  3
STANDARD
100
AcDbAlignedDimension
 13
105.26101
 23
65.140496
 33
0.0
 14
105.925696
 24
66.140496
 34
0.0
 50
90.0
100
AcDbRotatedDimension
1001
ACAD
1000
DSTYLE
1002
{
1070
   270
1070
     7
1070
   140
1040
0.875
1070
   340
1005
860
1070
    73
1070
     0
1070
   147
1040
0.0625
1070
    42
1040
0.25
1070
    44
1040
0.875
1070
    41
1040
0.874
1002
}
  0
TEXT
  5
2FC4
100
AcDbEntity
  8
DIM
100
AcDbText
 10
110.942948
 20
60.050372
 30
0.0
 40
0.875
  1
1/4" Dia. Holes
  7
ROMANS
100
AcDbText
  0
TEXT
  5
2FC5
100
AcDbEntity
  8
DIM
100
AcDbText
 10
110.942948
 20
58.633705
 30
0.0
 40
0.875
  1
(8) Places
  7
ROMANS
100
AcDbText
  0
SOLID
  5
2FC6
100
AcDbEntity
  8
DIM
100
AcDbTrace
 10
105.629772
 20
56.653348
 30
0.0
 11
105.445777
 21
56.879226
 31
0.0
 12
104.860141
 22
56.214301
 32
0.0
 13
104.860141
 23
56.214301
 33
0.0
  0
LINE
  5
2FC7
100
AcDbEntity
  8
DIM
100
AcDbLine
 10
105.537774
 20
56.766287
 30
0.0
 11
108.915346
 21
59.517585
 31
0.0
  0
LINE
  5
2FC8
100
AcDbEntity
  8
DIM
100
AcDbLine
 10
108.915346
 20
59.517585
 30
0.0
 11
110.622801
 21
59.517585
 31
0.0
  0
TEXT
  5
2FC9
100
AcDbEntity
  8
DIM
100
AcDbText
 10
89.998108
 20
63.870826
 30
0.0
 40
0.875
  1
***
  7
ROMANS
100
AcDbText
  0
TEXT
  5
2FCA
100
AcDbEntity
  8
DIM
100
AcDbText
 10
90.410252
 20
63.159644
 30
0.0
 40
0.875
  1
**
  7
ROMANS
100
AcDbText
  0
TEXT
  5
2FCB
100
AcDbEntity
  8
DIM
100
AcDbText
 10
102.401075
 20
47.675734
 30
0.0
 40
0.875
  1
**
  7
ROMANS
100
AcDbText
  0
TEXT
  5
2FCC
100
AcDbEntity
  8
DIM
100
AcDbText
 10
101.988931
 20
48.386917
 30
0.0
 40
0.875
  1
***
  7
ROMANS
100
AcDbText
  0
TEXT
  5
2FCD
100
AcDbEntity
  8
DIM
100
AcDbText
 10
101.177522
 20
47.126599
 30
0.0
 40
0.875
  1
***
  7
ROMANS
100
AcDbText
  0
TEXT
  5
2FCE
100
AcDbEntity
  8
DIM
100
AcDbText
 10
101.589666
 20
46.415416
 30
0.0
 40
0.875
  1
**
  7
ROMANS
100
AcDbText
  0
TEXT
  5
2FCF
100
AcDbEntity
  8
DIM
100
AcDbText
 10
89.906112
 20
81.783513
 30
0.0
 40
0.875
  1
***
  7
ROMANS
100
AcDbText
  0
TEXT
  5
2FD0
100
AcDbEntity
  8
DIM
100
AcDbText
 10
90.778239
 20
80.980471
 30
0.0
 40
0.875
  1
**
  7
ROMANS
100
AcDbText
  0
TEXT
  5
2FD1
100
AcDbEntity
  8
DIM
100
AcDbText
 10
90.778239
 20
82.542089
 30
0.0
 40
0.875
  1
**
  7
ROMANS
100
AcDbText
  0
DIMENSION
  5
2FE7
100
AcDbEntity
  8
DIM
100
AcDbDimension
  2
*D5
 10
85.625492
 20
79.619776
 30
0.0
 11
85.625492
 21
82.963333
 31
0.0
 12
83.049347
 22
10.580586
 32
0.0
 70
    32
  1
6
  3
STANDARD
100
AcDbAlignedDimension
 13
88.925696
 23
86.306889
 33
0.0
 14
88.925696
 24
79.619776
 34
0.0
 50
90.0
100
AcDbRotatedDimension
1001
ACAD
1000
DSTYLE
1002
{
1070
   270
1070
     7
1070
   140
1040
0.875
1070
   340
1005
860
1070
    73
1070
     0
1070
   147
1040
0.0625
1070
    42
1040
0.25
1070
    44
1040
0.875
1070
    41
1040
0.874
1002
}
  0
LWPOLYLINE
  5
3148
100
AcDbEntity
  8
DIM
100
AcDbPolyline
 90
        2
 70
     0
 43
0.114551
 39
9.164063
 10
86.679956
 20
35.882679
 10
86.679956
 20
17.055615
  0
LINE
  5
3157
100
AcDbEntity
  8
DIM
100
AcDbLine
 39
9.164063
 10
106.139283
 20
35.882679
 30
0.0
 11
106.139283
 21
17.055615
 31
0.0
  0
LINE
  5
3159
100
AcDbEntity
  8
DIM
100
AcDbLine
 39
9.164063
 10
101.83127
 20
35.882679
 30
0.0
 11
101.83127
 21
17.055615
 31
0.0
  0
LINE
  5
315A
100
AcDbEntity
  8
DIM
100
AcDbLine
 39
9.164063
 10
97.523257
 20
35.882679
 30
0.0
 11
97.523257
 21
17.055615
 31
0.0
  0
LINE
  5
315B
100
AcDbEntity
  8
DIM
100
AcDbLine
 39
9.164063
 10
91.958744
 20
35.882679
 30
0.0
 11
91.958744
 21
17.055615
 31
0.0
  0
LWPOLYLINE
  5
3164
100
AcDbEntity
  8
DIM
100
AcDbPolyline
 90
        2
 70
     0
 43
0.114551
 39
9.164063
 10
86.679956
 20
28.05249
 10
106.139283
 20
28.05249
  0
LWPOLYLINE
  5
3167
100
AcDbEntity
  8
DIM
100
AcDbPolyline
 90
        2
 70
     0
 43
0.114551
 39
9.164063
 10
86.679956
 20
17.055615
 10
106.139283
 20
17.055615
  0
LWPOLYLINE
  5
3168
100
AcDbEntity
  8
DIM
100
AcDbPolyline
 90
        2
 70
     0
 43
0.114551
 39
9.164063
 10
86.679956
 20
19.804834
 10
106.139283
 20
19.804834
  0
LWPOLYLINE
  5
3169
100
AcDbEntity
  8
DIM
100
AcDbPolyline
 90
        2
 70
     0
 43
0.114551
 39
9.164063
 10
86.679956
 20
22.554052
 10
106.139283
 20
22.554052
  0
LWPOLYLINE
  5
316A
100
AcDbEntity
  8
DIM
100
AcDbPolyline
 90
        2
 70
     0
 43
0.114551
 39
9.164063
 10
86.679956
 20
25.303271
 10
106.139283
 20
25.303271
  0
LWPOLYLINE
  5
316B
100
AcDbEntity
  8
DIM
100
AcDbPolyline
 90
        2
 70
     0
 43
0.114551
 39
9.164063
 10
86.679956
 20
30.801709
 10
106.139283
 20
30.801709
  0
TEXT
  5
3192
100
AcDbEntity
  8
DIM
100
AcDbText
 10
88.562059
 20
29.066371
 30
0.0
 40
0.687305
  1
10"
  7
ROMANS
100
AcDbText
  0
TEXT
  5
3193
100
AcDbEntity
  8
DIM
100
AcDbText
 10
88.321122
 20
31.288408
 30
0.0
 40
0.687305
  1
DIA.
  7
ROMAND
 72
     1
 11
89.31935
 21
31.288408
 31
0.0
100
AcDbText
  0
TEXT
  5
3194
100
AcDbEntity
  8
DIM
100
AcDbText
 10
88.190207
 20
32.401187
 30
0.0
 40
0.687305
  1
PIPE
  7
ROMAND
 72
     1
 11
89.31935
 21
32.401187
 31
0.0
100
AcDbText
  0
TEXT
  5
31C4
100
AcDbEntity
  8
DIM
100
AcDbText
 10
101.857905
 20
32.38659
 30
0.0
 40
0.687305
  1
OUTSIDE
  7
ROMAND
 72
     1
 11
103.985277
 21
32.38659
 31
0.0
100
AcDbText
  0
TEXT
  5
31CA
100
AcDbEntity
  8
DIM
100
AcDbText
 10
102.921591
 20
31.273811
 30
0.0
 40
0.687305
  1
DIM.
  7
ROMAND
 72
     1
 11
103.985277
 21
31.273811
 31
0.0
100
AcDbText
  0
LWPOLYLINE
  5
3219
100
AcDbEntity
  8
DIM
100
AcDbPolyline
 90
        2
 70
     0
 43
0.114551
 39
9.164063
 10
86.679956
 20
35.882679
 10
106.139283
 20
35.882679
  0
TEXT
  5
321A
100
AcDbEntity
  8
DIM
100
AcDbText
 10
93.946728
 20
31.715571
 30
0.0
 40
0.687305
  1
DIA.
  7
ROMAND
 72
     1
 11
94.944956
 21
31.715571
 31
0.0
100
AcDbText
  0
TEXT
  5
321B
100
AcDbEntity
  8
DIM
100
AcDbText
 10
93.079415
 20
32.82835
 30
0.0
 40
0.687305
  1
SLEEVE
  7
ROMAND
 72
     1
 11
94.944956
 21
32.82835
 31
0.0
100
AcDbText
  0
CIRCLE
  5
321D
100
AcDbEntity
  8
DIM
100
AcDbCircle
 39
9.164063
 10
94.882066
 20
34.41005
 30
0.0
 40
0.543831
  0
TEXT
  5
321E
100
AcDbEntity
  8
DIM
100
AcDbText
 10
94.552727
 20
34.133621
 30
0.0
 40
0.687305
  1
A
  7
ROMAND
 72
     1
 11
94.880015
 21
34.133621
 31
0.0
100
AcDbText
  0
CIRCLE
  5
321F
100
AcDbEntity
  8
DIM
100
AcDbCircle
 39
9.164063
 10
99.699662
 20
34.41005
 30
0.0
 40
0.543831
  0
TEXT
  5
3220
100
AcDbEntity
  8
DIM
100
AcDbText
 10
98.764323
 20
31.715571
 30
0.0
 40
0.687305
  1
DIA.
  7
ROMAND
 72
     1
 11
99.762552
 21
31.715571
 31
0.0
100
AcDbText
  0
TEXT
  5
3221
100
AcDbEntity
  8
DIM
100
AcDbText
 10
98.109748
 20
32.82835
 30
0.0
 40
0.687305
  1
HOLE 
  7
ROMAND
 72
     1
 11
99.762552
 21
32.82835
 31
0.0
100
AcDbText
  0
TEXT
  5
3222
100
AcDbEntity
  8
DIM
100
AcDbText
 10
99.353958
 20
34.133621
 30
0.0
 40
0.687305
  1
B
  7
ROMAND
 72
     1
 11
99.69761
 21
34.133621
 31
0.0
100
AcDbText
  0
CIRCLE
  5
3223
100
AcDbEntity
  8
DIM
100
AcDbCircle
 39
9.164063
 10
104.062768
 20
34.41005
 30
0.0
 40
0.543831
  0
TEXT
  5
3224
100
AcDbEntity
  8
DIM
100
AcDbText
 10
103.717064
 20
34.133621
 30
0.0
 40
0.687305
  1
C
  7
ROMAND
 72
     1
 11
104.060716
 21
34.133621
 31
0.0
100
AcDbText
  0
TEXT
  5
3226
100
AcDbEntity
  8
DIM
100
AcDbText
 10
88.562059
 20
26.317152
 30
0.0
 40
0.687305
  1
12"
  7
ROMANS
100
AcDbText
  0
TEXT
  5
3227
100
AcDbEntity
  8
DIM
100
AcDbText
 10
88.562059
 20
23.567933
 30
0.0
 40
0.687305
  1
14"
  7
ROMANS
100
AcDbText
  0
TEXT
  5
3228
100
AcDbEntity
  8
DIM
100
AcDbText
 10
88.562059
 20
20.818715
 30
0.0
 40
0.687305
  1
16"
  7
ROMANS
100
AcDbText
  0
TEXT
  5
3229
100
AcDbEntity
  8
DIM
100
AcDbText
 10
88.562059
 20
18.069496
 30
0.0
 40
0.687305
  1
18"
  7
ROMANS
100
AcDbText
  0
TEXT
  5
322A
100
AcDbEntity
  8
DIM
100
AcDbText
 10
98.816475
 20
20.818715
 30
0.0
 40
0.687305
  1
16"
  7
ROMANS
100
AcDbText
  0
TEXT
  5
322B
100
AcDbEntity
  8
DIM
100
AcDbText
 10
98.816475
 20
18.069496
 30
0.0
 40
0.687305
  1
18"
  7
ROMANS
100
AcDbText
  0
TEXT
  5
322C
100
AcDbEntity
  8
DIM
100
AcDbText
 10
98.816475
 20
23.567933
 30
0.0
 40
0.687305
  1
14"
  7
ROMANS
100
AcDbText
  0
TEXT
  5
322D
100
AcDbEntity
  8
DIM
100
AcDbText
 10
98.816475
 20
26.317152
 30
0.0
 40
0.687305
  1
12"
  7
ROMANS
100
AcDbText
  0
TEXT
  5
322E
100
AcDbEntity
  8
DIM
100
AcDbText
 10
98.816475
 20
29.066371
 30
0.0
 40
0.687305
  1
10"
  7
ROMANS
100
AcDbText
  0
TEXT
  5
322F
100
AcDbEntity
  8
DIM
100
AcDbText
 10
93.984733
 20
20.818715
 30
0.0
 40
0.687305
  1
18"
  7
ROMANS
100
AcDbText
  0
TEXT
  5
3230
100
AcDbEntity
  8
DIM
100
AcDbText
 10
93.984733
 20
18.069496
 30
0.0
 40
0.687305
  1
20"
  7
ROMANS
100
AcDbText
  0
TEXT
  5
3231
100
AcDbEntity
  8
DIM
100
AcDbText
 10
93.984733
 20
26.317152
 30
0.0
 40
0.687305
  1
14"
  7
ROMANS
100
AcDbText
  0
TEXT
  5
3232
100
AcDbEntity
  8
DIM
100
AcDbText
 10
93.984733
 20
23.567933
 30
0.0
 40
0.687305
  1
16"
  7
ROMANS
100
AcDbText
  0
TEXT
  5
3233
100
AcDbEntity
  8
DIM
100
AcDbText
 10
93.984733
 20
29.066371
 30
0.0
 40
0.687305
  1
12"
  7
ROMANS
100
AcDbText
  0
TEXT
  5
3234
100
AcDbEntity
  8
DIM
100
AcDbText
 10
103.33537
 20
20.818715
 30
0.0
 40
0.687305
  1
24"
  7
ROMANS
100
AcDbText
  0
TEXT
  5
3235
100
AcDbEntity
  8
DIM
100
AcDbText
 10
103.33537
 20
18.069496
 30
0.0
 40
0.687305
  1
26"
  7
ROMANS
100
AcDbText
  0
TEXT
  5
3236
100
AcDbEntity
  8
DIM
100
AcDbText
 10
103.33537
 20
23.567933
 30
0.0
 40
0.687305
  1
22"
  7
ROMANS
100
AcDbText
  0
TEXT
  5
3237
100
AcDbEntity
  8
DIM
100
AcDbText
 10
103.33537
 20
26.317152
 30
0.0
 40
0.687305
  1
20"
  7
ROMANS
100
AcDbText
  0
TEXT
  5
3238
100
AcDbEntity
  8
DIM
100
AcDbText
 10
103.33537
 20
29.066371
 30
0.0
 40
0.687305
  1
18"
  7
ROMANS
100
AcDbText
  0
LWPOLYLINE
  5
3410
100
AcDbEntity
  8
BORDER
 62
     5
100
AcDbPolyline
 90
        2
 70
     0
 43
0.190953
 10
129.910664
 20
14.414154
 10
129.910664
 20
94.819235
  0
LINE
  5
3411
100
AcDbEntity
  8
LIMITS
 62
     7
100
AcDbLine
 10
131.438292
 20
3.547424
 30
0.0
 11
131.438292
 21
97.110677
 31
0.0
  0
LINE
  5
3412
100
AcDbEntity
  8
LIMITS
100
AcDbLine
 10
131.438292
 20
95.205098
 30
0.0
 11
131.438292
 21
3.547424
 31
0.0
  0
LINE
  5
3413
100
AcDbEntity
  8
LIMITS
100
AcDbLine
 10
131.438292
 20
3.547424
 30
0.0
 11
131.438292
 21
95.205098
 31
0.0
  0
LWPOLYLINE
  5
3414
100
AcDbEntity
  8
BORDER
 62
     5
100
AcDbPolyline
 90
        2
 70
     0
 43
0.190953
 10
60.667042
 20
14.414154
 10
60.667042
 20
94.819235
  0
LINE
  5
3415
100
AcDbEntity
  8
LIMITS
 62
     7
100
AcDbLine
 10
59.139414
 20
97.110677
 30
0.0
 11
59.139414
 21
3.547424
 31
0.0
  0
LWPOLYLINE
  5
3416
100
AcDbEntity
  8
BORDER
 62
     5
100
AcDbPolyline
 90
        6
 70
     0
 43
0.34023
 10
60.667042
 20
14.414154
 10
60.667042
 20
94.819235
 42
-0.414214
 10
61.430856
 20
95.583049
 10
129.14685
 20
95.583049
 42
-0.414214
 10
129.910664
 20
94.819235
 10
129.910664
 20
14.414154
  0
TEXT
  5
3422
100
AcDbEntity
  8
BORDER
 62
     6
100
AcDbText
 10
98.656116
 20
9.537944
 30
0.0
 40
0.358354
  1
in this print by any other source than TOPP INDUSTRIES, INC.
 41
0.839168
  7
ROMANS
 72
     5
 11
113.419984
 21
9.537944
 31
0.0
100
AcDbText
  0
TEXT
  5
3423
100
AcDbEntity
  8
BORDER
 62
     6
100
AcDbText
 10
98.656116
 20
10.118136
 30
0.0
 40
0.358354
  1
and will not be used to manufacture or procure the manufacture of the items shown
 41
0.600404
  7
ROMANS
 72
     5
 11
113.419984
 21
10.118136
 31
0.0
100
AcDbText
  0
TEXT
  5
3424
100
AcDbEntity
  8
BORDER
 62
     6
100
AcDbText
 10
98.656116
 20
10.698328
 30
0.0
 40
0.358354
  1
be used as a record or to identify or inspect parts or for other information purposes
 41
0.596266
  7
ROMANS
 72
     5
 11
113.419984
 21
10.698328
 31
0.0
100
AcDbText
  0
TEXT
  5
3425
100
AcDbEntity
  8
BORDER
 62
     6
100
AcDbText
 10
98.656116
 20
11.27852
 30
0.0
 40
0.358354
  1
restriction includes, but is not limited to the condition that this print will not only
 41
0.626489
  7
ROMANS
 72
     5
 11
113.419984
 21
11.27852
 31
0.0
100
AcDbText
  0
TEXT
  5
3426
100
AcDbEntity
  8
BORDER
 62
     6
100
AcDbText
 10
98.656116
 20
11.858712
 30
0.0
 40
0.358354
  1
by TOPP INDUSTRIES, INC. It is furnished on a strictly confidential basis.  This
 41
0.659437
  7
ROMANS
 72
     5
 11
113.419984
 21
11.858712
 31
0.0
100
AcDbText
  0
TEXT
  5
3427
100
AcDbEntity
  8
BORDER
 62
     6
100
AcDbText
 10
98.656116
 20
12.438904
 30
0.0
 40
0.358354
  1
This print is and contains confidential proprietary information owned exclusively
 41
0.656934
  7
ROMANS
 72
     5
 11
113.419984
 21
12.438904
 31
0.0
100
AcDbText
  0
LINE
  5
3428
100
AcDbEntity
  8
BORDER
100
AcDbLine
 10
91.451059
 20
9.276028
 30
0.0
 11
113.679618
 21
9.276028
 31
0.0
  0
LWPOLYLINE
  5
3429
100
AcDbEntity
  8
BORDER
 62
     5
100
AcDbPolyline
 90
        2
 70
     0
 43
0.477384
 10
77.852856
 20
14.049865
 10
112.72485
 20
14.049865
  0
LINE
  5
342A
100
AcDbEntity
  8
BORDER
100
AcDbLine
 10
91.451059
 20
13.095098
 30
0.0
 11
112.72485
 21
13.095098
 31
0.0
  0
LWPOLYLINE
  5
342B
100
AcDbEntity
  8
BORDER
 62
     5
100
AcDbPolyline
 90
        2
 70
     0
 43
0.477384
 10
128.001129
 20
5.456958
 10
62.576577
 20
5.456958
  0
LINE
  5
342C
100
AcDbEntity
  8
LIMITS
 62
     7
100
AcDbLine
 10
59.139414
 20
3.547424
 30
0.0
 11
131.438292
 21
3.547424
 31
0.0
  0
LWPOLYLINE
  5
3433
100
AcDbEntity
  8
BORDER
 62
     5
100
AcDbPolyline
 90
        2
 70
     0
 43
0.477384
 10
77.852856
 20
14.049865
 42
0.414214
 10
75.943321
 20
12.140331
 42
-0.560527
  0
TEXT
  5
3434
100
AcDbEntity
  8
BORDER
 62
     6
100
AcDbText
 10
77.036432
 20
10.254104
 30
0.0
 40
0.428381
  1
Reference:
  7
ROMANC
100
AcDbText
  0
TEXT
  5
3435
100
AcDbEntity
  8
BORDER
 62
     6
100
AcDbText
 10
77.56931
 20
6.570332
 30
0.0
 40
0.364124
  1
Phone: 800/354-4534  Fax: 574/223-6106
  7
ROMANC
100
AcDbText
  0
LINE
  5
3436
100
AcDbEntity
  8
BORDER
100
AcDbLine
 10
76.898089
 20
10.89017
 30
0.0
 11
91.451059
 21
10.89017
 31
0.0
  0
LINE
  5
3437
100
AcDbEntity
  8
BORDER
100
AcDbLine
 10
76.898089
 20
8.590168
 30
0.0
 11
99.420652
 21
8.590168
 31
0.0
  0
LINE
  5
3438
100
AcDbEntity
  8
BORDER
100
AcDbLine
 10
76.898089
 20
9.276028
 30
0.0
 11
99.420652
 21
9.276028
 31
0.0
  0
LINE
  5
3439
100
AcDbEntity
  8
BORDER
100
AcDbLine
 10
77.852856
 20
13.095098
 30
0.0
 11
99.420652
 21
13.095098
 31
0.0
  0
LINE
  5
343A
100
AcDbEntity
  8
BORDER
100
AcDbLine
 10
76.898089
 20
6.411726
 30
0.0
 11
99.420652
 21
6.411726
 31
0.0
  0
LWPOLYLINE
  5
343B
100
AcDbEntity
  8
BORDER
 62
     5
100
AcDbPolyline
 90
        2
 70
     0
 43
0.477384
 10
75.943321
 20
12.140331
 10
75.943321
 20
6.411726
  0
LINE
  5
343C
100
AcDbEntity
  8
BORDER
100
AcDbLine
 10
76.898089
 20
6.411726
 30
0.0
 11
76.898089
 21
8.590168
 31
0.0
  0
LINE
  5
343D
100
AcDbEntity
  8
BORDER
100
AcDbLine
 10
74.033787
 20
6.411726
 30
0.0
 11
74.033787
 21
12.140331
 31
0.0
  0
LWPOLYLINE
  5
343E
100
AcDbEntity
  8
BORDER
 62
     5
100
AcDbPolyline
 90
        2
 70
     0
 43
0.477384
 10
74.988554
 20
6.411726
 10
74.988554
 20
12.140331
  0
ARC
  5
343F
100
AcDbEntity
  8
BORDER
100
AcDbCircle
 10
62.576577
 20
7.366493
 30
0.0
 40
0.954767
100
AcDbArc
 50
180.0
 51
270.0
  0
LWPOLYLINE
  5
3440
100
AcDbEntity
  8
BORDER
 62
     5
100
AcDbPolyline
 90
        2
 70
     0
 43
0.477384
 10
62.576577
 20
5.456958
 42
-0.414214
 10
60.667042
 20
7.366493
 42
0.560527
  0
LINE
  5
3441
100
AcDbEntity
  8
BORDER
100
AcDbLine
 10
62.576577
 20
6.411726
 30
0.0
 11
74.033787
 21
6.411726
 31
0.0
  0
LINE
  5
3442
102
{ACAD_REACTORS
330
3446
102
}
100
AcDbEntity
  8
BORDER
100
AcDbLine
 10
66.329391
 20
11.840569
 30
0.0
 11
65.900484
 21
11.840569
 31
0.0
  0
ARC
  5
3443
102
{ACAD_REACTORS
330
3446
102
}
100
AcDbEntity
  8
BORDER
100
AcDbCircle
 10
66.387777
 20
9.158695
 30
0.0
 40
0.487293
100
AcDbArc
 50
180.0
 51
270.0
  0
LINE
  5
3444
102
{ACAD_REACTORS
330
3446
102
}
100
AcDbEntity
  8
BORDER
100
AcDbLine
 10
64.414089
 20
8.56976
 30
0.0
 11
66.544708
 21
8.56976
 31
0.0
  0
SPLINE
  5
3445
100
AcDbEntity
  8
BORDER
100
AcDbSpline
210
0.0
220
0.0
230
1.0
 70
    11
 71
     3
 72
    24
 73
    20
 74
     0
 42
0.0000001
 43
0.0000001
 40
0.0
 40
0.0
 40
0.0
 40
0.0
 40
0.474866629778075
 40
0.474866629778075
 40
1.277791044886493
 40
1.277791044886493
 40
2.080715459994911
 40
2.080715459994911
 40
2.883639875103329
 40
2.883639875103329
 40
3.686564290211747
 40
3.686564290211747
 40
4.489488705320165
 40
4.489488705320165
 40
5.292413120428583
 40
5.292413120428583
 40
6.095337535537001
 40
6.095337535537001
 40
6.283185307179586
 40
6.283185307179586
 40
6.283185307179586
 40
6.283185307179586
 10
65.7847725819292
 20
8.195302972423872
 30
0.0
 10
65.72112741970105
 20
8.195302972423872
 30
0.0
 10
65.65753586888513
 20
8.179864769491505
 30
0.0
 10
65.50523402221651
 20
8.101317698602365
 30
0.0
 10
65.43093159525688
 20
8.01181741382593
 30
0.0
 10
65.3687815035296
 20
7.805157092058592
 30
0.0
 10
65.38134702018936
 20
7.689381645747167
 30
0.0
 10
65.4863810247553
 20
7.500974994793493
 30
0.0
 10
65.57814958541422
 20
7.429609083983136
 30
0.0
 10
65.78625300647179
 20
7.374531013098162
 30
0.0
 10
65.90118594217177
 20
7.391192813931773
 30
0.0
 10
66.08522379922153
 20
7.503111613296074
 30
0.0
 10
66.15309290771659
 20
7.597611182551928
 30
0.0
 10
66.20065960386885
 20
7.808129322392788
 30
0.0
 10
66.18004112774368
 20
7.922738198492022
 30
0.0
 10
66.06210755378646
 20
8.103304164346315
 30
0.0
 10
65.96557909189646
 20
8.16804745406616
 30
0.0
 10
65.83512557234799
 20
8.192923817627173
 30
0.0
 10
65.80994933925573
 20
8.195302972423872
 30
0.0
 10
65.7847725819292
 20
8.195302972423872
 30
0.0
  0
HATCH
  5
3446
100
AcDbEntity
  8
BORDER
100
AcDbHatch
 10
0.0
 20
0.0
 30
0.0
210
0.0
220
0.0
230
1.0
  2
ANSI37
 70
     0
 71
     1
 91
        1
 92
        7
 72
     1
 73
     1
 93
       18
 10
65.05831289008099
 20
9.158695204840558
 42
-0.4142135623730684
 10
64.57102017294447
 20
8.671402487704074
 42
0.0
 10
64.41408937151109
 20
8.671402487704074
 42
0.0
 10
64.41408937151109
 20
8.569759534625761
 42
0.0
 10
66.54470777496729
 20
8.569759534625761
 42
0.0
 10
66.54470777496729
 20
8.671402487704074
 42
0.0
 10
66.38777697353361
 20
8.671402487704074
 42
-0.4142135623730429
 10
65.90048425639718
 20
9.158695204840601
 42
0.0
 10
65.90048425639718
 20
11.84056927377436
 42
0.0
 10
66.32939128867473
 20
11.84056927377436
 42
-0.4138200196737634
 10
67.30195220393707
 20
10.86931443353993
 42
0.0
 10
67.40367246639408
 20
10.86931443353993
 42
0.0
 10
67.40367246639435
 20
12.08902987047761
 42
0.0
 10
63.55512468008404
 20
12.08902987047761
 42
0.0
 10
63.55512468008403
 20
10.86931443353992
 42
0.0
 10
63.65684494254128
 20
10.86931443353993
 42
-0.4138200196737636
 10
64.62940585780363
 20
11.84056927377436
 42
0.0
 10
65.05831289008099
 20
11.84056927377436
 42
0.0
 97
       18
330
3442
330
3496
330
3498
330
3497
330
3449
330
345E
330
345F
330
345D
330
3460
330
344E
330
345B
330
3459
330
345A
330
3444
330
3481
330
3480
330
3443
330
344D
 75
     0
 76
     1
 52
0.0
 41
0.014793
 77
     0
 78
     2
 53
45.0
 43
60.090557
 44
-44.835037
 45
-0.0013075019819643
 46
0.0013075019819643
 79
     0
 53
135.0
 43
60.090557
 44
-44.835037
 45
-0.0013075019819643
 46
-0.0013075019819643
 79
     0
 47
0.049862
 98
        1
 10
65.376046
 20
10.447606
  0
LINE
  5
3447
100
AcDbEntity
  8
BORDER
100
AcDbLine
 10
63.055974
 20
8.437278
 30
0.0
 11
72.653152
 21
8.437278
 31
0.0
  0
LINE
  5
3448
100
AcDbEntity
  8
BORDER
100
AcDbLine
 10
63.055974
 20
8.437278
 30
0.0
 11
72.653152
 21
8.437278
 31
0.0
  0
LINE
  5
3449
102
{ACAD_REACTORS
330
3446
102
}
100
AcDbEntity
  8
BORDER
100
AcDbLine
 10
63.555125
 20
12.08903
 30
0.0
 11
67.403672
 21
12.08903
 31
0.0
  0
LWPOLYLINE
  5
344A
100
AcDbEntity
  8
BORDER
 62
     5
100
AcDbPolyline
 90
        2
 70
     0
 43
0.477384
 10
62.576577
 20
14.049865
 10
73.079019
 20
14.049865
  0
LINE
  5
344B
100
AcDbEntity
  8
BORDER
100
AcDbLine
 10
62.576577
 20
13.095098
 30
0.0
 11
73.079019
 21
13.095098
 31
0.0
  0
LWPOLYLINE
  5
344C
100
AcDbEntity
  8
BORDER
 62
     5
100
AcDbPolyline
 90
        2
 70
     0
 43
0.477384
 10
62.576577
 20
14.049865
 42
0.414214
 10
60.667042
 20
12.140331
 42
-0.560527
  0
LINE
  5
344D
102
{ACAD_REACTORS
330
3446
102
}
100
AcDbEntity
  8
BORDER
100
AcDbLine
 10
65.900484
 20
9.158695
 30
0.0
 11
65.900484
 21
11.840569
 31
0.0
  0
LINE
  5
344E
102
{ACAD_REACTORS
330
3446
102
}
100
AcDbEntity
  8
BORDER
100
AcDbLine
 10
65.058313
 20
9.158695
 30
0.0
 11
65.058313
 21
11.840569
 31
0.0
  0
LINE
  5
344F
100
AcDbEntity
  8
BORDER
100
AcDbLine
 10
61.62181
 20
7.366493
 30
0.0
 11
61.62181
 21
12.140331
 31
0.0
  0
LWPOLYLINE
  5
3450
100
AcDbEntity
  8
BORDER
 62
     5
100
AcDbPolyline
 90
        2
 70
     0
 43
0.477384
 10
60.667042
 20
12.140331
 10
60.667042
 20
7.366493
  0
LINE
  5
3451
100
AcDbEntity
  8
BORDER
100
AcDbLine
 10
64.422559
 20
8.184652
 30
0.0
 11
64.422559
 21
7.399376
 31
0.0
  0
LINE
  5
3452
100
AcDbEntity
  8
BORDER
100
AcDbLine
 10
63.820878
 20
8.184652
 30
0.0
 11
63.820878
 21
7.399376
 31
0.0
  0
LINE
  5
3453
100
AcDbEntity
  8
BORDER
100
AcDbLine
 10
63.477061
 20
8.184652
 30
0.0
 11
63.477061
 21
7.399376
 31
0.0
  0
LINE
  5
3454
100
AcDbEntity
  8
BORDER
100
AcDbLine
 10
63.316264
 20
8.184652
 30
0.0
 11
63.637858
 21
8.184652
 31
0.0
  0
LINE
  5
3455
100
AcDbEntity
  8
BORDER
100
AcDbLine
 10
63.316264
 20
7.399376
 30
0.0
 11
63.637858
 21
7.399376
 31
0.0
  0
LINE
  5
3456
100
AcDbEntity
  8
BORDER
100
AcDbLine
 10
64.422559
 20
7.399376
 30
0.0
 11
63.820878
 21
8.184652
 31
0.0
  0
ARC
  5
3457
100
AcDbEntity
  8
BORDER
100
AcDbCircle
 10
64.965348
 20
7.758986
 30
0.0
 40
0.360119
100
AcDbArc
 50
174.737783
 51
327.723969
  0
ARC
  5
3458
100
AcDbEntity
  8
BORDER
100
AcDbCircle
 10
64.993262
 20
7.798188
 30
0.0
 40
0.386564
100
AcDbArc
 50
44.321228
 51
180.91508
  0
LINE
  5
3459
102
{ACAD_REACTORS
330
3446
102
}
100
AcDbEntity
  8
BORDER
100
AcDbLine
 10
64.414089
 20
8.671402
 30
0.0
 11
64.57102
 21
8.671402
 31
0.0
  0
LINE
  5
345A
102
{ACAD_REACTORS
330
3446
102
}
100
AcDbEntity
  8
BORDER
100
AcDbLine
 10
64.414089
 20
8.671402
 30
0.0
 11
64.414089
 21
8.56976
 31
0.0
  0
ARC
  5
345B
102
{ACAD_REACTORS
330
3446
102
}
100
AcDbEntity
  8
BORDER
100
AcDbCircle
 10
64.57102
 20
9.158695
 30
0.0
 40
0.487293
100
AcDbArc
 50
270.0
 51
0.0
  0
ARC
  5
345C
100
AcDbEntity
  8
BORDER
100
AcDbCircle
 10
62.576577
 20
12.140331
 30
0.0
 40
0.954767
100
AcDbArc
 50
90.0
 51
180.0
  0
ARC
  5
345D
102
{ACAD_REACTORS
330
3446
102
}
100
AcDbEntity
  8
BORDER
100
AcDbCircle
 10
64.629406
 20
10.868007
 30
0.0
 40
0.972562
100
AcDbArc
 50
90.0
 51
179.923004
  0
LINE
  5
345E
102
{ACAD_REACTORS
330
3446
102
}
100
AcDbEntity
  8
BORDER
100
AcDbLine
 10
63.555125
 20
10.869314
 30
0.0
 11
63.555125
 21
12.08903
 31
0.0
  0
LINE
  5
345F
102
{ACAD_REACTORS
330
3446
102
}
100
AcDbEntity
  8
BORDER
100
AcDbLine
 10
63.555125
 20
10.869314
 30
0.0
 11
63.656844
 21
10.869314
 31
0.0
  0
LINE
  5
3460
102
{ACAD_REACTORS
330
3446
102
}
100
AcDbEntity
  8
BORDER
100
AcDbLine
 10
64.629406
 20
11.840569
 30
0.0
 11
65.058313
 21
11.840569
 31
0.0
  0
LWPOLYLINE
  5
3461
100
AcDbEntity
  8
BORDER
 62
     5
100
AcDbPolyline
 90
        2
 70
     0
 43
0.477384
 10
73.079019
 20
14.049865
 42
-0.414214
 10
74.988554
 20
12.140331
 42
0.560527
  0
ARC
  5
3462
102
{ACAD_REACTORS
330
3466
102
}
100
AcDbEntity
  8
BORDER
100
AcDbCircle
 10
71.723187
 20
10.033986
 30
0.0
 40
0.450104
100
AcDbArc
 50
246.179097
 51
0.350223
  0
ARC
  5
3463
102
{ACAD_REACTORS
330
3466
102
}
100
AcDbEntity
  8
BORDER
100
AcDbCircle
 10
71.938913
 20
10.077006
 30
0.0
 40
0.577067
100
AcDbArc
 50
265.488062
 51
358.394374
  0
ARC
  5
3464
102
{ACAD_REACTORS
330
3466
102
}
100
AcDbEntity
  8
BORDER
100
AcDbCircle
 10
71.902898
 20
10.016819
 30
0.0
 40
0.614434
100
AcDbArc
 50
4.10812
 51
90.34444
  0
ARC
  5
3465
102
{ACAD_REACTORS
330
3466
102
}
100
AcDbEntity
  8
BORDER
100
AcDbCircle
 10
71.706293
 20
10.043212
 30
0.0
 40
0.467035
100
AcDbArc
 50
359.205673
 51
110.674935
  0
HATCH
  5
3466
100
AcDbEntity
  8
BORDER
100
AcDbHatch
 10
0.0
 20
0.0
 30
0.0
210
0.0
220
0.0
230
1.0
  2
ANSI37
 70
     0
 71
     1
 91
        2
 92
        7
 72
     1
 73
     1
 93
       16
 10
71.25681020127291
 20
8.840113212284396
 42
-0.4142135623729155
 10
71.05566030059446
 20
8.638963311606069
 42
0.0
 10
70.96257416376484
 20
8.638963311606069
 42
0.0
 10
70.96257416376484
 20
8.58594419638471
 42
0.0
 10
71.8356349819405
 20
8.58594419638471
 42
0.0
 10
71.8356349819405
 20
8.638963311606069
 42
0.0
 10
71.74254884511125
 20
8.638963311606069
 42
-0.4142135623735478
 10
71.54139894443249
 20
8.840113212284517
 42
0.0
 10
71.54139894443249
 20
9.545106085390578
 42
0.0609117558027586
 10
71.89351746000965
 20
9.501727028905019
 42
0.4291497434355362
 10
72.51575409922512
 20
10.06083654558729
 42
0.3916311771495536
 10
71.90659217232296
 20
10.63124245251525
 42
0.0
 10
70.96408662509848
 20
10.63124245251525
 42
0.0
 10
70.96408662509846
 20
10.57510050420032
 42
0.0
 10
71.05566030059455
 20
10.57510050420032
 42
-0.4142135623729656
 10
71.25681020127291
 20
10.37395060352187
 42
0.0
 97
       16
330
3464
330
34BC
330
34B8
330
34B9
330
34BD
330
346B
330
3494
330
3493
330
3492
330
3495
330
348F
330
348E
330
348D
330
3491
330
3490
330
3463
 92
       22
 72
     1
 73
     1
 93
        3
 10
71.54139894443249
 20
10.4801685255854
 42
-0.5287425889414328
 10
72.17328255599283
 20
10.03673700266912
 42
-0.5439228899276877
 10
71.54139894443249
 20
9.622224743538616
 42
0.0
 97
        3
330
3465
330
3462
330
346A
 75
     0
 76
     1
 52
0.0
 41
0.014793
 77
     0
 78
     2
 53
45.0
 43
60.090557
 44
-44.835037
 45
-0.0013075019819643
 46
0.0013075019819643
 79
     0
 53
135.0
 43
60.090557
 44
-44.835037
 45
-0.0013075019819643
 46
-0.0013075019819643
 79
     0
 47
0.027301
 98
        2
 10
71.375383
 20
9.940576
 10
71.375383
 20
9.940576
  0
LINE
  5
3467
100
AcDbEntity
  8
BORDER
100
AcDbLine
 10
71.818684
 20
7.399376
 30
0.0
 11
72.115059
 21
7.399376
 31
0.0
  0
LINE
  5
3468
100
AcDbEntity
  8
BORDER
100
AcDbLine
 10
72.115059
 20
8.184652
 30
0.0
 11
71.818684
 21
8.184652
 31
0.0
  0
LINE
  5
3469
100
AcDbEntity
  8
BORDER
100
AcDbLine
 10
67.534468
 20
10.877798
 30
0.0
 11
72.427341
 21
10.877798
 31
0.0
  0
LINE
  5
346A
102
{ACAD_REACTORS
330
3466
102
}
100
AcDbEntity
  8
BORDER
100
AcDbLine
 10
71.541399
 20
10.480169
 30
0.0
 11
71.541399
 21
9.622225
 31
0.0
  0
LINE
  5
346B
102
{ACAD_REACTORS
330
3466
102
}
100
AcDbEntity
  8
BORDER
100
AcDbLine
 10
71.25681
 20
8.840113
 30
0.0
 11
71.25681
 21
10.373951
 31
0.0
  0
HATCH
  5
346C
100
AcDbEntity
  8
BORDER
100
AcDbHatch
 10
0.0
 20
0.0
 30
0.0
210
0.0
220
0.0
230
1.0
  2
ANSI37
 70
     0
 71
     1
 91
        2
 92
        5
 93
        1
 72
     3
 10
68.0777
 20
9.611508
 11
0.0
 21
1.066469
 40
0.93822
 50
0.0
 51
360.0
 73
     1
 97
        1
330
346D
 92
       20
 93
        1
 72
     3
 10
68.0777
 20
9.617584
 11
0.0
 21
0.957088
 40
0.683214
 50
0.0
 51
360.0
 73
     1
 97
        1
330
346E
 75
     0
 76
     1
 52
0.0
 41
0.014793
 77
     0
 78
     2
 53
45.0
 43
60.090557
 44
-44.835037
 45
-0.0013075019819643
 46
0.0013075019819643
 79
     0
 53
135.0
 43
60.090557
 44
-44.835037
 45
-0.0013075019819643
 46
-0.0013075019819643
 79
     0
 47
0.027301
 98
        2
 10
67.358057
 20
10.045579
 10
67.358057
 20
10.045579
  0
ELLIPSE
  5
346D
102
{ACAD_REACTORS
330
346C
102
}
100
AcDbEntity
  8
BORDER
100
AcDbEllipse
 10
68.0777
 20
9.611508
 30
0.0
 11
0.0000000000000072
 21
1.066468940243294
 31
0.0
210
0.0
220
0.0
230
1.0
 40
0.93822
 41
0.0
 42
6.283185307179586
  0
ELLIPSE
  5
346E
102
{ACAD_REACTORS
330
346C
102
}
100
AcDbEntity
  8
BORDER
100
AcDbEllipse
 10
68.0777
 20
9.617584
 30
0.0
 11
0.0000000000000072
 21
0.9570875491871188
 31
0.0
210
0.0
220
0.0
230
1.0
 40
0.683214
 41
0.0
 42
6.283185307179586
  0
HATCH
  5
346F
100
AcDbEntity
  8
BORDER
100
AcDbHatch
 10
0.0
 20
0.0
 30
0.0
210
0.0
220
0.0
230
1.0
  2
ANSI37
 70
     0
 71
     1
 91
        2
 92
        7
 72
     1
 73
     1
 93
       16
 10
69.53945141273092
 20
8.847861614823818
 42
-0.4142135623731044
 10
69.33830151205256
 20
8.646711714145466
 42
0.0
 10
69.24521537522292
 20
8.646711714145464
 42
0.0
 10
69.24521537522292
 20
8.593692598923707
 42
0.0
 10
70.11827619339875
 20
8.593692598923707
 42
0.0
 10
70.11827619339875
 20
8.646711714145466
 42
0.0
 10
70.02519005656907
 20
8.646711714145466
 42
-0.4142135623730951
 10
69.82404015589072
 20
8.847861614823811
 42
0.0
 10
69.82404015589072
 20
9.552854487929634
 42
0.0609117558023489
 10
70.17615867146554
 20
9.509475431444094
 42
0.4291497434371291
 10
70.79839531068309
 20
10.06858494812733
 42
0.3916311771394883
 10
70.18923338380187
 20
10.63899085505426
 42
0.0
 10
69.24672783655651
 20
10.63899085505426
 42
0.0
 10
69.24672783655653
 20
10.58284890673973
 42
0.0
 10
69.33830151205256
 20
10.58284890673973
 42
-0.4142135623731054
 10
69.53945141273092
 20
10.38169900606137
 42
0.0
 97
        1
330
3470
 92
       22
 72
     1
 73
     1
 93
        3
 10
69.82404015589072
 20
10.4879169281243
 42
-0.5287425889467041
 10
70.45592376745098
 20
10.04448540520034
 42
-0.543922889921719
 10
69.82404015589072
 20
9.629973146077912
 42
0.0
 97
        1
330
3471
 75
     0
 76
     1
 52
0.0
 41
0.014793
 77
     0
 78
     2
 53
45.0
 43
60.090557
 44
-44.835037
 45
-0.0013075019819643
 46
0.0013075019819643
 79
     0
 53
135.0
 43
60.090557
 44
-44.835037
 45
-0.0013075019819643
 46
-0.0013075019819643
 79
     0
 47
0.027301
 98
        2
 10
69.653672
 20
10.118273
 10
69.653672
 20
10.118273
  0
LWPOLYLINE
  5
3470
102
{ACAD_REACTORS
330
346F
102
}
100
AcDbEntity
  8
BORDER
100
AcDbPolyline
 90
       17
 70
     0
 43
0.0
 10
70.176159
 20
9.509475
 42
-0.060912
 10
69.82404
 20
9.552854
 10
69.82404
 20
8.847862
 42
0.414214
 10
70.02519
 20
8.646712
 10
70.118276
 20
8.646712
 10
70.118276
 20
8.593693
 10
69.245215
 20
8.593693
 10
69.245215
 20
8.646712
 10
69.338302
 20
8.646712
 42
0.414214
 10
69.539451
 20
8.847862
 10
69.539451
 20
10.381699
 42
0.414214
 10
69.338302
 20
10.582849
 10
69.246728
 20
10.582849
 10
69.246728
 20
10.638991
 10
70.181846
 20
10.638991
 42
-0.395102
 10
70.798395
 20
10.068585
 42
-0.42915
 10
70.176159
 20
9.509475
  0
LWPOLYLINE
  5
3471
102
{ACAD_REACTORS
330
346F
102
}
100
AcDbEntity
  8
BORDER
100
AcDbPolyline
 90
        3
 70
     1
 43
0.0
 10
69.82404
 20
9.629973
 42
0.543923
 10
70.455924
 20
10.044485
 42
0.528743
 10
69.82404
 20
10.487917
  0
LINE
  5
3472
100
AcDbEntity
  8
BORDER
100
AcDbLine
 10
68.740073
 20
7.782004
 30
0.0
 11
69.011546
 21
7.782004
 31
0.0
  0
LINE
  5
3473
100
AcDbEntity
  8
BORDER
100
AcDbLine
 10
69.011546
 20
8.184652
 30
0.0
 11
68.740073
 21
8.184652
 31
0.0
  0
LINE
  5
3474
100
AcDbEntity
  8
BORDER
100
AcDbLine
 10
68.955011
 20
7.782004
 30
0.0
 11
69.266765
 21
7.399376
 31
0.0
  0
ARC
  5
3475
100
AcDbEntity
  8
BORDER
100
AcDbCircle
 10
67.405662
 20
7.983328
 30
0.0
 40
0.201324
100
AcDbArc
 50
270.0
 51
90.0
  0
LINE
  5
3476
100
AcDbEntity
  8
BORDER
100
AcDbLine
 10
67.405662
 20
8.184652
 30
0.0
 11
67.201848
 21
8.184652
 31
0.0
  0
LINE
  5
3477
100
AcDbEntity
  8
BORDER
100
AcDbLine
 10
67.201848
 20
7.782004
 30
0.0
 11
67.405662
 21
7.782004
 31
0.0
  0
LINE
  5
3478
100
AcDbEntity
  8
BORDER
100
AcDbLine
 10
67.201848
 20
8.184652
 30
0.0
 11
67.201848
 21
7.399376
 31
0.0
  0
ARC
  5
3479
100
AcDbEntity
  8
BORDER
100
AcDbCircle
 10
66.643775
 20
7.983328
 30
0.0
 40
0.201324
100
AcDbArc
 50
270.0
 51
90.0
  0
LINE
  5
347A
100
AcDbEntity
  8
BORDER
100
AcDbLine
 10
66.587239
 20
7.782004
 30
0.0
 11
66.898994
 21
7.399376
 31
0.0
  0
LINE
  5
347B
100
AcDbEntity
  8
BORDER
100
AcDbLine
 10
66.643775
 20
8.184652
 30
0.0
 11
66.372301
 21
8.184652
 31
0.0
  0
LINE
  5
347C
100
AcDbEntity
  8
BORDER
100
AcDbLine
 10
66.372301
 20
7.782004
 30
0.0
 11
66.643775
 21
7.782004
 31
0.0
  0
LINE
  5
347D
100
AcDbEntity
  8
BORDER
100
AcDbLine
 10
66.372301
 20
8.184652
 30
0.0
 11
66.372301
 21
7.399376
 31
0.0
  0
LINE
  5
347E
100
AcDbEntity
  8
BORDER
100
AcDbLine
 10
68.740073
 20
8.184652
 30
0.0
 11
68.740073
 21
7.399376
 31
0.0
  0
SPLINE
  5
347F
100
AcDbEntity
  8
BORDER
100
AcDbSpline
210
0.0
220
0.0
230
1.0
 70
    11
 71
     3
 72
    24
 73
    20
 74
     0
 42
0.0000001
 43
0.0000001
 40
0.0
 40
0.0
 40
0.0
 40
0.0
 40
0.474866629778075
 40
0.474866629778075
 40
1.277791044886493
 40
1.277791044886493
 40
2.080715459994911
 40
2.080715459994911
 40
2.883639875103329
 40
2.883639875103329
 40
3.686564290211747
 40
3.686564290211747
 40
4.489488705320165
 40
4.489488705320165
 40
5.292413120428583
 40
5.292413120428583
 40
6.095337535537001
 40
6.095337535537001
 40
6.283185307179586
 40
6.283185307179586
 40
6.283185307179586
 40
6.283185307179586
 10
68.12132565330772
 20
8.195302972423872
 30
0.0
 10
68.05768049107936
 20
8.195302972423872
 30
0.0
 10
67.99408894026353
 20
8.179864769491505
 30
0.0
 10
67.84178709359484
 20
8.101317698602365
 30
0.0
 10
67.76748466663538
 20
8.01181741382593
 30
0.0
 10
67.70533457490813
 20
7.805157092058592
 30
0.0
 10
67.71790009156791
 20
7.689381645747167
 30
0.0
 10
67.82293409613368
 20
7.500974994793493
 30
0.0
 10
67.91470265679257
 20
7.429609083983136
 30
0.0
 10
68.12280607785017
 20
7.374531013098162
 30
0.0
 10
68.23773901355011
 20
7.391192813931773
 30
0.0
 10
68.42177687059986
 20
7.503111613296074
 30
0.0
 10
68.48964597909493
 20
7.597611182551928
 30
0.0
 10
68.53721267524743
 20
7.808129322392788
 30
0.0
 10
68.5165941991222
 20
7.922738198492022
 30
0.0
 10
68.39866062516498
 20
8.103304164346315
 30
0.0
 10
68.3021321632748
 20
8.16804745406616
 30
0.0
 10
68.17167864372636
 20
8.192923817627173
 30
0.0
 10
68.14650241063429
 20
8.195302972423872
 30
0.0
 10
68.12132565330772
 20
8.195302972423872
 30
0.0
  0
LINE
  5
3480
102
{ACAD_REACTORS
330
3446
102
}
100
AcDbEntity
  8
BORDER
100
AcDbLine
 10
66.544708
 20
8.671402
 30
0.0
 11
66.387777
 21
8.671402
 31
0.0
  0
LINE
  5
3481
102
{ACAD_REACTORS
330
3446
102
}
100
AcDbEntity
  8
BORDER
100
AcDbLine
 10
66.544708
 20
8.671402
 30
0.0
 11
66.544708
 21
8.56976
 31
0.0
  0
LINE
  5
3482
100
AcDbEntity
  8
BORDER
100
AcDbLine
 10
70.254208
 20
8.184652
 30
0.0
 11
70.919615
 21
8.184652
 31
0.0
  0
LINE
  5
3483
100
AcDbEntity
  8
BORDER
100
AcDbLine
 10
69.783068
 20
8.184652
 30
0.0
 11
69.482295
 21
7.399376
 31
0.0
  0
ARC
  5
3484
100
AcDbEntity
  8
BORDER
100
AcDbCircle
 10
69.011546
 20
7.983328
 30
0.0
 40
0.201324
100
AcDbArc
 50
270.0
 51
90.0
  0
LINE
  5
3485
100
AcDbEntity
  8
BORDER
100
AcDbLine
 10
69.591964
 20
7.685707
 30
0.0
 11
69.980948
 21
7.685707
 31
0.0
  0
LINE
  5
3486
100
AcDbEntity
  8
BORDER
100
AcDbLine
 10
70.094506
 20
7.399376
 30
0.0
 11
69.783068
 21
8.184652
 31
0.0
  0
LINE
  5
3487
100
AcDbEntity
  8
BORDER
100
AcDbLine
 10
71.818684
 20
8.184652
 30
0.0
 11
71.818684
 21
7.399376
 31
0.0
  0
LINE
  5
3488
100
AcDbEntity
  8
BORDER
100
AcDbLine
 10
70.586912
 20
8.184652
 30
0.0
 11
70.586912
 21
7.399376
 31
0.0
  0
LINE
  5
3489
100
AcDbEntity
  8
BORDER
100
AcDbLine
 10
71.0932
 20
7.399376
 30
0.0
 11
71.0932
 21
8.184652
 31
0.0
  0
LINE
  5
348A
100
AcDbEntity
  8
BORDER
100
AcDbLine
 10
71.0932
 20
8.184652
 30
0.0
 11
71.599837
 21
8.184652
 31
0.0
  0
LINE
  5
348B
100
AcDbEntity
  8
BORDER
100
AcDbLine
 10
71.599837
 20
7.399376
 30
0.0
 11
71.0932
 21
7.399376
 31
0.0
  0
LINE
  5
348C
100
AcDbEntity
  8
BORDER
100
AcDbLine
 10
71.0932
 20
7.792014
 30
0.0
 11
71.430119
 21
7.792014
 31
0.0
  0
ARC
  5
348D
102
{ACAD_REACTORS
330
3466
102
}
100
AcDbEntity
  8
BORDER
100
AcDbCircle
 10
71.742549
 20
8.840113
 30
0.0
 40
0.20115
100
AcDbArc
 50
180.0
 51
270.0
  0
LINE
  5
348E
102
{ACAD_REACTORS
330
3466
102
}
100
AcDbEntity
  8
BORDER
100
AcDbLine
 10
71.742549
 20
8.638963
 30
0.0
 11
71.835635
 21
8.638963
 31
0.0
  0
LINE
  5
348F
102
{ACAD_REACTORS
330
3466
102
}
100
AcDbEntity
  8
BORDER
100
AcDbLine
 10
71.835635
 20
8.638963
 30
0.0
 11
71.835635
 21
8.585944
 31
0.0
  0
ARC
  5
3490
102
{ACAD_REACTORS
330
3466
102
}
100
AcDbEntity
  8
BORDER
100
AcDbCircle
 10
71.894838
 20
10.963254
 30
0.0
 40
1.461527
100
AcDbArc
 50
256.005504
 51
269.948223
  0
LINE
  5
3491
102
{ACAD_REACTORS
330
3466
102
}
100
AcDbEntity
  8
BORDER
100
AcDbLine
 10
71.541399
 20
9.545106
 30
0.0
 11
71.541399
 21
8.840113
 31
0.0
  0
LINE
  5
3492
102
{ACAD_REACTORS
330
3466
102
}
100
AcDbEntity
  8
BORDER
100
AcDbLine
 10
70.962574
 20
8.638963
 30
0.0
 11
70.962574
 21
8.585944
 31
0.0
  0
LINE
  5
3493
102
{ACAD_REACTORS
330
3466
102
}
100
AcDbEntity
  8
BORDER
100
AcDbLine
 10
70.962574
 20
8.638963
 30
0.0
 11
71.05566
 21
8.638963
 31
0.0
  0
ARC
  5
3494
102
{ACAD_REACTORS
330
3466
102
}
100
AcDbEntity
  8
BORDER
100
AcDbCircle
 10
71.05566
 20
8.840113
 30
0.0
 40
0.20115
100
AcDbArc
 50
270.0
 51
360.0
  0
LINE
  5
3495
102
{ACAD_REACTORS
330
3466
102
}
100
AcDbEntity
  8
BORDER
100
AcDbLine
 10
70.962574
 20
8.585944
 30
0.0
 11
71.835635
 21
8.585944
 31
0.0
  0
ARC
  5
3496
102
{ACAD_REACTORS
330
3446
102
}
100
AcDbEntity
  8
BORDER
100
AcDbCircle
 10
66.329391
 20
10.868007
 30
0.0
 40
0.972562
100
AcDbArc
 50
0.076996
 51
90.0
  0
LINE
  5
3497
102
{ACAD_REACTORS
330
3446
102
}
100
AcDbEntity
  8
BORDER
100
AcDbLine
 10
67.403672
 20
10.869314
 30
0.0
 11
67.403672
 21
12.08903
 31
0.0
  0
LINE
  5
3498
102
{ACAD_REACTORS
330
3446
102
}
100
AcDbEntity
  8
BORDER
100
AcDbLine
 10
67.403672
 20
10.869314
 30
0.0
 11
67.301953
 21
10.869314
 31
0.0
  0
ARC
  5
3499
100
AcDbEntity
  8
BORDER
100
AcDbCircle
 10
68.687946
 20
11.428477
 30
0.0
 40
0.286611
100
AcDbArc
 50
270.0
 51
90.0
  0
LINE
  5
349A
100
AcDbEntity
  8
BORDER
100
AcDbLine
 10
68.565927
 20
11.715087
 30
0.0
 11
68.565927
 21
11.141866
 31
0.0
  0
LINE
  5
349B
100
AcDbEntity
  8
BORDER
100
AcDbLine
 10
68.687946
 20
11.715087
 30
0.0
 11
68.565927
 21
11.715087
 31
0.0
  0
LINE
  5
349C
100
AcDbEntity
  8
BORDER
100
AcDbLine
 10
68.565927
 20
11.141866
 30
0.0
 11
68.687946
 21
11.141866
 31
0.0
  0
LINE
  5
349D
100
AcDbEntity
  8
BORDER
100
AcDbLine
 10
68.322321
 20
11.141866
 30
0.0
 11
67.929408
 21
11.727071
 31
0.0
  0
LINE
  5
349E
100
AcDbEntity
  8
BORDER
100
AcDbLine
 10
67.929408
 20
11.727071
 30
0.0
 11
67.929408
 21
11.141866
 31
0.0
  0
LINE
  5
349F
100
AcDbEntity
  8
BORDER
100
AcDbLine
 10
68.322321
 20
11.715087
 30
0.0
 11
68.322321
 21
11.141866
 31
0.0
  0
LINE
  5
34A0
100
AcDbEntity
  8
BORDER
100
AcDbLine
 10
67.581841
 20
11.715087
 30
0.0
 11
67.670085
 21
11.715087
 31
0.0
  0
LINE
  5
34A1
100
AcDbEntity
  8
BORDER
100
AcDbLine
 10
67.670085
 20
11.715087
 30
0.0
 11
67.670085
 21
11.141866
 31
0.0
  0
LINE
  5
34A2
100
AcDbEntity
  8
BORDER
100
AcDbLine
 10
67.670085
 20
11.715087
 30
0.0
 11
67.758329
 21
11.715087
 31
0.0
  0
LINE
  5
34A3
100
AcDbEntity
  8
BORDER
100
AcDbLine
 10
67.581841
 20
11.141866
 30
0.0
 11
67.758329
 21
11.141866
 31
0.0
  0
LINE
  5
34A4
100
AcDbEntity
  8
BORDER
100
AcDbLine
 10
70.186465
 20
11.715087
 30
0.0
 11
70.657459
 21
11.715087
 31
0.0
  0
ARC
  5
34A5
100
AcDbEntity
  8
BORDER
100
AcDbCircle
 10
70.013363
 20
11.282618
 30
0.0
 40
0.080946
100
AcDbArc
 50
331.630608
 51
60.315223
  0
LINE
  5
34A6
100
AcDbEntity
  8
BORDER
100
AcDbLine
 10
70.421962
 20
11.715087
 30
0.0
 11
70.421962
 21
11.141866
 31
0.0
  0
ARC
  5
34A7
100
AcDbEntity
  8
BORDER
100
AcDbCircle
 10
69.371399
 20
11.334393
 30
0.0
 40
0.192527
100
AcDbArc
 50
180.0
 51
0.0
  0
LINE
  5
34A8
100
AcDbEntity
  8
BORDER
100
AcDbLine
 10
69.178872
 20
11.334393
 30
0.0
 11
69.178872
 21
11.715087
 31
0.0
  0
LINE
  5
34A9
100
AcDbEntity
  8
BORDER
100
AcDbLine
 10
69.563926
 20
11.715087
 30
0.0
 11
69.563926
 21
11.334393
 31
0.0
  0
ARC
  5
34AA
100
AcDbEntity
  8
BORDER
100
AcDbCircle
 10
69.818366
 20
11.592885
 30
0.0
 40
0.080946
100
AcDbArc
 50
140.101426
 51
236.383068
  0
ARC
  5
34AB
100
AcDbEntity
  8
BORDER
100
AcDbCircle
 10
72.426566
 20
15.516026
 30
0.0
 40
4.791969
100
AcDbArc
 50
236.383068
 51
240.315223
  0
ARC
  5
34AC
100
AcDbEntity
  8
BORDER
100
AcDbCircle
 10
69.92143
 20
11.323641
 30
0.0
 40
0.181488
100
AcDbArc
 50
200.502447
 51
334.026213
  0
ARC
  5
34AD
100
AcDbEntity
  8
BORDER
100
AcDbCircle
 10
69.898355
 20
11.537921
 30
0.0
 40
0.177802
100
AcDbArc
 50
25.379638
 51
143.047804
  0
LINE
  5
34AE
100
AcDbEntity
  8
BORDER
100
AcDbLine
 10
71.662501
 20
11.428477
 30
0.0
 11
71.932311
 21
11.428477
 31
0.0
  0
LINE
  5
34AF
100
AcDbEntity
  8
BORDER
100
AcDbLine
 10
71.308588
 20
11.715087
 30
0.0
 11
71.485077
 21
11.715087
 31
0.0
  0
LINE
  5
34B0
100
AcDbEntity
  8
BORDER
100
AcDbLine
 10
71.308588
 20
11.141866
 30
0.0
 11
71.485077
 21
11.141866
 31
0.0
  0
LINE
  5
34B1
100
AcDbEntity
  8
BORDER
100
AcDbLine
 10
71.396832
 20
11.715087
 30
0.0
 11
71.396832
 21
11.141866
 31
0.0
  0
LINE
  5
34B2
100
AcDbEntity
  8
BORDER
100
AcDbLine
 10
71.662501
 20
11.141866
 30
0.0
 11
71.662501
 21
11.715087
 31
0.0
  0
LINE
  5
34B3
100
AcDbEntity
  8
BORDER
100
AcDbLine
 10
71.662501
 20
11.715087
 30
0.0
 11
72.007547
 21
11.715087
 31
0.0
  0
LINE
  5
34B4
100
AcDbEntity
  8
BORDER
100
AcDbLine
 10
72.007547
 20
11.141866
 30
0.0
 11
71.662501
 21
11.141866
 31
0.0
  0
LINE
  5
34B5
100
AcDbEntity
  8
BORDER
100
AcDbLine
 10
70.987636
 20
11.715087
 30
0.0
 11
70.779132
 21
11.715087
 31
0.0
  0
LINE
  5
34B6
100
AcDbEntity
  8
BORDER
100
AcDbLine
 10
70.779132
 20
11.425714
 30
0.0
 11
70.987636
 21
11.425714
 31
0.0
  0
LINE
  5
34B7
100
AcDbEntity
  8
BORDER
100
AcDbLine
 10
70.779132
 20
11.715087
 30
0.0
 11
70.779132
 21
11.141866
 31
0.0
  0
LINE
  5
34B8
102
{ACAD_REACTORS
330
3466
102
}
100
AcDbEntity
  8
BORDER
100
AcDbLine
 10
70.964087
 20
10.631242
 30
0.0
 11
70.964087
 21
10.575101
 31
0.0
  0
LINE
  5
34B9
102
{ACAD_REACTORS
330
3466
102
}
100
AcDbEntity
  8
BORDER
100
AcDbLine
 10
70.964087
 20
10.575101
 30
0.0
 11
71.05566
 21
10.575101
 31
0.0
  0
ARC
  5
34BA
100
AcDbEntity
  8
BORDER
100
AcDbCircle
 10
70.987636
 20
11.570401
 30
0.0
 40
0.144686
100
AcDbArc
 50
270.0
 51
90.0
  0
LINE
  5
34BB
100
AcDbEntity
  8
BORDER
100
AcDbLine
 10
70.947667
 20
11.425714
 30
0.0
 11
71.129467
 21
11.141866
 31
0.0
  0
LINE
  5
34BC
102
{ACAD_REACTORS
330
3466
102
}
100
AcDbEntity
  8
BORDER
100
AcDbLine
 10
70.964087
 20
10.631242
 30
0.0
 11
71.906592
 21
10.631242
 31
0.0
  0
ARC
  5
34BD
102
{ACAD_REACTORS
330
3466
102
}
100
AcDbEntity
  8
BORDER
100
AcDbCircle
 10
71.05566
 20
10.373951
 30
0.0
 40
0.20115
100
AcDbArc
 50
0.0
 51
90.0
  0
LINE
  5
34BE
100
AcDbEntity
  8
BORDER
100
AcDbLine
 10
76.898089
 20
9.276028
 30
0.0
 11
76.898089
 21
12.140331
 31
0.0
  0
ARC
  5
34BF
100
AcDbEntity
  8
BORDER
100
AcDbCircle
 10
72.115059
 20
7.792014
 30
0.0
 40
0.392638
100
AcDbArc
 50
270.0
 51
90.0
  0
ARC
  5
34C0
100
AcDbEntity
  8
BORDER
100
AcDbCircle
 10
72.202751
 20
11.592885
 30
0.0
 40
0.080946
100
AcDbArc
 50
140.101426
 51
236.383068
  0
ARC
  5
34C1
100
AcDbEntity
  8
BORDER
100
AcDbCircle
 10
74.810951
 20
15.516026
 30
0.0
 40
4.791969
100
AcDbArc
 50
236.383068
 51
240.315223
  0
ARC
  5
34C2
100
AcDbEntity
  8
BORDER
100
AcDbCircle
 10
72.397748
 20
11.282618
 30
0.0
 40
0.080946
100
AcDbArc
 50
331.630608
 51
60.315223
  0
ARC
  5
34C3
100
AcDbEntity
  8
BORDER
100
AcDbCircle
 10
72.28274
 20
11.537921
 30
0.0
 40
0.177802
100
AcDbArc
 50
25.379638
 51
143.047804
  0
ARC
  5
34C4
100
AcDbEntity
  8
BORDER
100
AcDbCircle
 10
72.305815
 20
11.323641
 30
0.0
 40
0.181488
100
AcDbArc
 50
200.502447
 51
334.026213
  0
ARC
  5
34C5
100
AcDbEntity
  8
BORDER
100
AcDbCircle
 10
73.079019
 20
12.140331
 30
0.0
 40
0.954767
100
AcDbArc
 50
0.0
 51
90.0
  0
ARC
  5
34C6
100
AcDbEntity
  8
BORDER
100
AcDbCircle
 10
77.852856
 20
12.140331
 30
0.0
 40
0.954767
100
AcDbArc
 50
90.0
 51
180.0
  0
LINE
  5
34C7
100
AcDbEntity
  8
BORDER
100
AcDbLine
 10
102.222408
 20
8.590168
 30
0.0
 11
102.222408
 21
6.411726
 31
0.0
  0
LINE
  5
34C8
100
AcDbEntity
  8
BORDER
100
AcDbLine
 10
91.451059
 20
6.411726
 30
0.0
 11
91.451059
 21
8.590168
 31
0.0
  0
LINE
  5
34C9
100
AcDbEntity
  8
BORDER
100
AcDbLine
 10
91.451059
 20
6.411726
 30
0.0
 11
102.222408
 21
6.411726
 31
0.0
  0
TEXT
  5
34CA
100
AcDbEntity
  8
BORDER
 62
     6
100
AcDbText
 10
80.017098
 20
11.704154
 30
0.0
 40
0.492639
  1
ALUMINUM HUB
  7
ROMANC
100
AcDbText
  0
TEXT
  5
34CB
100
AcDbEntity
  8
BORDER
 62
     6
100
AcDbText
 10
79.288845
 20
7.949311
 30
0.0
 40
0.364124
  1
Highway 25 North P.O. Box 420
  7
ROMANC
100
AcDbText
  0
TEXT
  5
34CC
100
AcDbEntity
  8
BORDER
 62
     6
100
AcDbText
 10
80.856866
 20
7.30266
 30
0.0
 40
0.364124
  1
Rochester, IN  46975
  7
ROMANC
100
AcDbText
  0
TEXT
  5
34CD
100
AcDbEntity
  8
BORDER
 62
     6
100
AcDbText
 10
83.800892
 20
9.950389
 30
0.0
 40
0.428381
  1
-
  7
ROMANC
100
AcDbText
  0
TEXT
  5
34CE
100
AcDbEntity
  8
BORDER
 62
     6
100
AcDbText
 10
95.578108
 20
11.396808
 30
0.0
 40
0.584273
  1
RM
  7
COUNTRYBLUEPRINT
100
AcDbText
  0
LINE
  5
34CF
100
AcDbEntity
  8
BORDER
100
AcDbLine
 10
91.451059
 20
8.590168
 30
0.0
 11
102.222408
 21
8.590168
 31
0.0
  0
TEXT
  5
34D0
100
AcDbEntity
  8
BORDER
 62
     6
100
AcDbText
 10
91.671171
 20
7.844763
 30
0.0
 40
0.428381
  1
Supersedes Prints
  7
ROMANC
100
AcDbText
  0
TEXT
  5
34D1
100
AcDbEntity
  8
BORDER
 62
     6
100
AcDbText
 10
91.646751
 20
9.40105
 30
0.0
 40
0.428381
  1
Date: 02/24/04
  7
ROMANC
100
AcDbText
  0
LINE
  5
34D2
100
AcDbEntity
  8
BORDER
100
AcDbLine
 10
91.451059
 20
9.276028
 30
0.0
 11
91.451059
 21
13.095098
 31
0.0
  0
TEXT
  5
34D3
100
AcDbEntity
  8
BORDER
 62
     6
100
AcDbText
 10
91.671171
 20
7.151193
 30
0.0
 40
0.428381
  1
Prior To:
  7
ROMANC
100
AcDbText
  0
TEXT
  5
34D4
100
AcDbEntity
  8
BORDER
 62
     6
100
AcDbText
 10
91.646751
 20
11.44243
 30
0.0
 40
0.428381
  1
Drawn By:
  7
ROMANC
100
AcDbText
  0
TEXT
  5
34D5
100
AcDbEntity
  8
BORDER
 62
     6
100
AcDbText
 10
91.646751
 20
10.42174
 30
0.0
 40
0.428381
  1
Appv'd By: .
  7
ROMANC
100
AcDbText
  0
TEXT
  5
34D6
100
AcDbEntity
  8
BORDER
 62
     6
100
AcDbText
 10
91.646751
 20
12.46312
 30
0.0
 40
0.428381
  1
Scale: None
  7
ROMANC
100
AcDbText
  0
TEXT
  5
34D7
100
AcDbEntity
  8
BORDER
 62
     6
100
AcDbText
 10
96.278136
 20
6.795328
 30
0.0
 40
0.548991
  1
02/24/04
  7
ROMAND
100
AcDbText
  0
TEXT
  5
350A
100
AcDbEntity
  8
BORDER
 62
     6
100
AcDbText
 10
118.535497
 20
10.675944
 30
0.0
 40
0.477384
  1
First Released 06/27/03
  7
ROMAND
100
AcDbText
  0
LINE
  5
350B
100
AcDbEntity
  8
BORDER
100
AcDbLine
 10
128.001129
 20
6.411726
 30
0.0
 11
116.54392
 21
6.411726
 31
0.0
  0
LINE
  5
350C
100
AcDbEntity
  8
BORDER
100
AcDbLine
 10
128.001129
 20
7.572135
 30
0.0
 11
117.498688
 21
7.572135
 31
0.0
  0
LINE
  5
350D
100
AcDbEntity
  8
BORDER
100
AcDbLine
 10
128.001129
 20
8.526903
 30
0.0
 11
117.498688
 21
8.526903
 31
0.0
  0
LINE
  5
350E
100
AcDbEntity
  8
BORDER
100
AcDbLine
 10
128.001129
 20
9.48167
 30
0.0
 11
117.498688
 21
9.48167
 31
0.0
  0
LINE
  5
350F
100
AcDbEntity
  8
BORDER
100
AcDbLine
 10
128.001129
 20
10.436438
 30
0.0
 11
117.498688
 21
10.436438
 31
0.0
  0
LINE
  5
3510
100
AcDbEntity
  8
BORDER
100
AcDbLine
 10
128.001129
 20
11.391205
 30
0.0
 11
117.498688
 21
11.391205
 31
0.0
  0
LINE
  5
3511
100
AcDbEntity
  8
BORDER
100
AcDbLine
 10
128.001129
 20
13.095098
 30
0.0
 11
117.498688
 21
13.095098
 31
0.0
  0
LWPOLYLINE
  5
3512
100
AcDbEntity
  8
BORDER
 62
     5
100
AcDbPolyline
 90
        2
 70
     0
 43
0.477384
 10
128.001129
 20
14.049865
 10
117.498688
 20
14.049865
  0
LINE
  5
3513
100
AcDbEntity
  8
BORDER
100
AcDbLine
 10
116.54392
 20
6.411726
 30
0.0
 11
116.54392
 21
12.140331
 31
0.0
  0
LWPOLYLINE
  5
3514
100
AcDbEntity
  8
BORDER
 62
     5
100
AcDbPolyline
 90
        2
 70
     0
 43
0.477384
 10
115.589153
 20
6.411726
 10
115.589153
 20
12.140331
  0
LWPOLYLINE
  5
3515
100
AcDbEntity
  8
BORDER
 62
     5
100
AcDbPolyline
 90
        2
 70
     0
 43
0.477384
 10
114.634385
 20
6.411726
 10
114.634385
 20
12.140331
  0
LINE
  5
3516
100
AcDbEntity
  8
BORDER
100
AcDbLine
 10
113.679618
 20
8.590168
 30
0.0
 11
113.679618
 21
6.411726
 31
0.0
  0
LINE
  5
3517
100
AcDbEntity
  8
BORDER
100
AcDbLine
 10
102.908269
 20
8.590168
 30
0.0
 11
102.908269
 21
6.411726
 31
0.0
  0
LINE
  5
3518
100
AcDbEntity
  8
BORDER
100
AcDbLine
 10
102.908269
 20
6.411726
 30
0.0
 11
113.679618
 21
6.411726
 31
0.0
  0
LWPOLYLINE
  5
3519
100
AcDbEntity
  8
BORDER
 62
     5
100
AcDbPolyline
 90
        2
 70
     0
 43
0.477384
 10
112.72485
 20
14.049865
 42
-0.414214
 10
114.634385
 20
12.140331
 42
0.560527
  0
TEXT
  5
351A
100
AcDbEntity
  8
BORDER
 62
     6
100
AcDbText
 10
106.797699
 20
6.898721
 30
0.0
 40
1.285144
  1
12848
  7
ROMANC
100
AcDbText
  0
LINE
  5
351B
100
AcDbEntity
  8
BORDER
100
AcDbLine
 10
102.908269
 20
8.590168
 30
0.0
 11
113.679618
 21
8.590168
 31
0.0
  0
TEXT
  5
351C
100
AcDbEntity
  8
BORDER
 62
     6
100
AcDbText
 10
103.133717
 20
7.892233
 30
0.0
 40
0.428381
  1
Reference
  7
ROMANC
100
AcDbText
  0
TEXT
  5
351D
100
AcDbEntity
  8
BORDER
 62
     6
100
AcDbText
 10
103.133717
 20
7.198663
 30
0.0
 40
0.428381
  1
No:
  7
ROMANC
100
AcDbText
  0
LINE
  5
351E
100
AcDbEntity
  8
BORDER
100
AcDbLine
 10
113.679618
 20
12.140331
 30
0.0
 11
113.679618
 21
9.276028
 31
0.0
  0
ARC
  5
351F
100
AcDbEntity
  8
BORDER
100
AcDbCircle
 10
112.72485
 20
12.140331
 30
0.0
 40
0.954767
100
AcDbArc
 50
0.0
 51
90.0
  0
LWPOLYLINE
  5
3520
100
AcDbEntity
  8
BORDER
 62
     5
100
AcDbPolyline
 90
        2
 70
     0
 43
0.477384
 10
117.498688
 20
14.049865
 42
0.414214
 10
115.589153
 20
12.140331
 42
-0.560527
  0
TEXT
  5
3521
100
AcDbEntity
  8
BORDER
 62
     6
100
AcDbText
 10
120.203468
 20
11.818809
 30
0.0
 40
0.642572
  1
Revisions
  7
ROMANC
100
AcDbText
  0
LINE
  5
3522
100
AcDbEntity
  8
BORDER
100
AcDbLine
 10
118.453455
 20
11.391205
 30
0.0
 11
118.453455
 21
7.572135
 31
0.0
  0
LINE
  5
3523
100
AcDbEntity
  8
BORDER
100
AcDbLine
 10
117.498688
 20
11.391205
 30
0.0
 11
117.498688
 21
7.572135
 31
0.0
  0
ARC
  5
3524
100
AcDbEntity
  8
BORDER
100
AcDbCircle
 10
117.498688
 20
12.140331
 30
0.0
 40
0.954767
100
AcDbArc
 50
90.0
 51
180.0
  0
LWPOLYLINE
  5
3525
100
AcDbEntity
  8
BORDER
100
AcDbPolyline
 90
        6
 70
     1
 43
0.0
 10
118.179339
 20
10.559793
 10
118.382753
 20
10.912116
 10
118.179339
 20
11.264439
 10
117.772512
 20
11.264439
 10
117.569099
 20
10.912116
 10
117.772512
 20
10.559793
  0
TEXT
  5
3526
100
AcDbEntity
  8
BORDER
 62
     6
100
AcDbText
 10
117.749205
 20
10.675944
 30
0.0
 40
0.477384
  1
1
  7
ROMAND
100
AcDbText
  0
ARC
  5
3527
100
AcDbEntity
  8
BORDER
100
AcDbCircle
 10
128.001129
 20
7.366493
 30
0.0
 40
0.954767
100
AcDbArc
 50
270.0
 51
0.0
  0
LWPOLYLINE
  5
3528
100
AcDbEntity
  8
BORDER
 62
     5
100
AcDbPolyline
 90
        2
 70
     0
 43
0.477384
 10
128.001129
 20
5.456958
 42
0.414214
 10
129.910664
 20
7.366493
 42
-0.560527
  0
LWPOLYLINE
  5
3529
100
AcDbEntity
  8
BORDER
 62
     5
100
AcDbPolyline
 90
        2
 70
     0
 43
0.477384
 10
128.001129
 20
14.049865
 42
-0.414214
 10
129.910664
 20
12.140331
 42
0.560527
  0
LWPOLYLINE
  5
352A
100
AcDbEntity
  8
BORDER
 62
     5
100
AcDbPolyline
 90
        2
 70
     0
 43
0.477384
 10
129.910664
 20
12.140331
 10
129.910664
 20
7.366493
  0
LINE
  5
352B
100
AcDbEntity
  8
BORDER
100
AcDbLine
 10
128.001129
 20
11.391205
 30
0.0
 11
128.001129
 21
7.572135
 31
0.0
  0
LINE
  5
352C
100
AcDbEntity
  8
BORDER
100
AcDbLine
 10
128.955897
 20
7.366493
 30
0.0
 11
128.955897
 21
12.140331
 31
0.0
  0
ARC
  5
352D
100
AcDbEntity
  8
BORDER
100
AcDbCircle
 10
128.001129
 20
12.140331
 30
0.0
 40
0.954767
100
AcDbArc
 50
0.0
 51
90.0
  0
LWPOLYLINE
  5
352E
100
AcDbEntity
  8
BORDER
 62
     5
100
AcDbPolyline
 90
        2
 70
     0
 43
0.190953
 10
129.14685
 20
95.583049
 10
61.430856
 20
95.583049
  0
LINE
  5
352F
100
AcDbEntity
  8
BORDER
 62
     5
100
AcDbLine
 10
129.14685
 20
95.583049
 30
0.0
 11
61.430856
 21
95.583049
 31
0.0
  0
LINE
  5
3530
100
AcDbEntity
  8
LIMITS
 62
     7
100
AcDbLine
 10
131.438292
 20
97.110677
 30
0.0
 11
59.139414
 21
97.110677
 31
0.0
  0
ENDSEC
  0
SECTION
  2
OBJECTS
  0
DICTIONARY
  5
C
100
AcDbDictionary
  3
ACAD_GROUP
350
D
  3
ACAD_MLINESTYLE
350
E
  0
DICTIONARY
  5
D
102
{ACAD_REACTORS
330
C
102
}
100
AcDbDictionary
  0
DICTIONARY
  5
E
102
{ACAD_REACTORS
330
C
102
}
100
AcDbDictionary
  3
STANDARD
350
13
  0
MLINESTYLE
  5
13
102
{ACAD_REACTORS
330
E
102
}
100
AcDbMlineStyle
  2
STANDARD
 70
     0
  3

 62
     0
 51
90.0
 52
90.0
 71
     2
 49
0.5
 62
   256
  6
BYLAYER
 49
-0.5
 62
   256
  6
BYLAYER
  0
ENDSEC
  0
EOF
