  0
SECTION
  2
HEADER
  9
$ACADVER
  1
AC1014
  9
$ACADMAINTVER
 70
     0
  9
$DWGCODEPAGE
  3
ANSI_1252
  9
$INSBASE
 10
0.0
 20
0.0
 30
0.0
  9
$EXTMIN
 10
-132.924613
 20
247.762909
 30
0.0
  9
$EXTMAX
 10
20.46094
 20
446.26186
 30
0.0
  9
$LIMMIN
 10
43.217099
 20
-76.701281
  9
$LIMMAX
 10
223.217099
 20
58.298719
  9
$ORTHOMODE
 70
     1
  9
$REGENMODE
 70
     1
  9
$FILLMODE
 70
     1
  9
$QTEXTMODE
 70
     0
  9
$MIRRTEXT
 70
     1
  9
$DRAGMODE
 70
     2
  9
$LTSCALE
 40
4.0
  9
$OSMODE
 70
   675
  9
$ATTMODE
 70
     1
  9
$TEXTSIZE
 40
1.35
  9
$TRACEWID
 40
0.05
  9
$TEXTSTYLE
  7
ROMAND
  9
$CLAYER
  8
OBJECT
  9
$CELTYPE
  6
BYLAYER
  9
$CECOLOR
 62
   256
  9
$CELTSCALE
 40
1.0
  9
$DELOBJ
 70
     1
  9
$DISPSILH
 70
     0
  9
$DIMSCALE
 40
0.0
  9
$DIMASZ
 40
1.3
  9
$DIMEXO
 40
1.0
  9
$DIMDLI
 40
0.38
  9
$DIMRND
 40
0.0
  9
$DIMDLE
 40
0.0
  9
$DIMEXE
 40
0.2
  9
$DIMTP
 40
0.0
  9
$DIMTM
 40
0.0
  9
$DIMTXT
 40
0.18
  9
$DIMCEN
 40
0.09
  9
$DIMTSZ
 40
0.0
  9
$DIMTOL
 70
     0
  9
$DIMLIM
 70
     0
  9
$DIMTIH
 70
     1
  9
$DIMTOH
 70
     1
  9
$DIMSE1
 70
     0
  9
$DIMSE2
 70
     0
  9
$DIMTAD
 70
     0
  9
$DIMZIN
 70
    12
  9
$DIMBLK
  1

  9
$DIMASO
 70
     1
  9
$DIMSHO
 70
     1
  9
$DIMPOST
  1

  9
$DIMAPOST
  1

  9
$DIMALT
 70
     0
  9
$DIMALTD
 70
     2
  9
$DIMALTF
 40
25.4
  9
$DIMLFAC
 40
1.0
  9
$DIMTOFL
 70
     0
  9
$DIMTVP
 40
0.0
  9
$DIMTIX
 70
     0
  9
$DIMSOXD
 70
     0
  9
$DIMSAH
 70
     0
  9
$DIMBLK1
  1

  9
$DIMBLK2
  1

  9
$DIMSTYLE
  2
STANDARD
  9
$DIMCLRD
 70
     0
  9
$DIMCLRE
 70
     0
  9
$DIMCLRT
 70
     0
  9
$DIMTFAC
 40
1.0
  9
$DIMGAP
 40
1.35
  9
$DIMJUST
 70
     0
  9
$DIMSD1
 70
     0
  9
$DIMSD2
 70
     0
  9
$DIMTOLJ
 70
     1
  9
$DIMTZIN
 70
    12
  9
$DIMALTZ
 70
     0
  9
$DIMALTTZ
 70
     0
  9
$DIMFIT
 70
     3
  9
$DIMUPT
 70
     0
  9
$DIMUNIT
 70
     7
  9
$DIMDEC
 70
     4
  9
$DIMTDEC
 70
     4
  9
$DIMALTU
 70
     2
  9
$DIMALTTD
 70
     2
  9
$DIMTXSTY
  7
ROMAND
  9
$DIMAUNIT
 70
     0
  9
$LUNITS
 70
     2
  9
$LUPREC
 70
     4
  9
$SKETCHINC
 40
0.1
  9
$FILLETRAD
 40
0.0
  9
$AUNITS
 70
     0
  9
$AUPREC
 70
     0
  9
$MENU
  1
acad
  9
$ELEVATION
 40
0.0
  9
$PELEVATION
 40
0.0
  9
$THICKNESS
 40
0.0
  9
$LIMCHECK
 70
     0
  9
$BLIPMODE
 70
     0
  9
$CHAMFERA
 40
0.0
  9
$CHAMFERB
 40
0.0
  9
$CHAMFERC
 40
0.0
  9
$CHAMFERD
 40
0.0
  9
$SKPOLY
 70
     0
  9
$TDCREATE
 40
2449812.600894329
  9
$TDUPDATE
 40
2452934.648111377
  9
$TDINDWG
 40
0.2383161574
  9
$TDUSRTIMER
 40
0.2383161574
  9
$USRTIMER
 70
     1
  9
$ANGBASE
 50
0.0
  9
$ANGDIR
 70
     0
  9
$PDMODE
 70
     0
  9
$PDSIZE
 40
0.0
  9
$PLINEWID
 40
0.0
  9
$COORDS
 70
     1
  9
$SPLFRAME
 70
     0
  9
$SPLINETYPE
 70
     6
  9
$SPLINESEGS
 70
     8
  9
$ATTDIA
 70
     0
  9
$ATTREQ
 70
     1
  9
$HANDLING
 70
     1
  9
$HANDSEED
  5
56F0
  9
$SURFTAB1
 70
     6
  9
$SURFTAB2
 70
     6
  9
$SURFTYPE
 70
     6
  9
$SURFU
 70
     6
  9
$SURFV
 70
     6
  9
$UCSNAME
  2

  9
$UCSORG
 10
0.0
 20
0.0
 30
0.0
  9
$UCSXDIR
 10
1.0
 20
0.0
 30
0.0
  9
$UCSYDIR
 10
0.0
 20
1.0
 30
0.0
  9
$PUCSNAME
  2

  9
$PUCSORG
 10
0.0
 20
0.0
 30
0.0
  9
$PUCSXDIR
 10
1.0
 20
0.0
 30
0.0
  9
$PUCSYDIR
 10
0.0
 20
1.0
 30
0.0
  9
$USERI1
 70
     0
  9
$USERI2
 70
     0
  9
$USERI3
 70
     0
  9
$USERI4
 70
     0
  9
$USERI5
 70
     0
  9
$USERR1
 40
0.0
  9
$USERR2
 40
0.0
  9
$USERR3
 40
0.0
  9
$USERR4
 40
0.0
  9
$USERR5
 40
0.0
  9
$WORLDVIEW
 70
     1
  9
$SHADEDGE
 70
     3
  9
$SHADEDIF
 70
    70
  9
$TILEMODE
 70
     1
  9
$MAXACTVP
 70
    16
  9
$PINSBASE
 10
0.0
 20
0.0
 30
0.0
  9
$PLIMCHECK
 70
     0
  9
$PEXTMIN
 10
1.000000E+20
 20
1.000000E+20
 30
1.000000E+20
  9
$PEXTMAX
 10
-1.000000E+20
 20
-1.000000E+20
 30
-1.000000E+20
  9
$PLIMMIN
 10
0.0
 20
0.0
  9
$PLIMMAX
 10
12.0
 20
9.0
  9
$UNITMODE
 70
     0
  9
$VISRETAIN
 70
     0
  9
$PLINEGEN
 70
     0
  9
$PSLTSCALE
 70
     1
  9
$TREEDEPTH
 70
  3020
  9
$PICKSTYLE
 70
     1
  9
$CMLSTYLE
  2
STANDARD
  9
$CMLJUST
 70
     0
  9
$CMLSCALE
 40
1.0
  9
$PROXYGRAPHICS
 70
     1
  9
$MEASUREMENT
 70
     0
  0
ENDSEC
  0
SECTION
  2
CLASSES
  0
CLASS
  1
DICTIONARYVAR
  2
AcDbDictionaryVar
  3
"AutoCAD"
 90
        0
280
     0
281
     0
  0
CLASS
  1
LWPOLYLINE
  2
AcDbPolyline
  3
"AutoCAD"
 90
        0
280
     0
281
     1
  0
CLASS
  1
HATCH
  2
AcDbHatch
  3
"ACAD_SEDONA"
 90
        0
280
     0
281
     1
  0
ENDSEC
  0
SECTION
  2
TABLES
  0
TABLE
  2
VPORT
  5
8
100
AcDbSymbolTable
 70
     1
  0
VPORT
  5
56E8
100
AcDbSymbolTableRecord
100
AcDbViewportTableRecord
  2
*ACTIVE
 70
     0
 10
0.0
 20
0.0
 11
1.0
 21
1.0
 12
-56.226267
 22
347.00163
 13
0.0
 23
0.0
 14
1.0
 24
1.0
 15
0.0
 25
0.0
 16
0.0
 26
0.0
 36
1.0
 17
0.0
 27
0.0
 37
0.0
 40
200.653515
 41
1.71048
 42
50.0
 43
0.0
 44
0.0
 50
0.0
 51
0.0
 71
     0
 72
   100
 73
     1
 74
     0
 75
     0
 76
     0
 77
     0
 78
     0
  0
ENDTAB
  0
TABLE
  2
LTYPE
  5
5
100
AcDbSymbolTable
 70
     3
  0
LTYPE
  5
11
100
AcDbSymbolTableRecord
100
AcDbLinetypeTableRecord
  2
BYBLOCK
 70
     0
  3

 72
    65
 73
     0
 40
0.0
  0
LTYPE
  5
12
100
AcDbSymbolTableRecord
100
AcDbLinetypeTableRecord
  2
BYLAYER
 70
     0
  3

 72
    65
 73
     0
 40
0.0
  0
LTYPE
  5
13
100
AcDbSymbolTableRecord
100
AcDbLinetypeTableRecord
  2
CONTINUOUS
 70
     0
  3
Solid line
 72
    65
 73
     0
 40
0.0
  0
LTYPE
  5
31
100
AcDbSymbolTableRecord
100
AcDbLinetypeTableRecord
  2
CENTER
 70
     0
  3
____ _ ____ _ ____ _ ____ _ ____ _ ____ _ ____ 
 72
    65
 73
     4
 40
2.0
 49
1.25
 74
     0
 49
-0.25
 74
     0
 49
0.25
 74
     0
 49
-0.25
 74
     0
  0
LTYPE
  5
33
100
AcDbSymbolTableRecord
100
AcDbLinetypeTableRecord
  2
HIDDEN
 70
     0
  3
__ __ __ __ __ __ __ __ __ __ __ __ __ __ __ __
 72
    65
 73
     2
 40
0.375
 49
0.25
 74
     0
 49
-0.125
 74
     0
  0
ENDTAB
  0
TABLE
  2
LAYER
  5
2
100
AcDbSymbolTable
 70
     7
  0
LAYER
  5
E
100
AcDbSymbolTableRecord
100
AcDbLayerTableRecord
  2
0
 70
     0
 62
     7
  6
CONTINUOUS
  0
LAYER
  5
37
100
AcDbSymbolTableRecord
100
AcDbLayerTableRecord
  2
OBJECT
 70
     0
 62
     2
  6
CONTINUOUS
  0
LAYER
  5
39
100
AcDbSymbolTableRecord
100
AcDbLayerTableRecord
  2
HIDDEN
 70
     0
 62
     1
  6
HIDDEN
  0
LAYER
  5
3A
100
AcDbSymbolTableRecord
100
AcDbLayerTableRecord
  2
CENTER
 70
     0
 62
     3
  6
CENTER
  0
LAYER
  5
3C
100
AcDbSymbolTableRecord
100
AcDbLayerTableRecord
  2
DEFPOINTS
 70
     0
 62
     7
  6
CONTINUOUS
  0
LAYER
  5
3D
100
AcDbSymbolTableRecord
100
AcDbLayerTableRecord
  2
BORDER
 70
     0
 62
     5
  6
CONTINUOUS
  0
LAYER
  5
40
100
AcDbSymbolTableRecord
100
AcDbLayerTableRecord
  2
LIMITS
 70
     0
 62
     7
  6
CONTINUOUS
  0
ENDTAB
  0
TABLE
  2
STYLE
  5
3
100
AcDbSymbolTable
 70
     5
  0
STYLE
  5
F
100
AcDbSymbolTableRecord
100
AcDbTextStyleTableRecord
  2
STANDARD
 70
     0
 40
0.0
 41
1.0
 50
0.0
 71
     0
 42
0.2
  3
txt
  4

  0
STYLE
  5
2B
100
AcDbSymbolTableRecord
100
AcDbTextStyleTableRecord
  2
ROMANS
 70
     0
 40
1.5
 41
1.0
 50
0.0
 71
     0
 42
1.5
  3
romans
  4

  0
STYLE
  5
2D
100
AcDbSymbolTableRecord
100
AcDbTextStyleTableRecord
  2
ROMAND
 70
     0
 40
1.35
 41
1.0
 50
0.0
 71
     0
 42
1.35
  3
romand
  4

  0
STYLE
  5
2E
100
AcDbSymbolTableRecord
100
AcDbTextStyleTableRecord
  2
ROMANC
 70
     0
 40
0.0531
 41
1.0
 50
0.0
 71
     0
 42
0.0531
  3
romanc
  4

  0
STYLE
  5
117F
100
AcDbSymbolTableRecord
100
AcDbTextStyleTableRecord
  2
COUNTRYBLUEPRINT
 70
     0
 40
0.061059
 41
1.0
 50
0.0
 71
     0
 42
0.061059
  3
cobt____.pfb
  4

  0
ENDTAB
  0
TABLE
  2
VIEW
  5
6
100
AcDbSymbolTable
 70
     0
  0
ENDTAB
  0
TABLE
  2
UCS
  5
7
100
AcDbSymbolTable
 70
     0
  0
ENDTAB
  0
TABLE
  2
APPID
  5
9
100
AcDbSymbolTable
 70
     6
  0
APPID
  5
10
100
AcDbSymbolTableRecord
100
AcDbRegAppTableRecord
  2
ACAD
 70
     0
  0
APPID
  5
1184
100
AcDbSymbolTableRecord
100
AcDbRegAppTableRecord
  2
CONTENTBLOCKICON
 70
     0
  0
APPID
  5
1185
100
AcDbSymbolTableRecord
100
AcDbRegAppTableRecord
  2
CONTENTBLOCKDESCRIPTION
 70
     0
  0
APPID
  5
1186
100
AcDbSymbolTableRecord
100
AcDbRegAppTableRecord
  2
DRAWINGVARIABLESXDATA
 70
     0
  0
APPID
  5
1187
100
AcDbSymbolTableRecord
100
AcDbRegAppTableRecord
  2
CONTENTTABDATA
 70
     0
  0
APPID
  5
1188
100
AcDbSymbolTableRecord
100
AcDbRegAppTableRecord
  2
CONTENTCURRENTTAB
 70
     0
  0
ENDTAB
  0
TABLE
  2
DIMSTYLE
  5
A
100
AcDbSymbolTable
 70
     1
  0
DIMSTYLE
105
1176
102
{ACAD_REACTORS
330
54C3
330
54E6
330
54E5
330
54E4
330
54C0
330
54BB
330
54EC
330
54BA
330
54E8
330
54BE
330
54BF
330
54C2
330
54C1
102
}
100
AcDbSymbolTableRecord
100
AcDbDimStyleTableRecord
  2
STANDARD
 70
     0
  3

  4

  5

  6

  7

 40
0.0
 41
1.3
 42
1.0
 43
0.38
 44
0.2
 45
0.0
 46
0.0
 47
0.0
 48
0.0
140
0.18
141
0.09
142
0.0
143
25.4
144
1.0
145
0.0
146
1.0
147
1.35
 71
     0
 72
     0
 73
     1
 74
     1
 75
     0
 76
     0
 77
     0
 78
    12
170
     0
171
     2
172
     0
173
     0
174
     0
175
     0
176
     0
177
     0
178
     0
270
     7
271
     4
272
     4
273
     2
274
     2
340
2D
275
     0
280
     0
281
     0
282
     0
283
     1
284
    12
285
     0
286
     0
287
     3
288
     0
  0
ENDTAB
  0
TABLE
  2
BLOCK_RECORD
  5
1
100
AcDbSymbolTable
 70
    14
  0
BLOCK_RECORD
  5
17
100
AcDbSymbolTableRecord
100
AcDbBlockTableRecord
  2
*MODEL_SPACE
  0
BLOCK_RECORD
  5
14
100
AcDbSymbolTableRecord
100
AcDbBlockTableRecord
  2
*PAPER_SPACE
  0
BLOCK_RECORD
  5
48EE
100
AcDbSymbolTableRecord
100
AcDbBlockTableRecord
  2
CR
  0
BLOCK_RECORD
  5
5557
100
AcDbSymbolTableRecord
100
AcDbBlockTableRecord
  2
*D1
  0
BLOCK_RECORD
  5
5562
100
AcDbSymbolTableRecord
100
AcDbBlockTableRecord
  2
*D2
  0
BLOCK_RECORD
  5
556F
100
AcDbSymbolTableRecord
100
AcDbBlockTableRecord
  2
*D3
  0
BLOCK_RECORD
  5
557C
100
AcDbSymbolTableRecord
100
AcDbBlockTableRecord
  2
*D4
  0
BLOCK_RECORD
  5
5589
100
AcDbSymbolTableRecord
100
AcDbBlockTableRecord
  2
*D5
  0
BLOCK_RECORD
  5
5596
100
AcDbSymbolTableRecord
100
AcDbBlockTableRecord
  2
*D6
  0
BLOCK_RECORD
  5
55A4
100
AcDbSymbolTableRecord
100
AcDbBlockTableRecord
  2
*D7
  0
BLOCK_RECORD
  5
55B2
100
AcDbSymbolTableRecord
100
AcDbBlockTableRecord
  2
*D8
  0
BLOCK_RECORD
  5
55C0
100
AcDbSymbolTableRecord
100
AcDbBlockTableRecord
  2
*D9
  0
BLOCK_RECORD
  5
55CE
100
AcDbSymbolTableRecord
100
AcDbBlockTableRecord
  2
*D10
  0
BLOCK_RECORD
  5
55DC
100
AcDbSymbolTableRecord
100
AcDbBlockTableRecord
  2
*D11
  0
BLOCK_RECORD
  5
55E9
100
AcDbSymbolTableRecord
100
AcDbBlockTableRecord
  2
*D12
  0
BLOCK_RECORD
  5
55F6
100
AcDbSymbolTableRecord
100
AcDbBlockTableRecord
  2
*D13
  0
ENDTAB
  0
ENDSEC
  0
SECTION
  2
BLOCKS
  0
BLOCK
  5
43
100
AcDbEntity
  8
0
100
AcDbBlockBegin
  2
*MODEL_SPACE
 70
     0
 10
0.0
 20
0.0
 30
0.0
  3
*MODEL_SPACE
  1

  0
ENDBLK
  5
44
100
AcDbEntity
  8
0
100
AcDbBlockEnd
  0
BLOCK
  5
41
100
AcDbEntity
 67
     1
  8
0
100
AcDbBlockBegin
  2
*PAPER_SPACE
 70
     0
 10
0.0
 20
0.0
 30
0.0
  3
*PAPER_SPACE
  1

  0
ENDBLK
  5
42
100
AcDbEntity
 67
     1
  8
0
100
AcDbBlockEnd
  0
BLOCK
  5
48F7
100
AcDbEntity
  8
0
100
AcDbBlockBegin
  2
CR
 70
     0
 10
0.0
 20
0.0
 30
0.0
  3
CR
  1

  0
TEXT
  5
48EF
100
AcDbEntity
  8
0
 62
     2
100
AcDbText
 10
0.034027
 20
0.526903
 30
0.0
 40
0.045
  1
This print is and contains confidential proprietary information 
  7
ROMANS
100
AcDbText
  0
TEXT
  5
48F0
100
AcDbEntity
  8
0
 62
     2
100
AcDbText
 10
0.034027
 20
0.08976
 30
0.0
 40
0.045
  1
procure the manufacture of the items shown in this print by
  7
ROMANS
100
AcDbText
  0
TEXT
  5
48F1
100
AcDbEntity
  8
0
 62
     2
100
AcDbText
 10
0.034027
 20
0.162617
 30
0.0
 40
0.045
  1
information purposes and will not be used to manufacture or
  7
ROMANS
100
AcDbText
  0
TEXT
  5
48F2
100
AcDbEntity
  8
0
 62
     2
100
AcDbText
 10
0.034027
 20
0.235474
 30
0.0
 40
0.045
  1
used as a record or to identify or inspect parts or for other 
  7
ROMANS
100
AcDbText
  0
TEXT
  5
48F3
100
AcDbEntity
  8
0
 62
     2
100
AcDbText
 10
0.034027
 20
0.308331
 30
0.0
 40
0.045
  1
is not limited to the condition that this print will not only be
  7
ROMANS
100
AcDbText
  0
TEXT
  5
48F4
100
AcDbEntity
  8
0
 62
     2
100
AcDbText
 10
0.034027
 20
0.381188
 30
0.0
 40
0.045
  1
on a strictly confidential basis.  This restriction includes, but 
  7
ROMANS
100
AcDbText
  0
TEXT
  5
48F5
100
AcDbEntity
  8
0
 62
     2
100
AcDbText
 10
0.034027
 20
0.454046
 30
0.0
 40
0.045
  1
owned exclusively by TOPP INDUSTRIES INC.  It is furnished
  7
ROMANS
100
AcDbText
  0
TEXT
  5
48F6
100
AcDbEntity
  8
0
 62
     2
100
AcDbText
 10
0.034027
 20
0.016903
 30
0.0
 40
0.045
  1
any other source other than TOPP INDUSTRIES INC.
  7
ROMANS
100
AcDbText
  0
ENDBLK
  5
48F8
100
AcDbEntity
  8
0
100
AcDbBlockEnd
  0
BLOCK
  5
5558
100
AcDbEntity
  8
0
100
AcDbBlockBegin
  2
*D1
 70
     1
 10
0.0
 20
0.0
 30
0.0
  3
*D1
  1

  0
LINE
  5
5559
100
AcDbEntity
  8
0
  6
BYBLOCK
 62
     0
100
AcDbLine
 10
189.62403
 20
316.279252
 30
0.0
 11
188.32403
 21
316.279252
 31
0.0
  0
LINE
  5
555A
100
AcDbEntity
  8
0
  6
BYBLOCK
 62
     0
100
AcDbLine
 10
188.32403
 20
316.279252
 30
0.0
 11
182.920828
 21
309.932711
 31
0.0
  0
MTEXT
  5
555B
100
AcDbEntity
  8
0
  6
BYBLOCK
 62
     0
100
AcDbMText
 10
195.956173
 20
316.279252
 30
0.0
 40
1.35
 41
0.0
 71
     5
 72
     1
  1
\A1;\U+220523 3/8"
  7
ROMAND
  0
SOLID
  5
555C
100
AcDbEntity
  8
0
  6
BYBLOCK
 62
     0
100
AcDbTrace
 10
182.755852
 20
310.073165
 30
0.0
 11
183.085804
 21
309.792257
 31
0.0
 12
182.078103
 22
308.942855
 32
0.0
 13
182.078103
 23
308.942855
 33
0.0
  0
LINE
  5
555D
100
AcDbEntity
  8
0
  6
BYBLOCK
 62
     0
100
AcDbLine
 10
174.411679
 20
300.043672
 30
0.0
 11
174.591679
 21
300.043672
 31
0.0
  0
LINE
  5
555E
100
AcDbEntity
  8
0
  6
BYBLOCK
 62
     0
100
AcDbLine
 10
174.501679
 20
299.953672
 30
0.0
 11
174.501679
 21
300.133672
 31
0.0
  0
POINT
  5
555F
100
AcDbEntity
  8
DEFPOINTS
  6
BYBLOCK
 62
     0
100
AcDbPoint
 10
182.078103
 20
308.942855
 30
0.0
  0
POINT
  5
5560
100
AcDbEntity
  8
DEFPOINTS
  6
BYBLOCK
 62
     0
100
AcDbPoint
 10
166.925255
 20
291.144489
 30
0.0
  0
ENDBLK
  5
5561
100
AcDbEntity
  8
0
100
AcDbBlockEnd
  0
BLOCK
  5
5563
100
AcDbEntity
  8
0
100
AcDbBlockBegin
  2
*D2
 70
     1
 10
0.0
 20
0.0
 30
0.0
  3
*D2
  1

  0
LINE
  5
5564
100
AcDbEntity
  8
0
  6
BYBLOCK
 62
     0
100
AcDbLine
 10
158.001679
 20
328.277326
 30
0.0
 11
158.001679
 21
320.322215
 31
0.0
  0
LINE
  5
5565
100
AcDbEntity
  8
0
  6
BYBLOCK
 62
     0
100
AcDbLine
 10
191.001679
 20
328.277326
 30
0.0
 11
191.001679
 21
320.322215
 31
0.0
  0
LINE
  5
5566
100
AcDbEntity
  8
0
  6
BYBLOCK
 62
     0
100
AcDbLine
 10
159.301679
 20
320.522215
 30
0.0
 11
171.512393
 21
320.522215
 31
0.0
  0
LINE
  5
5567
100
AcDbEntity
  8
0
  6
BYBLOCK
 62
     0
100
AcDbLine
 10
189.701679
 20
320.522215
 30
0.0
 11
177.490965
 21
320.522215
 31
0.0
  0
SOLID
  5
5568
100
AcDbEntity
  8
0
  6
BYBLOCK
 62
     0
100
AcDbTrace
 10
159.301679
 20
320.738881
 30
0.0
 11
159.301679
 21
320.305548
 31
0.0
 12
158.001679
 22
320.522215
 32
0.0
 13
158.001679
 23
320.522215
 33
0.0
  0
SOLID
  5
5569
100
AcDbEntity
  8
0
  6
BYBLOCK
 62
     0
100
AcDbTrace
 10
189.701679
 20
320.738881
 30
0.0
 11
189.701679
 21
320.305548
 31
0.0
 12
191.001679
 22
320.522215
 32
0.0
 13
191.001679
 23
320.522215
 33
0.0
  0
MTEXT
  5
556A
100
AcDbEntity
  8
0
  6
BYBLOCK
 62
     0
100
AcDbMText
 10
174.501679
 20
320.522215
 30
0.0
 40
1.35
 41
0.0
 71
     5
 72
     1
  1
\A1;33"
  7
ROMAND
  0
POINT
  5
556B
100
AcDbEntity
  8
DEFPOINTS
  6
BYBLOCK
 62
     0
100
AcDbPoint
 10
158.001679
 20
329.277326
 30
0.0
  0
POINT
  5
556C
100
AcDbEntity
  8
DEFPOINTS
  6
BYBLOCK
 62
     0
100
AcDbPoint
 10
191.001679
 20
329.277326
 30
0.0
  0
POINT
  5
556D
100
AcDbEntity
  8
DEFPOINTS
  6
BYBLOCK
 62
     0
100
AcDbPoint
 10
191.001679
 20
320.522215
 30
0.0
  0
ENDBLK
  5
556E
100
AcDbEntity
  8
0
100
AcDbBlockEnd
  0
BLOCK
  5
5570
100
AcDbEntity
  8
0
100
AcDbBlockBegin
  2
*D3
 70
     1
 10
0.0
 20
0.0
 30
0.0
  3
*D3
  1

  0
LINE
  5
5571
100
AcDbEntity
  8
0
  6
BYBLOCK
 62
     0
100
AcDbLine
 10
160.376679
 20
331.402326
 30
0.0
 11
160.376679
 21
323.768635
 31
0.0
  0
LINE
  5
5572
100
AcDbEntity
  8
0
  6
BYBLOCK
 62
     0
100
AcDbLine
 10
188.626679
 20
331.402326
 30
0.0
 11
188.626679
 21
323.768635
 31
0.0
  0
LINE
  5
5573
100
AcDbEntity
  8
0
  6
BYBLOCK
 62
     0
100
AcDbLine
 10
161.676679
 20
323.968635
 30
0.0
 11
168.812393
 21
323.968635
 31
0.0
  0
LINE
  5
5574
100
AcDbEntity
  8
0
  6
BYBLOCK
 62
     0
100
AcDbLine
 10
187.326679
 20
323.968635
 30
0.0
 11
180.190965
 21
323.968635
 31
0.0
  0
SOLID
  5
5575
100
AcDbEntity
  8
0
  6
BYBLOCK
 62
     0
100
AcDbTrace
 10
161.676679
 20
324.185301
 30
0.0
 11
161.676679
 21
323.751968
 31
0.0
 12
160.376679
 22
323.968635
 32
0.0
 13
160.376679
 23
323.968635
 33
0.0
  0
SOLID
  5
5576
100
AcDbEntity
  8
0
  6
BYBLOCK
 62
     0
100
AcDbTrace
 10
187.326679
 20
324.185301
 30
0.0
 11
187.326679
 21
323.751968
 31
0.0
 12
188.626679
 22
323.968635
 32
0.0
 13
188.626679
 23
323.968635
 33
0.0
  0
MTEXT
  5
5577
100
AcDbEntity
  8
0
  6
BYBLOCK
 62
     0
100
AcDbMText
 10
174.501679
 20
323.968635
 30
0.0
 40
1.35
 41
0.0
 71
     5
 72
     1
  1
\A1;28 1/4"
  7
ROMAND
  0
POINT
  5
5578
100
AcDbEntity
  8
DEFPOINTS
  6
BYBLOCK
 62
     0
100
AcDbPoint
 10
160.376679
 20
332.402326
 30
0.0
  0
POINT
  5
5579
100
AcDbEntity
  8
DEFPOINTS
  6
BYBLOCK
 62
     0
100
AcDbPoint
 10
188.626679
 20
332.402326
 30
0.0
  0
POINT
  5
557A
100
AcDbEntity
  8
DEFPOINTS
  6
BYBLOCK
 62
     0
100
AcDbPoint
 10
188.626679
 20
323.968635
 30
0.0
  0
ENDBLK
  5
557B
100
AcDbEntity
  8
0
100
AcDbBlockEnd
  0
BLOCK
  5
557D
100
AcDbEntity
  8
0
100
AcDbBlockBegin
  2
*D4
 70
     1
 10
0.0
 20
0.0
 30
0.0
  3
*D4
  1

  0
LINE
  5
557E
100
AcDbEntity
  8
0
  6
BYBLOCK
 62
     0
100
AcDbLine
 10
161.501679
 20
329.902326
 30
0.0
 11
161.501679
 21
326.502003
 31
0.0
  0
LINE
  5
557F
100
AcDbEntity
  8
0
  6
BYBLOCK
 62
     0
100
AcDbLine
 10
187.501679
 20
329.902326
 30
0.0
 11
187.501679
 21
326.502003
 31
0.0
  0
LINE
  5
5580
100
AcDbEntity
  8
0
  6
BYBLOCK
 62
     0
100
AcDbLine
 10
162.801679
 20
326.702003
 30
0.0
 11
171.512393
 21
326.702003
 31
0.0
  0
LINE
  5
5581
100
AcDbEntity
  8
0
  6
BYBLOCK
 62
     0
100
AcDbLine
 10
186.201679
 20
326.702003
 30
0.0
 11
177.490965
 21
326.702003
 31
0.0
  0
SOLID
  5
5582
100
AcDbEntity
  8
0
  6
BYBLOCK
 62
     0
100
AcDbTrace
 10
162.801679
 20
326.918669
 30
0.0
 11
162.801679
 21
326.485336
 31
0.0
 12
161.501679
 22
326.702003
 32
0.0
 13
161.501679
 23
326.702003
 33
0.0
  0
SOLID
  5
5583
100
AcDbEntity
  8
0
  6
BYBLOCK
 62
     0
100
AcDbTrace
 10
186.201679
 20
326.918669
 30
0.0
 11
186.201679
 21
326.485336
 31
0.0
 12
187.501679
 22
326.702003
 32
0.0
 13
187.501679
 23
326.702003
 33
0.0
  0
MTEXT
  5
5584
100
AcDbEntity
  8
0
  6
BYBLOCK
 62
     0
100
AcDbMText
 10
174.501679
 20
326.702003
 30
0.0
 40
1.35
 41
0.0
 71
     5
 72
     1
  1
\A1;26"
  7
ROMAND
  0
POINT
  5
5585
100
AcDbEntity
  8
DEFPOINTS
  6
BYBLOCK
 62
     0
100
AcDbPoint
 10
161.501679
 20
330.902326
 30
0.0
  0
POINT
  5
5586
100
AcDbEntity
  8
DEFPOINTS
  6
BYBLOCK
 62
     0
100
AcDbPoint
 10
187.501679
 20
330.902326
 30
0.0
  0
POINT
  5
5587
100
AcDbEntity
  8
DEFPOINTS
  6
BYBLOCK
 62
     0
100
AcDbPoint
 10
187.501679
 20
326.702003
 30
0.0
  0
ENDBLK
  5
5588
100
AcDbEntity
  8
0
100
AcDbBlockEnd
  0
BLOCK
  5
558A
100
AcDbEntity
  8
0
100
AcDbBlockBegin
  2
*D5
 70
     1
 10
0.0
 20
0.0
 30
0.0
  3
*D5
  1

  0
LINE
  5
558B
100
AcDbEntity
  8
0
  6
BYBLOCK
 62
     0
100
AcDbLine
 10
171.001679
 20
352.777326
 30
0.0
 11
171.001679
 21
364.71916
 31
0.0
  0
LINE
  5
558C
100
AcDbEntity
  8
0
  6
BYBLOCK
 62
     0
100
AcDbLine
 10
178.001679
 20
352.777326
 30
0.0
 11
178.001679
 21
364.71916
 31
0.0
  0
LINE
  5
558D
100
AcDbEntity
  8
0
  6
BYBLOCK
 62
     0
100
AcDbLine
 10
172.301679
 20
364.51916
 30
0.0
 11
176.701679
 21
364.51916
 31
0.0
  0
LINE
  5
558E
100
AcDbEntity
  8
0
  6
BYBLOCK
 62
     0
100
AcDbLine
 10
178.001679
 20
364.51916
 30
0.0
 11
179.301679
 21
364.51916
 31
0.0
  0
SOLID
  5
558F
100
AcDbEntity
  8
0
  6
BYBLOCK
 62
     0
100
AcDbTrace
 10
172.301679
 20
364.735826
 30
0.0
 11
172.301679
 21
364.302493
 31
0.0
 12
171.001679
 22
364.51916
 32
0.0
 13
171.001679
 23
364.51916
 33
0.0
  0
SOLID
  5
5590
100
AcDbEntity
  8
0
  6
BYBLOCK
 62
     0
100
AcDbTrace
 10
176.701679
 20
364.735826
 30
0.0
 11
176.701679
 21
364.302493
 31
0.0
 12
178.001679
 22
364.51916
 32
0.0
 13
178.001679
 23
364.51916
 33
0.0
  0
MTEXT
  5
5591
100
AcDbEntity
  8
0
  6
BYBLOCK
 62
     0
100
AcDbMText
 10
181.648108
 20
364.51916
 30
0.0
 40
1.35
 41
0.0
 71
     5
 72
     1
  1
\A1;7"
  7
ROMAND
  0
POINT
  5
5592
100
AcDbEntity
  8
DEFPOINTS
  6
BYBLOCK
 62
     0
100
AcDbPoint
 10
171.001679
 20
351.777326
 30
0.0
  0
POINT
  5
5593
100
AcDbEntity
  8
DEFPOINTS
  6
BYBLOCK
 62
     0
100
AcDbPoint
 10
178.001679
 20
351.777326
 30
0.0
  0
POINT
  5
5594
100
AcDbEntity
  8
DEFPOINTS
  6
BYBLOCK
 62
     0
100
AcDbPoint
 10
178.001679
 20
364.51916
 30
0.0
  0
ENDBLK
  5
5595
100
AcDbEntity
  8
0
100
AcDbBlockEnd
  0
BLOCK
  5
5597
100
AcDbEntity
  8
0
100
AcDbBlockBegin
  2
*D6
 70
     1
 10
0.0
 20
0.0
 30
0.0
  3
*D6
  1

  0
LINE
  5
5598
100
AcDbEntity
  8
0
  6
BYBLOCK
 62
     0
100
AcDbLine
 10
157.001679
 20
330.902326
 30
0.0
 11
154.83427
 21
330.902326
 31
0.0
  0
LINE
  5
5599
100
AcDbEntity
  8
0
  6
BYBLOCK
 62
     0
100
AcDbLine
 10
157.001679
 20
329.277326
 30
0.0
 11
154.83427
 21
329.277326
 31
0.0
  0
LINE
  5
559A
100
AcDbEntity
  8
0
  6
BYBLOCK
 62
     0
100
AcDbLine
 10
155.03427
 20
332.202326
 30
0.0
 11
155.03427
 21
333.502326
 31
0.0
  0
LINE
  5
559B
100
AcDbEntity
  8
0
  6
BYBLOCK
 62
     0
100
AcDbLine
 10
155.03427
 20
327.977326
 30
0.0
 11
155.03427
 21
326.677326
 31
0.0
  0
LINE
  5
559C
100
AcDbEntity
  8
0
  6
BYBLOCK
 62
     0
100
AcDbLine
 10
155.03427
 20
326.677326
 30
0.0
 11
153.73427
 21
326.677326
 31
0.0
  0
SOLID
  5
559D
100
AcDbEntity
  8
0
  6
BYBLOCK
 62
     0
100
AcDbTrace
 10
154.817603
 20
332.202326
 30
0.0
 11
155.250936
 21
332.202326
 31
0.0
 12
155.03427
 22
330.902326
 32
0.0
 13
155.03427
 23
330.902326
 33
0.0
  0
SOLID
  5
559E
100
AcDbEntity
  8
0
  6
BYBLOCK
 62
     0
100
AcDbTrace
 10
154.817603
 20
327.977326
 30
0.0
 11
155.250936
 21
327.977326
 31
0.0
 12
155.03427
 22
329.277326
 32
0.0
 13
155.03427
 23
329.277326
 33
0.0
  0
MTEXT
  5
559F
100
AcDbEntity
  8
0
  6
BYBLOCK
 62
     0
100
AcDbMText
 10
148.78427
 20
326.677326
 30
0.0
 40
1.35
 41
0.0
 71
     5
 72
     1
  1
\A1;1 5/8"
  7
ROMAND
  0
POINT
  5
55A0
100
AcDbEntity
  8
DEFPOINTS
  6
BYBLOCK
 62
     0
100
AcDbPoint
 10
158.001679
 20
330.902326
 30
0.0
  0
POINT
  5
55A1
100
AcDbEntity
  8
DEFPOINTS
  6
BYBLOCK
 62
     0
100
AcDbPoint
 10
158.001679
 20
329.277326
 30
0.0
  0
POINT
  5
55A2
100
AcDbEntity
  8
DEFPOINTS
  6
BYBLOCK
 62
     0
100
AcDbPoint
 10
155.03427
 20
329.277326
 30
0.0
  0
ENDBLK
  5
55A3
100
AcDbEntity
  8
0
100
AcDbBlockEnd
  0
BLOCK
  5
55A5
100
AcDbEntity
  8
0
100
AcDbBlockBegin
  2
*D7
 70
     1
 10
0.0
 20
0.0
 30
0.0
  3
*D7
  1

  0
LINE
  5
55A6
100
AcDbEntity
  8
0
  6
BYBLOCK
 62
     0
100
AcDbLine
 10
160.501679
 20
351.777326
 30
0.0
 11
156.941926
 21
351.777326
 31
0.0
  0
LINE
  5
55A7
100
AcDbEntity
  8
0
  6
BYBLOCK
 62
     0
100
AcDbLine
 10
160.501679
 20
343.277326
 30
0.0
 11
156.941926
 21
343.277326
 31
0.0
  0
LINE
  5
55A8
100
AcDbEntity
  8
0
  6
BYBLOCK
 62
     0
100
AcDbLine
 10
157.141926
 20
350.477326
 30
0.0
 11
157.141926
 21
344.577326
 31
0.0
  0
LINE
  5
55A9
100
AcDbEntity
  8
0
  6
BYBLOCK
 62
     0
100
AcDbLine
 10
157.141926
 20
343.277326
 30
0.0
 11
157.141926
 21
341.977326
 31
0.0
  0
LINE
  5
55AA
100
AcDbEntity
  8
0
  6
BYBLOCK
 62
     0
100
AcDbLine
 10
157.141926
 20
341.977326
 30
0.0
 11
155.841926
 21
341.977326
 31
0.0
  0
SOLID
  5
55AB
100
AcDbEntity
  8
0
  6
BYBLOCK
 62
     0
100
AcDbTrace
 10
156.925259
 20
350.477326
 30
0.0
 11
157.358593
 21
350.477326
 31
0.0
 12
157.141926
 22
351.777326
 32
0.0
 13
157.141926
 23
351.777326
 33
0.0
  0
SOLID
  5
55AC
100
AcDbEntity
  8
0
  6
BYBLOCK
 62
     0
100
AcDbTrace
 10
156.925259
 20
344.577326
 30
0.0
 11
157.358593
 21
344.577326
 31
0.0
 12
157.141926
 22
343.277326
 32
0.0
 13
157.141926
 23
343.277326
 33
0.0
  0
MTEXT
  5
55AD
100
AcDbEntity
  8
0
  6
BYBLOCK
 62
     0
100
AcDbMText
 10
150.795497
 20
341.977326
 30
0.0
 40
1.35
 41
0.0
 71
     5
 72
     1
  1
\A1;8 1/2"
  7
ROMAND
  0
POINT
  5
55AE
100
AcDbEntity
  8
DEFPOINTS
  6
BYBLOCK
 62
     0
100
AcDbPoint
 10
161.501679
 20
351.777326
 30
0.0
  0
POINT
  5
55AF
100
AcDbEntity
  8
DEFPOINTS
  6
BYBLOCK
 62
     0
100
AcDbPoint
 10
161.501679
 20
343.277326
 30
0.0
  0
POINT
  5
55B0
100
AcDbEntity
  8
DEFPOINTS
  6
BYBLOCK
 62
     0
100
AcDbPoint
 10
157.141926
 20
343.277326
 30
0.0
  0
ENDBLK
  5
55B1
100
AcDbEntity
  8
0
100
AcDbBlockEnd
  0
BLOCK
  5
55B3
100
AcDbEntity
  8
0
100
AcDbBlockBegin
  2
*D8
 70
     1
 10
0.0
 20
0.0
 30
0.0
  3
*D8
  1

  0
LINE
  5
55B4
100
AcDbEntity
  8
0
  6
BYBLOCK
 62
     0
100
AcDbLine
 10
157.001679
 20
330.902326
 30
0.0
 11
137.069735
 21
330.902326
 31
0.0
  0
LINE
  5
55B5
100
AcDbEntity
  8
0
  6
BYBLOCK
 62
     0
100
AcDbLine
 10
159.376679
 20
332.402326
 30
0.0
 11
137.069735
 21
332.402326
 31
0.0
  0
LINE
  5
55B6
100
AcDbEntity
  8
0
  6
BYBLOCK
 62
     0
100
AcDbLine
 10
137.269735
 20
329.602326
 30
0.0
 11
137.269735
 21
328.302326
 31
0.0
  0
LINE
  5
55B7
100
AcDbEntity
  8
0
  6
BYBLOCK
 62
     0
100
AcDbLine
 10
137.269735
 20
333.702326
 30
0.0
 11
137.269735
 21
335.002326
 31
0.0
  0
LINE
  5
55B8
100
AcDbEntity
  8
0
  6
BYBLOCK
 62
     0
100
AcDbLine
 10
137.269735
 20
335.002326
 30
0.0
 11
138.569735
 21
335.002326
 31
0.0
  0
SOLID
  5
55B9
100
AcDbEntity
  8
0
  6
BYBLOCK
 62
     0
100
AcDbTrace
 10
137.053069
 20
329.602326
 30
0.0
 11
137.486402
 21
329.602326
 31
0.0
 12
137.269735
 22
330.902326
 32
0.0
 13
137.269735
 23
330.902326
 33
0.0
  0
SOLID
  5
55BA
100
AcDbEntity
  8
0
  6
BYBLOCK
 62
     0
100
AcDbTrace
 10
137.053069
 20
333.702326
 30
0.0
 11
137.486402
 21
333.702326
 31
0.0
 12
137.269735
 22
332.402326
 32
0.0
 13
137.269735
 23
332.402326
 33
0.0
  0
MTEXT
  5
55BB
100
AcDbEntity
  8
0
  6
BYBLOCK
 62
     0
100
AcDbMText
 10
143.519735
 20
335.002326
 30
0.0
 40
1.35
 41
0.0
 71
     5
 72
     1
  1
\A1;1 1/2"
  7
ROMAND
  0
POINT
  5
55BC
100
AcDbEntity
  8
DEFPOINTS
  6
BYBLOCK
 62
     0
100
AcDbPoint
 10
158.001679
 20
330.902326
 30
0.0
  0
POINT
  5
55BD
100
AcDbEntity
  8
DEFPOINTS
  6
BYBLOCK
 62
     0
100
AcDbPoint
 10
160.376679
 20
332.402326
 30
0.0
  0
POINT
  5
55BE
100
AcDbEntity
  8
DEFPOINTS
  6
BYBLOCK
 62
     0
100
AcDbPoint
 10
137.269735
 20
332.402326
 30
0.0
  0
ENDBLK
  5
55BF
100
AcDbEntity
  8
0
100
AcDbBlockEnd
  0
BLOCK
  5
55C1
100
AcDbEntity
  8
0
100
AcDbBlockBegin
  2
*D9
 70
     1
 10
0.0
 20
0.0
 30
0.0
  3
*D9
  1

  0
LINE
  5
55C2
100
AcDbEntity
  8
0
  6
BYBLOCK
 62
     0
100
AcDbLine
 10
159.376679
 20
332.402326
 30
0.0
 11
149.213852
 21
332.402326
 31
0.0
  0
LINE
  5
55C3
100
AcDbEntity
  8
0
  6
BYBLOCK
 62
     0
100
AcDbLine
 10
159.376679
 20
334.777326
 30
0.0
 11
149.213852
 21
334.777326
 31
0.0
  0
LINE
  5
55C4
100
AcDbEntity
  8
0
  6
BYBLOCK
 62
     0
100
AcDbLine
 10
149.413852
 20
331.102326
 30
0.0
 11
149.413852
 21
329.802326
 31
0.0
  0
LINE
  5
55C5
100
AcDbEntity
  8
0
  6
BYBLOCK
 62
     0
100
AcDbLine
 10
149.413852
 20
336.077326
 30
0.0
 11
149.413852
 21
337.377326
 31
0.0
  0
LINE
  5
55C6
100
AcDbEntity
  8
0
  6
BYBLOCK
 62
     0
100
AcDbLine
 10
149.413852
 20
337.377326
 30
0.0
 11
150.713852
 21
337.377326
 31
0.0
  0
SOLID
  5
55C7
100
AcDbEntity
  8
0
  6
BYBLOCK
 62
     0
100
AcDbTrace
 10
149.197185
 20
331.102326
 30
0.0
 11
149.630519
 21
331.102326
 31
0.0
 12
149.413852
 22
332.402326
 32
0.0
 13
149.413852
 23
332.402326
 33
0.0
  0
SOLID
  5
55C8
100
AcDbEntity
  8
0
  6
BYBLOCK
 62
     0
100
AcDbTrace
 10
149.197185
 20
336.077326
 30
0.0
 11
149.630519
 21
336.077326
 31
0.0
 12
149.413852
 22
334.777326
 32
0.0
 13
149.413852
 23
334.777326
 33
0.0
  0
MTEXT
  5
55C9
100
AcDbEntity
  8
0
  6
BYBLOCK
 62
     0
100
AcDbMText
 10
155.760281
 20
337.377326
 30
0.0
 40
1.35
 41
0.0
 71
     5
 72
     1
  1
\A1;2 3/8"
  7
ROMAND
  0
POINT
  5
55CA
100
AcDbEntity
  8
DEFPOINTS
  6
BYBLOCK
 62
     0
100
AcDbPoint
 10
160.376679
 20
332.402326
 30
0.0
  0
POINT
  5
55CB
100
AcDbEntity
  8
DEFPOINTS
  6
BYBLOCK
 62
     0
100
AcDbPoint
 10
160.376679
 20
334.777326
 30
0.0
  0
POINT
  5
55CC
100
AcDbEntity
  8
DEFPOINTS
  6
BYBLOCK
 62
     0
100
AcDbPoint
 10
149.413852
 20
334.777326
 30
0.0
  0
ENDBLK
  5
55CD
100
AcDbEntity
  8
0
100
AcDbBlockEnd
  0
BLOCK
  5
55CF
100
AcDbEntity
  8
0
100
AcDbBlockBegin
  2
*D10
 70
     1
 10
0.0
 20
0.0
 30
0.0
  3
*D10
  1

  0
LINE
  5
55D0
100
AcDbEntity
  8
0
  6
BYBLOCK
 62
     0
100
AcDbLine
 10
160.501679
 20
357.277326
 30
0.0
 11
153.629894
 21
357.277326
 31
0.0
  0
LINE
  5
55D1
100
AcDbEntity
  8
0
  6
BYBLOCK
 62
     0
100
AcDbLine
 10
160.501679
 20
358.277326
 30
0.0
 11
153.629894
 21
358.277326
 31
0.0
  0
LINE
  5
55D2
100
AcDbEntity
  8
0
  6
BYBLOCK
 62
     0
100
AcDbLine
 10
153.829894
 20
355.977326
 30
0.0
 11
153.829894
 21
354.677326
 31
0.0
  0
LINE
  5
55D3
100
AcDbEntity
  8
0
  6
BYBLOCK
 62
     0
100
AcDbLine
 10
153.829894
 20
359.577326
 30
0.0
 11
153.829894
 21
360.877326
 31
0.0
  0
LINE
  5
55D4
100
AcDbEntity
  8
0
  6
BYBLOCK
 62
     0
100
AcDbLine
 10
153.829894
 20
360.877326
 30
0.0
 11
155.129894
 21
360.877326
 31
0.0
  0
SOLID
  5
55D5
100
AcDbEntity
  8
0
  6
BYBLOCK
 62
     0
100
AcDbTrace
 10
153.613228
 20
355.977326
 30
0.0
 11
154.046561
 21
355.977326
 31
0.0
 12
153.829894
 22
357.277326
 32
0.0
 13
153.829894
 23
357.277326
 33
0.0
  0
SOLID
  5
55D6
100
AcDbEntity
  8
0
  6
BYBLOCK
 62
     0
100
AcDbTrace
 10
153.613228
 20
359.577326
 30
0.0
 11
154.046561
 21
359.577326
 31
0.0
 12
153.829894
 22
358.277326
 32
0.0
 13
153.829894
 23
358.277326
 33
0.0
  0
MTEXT
  5
55D7
100
AcDbEntity
  8
0
  6
BYBLOCK
 62
     0
100
AcDbMText
 10
157.379894
 20
360.877326
 30
0.0
 40
1.35
 41
0.0
 71
     5
 72
     1
  1
\A1;1"
  7
ROMAND
  0
POINT
  5
55D8
100
AcDbEntity
  8
DEFPOINTS
  6
BYBLOCK
 62
     0
100
AcDbPoint
 10
161.501679
 20
357.277326
 30
0.0
  0
POINT
  5
55D9
100
AcDbEntity
  8
DEFPOINTS
  6
BYBLOCK
 62
     0
100
AcDbPoint
 10
161.501679
 20
358.277326
 30
0.0
  0
POINT
  5
55DA
100
AcDbEntity
  8
DEFPOINTS
  6
BYBLOCK
 62
     0
100
AcDbPoint
 10
153.829894
 20
358.277326
 30
0.0
  0
ENDBLK
  5
55DB
100
AcDbEntity
  8
0
100
AcDbBlockEnd
  0
BLOCK
  5
55DD
100
AcDbEntity
  8
0
100
AcDbBlockBegin
  2
*D11
 70
     1
 10
0.0
 20
0.0
 30
0.0
  3
*D11
  1

  0
LINE
  5
55DE
100
AcDbEntity
  8
0
  6
BYBLOCK
 62
     0
100
AcDbLine
 10
162.751679
 20
352.777326
 30
0.0
 11
162.751679
 21
364.71916
 31
0.0
  0
LINE
  5
55DF
100
AcDbEntity
  8
0
  6
BYBLOCK
 62
     0
100
AcDbLine
 10
161.501679
 20
359.277326
 30
0.0
 11
161.501679
 21
364.71916
 31
0.0
  0
LINE
  5
55E0
100
AcDbEntity
  8
0
  6
BYBLOCK
 62
     0
100
AcDbLine
 10
164.051679
 20
364.51916
 30
0.0
 11
165.351679
 21
364.51916
 31
0.0
  0
LINE
  5
55E1
100
AcDbEntity
  8
0
  6
BYBLOCK
 62
     0
100
AcDbLine
 10
160.201679
 20
364.51916
 30
0.0
 11
158.901679
 21
364.51916
 31
0.0
  0
SOLID
  5
55E2
100
AcDbEntity
  8
0
  6
BYBLOCK
 62
     0
100
AcDbTrace
 10
164.051679
 20
364.735826
 30
0.0
 11
164.051679
 21
364.302493
 31
0.0
 12
162.751679
 22
364.51916
 32
0.0
 13
162.751679
 23
364.51916
 33
0.0
  0
SOLID
  5
55E3
100
AcDbEntity
  8
0
  6
BYBLOCK
 62
     0
100
AcDbTrace
 10
160.201679
 20
364.735826
 30
0.0
 11
160.201679
 21
364.302493
 31
0.0
 12
161.501679
 22
364.51916
 32
0.0
 13
161.501679
 23
364.51916
 33
0.0
  0
MTEXT
  5
55E4
100
AcDbEntity
  8
0
  6
BYBLOCK
 62
     0
100
AcDbMText
 10
153.951679
 20
364.51916
 30
0.0
 40
1.35
 41
0.0
 71
     5
 72
     1
  1
\A1;1 1/4"
  7
ROMAND
  0
POINT
  5
55E5
100
AcDbEntity
  8
DEFPOINTS
  6
BYBLOCK
 62
     0
100
AcDbPoint
 10
162.751679
 20
351.777326
 30
0.0
  0
POINT
  5
55E6
100
AcDbEntity
  8
DEFPOINTS
  6
BYBLOCK
 62
     0
100
AcDbPoint
 10
161.501679
 20
358.277326
 30
0.0
  0
POINT
  5
55E7
100
AcDbEntity
  8
DEFPOINTS
  6
BYBLOCK
 62
     0
100
AcDbPoint
 10
161.501679
 20
364.51916
 30
0.0
  0
ENDBLK
  5
55E8
100
AcDbEntity
  8
0
100
AcDbBlockEnd
  0
BLOCK
  5
55EA
100
AcDbEntity
  8
0
100
AcDbBlockBegin
  2
*D12
 70
     1
 10
0.0
 20
0.0
 30
0.0
  3
*D12
  1

  0
LINE
  5
55EB
100
AcDbEntity
  8
0
  6
BYBLOCK
 62
     0
100
AcDbLine
 10
188.501679
 20
358.277326
 30
0.0
 11
201.201256
 21
358.277326
 31
0.0
  0
LINE
  5
55EC
100
AcDbEntity
  8
0
  6
BYBLOCK
 62
     0
100
AcDbLine
 10
192.001679
 20
329.277326
 30
0.0
 11
201.201256
 21
329.277326
 31
0.0
  0
LINE
  5
55ED
100
AcDbEntity
  8
0
  6
BYBLOCK
 62
     0
100
AcDbLine
 10
201.001256
 20
356.977326
 30
0.0
 11
201.001256
 21
345.930897
 31
0.0
  0
LINE
  5
55EE
100
AcDbEntity
  8
0
  6
BYBLOCK
 62
     0
100
AcDbLine
 10
201.001256
 20
330.577326
 30
0.0
 11
201.001256
 21
341.623755
 31
0.0
  0
SOLID
  5
55EF
100
AcDbEntity
  8
0
  6
BYBLOCK
 62
     0
100
AcDbTrace
 10
200.78459
 20
356.977326
 30
0.0
 11
201.217923
 21
356.977326
 31
0.0
 12
201.001256
 22
358.277326
 32
0.0
 13
201.001256
 23
358.277326
 33
0.0
  0
SOLID
  5
55F0
100
AcDbEntity
  8
0
  6
BYBLOCK
 62
     0
100
AcDbTrace
 10
200.78459
 20
330.577326
 30
0.0
 11
201.217923
 21
330.577326
 31
0.0
 12
201.001256
 22
329.277326
 32
0.0
 13
201.001256
 23
329.277326
 33
0.0
  0
MTEXT
  5
55F1
100
AcDbEntity
  8
0
  6
BYBLOCK
 62
     0
100
AcDbMText
 10
201.001256
 20
343.777326
 30
0.0
 40
1.35
 41
0.0
 71
     5
 72
     1
  1
\A1;29"
  7
ROMAND
  0
POINT
  5
55F2
100
AcDbEntity
  8
DEFPOINTS
  6
BYBLOCK
 62
     0
100
AcDbPoint
 10
187.501679
 20
358.277326
 30
0.0
  0
POINT
  5
55F3
100
AcDbEntity
  8
DEFPOINTS
  6
BYBLOCK
 62
     0
100
AcDbPoint
 10
191.001679
 20
329.277326
 30
0.0
  0
POINT
  5
55F4
100
AcDbEntity
  8
DEFPOINTS
  6
BYBLOCK
 62
     0
100
AcDbPoint
 10
201.001256
 20
329.277326
 30
0.0
  0
ENDBLK
  5
55F5
100
AcDbEntity
  8
0
100
AcDbBlockEnd
  0
BLOCK
  5
55F7
100
AcDbEntity
  8
0
100
AcDbBlockBegin
  2
*D13
 70
     1
 10
0.0
 20
0.0
 30
0.0
  3
*D13
  1

  0
LINE
  5
55F8
100
AcDbEntity
  8
0
  6
BYBLOCK
 62
     0
100
AcDbLine
 10
188.501679
 20
351.777326
 30
0.0
 11
189.860056
 21
351.777326
 31
0.0
  0
LINE
  5
55F9
100
AcDbEntity
  8
0
  6
BYBLOCK
 62
     0
100
AcDbLine
 10
188.501679
 20
358.277326
 30
0.0
 11
189.860056
 21
358.277326
 31
0.0
  0
LINE
  5
55FA
100
AcDbEntity
  8
0
  6
BYBLOCK
 62
     0
100
AcDbLine
 10
189.660056
 20
353.077326
 30
0.0
 11
189.660056
 21
356.977326
 31
0.0
  0
LINE
  5
55FB
100
AcDbEntity
  8
0
  6
BYBLOCK
 62
     0
100
AcDbLine
 10
189.660056
 20
358.277326
 30
0.0
 11
189.660056
 21
359.577326
 31
0.0
  0
LINE
  5
55FC
100
AcDbEntity
  8
0
  6
BYBLOCK
 62
     0
100
AcDbLine
 10
189.660056
 20
359.577326
 30
0.0
 11
190.960056
 21
359.577326
 31
0.0
  0
SOLID
  5
55FD
100
AcDbEntity
  8
0
  6
BYBLOCK
 62
     0
100
AcDbTrace
 10
189.44339
 20
353.077326
 30
0.0
 11
189.876723
 21
353.077326
 31
0.0
 12
189.660056
 22
351.777326
 32
0.0
 13
189.660056
 23
351.777326
 33
0.0
  0
SOLID
  5
55FE
100
AcDbEntity
  8
0
  6
BYBLOCK
 62
     0
100
AcDbTrace
 10
189.44339
 20
356.977326
 30
0.0
 11
189.876723
 21
356.977326
 31
0.0
 12
189.660056
 22
358.277326
 32
0.0
 13
189.660056
 23
358.277326
 33
0.0
  0
MTEXT
  5
55FF
100
AcDbEntity
  8
0
  6
BYBLOCK
 62
     0
100
AcDbMText
 10
195.974342
 20
359.577326
 30
0.0
 40
1.35
 41
0.0
 71
     5
 72
     1
  1
\A1;6 1/2"
  7
ROMAND
  0
POINT
  5
5600
100
AcDbEntity
  8
DEFPOINTS
  6
BYBLOCK
 62
     0
100
AcDbPoint
 10
187.501679
 20
351.777326
 30
0.0
  0
POINT
  5
5601
100
AcDbEntity
  8
DEFPOINTS
  6
BYBLOCK
 62
     0
100
AcDbPoint
 10
187.501679
 20
358.277326
 30
0.0
  0
POINT
  5
5602
100
AcDbEntity
  8
DEFPOINTS
  6
BYBLOCK
 62
     0
100
AcDbPoint
 10
189.660056
 20
358.277326
 30
0.0
  0
ENDBLK
  5
5603
100
AcDbEntity
  8
0
100
AcDbBlockEnd
  0
ENDSEC
  0
SECTION
  2
ENTITIES
  0
TEXT
  5
DEB
100
AcDbEntity
  8
0
  6
BYBLOCK
 62
     0
100
AcDbText
 10
2733.512779
 20
2768.093757
 30
0.0
 40
30.0
  1
   
  7
ROMANS
 72
     1
 11
2778.512779
 21
2783.093757
 31
0.0
100
AcDbText
 73
     2
  0
TEXT
  5
DED
100
AcDbEntity
  8
0
  6
BYBLOCK
 62
     0
100
AcDbText
 10
2080.819019
 20
3803.787506
 30
0.0
 40
30.0
  1
  
  7
ROMANS
 72
     1
 11
2110.819019
 21
3818.787506
 31
0.0
100
AcDbText
 73
     2
  0
TEXT
  5
DEE
100
AcDbEntity
  8
0
  6
BYBLOCK
 62
     0
100
AcDbText
 10
2080.446299
 20
3623.787506
 30
0.0
 40
30.0
  1
  
  7
ROMANS
 72
     1
 11
2110.446299
 21
3638.787506
 31
0.0
100
AcDbText
 73
     2
  0
TEXT
  5
DEF
100
AcDbEntity
  8
0
  6
BYBLOCK
 62
     0
100
AcDbText
 10
1265.400556
 20
3054.113346
 30
0.0
 40
30.0
  1
  
  7
ROMANS
 72
     1
 11
1295.400556
 21
3069.113346
 31
0.0
100
AcDbText
 73
     2
  0
TEXT
  5
2D42
100
AcDbEntity
  8
0
  6
BYBLOCK
 62
     0
100
AcDbText
 10
392.52643
 20
-196.287036
 30
0.0
 40
1.8
  1
   
 50
270.0
  7
ROMANS
 72
     1
 11
393.42643
 21
-198.987036
 31
0.0
100
AcDbText
 73
     2
  0
TEXT
  5
2D43
100
AcDbEntity
  8
0
  6
BYBLOCK
 62
     0
100
AcDbText
 10
454.668055
 20
-157.12541
 30
0.0
 40
1.8
  1
  
 50
270.0
  7
ROMANS
 72
     1
 11
455.568055
 21
-158.92541
 31
0.0
100
AcDbText
 73
     2
  0
TEXT
  5
2D44
100
AcDbEntity
  8
0
  6
BYBLOCK
 62
     0
100
AcDbText
 10
443.868055
 20
-157.103047
 30
0.0
 40
1.8
  1
  
 50
270.0
  7
ROMANS
 72
     1
 11
444.768055
 21
-158.903047
 31
0.0
100
AcDbText
 73
     2
  0
TEXT
  5
2D45
100
AcDbEntity
  8
0
  6
BYBLOCK
 62
     0
100
AcDbText
 10
409.687606
 20
-108.200303
 30
0.0
 40
1.8
  1
  
 50
270.0
  7
ROMANS
 72
     1
 11
410.587606
 21
-110.000303
 31
0.0
100
AcDbText
 73
     2
  0
TEXT
  5
2D46
100
AcDbEntity
  8
0
  6
BYBLOCK
 62
     0
100
AcDbText
 10
311.151036
 20
249.450858
 30
0.0
 40
2.8125
  1
  
  7
ROMANS
 72
     1
 11
313.963536
 21
250.857108
 31
0.0
100
AcDbText
 73
     2
  0
TEXT
  5
2D47
100
AcDbEntity
  8
0
  6
BYBLOCK
 62
     0
100
AcDbText
 10
387.561574
 20
302.85781
 30
0.0
 40
2.8125
  1
  
  7
ROMANS
 72
     1
 11
390.374074
 21
304.26406
 31
0.0
100
AcDbText
 73
     2
  0
TEXT
  5
2D48
100
AcDbEntity
  8
0
  6
BYBLOCK
 62
     0
100
AcDbText
 10
387.596517
 20
319.73281
 30
0.0
 40
2.8125
  1
  
  7
ROMANS
 72
     1
 11
390.409017
 21
321.13906
 31
0.0
100
AcDbText
 73
     2
  0
TEXT
  5
2D49
100
AcDbEntity
  8
0
  6
BYBLOCK
 62
     0
100
AcDbText
 10
448.786557
 20
222.636521
 30
0.0
 40
2.8125
  1
   
  7
ROMANS
 72
     1
 11
453.005307
 21
224.042771
 31
0.0
100
AcDbText
 73
     2
  0
TEXT
  5
2D4A
100
AcDbEntity
  8
0
  6
BYBLOCK
 62
     0
100
AcDbText
 10
216.448177
 20
-3.536966
 30
0.0
 40
0.28125
  1
  
  7
ROMANS
 72
     1
 11
216.729427
 21
-3.396341
 31
0.0
100
AcDbText
 73
     2
  0
TEXT
  5
2D4B
100
AcDbEntity
  8
0
  6
BYBLOCK
 62
     0
100
AcDbText
 10
224.08923
 20
1.80373
 30
0.0
 40
0.28125
  1
  
  7
ROMANS
 72
     1
 11
224.37048
 21
1.944355
 31
0.0
100
AcDbText
 73
     2
  0
TEXT
  5
2D4C
100
AcDbEntity
  8
0
  6
BYBLOCK
 62
     0
100
AcDbText
 10
224.092725
 20
3.49123
 30
0.0
 40
0.28125
  1
  
  7
ROMANS
 72
     1
 11
224.373975
 21
3.631855
 31
0.0
100
AcDbText
 73
     2
  0
TEXT
  5
2D4D
100
AcDbEntity
  8
0
  6
BYBLOCK
 62
     0
100
AcDbText
 10
230.211729
 20
-6.218399
 30
0.0
 40
0.28125
  1
   
  7
ROMANS
 72
     1
 11
230.633604
 21
-6.077774
 31
0.0
100
AcDbText
 73
     2
  0
TEXT
  5
2D4E
100
AcDbEntity
  8
0
  6
BYBLOCK
 62
     0
100
AcDbText
 10
218.79904
 20
2.242272
 30
0.0
 40
0.3375
  1
  
  7
ROMANS
 72
     1
 11
219.13654
 21
2.411022
 31
0.0
100
AcDbText
 73
     2
  0
TEXT
  5
2D4F
100
AcDbEntity
  8
0
  6
BYBLOCK
 62
     0
100
AcDbText
 10
227.968304
 20
8.651107
 30
0.0
 40
0.3375
  1
  
  7
ROMANS
 72
     1
 11
228.305804
 21
8.819857
 31
0.0
100
AcDbText
 73
     2
  0
TEXT
  5
2D50
100
AcDbEntity
  8
0
  6
BYBLOCK
 62
     0
100
AcDbText
 10
227.972497
 20
10.676107
 30
0.0
 40
0.3375
  1
  
  7
ROMANS
 72
     1
 11
228.309997
 21
10.844857
 31
0.0
100
AcDbText
 73
     2
  0
TEXT
  5
2D51
100
AcDbEntity
  8
0
  6
BYBLOCK
 62
     0
100
AcDbText
 10
235.315302
 20
-0.975448
 30
0.0
 40
0.3375
  1
   
  7
ROMANS
 72
     1
 11
235.821552
 21
-0.806698
 31
0.0
100
AcDbText
 73
     2
  0
TEXT
  5
2D52
100
AcDbEntity
  8
0
  6
BYBLOCK
 62
     0
100
AcDbText
 10
216.524233
 20
-3.521073
 30
0.0
 40
0.28125
  1
  
  7
ROMANS
 72
     1
 11
216.805483
 21
-3.380448
 31
0.0
100
AcDbText
 73
     2
  0
TEXT
  5
2D53
100
AcDbEntity
  8
0
  6
BYBLOCK
 62
     0
100
AcDbText
 10
224.165287
 20
1.819622
 30
0.0
 40
0.28125
  1
  
  7
ROMANS
 72
     1
 11
224.446537
 21
1.960247
 31
0.0
100
AcDbText
 73
     2
  0
TEXT
  5
2D54
100
AcDbEntity
  8
0
  6
BYBLOCK
 62
     0
100
AcDbText
 10
224.168781
 20
3.507122
 30
0.0
 40
0.28125
  1
  
  7
ROMANS
 72
     1
 11
224.450031
 21
3.647747
 31
0.0
100
AcDbText
 73
     2
  0
TEXT
  5
2D55
100
AcDbEntity
  8
0
  6
BYBLOCK
 62
     0
100
AcDbText
 10
230.287785
 20
-6.202507
 30
0.0
 40
0.28125
  1
   
  7
ROMANS
 72
     1
 11
230.70966
 21
-6.061882
 31
0.0
100
AcDbText
 73
     2
  0
TEXT
  5
2D56
100
AcDbEntity
  8
0
  6
BYBLOCK
 62
     0
100
AcDbText
 10
214.704213
 20
-3.448904
 30
0.0
 40
0.28125
  1
  
  7
ROMANS
 72
     1
 11
214.985463
 21
-3.308279
 31
0.0
100
AcDbText
 73
     2
  0
TEXT
  5
2D57
100
AcDbEntity
  8
0
  6
BYBLOCK
 62
     0
100
AcDbText
 10
222.345267
 20
1.891792
 30
0.0
 40
0.28125
  1
  
  7
ROMANS
 72
     1
 11
222.626517
 21
2.032417
 31
0.0
100
AcDbText
 73
     2
  0
TEXT
  5
2D58
100
AcDbEntity
  8
0
  6
BYBLOCK
 62
     0
100
AcDbText
 10
222.348761
 20
3.579292
 30
0.0
 40
0.28125
  1
  
  7
ROMANS
 72
     1
 11
222.630011
 21
3.719917
 31
0.0
100
AcDbText
 73
     2
  0
TEXT
  5
2D59
100
AcDbEntity
  8
0
  6
BYBLOCK
 62
     0
100
AcDbText
 10
228.467765
 20
-6.130337
 30
0.0
 40
0.28125
  1
   
  7
ROMANS
 72
     1
 11
228.88964
 21
-5.989712
 31
0.0
100
AcDbText
 73
     2
  0
TEXT
  5
2D5A
100
AcDbEntity
  8
0
  6
BYBLOCK
 62
     0
100
AcDbText
 10
214.719957
 20
-3.394128
 30
0.0
 40
0.28125
  1
  
  7
ROMANS
 72
     1
 11
215.001207
 21
-3.253503
 31
0.0
100
AcDbText
 73
     2
  0
TEXT
  5
2D5B
100
AcDbEntity
  8
0
  6
BYBLOCK
 62
     0
100
AcDbText
 10
222.361011
 20
1.946567
 30
0.0
 40
0.28125
  1
  
  7
ROMANS
 72
     1
 11
222.642261
 21
2.087192
 31
0.0
100
AcDbText
 73
     2
  0
TEXT
  5
2D5C
100
AcDbEntity
  8
0
  6
BYBLOCK
 62
     0
100
AcDbText
 10
222.364505
 20
3.634067
 30
0.0
 40
0.28125
  1
  
  7
ROMANS
 72
     1
 11
222.645755
 21
3.774692
 31
0.0
100
AcDbText
 73
     2
  0
TEXT
  5
2D5D
100
AcDbEntity
  8
0
  6
BYBLOCK
 62
     0
100
AcDbText
 10
228.483509
 20
-6.075562
 30
0.0
 40
0.28125
  1
   
  7
ROMANS
 72
     1
 11
228.905384
 21
-5.934937
 31
0.0
100
AcDbText
 73
     2
  0
TEXT
  5
2D5E
100
AcDbEntity
  8
0
  6
BYBLOCK
 62
     0
100
AcDbText
 10
231.601443
 20
-10.018718
 30
0.0
 40
0.253125
  1
  
  7
ROMANS
 72
     1
 11
231.854568
 21
-9.892155
 31
0.0
100
AcDbText
 73
     2
  0
TEXT
  5
2D5F
100
AcDbEntity
  8
0
  6
BYBLOCK
 62
     0
100
AcDbText
 10
238.478391
 20
-5.212092
 30
0.0
 40
0.253125
  1
  
  7
ROMANS
 72
     1
 11
238.731516
 21
-5.08553
 31
0.0
100
AcDbText
 73
     2
  0
TEXT
  5
2D60
100
AcDbEntity
  8
0
  6
BYBLOCK
 62
     0
100
AcDbText
 10
238.481536
 20
-3.693342
 30
0.0
 40
0.253125
  1
  
  7
ROMANS
 72
     1
 11
238.734661
 21
-3.56678
 31
0.0
100
AcDbText
 73
     2
  0
TEXT
  5
2D61
100
AcDbEntity
  8
0
  6
BYBLOCK
 62
     0
100
AcDbText
 10
243.98864
 20
-12.432008
 30
0.0
 40
0.253125
  1
   
  7
ROMANS
 72
     1
 11
244.368327
 21
-12.305446
 31
0.0
100
AcDbText
 73
     2
  0
TEXT
  5
2D62
100
AcDbEntity
  8
BORDER
 62
     7
100
AcDbText
 10
201.375704
 20
-48.237128
 30
0.0
 40
0.206513
  1

  7
ROMANC
100
AcDbText
  0
TEXT
  5
2D63
100
AcDbEntity
  8
0
  6
BYBLOCK
 62
     0
100
AcDbText
 10
315.060982
 20
255.245274
 30
0.0
 40
2.882712
  1
  
  7
ROMANS
 72
     1
 11
317.943694
 21
256.68663
 31
0.0
100
AcDbText
 73
     2
  0
TEXT
  5
2D64
100
AcDbEntity
  8
0
  6
BYBLOCK
 62
     0
100
AcDbText
 10
393.379055
 20
309.985493
 30
0.0
 40
2.882712
  1
  
  7
ROMANS
 72
     1
 11
396.261767
 21
311.426849
 31
0.0
100
AcDbText
 73
     2
  0
TEXT
  5
2D65
100
AcDbEntity
  8
0
  6
BYBLOCK
 62
     0
100
AcDbText
 10
393.41487
 20
327.281766
 30
0.0
 40
2.882712
  1
  
  7
ROMANS
 72
     1
 11
396.297582
 21
328.723122
 31
0.0
100
AcDbText
 73
     2
  0
TEXT
  5
2D66
100
AcDbEntity
  8
0
  6
BYBLOCK
 62
     0
100
AcDbText
 10
456.132476
 20
227.761537
 30
0.0
 40
2.882712
  1
   
  7
ROMANS
 72
     1
 11
460.456544
 21
229.202893
 31
0.0
100
AcDbText
 73
     2
  0
TEXT
  5
3A13
100
AcDbEntity
  8
0
  6
BYBLOCK
 62
     0
100
AcDbText
 10
379.247723
 20
-209.763905
 30
0.0
 40
1.8
  1
   
 50
270.0
  7
ROMANS
 72
     1
 11
380.147723
 21
-212.463905
 31
0.0
100
AcDbText
 73
     2
  0
TEXT
  5
3A14
100
AcDbEntity
  8
0
  6
BYBLOCK
 62
     0
100
AcDbText
 10
441.389348
 20
-170.602279
 30
0.0
 40
1.8
  1
  
 50
270.0
  7
ROMANS
 72
     1
 11
442.289348
 21
-172.402279
 31
0.0
100
AcDbText
 73
     2
  0
TEXT
  5
3A15
100
AcDbEntity
  8
0
  6
BYBLOCK
 62
     0
100
AcDbText
 10
430.589348
 20
-170.579916
 30
0.0
 40
1.8
  1
  
 50
270.0
  7
ROMANS
 72
     1
 11
431.489348
 21
-172.379916
 31
0.0
100
AcDbText
 73
     2
  0
TEXT
  5
3A16
100
AcDbEntity
  8
0
  6
BYBLOCK
 62
     0
100
AcDbText
 10
396.408898
 20
-121.677172
 30
0.0
 40
1.8
  1
  
 50
270.0
  7
ROMANS
 72
     1
 11
397.308898
 21
-123.477172
 31
0.0
100
AcDbText
 73
     2
  0
TEXT
  5
3A17
100
AcDbEntity
  8
0
  6
BYBLOCK
 62
     0
100
AcDbText
 10
297.872329
 20
235.973989
 30
0.0
 40
2.8125
  1
  
  7
ROMANS
 72
     1
 11
300.684829
 21
237.380239
 31
0.0
100
AcDbText
 73
     2
  0
TEXT
  5
3A18
100
AcDbEntity
  8
0
  6
BYBLOCK
 62
     0
100
AcDbText
 10
374.282867
 20
289.380941
 30
0.0
 40
2.8125
  1
  
  7
ROMANS
 72
     1
 11
377.095367
 21
290.787191
 31
0.0
100
AcDbText
 73
     2
  0
TEXT
  5
3A19
100
AcDbEntity
  8
0
  6
BYBLOCK
 62
     0
100
AcDbText
 10
374.31781
 20
306.255941
 30
0.0
 40
2.8125
  1
  
  7
ROMANS
 72
     1
 11
377.13031
 21
307.662191
 31
0.0
100
AcDbText
 73
     2
  0
TEXT
  5
3A1A
100
AcDbEntity
  8
0
  6
BYBLOCK
 62
     0
100
AcDbText
 10
435.50785
 20
209.159652
 30
0.0
 40
2.8125
  1
   
  7
ROMANS
 72
     1
 11
439.7266
 21
210.565902
 31
0.0
100
AcDbText
 73
     2
  0
TEXT
  5
3A1B
100
AcDbEntity
  8
0
  6
BYBLOCK
 62
     0
100
AcDbText
 10
203.16947
 20
-17.013835
 30
0.0
 40
0.28125
  1
  
  7
ROMANS
 72
     1
 11
203.45072
 21
-16.87321
 31
0.0
100
AcDbText
 73
     2
  0
TEXT
  5
3A1C
100
AcDbEntity
  8
0
  6
BYBLOCK
 62
     0
100
AcDbText
 10
210.810523
 20
-11.673139
 30
0.0
 40
0.28125
  1
  
  7
ROMANS
 72
     1
 11
211.091773
 21
-11.532514
 31
0.0
100
AcDbText
 73
     2
  0
TEXT
  5
3A1D
100
AcDbEntity
  8
0
  6
BYBLOCK
 62
     0
100
AcDbText
 10
210.814018
 20
-9.985639
 30
0.0
 40
0.28125
  1
  
  7
ROMANS
 72
     1
 11
211.095268
 21
-9.845014
 31
0.0
100
AcDbText
 73
     2
  0
TEXT
  5
3A1E
100
AcDbEntity
  8
0
  6
BYBLOCK
 62
     0
100
AcDbText
 10
216.933022
 20
-19.695268
 30
0.0
 40
0.28125
  1
   
  7
ROMANS
 72
     1
 11
217.354897
 21
-19.554643
 31
0.0
100
AcDbText
 73
     2
  0
TEXT
  5
3A1F
100
AcDbEntity
  8
0
  6
BYBLOCK
 62
     0
100
AcDbText
 10
205.520333
 20
-11.234597
 30
0.0
 40
0.3375
  1
  
  7
ROMANS
 72
     1
 11
205.857833
 21
-11.065847
 31
0.0
100
AcDbText
 73
     2
  0
TEXT
  5
3A20
100
AcDbEntity
  8
0
  6
BYBLOCK
 62
     0
100
AcDbText
 10
214.689597
 20
-4.825762
 30
0.0
 40
0.3375
  1
  
  7
ROMANS
 72
     1
 11
215.027097
 21
-4.657012
 31
0.0
100
AcDbText
 73
     2
  0
TEXT
  5
3A21
100
AcDbEntity
  8
0
  6
BYBLOCK
 62
     0
100
AcDbText
 10
214.69379
 20
-2.800762
 30
0.0
 40
0.3375
  1
  
  7
ROMANS
 72
     1
 11
215.03129
 21
-2.632012
 31
0.0
100
AcDbText
 73
     2
  0
TEXT
  5
3A22
100
AcDbEntity
  8
0
  6
BYBLOCK
 62
     0
100
AcDbText
 10
222.036595
 20
-14.452317
 30
0.0
 40
0.3375
  1
   
  7
ROMANS
 72
     1
 11
222.542845
 21
-14.283567
 31
0.0
100
AcDbText
 73
     2
  0
TEXT
  5
3A23
100
AcDbEntity
  8
0
  6
BYBLOCK
 62
     0
100
AcDbText
 10
203.245526
 20
-16.997942
 30
0.0
 40
0.28125
  1
  
  7
ROMANS
 72
     1
 11
203.526776
 21
-16.857317
 31
0.0
100
AcDbText
 73
     2
  0
TEXT
  5
3A24
100
AcDbEntity
  8
0
  6
BYBLOCK
 62
     0
100
AcDbText
 10
210.88658
 20
-11.657247
 30
0.0
 40
0.28125
  1
  
  7
ROMANS
 72
     1
 11
211.16783
 21
-11.516622
 31
0.0
100
AcDbText
 73
     2
  0
TEXT
  5
3A25
100
AcDbEntity
  8
0
  6
BYBLOCK
 62
     0
100
AcDbText
 10
210.890074
 20
-9.969747
 30
0.0
 40
0.28125
  1
  
  7
ROMANS
 72
     1
 11
211.171324
 21
-9.829122
 31
0.0
100
AcDbText
 73
     2
  0
TEXT
  5
3A26
100
AcDbEntity
  8
0
  6
BYBLOCK
 62
     0
100
AcDbText
 10
217.009078
 20
-19.679376
 30
0.0
 40
0.28125
  1
   
  7
ROMANS
 72
     1
 11
217.430953
 21
-19.538751
 31
0.0
100
AcDbText
 73
     2
  0
TEXT
  5
3A27
100
AcDbEntity
  8
0
  6
BYBLOCK
 62
     0
100
AcDbText
 10
201.425506
 20
-16.925773
 30
0.0
 40
0.28125
  1
  
  7
ROMANS
 72
     1
 11
201.706756
 21
-16.785148
 31
0.0
100
AcDbText
 73
     2
  0
TEXT
  5
3A28
100
AcDbEntity
  8
0
  6
BYBLOCK
 62
     0
100
AcDbText
 10
209.06656
 20
-11.585077
 30
0.0
 40
0.28125
  1
  
  7
ROMANS
 72
     1
 11
209.34781
 21
-11.444452
 31
0.0
100
AcDbText
 73
     2
  0
TEXT
  5
3A29
100
AcDbEntity
  8
0
  6
BYBLOCK
 62
     0
100
AcDbText
 10
209.070054
 20
-9.897577
 30
0.0
 40
0.28125
  1
  
  7
ROMANS
 72
     1
 11
209.351304
 21
-9.756952
 31
0.0
100
AcDbText
 73
     2
  0
TEXT
  5
3A2A
100
AcDbEntity
  8
0
  6
BYBLOCK
 62
     0
100
AcDbText
 10
215.189058
 20
-19.607206
 30
0.0
 40
0.28125
  1
   
  7
ROMANS
 72
     1
 11
215.610933
 21
-19.466581
 31
0.0
100
AcDbText
 73
     2
  0
TEXT
  5
3A2B
100
AcDbEntity
  8
0
  6
BYBLOCK
 62
     0
100
AcDbText
 10
201.44125
 20
-16.870997
 30
0.0
 40
0.28125
  1
  
  7
ROMANS
 72
     1
 11
201.7225
 21
-16.730372
 31
0.0
100
AcDbText
 73
     2
  0
TEXT
  5
3A2C
100
AcDbEntity
  8
0
  6
BYBLOCK
 62
     0
100
AcDbText
 10
209.082304
 20
-11.530302
 30
0.0
 40
0.28125
  1
  
  7
ROMANS
 72
     1
 11
209.363554
 21
-11.389677
 31
0.0
100
AcDbText
 73
     2
  0
TEXT
  5
3A2D
100
AcDbEntity
  8
0
  6
BYBLOCK
 62
     0
100
AcDbText
 10
209.085798
 20
-9.842802
 30
0.0
 40
0.28125
  1
  
  7
ROMANS
 72
     1
 11
209.367048
 21
-9.702177
 31
0.0
100
AcDbText
 73
     2
  0
TEXT
  5
3A2E
100
AcDbEntity
  8
0
  6
BYBLOCK
 62
     0
100
AcDbText
 10
215.204802
 20
-19.552431
 30
0.0
 40
0.28125
  1
   
  7
ROMANS
 72
     1
 11
215.626677
 21
-19.411806
 31
0.0
100
AcDbText
 73
     2
  0
TEXT
  5
3A2F
100
AcDbEntity
  8
0
  6
BYBLOCK
 62
     0
100
AcDbText
 10
218.322736
 20
-23.495587
 30
0.0
 40
0.253125
  1
  
  7
ROMANS
 72
     1
 11
218.575861
 21
-23.369024
 31
0.0
100
AcDbText
 73
     2
  0
TEXT
  5
3A30
100
AcDbEntity
  8
0
  6
BYBLOCK
 62
     0
100
AcDbText
 10
225.199684
 20
-18.688961
 30
0.0
 40
0.253125
  1
  
  7
ROMANS
 72
     1
 11
225.452809
 21
-18.562399
 31
0.0
100
AcDbText
 73
     2
  0
TEXT
  5
3A31
100
AcDbEntity
  8
0
  6
BYBLOCK
 62
     0
100
AcDbText
 10
225.202829
 20
-17.170211
 30
0.0
 40
0.253125
  1
  
  7
ROMANS
 72
     1
 11
225.455954
 21
-17.043649
 31
0.0
100
AcDbText
 73
     2
  0
TEXT
  5
3A32
100
AcDbEntity
  8
0
  6
BYBLOCK
 62
     0
100
AcDbText
 10
230.709933
 20
-25.908877
 30
0.0
 40
0.253125
  1
   
  7
ROMANS
 72
     1
 11
231.08962
 21
-25.782315
 31
0.0
100
AcDbText
 73
     2
  0
TEXT
  5
3A33
100
AcDbEntity
  8
BORDER
 62
     7
100
AcDbText
 10
188.096997
 20
-61.713997
 30
0.0
 40
0.206513
  1

  7
ROMANC
100
AcDbText
  0
TEXT
  5
3A34
100
AcDbEntity
  8
0
  6
BYBLOCK
 62
     0
100
AcDbText
 10
301.782275
 20
241.768405
 30
0.0
 40
2.882712
  1
  
  7
ROMANS
 72
     1
 11
304.664987
 21
243.209761
 31
0.0
100
AcDbText
 73
     2
  0
TEXT
  5
3A35
100
AcDbEntity
  8
0
  6
BYBLOCK
 62
     0
100
AcDbText
 10
380.100348
 20
296.508624
 30
0.0
 40
2.882712
  1
  
  7
ROMANS
 72
     1
 11
382.98306
 21
297.94998
 31
0.0
100
AcDbText
 73
     2
  0
TEXT
  5
3A36
100
AcDbEntity
  8
0
  6
BYBLOCK
 62
     0
100
AcDbText
 10
380.136163
 20
313.804897
 30
0.0
 40
2.882712
  1
  
  7
ROMANS
 72
     1
 11
383.018875
 21
315.246253
 31
0.0
100
AcDbText
 73
     2
  0
TEXT
  5
3A37
100
AcDbEntity
  8
0
  6
BYBLOCK
 62
     0
100
AcDbText
 10
442.853769
 20
214.284668
 30
0.0
 40
2.882712
  1
   
  7
ROMANS
 72
     1
 11
447.177837
 21
215.726024
 31
0.0
100
AcDbText
 73
     2
  0
TEXT
  5
453C
100
AcDbEntity
  8
0
  6
BYBLOCK
 62
     0
100
AcDbText
 10
309.452123
 20
-36.345282
 30
0.0
 40
1.8
  1
   
 50
270.0
  7
ROMANS
 72
     1
 11
310.352123
 21
-39.045282
 31
0.0
100
AcDbText
 73
     2
  0
TEXT
  5
453D
100
AcDbEntity
  8
0
  6
BYBLOCK
 62
     0
100
AcDbText
 10
371.593748
 20
2.816344
 30
0.0
 40
1.8
  1
  
 50
270.0
  7
ROMANS
 72
     1
 11
372.493748
 21
1.016344
 31
0.0
100
AcDbText
 73
     2
  0
TEXT
  5
453E
100
AcDbEntity
  8
0
  6
BYBLOCK
 62
     0
100
AcDbText
 10
360.793748
 20
2.838707
 30
0.0
 40
1.8
  1
  
 50
270.0
  7
ROMANS
 72
     1
 11
361.693748
 21
1.038707
 31
0.0
100
AcDbText
 73
     2
  0
TEXT
  5
453F
100
AcDbEntity
  8
0
  6
BYBLOCK
 62
     0
100
AcDbText
 10
326.613298
 20
51.741452
 30
0.0
 40
1.8
  1
  
 50
270.0
  7
ROMANS
 72
     1
 11
327.513298
 21
49.941452
 31
0.0
100
AcDbText
 73
     2
  0
TEXT
  5
4540
100
AcDbEntity
  8
0
  6
BYBLOCK
 62
     0
100
AcDbText
 10
228.076728
 20
409.392612
 30
0.0
 40
2.8125
  1
  
  7
ROMANS
 72
     1
 11
230.889228
 21
410.798862
 31
0.0
100
AcDbText
 73
     2
  0
TEXT
  5
4541
100
AcDbEntity
  8
0
  6
BYBLOCK
 62
     0
100
AcDbText
 10
304.487267
 20
462.799565
 30
0.0
 40
2.8125
  1
  
  7
ROMANS
 72
     1
 11
307.299767
 21
464.205815
 31
0.0
100
AcDbText
 73
     2
  0
TEXT
  5
4542
100
AcDbEntity
  8
0
  6
BYBLOCK
 62
     0
100
AcDbText
 10
304.522209
 20
479.674565
 30
0.0
 40
2.8125
  1
  
  7
ROMANS
 72
     1
 11
307.334709
 21
481.080815
 31
0.0
100
AcDbText
 73
     2
  0
TEXT
  5
4543
100
AcDbEntity
  8
0
  6
BYBLOCK
 62
     0
100
AcDbText
 10
365.712249
 20
382.578276
 30
0.0
 40
2.8125
  1
   
  7
ROMANS
 72
     1
 11
369.930999
 21
383.984526
 31
0.0
100
AcDbText
 73
     2
  0
TEXT
  5
4544
100
AcDbEntity
  8
0
  6
BYBLOCK
 62
     0
100
AcDbText
 10
133.373869
 20
156.404789
 30
0.0
 40
0.28125
  1
  
  7
ROMANS
 72
     1
 11
133.655119
 21
156.545414
 31
0.0
100
AcDbText
 73
     2
  0
TEXT
  5
4545
100
AcDbEntity
  8
0
  6
BYBLOCK
 62
     0
100
AcDbText
 10
141.014923
 20
161.745484
 30
0.0
 40
0.28125
  1
  
  7
ROMANS
 72
     1
 11
141.296173
 21
161.886109
 31
0.0
100
AcDbText
 73
     2
  0
TEXT
  5
4546
100
AcDbEntity
  8
0
  6
BYBLOCK
 62
     0
100
AcDbText
 10
141.018417
 20
163.432984
 30
0.0
 40
0.28125
  1
  
  7
ROMANS
 72
     1
 11
141.299667
 21
163.573609
 31
0.0
100
AcDbText
 73
     2
  0
TEXT
  5
4547
100
AcDbEntity
  8
0
  6
BYBLOCK
 62
     0
100
AcDbText
 10
147.137421
 20
153.723355
 30
0.0
 40
0.28125
  1
   
  7
ROMANS
 72
     1
 11
147.559296
 21
153.86398
 31
0.0
100
AcDbText
 73
     2
  0
TEXT
  5
4548
100
AcDbEntity
  8
0
  6
BYBLOCK
 62
     0
100
AcDbText
 10
135.724732
 20
162.184027
 30
0.0
 40
0.3375
  1
  
  7
ROMANS
 72
     1
 11
136.062232
 21
162.352777
 31
0.0
100
AcDbText
 73
     2
  0
TEXT
  5
4549
100
AcDbEntity
  8
0
  6
BYBLOCK
 62
     0
100
AcDbText
 10
144.893997
 20
168.592861
 30
0.0
 40
0.3375
  1
  
  7
ROMANS
 72
     1
 11
145.231497
 21
168.761611
 31
0.0
100
AcDbText
 73
     2
  0
TEXT
  5
454A
100
AcDbEntity
  8
0
  6
BYBLOCK
 62
     0
100
AcDbText
 10
144.89819
 20
170.617861
 30
0.0
 40
0.3375
  1
  
  7
ROMANS
 72
     1
 11
145.23569
 21
170.786611
 31
0.0
100
AcDbText
 73
     2
  0
TEXT
  5
454B
100
AcDbEntity
  8
0
  6
BYBLOCK
 62
     0
100
AcDbText
 10
152.240995
 20
158.966306
 30
0.0
 40
0.3375
  1
   
  7
ROMANS
 72
     1
 11
152.747245
 21
159.135056
 31
0.0
100
AcDbText
 73
     2
  0
TEXT
  5
454C
100
AcDbEntity
  8
0
  6
BYBLOCK
 62
     0
100
AcDbText
 10
133.449926
 20
156.420681
 30
0.0
 40
0.28125
  1
  
  7
ROMANS
 72
     1
 11
133.731176
 21
156.561306
 31
0.0
100
AcDbText
 73
     2
  0
TEXT
  5
454D
100
AcDbEntity
  8
0
  6
BYBLOCK
 62
     0
100
AcDbText
 10
141.09098
 20
161.761376
 30
0.0
 40
0.28125
  1
  
  7
ROMANS
 72
     1
 11
141.37223
 21
161.902001
 31
0.0
100
AcDbText
 73
     2
  0
TEXT
  5
454E
100
AcDbEntity
  8
0
  6
BYBLOCK
 62
     0
100
AcDbText
 10
141.094474
 20
163.448876
 30
0.0
 40
0.28125
  1
  
  7
ROMANS
 72
     1
 11
141.375724
 21
163.589501
 31
0.0
100
AcDbText
 73
     2
  0
TEXT
  5
454F
100
AcDbEntity
  8
0
  6
BYBLOCK
 62
     0
100
AcDbText
 10
147.213478
 20
153.739247
 30
0.0
 40
0.28125
  1
   
  7
ROMANS
 72
     1
 11
147.635353
 21
153.879872
 31
0.0
100
AcDbText
 73
     2
  0
TEXT
  5
4550
100
AcDbEntity
  8
0
  6
BYBLOCK
 62
     0
100
AcDbText
 10
131.629905
 20
156.492851
 30
0.0
 40
0.28125
  1
  
  7
ROMANS
 72
     1
 11
131.911155
 21
156.633476
 31
0.0
100
AcDbText
 73
     2
  0
TEXT
  5
4551
100
AcDbEntity
  8
0
  6
BYBLOCK
 62
     0
100
AcDbText
 10
139.270959
 20
161.833546
 30
0.0
 40
0.28125
  1
  
  7
ROMANS
 72
     1
 11
139.552209
 21
161.974171
 31
0.0
100
AcDbText
 73
     2
  0
TEXT
  5
4552
100
AcDbEntity
  8
0
  6
BYBLOCK
 62
     0
100
AcDbText
 10
139.274454
 20
163.521046
 30
0.0
 40
0.28125
  1
  
  7
ROMANS
 72
     1
 11
139.555704
 21
163.661671
 31
0.0
100
AcDbText
 73
     2
  0
TEXT
  5
4553
100
AcDbEntity
  8
0
  6
BYBLOCK
 62
     0
100
AcDbText
 10
145.393458
 20
153.811417
 30
0.0
 40
0.28125
  1
   
  7
ROMANS
 72
     1
 11
145.815333
 21
153.952042
 31
0.0
100
AcDbText
 73
     2
  0
TEXT
  5
4554
100
AcDbEntity
  8
0
  6
BYBLOCK
 62
     0
100
AcDbText
 10
131.64565
 20
156.547626
 30
0.0
 40
0.28125
  1
  
  7
ROMANS
 72
     1
 11
131.9269
 21
156.688251
 31
0.0
100
AcDbText
 73
     2
  0
TEXT
  5
4555
100
AcDbEntity
  8
0
  6
BYBLOCK
 62
     0
100
AcDbText
 10
139.286704
 20
161.888321
 30
0.0
 40
0.28125
  1
  
  7
ROMANS
 72
     1
 11
139.567954
 21
162.028946
 31
0.0
100
AcDbText
 73
     2
  0
TEXT
  5
4556
100
AcDbEntity
  8
0
  6
BYBLOCK
 62
     0
100
AcDbText
 10
139.290198
 20
163.575821
 30
0.0
 40
0.28125
  1
  
  7
ROMANS
 72
     1
 11
139.571448
 21
163.716446
 31
0.0
100
AcDbText
 73
     2
  0
TEXT
  5
4557
100
AcDbEntity
  8
0
  6
BYBLOCK
 62
     0
100
AcDbText
 10
145.409202
 20
153.866193
 30
0.0
 40
0.28125
  1
   
  7
ROMANS
 72
     1
 11
145.831077
 21
154.006818
 31
0.0
100
AcDbText
 73
     2
  0
TEXT
  5
4558
100
AcDbEntity
  8
0
  6
BYBLOCK
 62
     0
100
AcDbText
 10
148.527136
 20
149.923037
 30
0.0
 40
0.253125
  1
  
  7
ROMANS
 72
     1
 11
148.780261
 21
150.049599
 31
0.0
100
AcDbText
 73
     2
  0
TEXT
  5
4559
100
AcDbEntity
  8
0
  6
BYBLOCK
 62
     0
100
AcDbText
 10
155.404084
 20
154.729662
 30
0.0
 40
0.253125
  1
  
  7
ROMANS
 72
     1
 11
155.657209
 21
154.856225
 31
0.0
100
AcDbText
 73
     2
  0
TEXT
  5
455A
100
AcDbEntity
  8
0
  6
BYBLOCK
 62
     0
100
AcDbText
 10
155.407229
 20
156.248412
 30
0.0
 40
0.253125
  1
  
  7
ROMANS
 72
     1
 11
155.660354
 21
156.374975
 31
0.0
100
AcDbText
 73
     2
  0
TEXT
  5
455B
100
AcDbEntity
  8
0
  6
BYBLOCK
 62
     0
100
AcDbText
 10
160.914332
 20
147.509746
 30
0.0
 40
0.253125
  1
   
  7
ROMANS
 72
     1
 11
161.29402
 21
147.636309
 31
0.0
100
AcDbText
 73
     2
  0
TEXT
  5
455C
100
AcDbEntity
  8
BORDER
 62
     7
100
AcDbText
 10
118.301397
 20
111.704627
 30
0.0
 40
0.206513
  1

  7
ROMANC
100
AcDbText
  0
TEXT
  5
455D
100
AcDbEntity
  8
0
  6
BYBLOCK
 62
     0
100
AcDbText
 10
231.986675
 20
415.187029
 30
0.0
 40
2.882712
  1
  
  7
ROMANS
 72
     1
 11
234.869387
 21
416.628385
 31
0.0
100
AcDbText
 73
     2
  0
TEXT
  5
455E
100
AcDbEntity
  8
0
  6
BYBLOCK
 62
     0
100
AcDbText
 10
310.304748
 20
469.927248
 30
0.0
 40
2.882712
  1
  
  7
ROMANS
 72
     1
 11
313.18746
 21
471.368604
 31
0.0
100
AcDbText
 73
     2
  0
TEXT
  5
455F
100
AcDbEntity
  8
0
  6
BYBLOCK
 62
     0
100
AcDbText
 10
310.340563
 20
487.22352
 30
0.0
 40
2.882712
  1
  
  7
ROMANS
 72
     1
 11
313.223275
 21
488.664876
 31
0.0
100
AcDbText
 73
     2
  0
TEXT
  5
4560
100
AcDbEntity
  8
0
  6
BYBLOCK
 62
     0
100
AcDbText
 10
373.058169
 20
387.703291
 30
0.0
 40
2.882712
  1
   
  7
ROMANS
 72
     1
 11
377.382237
 21
389.144647
 31
0.0
100
AcDbText
 73
     2
  0
TEXT
  5
49E7
100
AcDbEntity
  8
0
  6
BYBLOCK
 62
     0
100
AcDbText
 10
1307.094358
 20
2922.391974
 30
0.0
 40
27.0
  1
  
  7
ROMANS
 72
     1
 11
1334.094358
 21
2935.891974
 31
0.0
100
AcDbText
 73
     2
  0
TEXT
  5
49E8
100
AcDbEntity
  8
0
  6
BYBLOCK
 62
     0
100
AcDbText
 10
2040.635527
 20
3435.098719
 30
0.0
 40
27.0
  1
  
  7
ROMANS
 72
     1
 11
2067.635527
 21
3448.598719
 31
0.0
100
AcDbText
 73
     2
  0
TEXT
  5
49E9
100
AcDbEntity
  8
0
  6
BYBLOCK
 62
     0
100
AcDbText
 10
2040.970975
 20
3597.098719
 30
0.0
 40
27.0
  1
  
  7
ROMANS
 72
     1
 11
2067.970975
 21
3610.598719
 31
0.0
100
AcDbText
 73
     2
  0
TEXT
  5
49EA
100
AcDbEntity
  8
0
  6
BYBLOCK
 62
     0
100
AcDbText
 10
2628.39536
 20
2664.974344
 30
0.0
 40
27.0
  1
   
  7
ROMANS
 72
     1
 11
2668.89536
 21
2678.474344
 31
0.0
100
AcDbText
 73
     2
  0
INSERT
  5
4F5C
100
AcDbEntity
  8
BORDER
100
AcDbBlockReference
  2
CR
 10
-127.142613
 20
271.807368
 30
0.0
 41
19.3545
 42
19.3545
 43
19.3545
  0
INSERT
  5
4F5D
100
AcDbEntity
  8
BORDER
100
AcDbBlockReference
  2
CR
 10
-127.142613
 20
271.807368
 30
0.0
 41
19.3545
 42
19.3545
 43
19.3545
  0
DIMENSION
  5
54BA
100
AcDbEntity
  8
OBJECT
100
AcDbDimension
  2
*D8
 10
-56.170566
 20
363.696394
 30
0.0
 11
-49.920566
 21
366.296394
 31
0.0
 12
-193.440302
 22
31.294068
 32
0.0
 70
    32
  1
<>"
  3
STANDARD
100
AcDbAlignedDimension
 13
-35.438623
 23
362.196394
 33
0.0
 14
-33.063623
 24
363.696394
 34
0.0
 50
90.0
100
AcDbRotatedDimension
1001
ACAD
1000
DSTYLE
1002
{
1070
    40
1040
1.0
1002
}
  0
DIMENSION
  5
54BB
100
AcDbEntity
  8
OBJECT
100
AcDbDimension
  2
*D6
 10
-38.406032
 20
360.571394
 30
0.0
 11
-44.656032
 21
357.971394
 31
0.0
 12
-193.440302
 22
31.294068
 32
0.0
 70
    32
  1
<>"
  3
STANDARD
100
AcDbAlignedDimension
 13
-35.438623
 23
362.196394
 33
0.0
 14
-35.438623
 24
360.571394
 34
0.0
 50
90.0
100
AcDbRotatedDimension
1001
ACAD
1000
DSTYLE
1002
{
1070
    40
1040
1.0
1002
}
  0
TEXT
  5
54BC
100
AcDbEntity
  8
OBJECT
100
AcDbText
 10
-65.897489
 20
338.185424
 30
0.0
 40
1.35
  1
24 3/4" Bolt Circle
  7
ROMAND
100
AcDbText
  0
TEXT
  5
54BD
100
AcDbEntity
  8
OBJECT
100
AcDbText
 10
-67.183203
 20
338.185424
 30
0.0
 40
1.35
  1
\U+2205
  7
ROMAND
100
AcDbText
  0
DIMENSION
  5
54BE
100
AcDbEntity
  8
OBJECT
100
AcDbDimension
  2
*D10
 10
-39.610407
 20
389.571394
 30
0.0
 11
-36.060407
 21
392.171394
 31
0.0
 12
-193.440302
 22
31.294068
 32
0.0
 70
    32
  1
<>"
  3
STANDARD
100
AcDbAlignedDimension
 13
-31.938623
 23
388.571394
 33
0.0
 14
-31.938623
 24
389.571394
 34
0.0
 50
90.0
100
AcDbRotatedDimension
1001
ACAD
1000
DSTYLE
1002
{
1070
    40
1040
1.0
1002
}
  0
DIMENSION
  5
54BF
100
AcDbEntity
  8
OBJECT
100
AcDbDimension
  2
*D11
 10
-31.938623
 20
395.813228
 30
0.0
 11
-39.488623
 21
395.813228
 31
0.0
 12
-193.440302
 22
31.294068
 32
0.0
 70
    32
  1
<>"
  3
STANDARD
100
AcDbAlignedDimension
 13
-30.688623
 23
383.071394
 33
0.0
 14
-31.938623
 24
389.571394
 34
0.0
100
AcDbRotatedDimension
1001
ACAD
1000
DSTYLE
1002
{
1070
    40
1040
1.0
1002
}
  0
DIMENSION
  5
54C0
100
AcDbEntity
  8
OBJECT
100
AcDbDimension
  2
*D5
 10
-15.438623
 20
395.813228
 30
0.0
 11
-11.792194
 21
395.813228
 31
0.0
 12
-193.440302
 22
31.294068
 32
0.0
 70
    32
  1
<>"
  3
STANDARD
100
AcDbAlignedDimension
 13
-22.438623
 23
383.071394
 33
0.0
 14
-15.438623
 24
383.071394
 34
0.0
100
AcDbRotatedDimension
1001
ACAD
1000
DSTYLE
1002
{
1070
    40
1040
1.0
1002
}
  0
DIMENSION
  5
54C1
100
AcDbEntity
  8
OBJECT
100
AcDbDimension
  2
*D13
 10
-3.780245
 20
389.571394
 30
0.0
 11
2.53404
 21
390.871394
 31
0.0
 12
-193.440302
 22
31.294068
 32
0.0
 70
    32
  1
<>"
  3
STANDARD
100
AcDbAlignedDimension
 13
-5.938623
 23
383.071394
 33
0.0
 14
-5.938623
 24
389.571394
 34
0.0
 50
90.0
100
AcDbRotatedDimension
1001
ACAD
1000
DSTYLE
1002
{
1070
    40
1040
1.0
1002
}
  0
DIMENSION
  5
54C2
100
AcDbEntity
  8
OBJECT
100
AcDbDimension
  2
*D12
 10
7.560955
 20
360.571394
 30
0.0
 11
7.560955
 21
375.071394
 31
0.0
 12
-193.440302
 22
31.294068
 32
0.0
 70
    32
  1
<>"
  3
STANDARD
100
AcDbAlignedDimension
 13
-5.938623
 23
389.571394
 33
0.0
 14
-2.438623
 24
360.571394
 34
0.0
 50
90.0
100
AcDbRotatedDimension
1001
ACAD
1000
DSTYLE
1002
{
1070
    40
1040
1.0
1002
}
  0
DIMENSION
  5
54C3
100
AcDbEntity
  8
OBJECT
100
AcDbDimension
  2
*D1
 10
-26.515046
 20
322.438557
 30
0.0
 11
2.515871
 21
347.57332
 31
0.0
 12
-193.440302
 22
31.294068
 32
0.0
 70
   163
  1
<>"
  3
STANDARD
100
AcDbDiametricDimension
 15
-11.362199
 25
340.236923
 35
0.0
 40
0.0
1001
ACAD
1000
DSTYLE
1002
{
1070
   288
1070
     1
1070
    40
1040
1.0
1002
}
  0
CIRCLE
  5
54C4
100
AcDbEntity
  8
OBJECT
100
AcDbCircle
 10
-18.938623
 20
331.33774
 30
0.0
 40
16.5
  0
CIRCLE
  5
54C5
100
AcDbEntity
  8
HIDDEN
100
AcDbCircle
 10
-18.938623
 20
331.33774
 30
0.0
 40
13.0
  0
CIRCLE
  5
54C6
100
AcDbEntity
  8
HIDDEN
100
AcDbCircle
 10
-18.938623
 20
331.33774
 30
0.0
 40
14.125
  0
CIRCLE
  5
54C7
100
AcDbEntity
  8
OBJECT
100
AcDbCircle
 10
-18.938623
 20
331.33774
 30
0.0
 40
11.6875
  0
CIRCLE
  5
54C8
100
AcDbEntity
  8
OBJECT
100
AcDbCircle
 10
-18.938623
 20
331.33774
 30
0.0
 40
12.25
  0
CIRCLE
  5
54C9
100
AcDbEntity
  8
CENTER
100
AcDbCircle
 10
-18.938623
 20
331.33774
 30
0.0
 40
12.375
  0
LINE
  5
54CA
100
AcDbEntity
  8
OBJECT
100
AcDbLine
 10
-30.15524
 20
327.83774
 30
0.0
 11
-30.15524
 21
334.83774
 31
0.0
  0
LINE
  5
54CB
100
AcDbEntity
  8
HIDDEN
100
AcDbLine
 10
-31.458607
 20
327.83774
 30
0.0
 11
-30.15524
 21
327.83774
 31
0.0
  0
LWPOLYLINE
  5
54CC
100
AcDbEntity
  8
OBJECT
100
AcDbPolyline
 90
        3
 70
     0
 43
0.0
 10
-32.234233
 20
332.255606
 10
-38.625039
 20
338.627359
 10
-39.825077
 20
338.627359
1001
ACAD
1000
DSTYLE
1002
{
1070
    40
1040
1.0
1002
}
  0
CIRCLE
  5
54CD
100
AcDbEntity
  8
OBJECT
100
AcDbCircle
 10
-41.43536
 20
338.627359
 30
0.0
 40
1.610284
  0
MTEXT
  5
54CE
100
AcDbEntity
  8
OBJECT
100
AcDbMText
 10
-40.688687
 20
338.639424
 30
0.0
 40
1.35
 41
0.0
 71
     6
 72
     1
  1
01
  7
ROMAND
  0
LINE
  5
54CF
100
AcDbEntity
  8
HIDDEN
100
AcDbLine
 10
-31.458607
 20
334.83774
 30
0.0
 11
-30.15524
 21
334.83774
 31
0.0
  0
SOLID
  5
54D0
100
AcDbEntity
  8
OBJECT
100
AcDbTrace
 10
-32.081255
 20
332.409041
 30
0.0
 11
-31.313623
 21
331.33774
 31
0.0
 12
-32.38721
 22
332.102171
 32
0.0
 13
-32.38721
 23
332.102171
 33
0.0
1001
ACAD
1000
DSTYLE
1002
{
1070
    40
1040
1.0
1002
}
  0
CIRCLE
  5
54D1
100
AcDbEntity
  8
HIDDEN
100
AcDbCircle
 10
-31.313623
 20
331.33774
 30
0.0
 40
0.125
  0
LINE
  5
54D2
100
AcDbEntity
  8
OBJECT
100
AcDbLine
 10
-7.722005
 20
334.83774
 30
0.0
 11
-7.722005
 21
327.83774
 31
0.0
  0
LINE
  5
54D3
100
AcDbEntity
  8
OBJECT
100
AcDbLine
 10
-15.438623
 20
320.121123
 30
0.0
 11
-22.438623
 21
320.121123
 31
0.0
  0
CIRCLE
  5
54D4
100
AcDbEntity
  8
HIDDEN
100
AcDbCircle
 10
-18.938623
 20
318.96274
 30
0.0
 40
0.125
  0
LINE
  5
54D5
100
AcDbEntity
  8
HIDDEN
100
AcDbLine
 10
-22.438623
 20
318.817756
 30
0.0
 11
-22.438623
 21
320.121123
 31
0.0
  0
LINE
  5
54D6
100
AcDbEntity
  8
HIDDEN
100
AcDbLine
 10
-15.438623
 20
318.817756
 30
0.0
 11
-15.438623
 21
320.121123
 31
0.0
  0
LINE
  5
54D7
100
AcDbEntity
  8
HIDDEN
100
AcDbLine
 10
-6.418639
 20
327.83774
 30
0.0
 11
-7.722005
 21
327.83774
 31
0.0
  0
LINE
  5
54D8
100
AcDbEntity
  8
OBJECT
100
AcDbLine
 10
-22.438623
 20
342.554357
 30
0.0
 11
-15.438623
 21
342.554357
 31
0.0
  0
CIRCLE
  5
54D9
100
AcDbEntity
  8
HIDDEN
100
AcDbCircle
 10
-18.938623
 20
343.71274
 30
0.0
 40
0.125
  0
LINE
  5
54DA
100
AcDbEntity
  8
HIDDEN
100
AcDbLine
 10
-22.438623
 20
343.857724
 30
0.0
 11
-22.438623
 21
342.554357
 31
0.0
  0
LINE
  5
54DB
100
AcDbEntity
  8
HIDDEN
100
AcDbLine
 10
-15.438623
 20
343.857724
 30
0.0
 11
-15.438623
 21
342.554357
 31
0.0
  0
LINE
  5
54DC
100
AcDbEntity
  8
HIDDEN
100
AcDbLine
 10
-6.418639
 20
334.83774
 30
0.0
 11
-7.722005
 21
334.83774
 31
0.0
  0
CIRCLE
  5
54DD
100
AcDbEntity
  8
HIDDEN
100
AcDbCircle
 10
-6.563623
 20
331.33774
 30
0.0
 40
0.125
  0
LINE
  5
54DE
100
AcDbEntity
  8
OBJECT
100
AcDbLine
 10
-35.438623
 20
360.571394
 30
0.0
 11
-2.438623
 21
360.571394
 31
0.0
  0
LINE
  5
54DF
100
AcDbEntity
  8
OBJECT
100
AcDbLine
 10
-35.438623
 20
362.196394
 30
0.0
 11
-2.438623
 21
362.196394
 31
0.0
  0
LINE
  5
54E0
100
AcDbEntity
  8
OBJECT
100
AcDbLine
 10
-31.938623
 20
389.571394
 30
0.0
 11
-5.938623
 21
389.571394
 31
0.0
  0
LINE
  5
54E1
100
AcDbEntity
  8
OBJECT
100
AcDbLine
 10
-33.063623
 20
366.071394
 30
0.0
 11
-4.813623
 21
366.071394
 31
0.0
  0
LINE
  5
54E2
100
AcDbEntity
  8
OBJECT
100
AcDbLine
 10
-33.063623
 20
363.696394
 30
0.0
 11
-4.813623
 21
363.696394
 31
0.0
  0
LINE
  5
54E3
100
AcDbEntity
  8
HIDDEN
100
AcDbLine
 10
-31.938623
 20
388.571394
 30
0.0
 11
-5.938623
 21
388.571394
 31
0.0
  0
DIMENSION
  5
54E4
100
AcDbEntity
  8
OBJECT
100
AcDbDimension
  2
*D4
 10
-5.938623
 20
357.996071
 30
0.0
 11
-18.938623
 21
357.996071
 31
0.0
 12
-193.440302
 22
31.294068
 32
0.0
 70
    32
  1
<>"
  3
STANDARD
100
AcDbAlignedDimension
 13
-31.938623
 23
362.196394
 33
0.0
 14
-5.938623
 24
362.196394
 34
0.0
100
AcDbRotatedDimension
1001
ACAD
1000
DSTYLE
1002
{
1070
    40
1040
1.0
1002
}
  0
DIMENSION
  5
54E5
100
AcDbEntity
  8
OBJECT
100
AcDbDimension
  2
*D3
 10
-4.813623
 20
355.262703
 30
0.0
 11
-18.938623
 21
355.262703
 31
0.0
 12
-193.440302
 22
31.294068
 32
0.0
 70
    32
  1
<>"
  3
STANDARD
100
AcDbAlignedDimension
 13
-33.063623
 23
363.696394
 33
0.0
 14
-4.813623
 24
363.696394
 34
0.0
100
AcDbRotatedDimension
1001
ACAD
1000
DSTYLE
1002
{
1070
    40
1040
1.0
1002
}
  0
DIMENSION
  5
54E6
100
AcDbEntity
  8
OBJECT
100
AcDbDimension
  2
*D2
 10
-2.438623
 20
351.816283
 30
0.0
 11
-18.938623
 21
351.816283
 31
0.0
 12
-193.440302
 22
31.294068
 32
0.0
 70
    32
  1
<>"
  3
STANDARD
100
AcDbAlignedDimension
 13
-35.438623
 23
360.571394
 33
0.0
 14
-2.438623
 24
360.571394
 34
0.0
100
AcDbRotatedDimension
1001
ACAD
1000
DSTYLE
1002
{
1070
    40
1040
1.0
1002
}
  0
LINE
  5
54E7
100
AcDbEntity
  8
OBJECT
100
AcDbLine
 10
-31.938623
 20
389.571394
 30
0.0
 11
-31.938623
 21
366.071394
 31
0.0
  0
DIMENSION
  5
54E8
100
AcDbEntity
  8
OBJECT
100
AcDbDimension
  2
*D9
 10
-44.02645
 20
366.071394
 30
0.0
 11
-37.680021
 21
368.671394
 31
0.0
 12
-193.440302
 22
31.294068
 32
0.0
 70
    32
  1
<>"
  3
STANDARD
100
AcDbAlignedDimension
 13
-33.063623
 23
363.696394
 33
0.0
 14
-33.063623
 24
366.071394
 34
0.0
 50
90.0
100
AcDbRotatedDimension
1001
ACAD
1000
DSTYLE
1002
{
1070
    40
1040
1.0
1002
}
  0
LINE
  5
54E9
100
AcDbEntity
  8
OBJECT
100
AcDbLine
 10
-35.438623
 20
360.571394
 30
0.0
 11
-35.438623
 21
362.196394
 31
0.0
  0
LINE
  5
54EA
100
AcDbEntity
  8
OBJECT
100
AcDbLine
 10
-33.063623
 20
366.071394
 30
0.0
 11
-33.063623
 21
363.696394
 31
0.0
  0
LINE
  5
54EB
100
AcDbEntity
  8
OBJECT
100
AcDbLine
 10
-31.938623
 20
363.696394
 30
0.0
 11
-31.938623
 21
362.196394
 31
0.0
  0
DIMENSION
  5
54EC
100
AcDbEntity
  8
OBJECT
100
AcDbDimension
  2
*D7
 10
-36.298376
 20
374.571394
 30
0.0
 11
-42.644804
 21
373.271394
 31
0.0
 12
-193.440302
 22
31.294068
 32
0.0
 70
    32
  1
<>"
  3
STANDARD
100
AcDbAlignedDimension
 13
-31.938623
 23
383.071394
 33
0.0
 14
-31.938623
 24
374.571394
 34
0.0
 50
90.0
100
AcDbRotatedDimension
1001
ACAD
1000
DSTYLE
1002
{
1070
    40
1040
1.0
1002
}
  0
LINE
  5
54ED
100
AcDbEntity
  8
HIDDEN
100
AcDbLine
 10
-30.688623
 20
383.071394
 30
0.0
 11
-30.688623
 21
374.571394
 31
0.0
  0
LINE
  5
54EE
100
AcDbEntity
  8
HIDDEN
100
AcDbLine
 10
-30.688623
 20
374.571394
 30
0.0
 11
-31.938623
 21
374.571394
 31
0.0
  0
LINE
  5
54EF
100
AcDbEntity
  8
HIDDEN
100
AcDbLine
 10
-30.688623
 20
383.071394
 30
0.0
 11
-31.938623
 21
383.071394
 31
0.0
  0
LINE
  5
54F0
100
AcDbEntity
  8
OBJECT
100
AcDbLine
 10
-5.938623
 20
389.571394
 30
0.0
 11
-5.938623
 21
366.071394
 31
0.0
  0
LINE
  5
54F1
100
AcDbEntity
  8
OBJECT
100
AcDbLine
 10
-2.438623
 20
360.571394
 30
0.0
 11
-2.438623
 21
362.196394
 31
0.0
  0
LINE
  5
54F2
100
AcDbEntity
  8
OBJECT
100
AcDbLine
 10
-4.813623
 20
366.071394
 30
0.0
 11
-4.813623
 21
363.696394
 31
0.0
  0
LINE
  5
54F3
100
AcDbEntity
  8
OBJECT
100
AcDbLine
 10
-5.938623
 20
363.696394
 30
0.0
 11
-5.938623
 21
362.196394
 31
0.0
  0
LINE
  5
54F4
100
AcDbEntity
  8
OBJECT
100
AcDbLine
 10
-15.438623
 20
374.571394
 30
0.0
 11
-15.438623
 21
383.071394
 31
0.0
  0
LINE
  5
54F5
100
AcDbEntity
  8
OBJECT
100
AcDbLine
 10
-22.438623
 20
374.571394
 30
0.0
 11
-22.438623
 21
383.071394
 31
0.0
  0
LINE
  5
54F6
100
AcDbEntity
  8
OBJECT
100
AcDbLine
 10
-22.438623
 20
374.571394
 30
0.0
 11
-15.438623
 21
374.571394
 31
0.0
  0
LINE
  5
54F7
100
AcDbEntity
  8
OBJECT
100
AcDbLine
 10
-22.438623
 20
383.071394
 30
0.0
 11
-15.438623
 21
383.071394
 31
0.0
  0
LINE
  5
54F8
100
AcDbEntity
  8
HIDDEN
100
AcDbLine
 10
-7.188623
 20
383.071394
 30
0.0
 11
-7.188623
 21
374.571394
 31
0.0
  0
LINE
  5
54F9
100
AcDbEntity
  8
HIDDEN
100
AcDbLine
 10
-7.188623
 20
374.571394
 30
0.0
 11
-5.938623
 21
374.571394
 31
0.0
  0
LINE
  5
54FA
100
AcDbEntity
  8
HIDDEN
100
AcDbLine
 10
-7.188623
 20
383.071394
 30
0.0
 11
-5.938623
 21
383.071394
 31
0.0
  0
LINE
  5
54FB
100
AcDbEntity
  8
OBJECT
100
AcDbLine
 10
-92.939665
 20
386.656936
 30
0.0
 11
-92.939665
 21
394.86388
 31
0.0
  0
LINE
  5
54FC
100
AcDbEntity
  8
OBJECT
100
AcDbLine
 10
-86.932665
 20
391.395737
 30
0.0
 11
-92.939665
 21
394.86388
 31
0.0
  0
ELLIPSE
  5
54FD
100
AcDbEntity
  8
OBJECT
100
AcDbEllipse
 10
-99.703932
 20
387.490385
 30
0.0
 11
-15.92168332809065
 21
0.0
 31
0.0
210
0.0
220
0.0
230
1.0
 40
0.57735
 41
3.656940209221694
 42
4.197041424752791
  0
LINE
  5
54FE
100
AcDbEntity
  8
OBJECT
100
AcDbLine
 10
-83.782249
 20
393.990385
 30
0.0
 11
-83.782249
 21
370.490385
 31
0.0
  0
LINE
  5
54FF
100
AcDbEntity
  8
OBJECT
100
AcDbLine
 10
-106.4682
 20
394.86388
 30
0.0
 11
-106.4682
 21
386.656936
 31
0.0
  0
LINE
  5
5500
100
AcDbEntity
  8
OBJECT
100
AcDbLine
 10
-112.475199
 20
391.395737
 30
0.0
 11
-106.4682
 21
394.86388
 31
0.0
  0
ELLIPSE
  5
5501
100
AcDbEntity
  8
OBJECT
100
AcDbEllipse
 10
-99.703932
 20
387.490385
 30
0.0
 11
-15.92168332809065
 21
0.0
 31
0.0
210
0.0
220
0.0
230
1.0
 40
0.57735
 41
5.227736536016591
 42
5.767837751547691
  0
LINE
  5
5502
100
AcDbEntity
  8
OBJECT
100
AcDbLine
 10
-115.625615
 20
393.990385
 30
0.0
 11
-115.625615
 21
370.490385
 31
0.0
  0
ELLIPSE
  5
5503
100
AcDbEntity
  8
OBJECT
100
AcDbEllipse
 10
-99.703932
 20
393.990385
 30
0.0
 11
-15.92168332809065
 21
0.0
 31
0.0
210
0.0
220
0.0
230
1.0
 40
0.57735
 41
0.0
 42
6.283185307179586
  0
ELLIPSE
  5
5504
100
AcDbEntity
  8
OBJECT
100
AcDbEllipse
 10
-99.703932
 20
393.990385
 30
0.0
 11
-14.39075223885117
 21
0.0
 31
0.0
210
0.0
220
0.0
230
1.0
 40
0.57735
 41
0.0
 42
6.283185307179586
  0
ELLIPSE
  5
5505
100
AcDbEntity
  8
OBJECT
100
AcDbEllipse
 10
-99.703932
 20
364.990385
 30
0.0
 11
-20.20829037796121
 21
0.0
 31
0.0
210
0.0
220
0.0
230
1.0
 40
0.57735
 41
6.283185307179586
 42
9.424777960769379
  0
ELLIPSE
  5
5506
100
AcDbEntity
  8
OBJECT
100
AcDbEllipse
 10
-99.703932
 20
366.615385
 30
0.0
 11
-20.20829037796121
 21
0.0
 31
0.0
210
0.0
220
0.0
230
1.0
 40
0.57735
 41
5.678795387160287
 42
10.02916788078867
  0
ELLIPSE
  5
5507
100
AcDbEntity
  8
OBJECT
100
AcDbEllipse
 10
-99.703932
 20
370.490385
 30
0.0
 11
-17.29952130840619
 21
0.0
 31
0.0
210
0.0
220
0.0
230
1.0
 40
0.57735
 41
5.881373629430044
 42
9.826589638519187
  0
ELLIPSE
  5
5508
100
AcDbEntity
  8
OBJECT
100
AcDbEllipse
 10
-99.703932
 20
368.115385
 30
0.0
 11
-17.29952130840619
 21
0.0
 31
0.0
210
0.0
220
0.0
230
1.0
 40
0.57735
 41
6.283185307179586
 42
9.424777960769379
  0
LINE
  5
5509
100
AcDbEntity
  8
OBJECT
100
AcDbLine
 10
-121.2234
 20
318.155096
 30
0.0
 11
-74.341558
 21
318.155096
 31
0.0
  0
TEXT
  5
550A
100
AcDbEntity
  8
OBJECT
100
AcDbText
 10
-112.55757
 20
322.811094
 30
0.0
 40
1.35
  1
Roll of Butyl Gasket Material
  7
ROMAND
100
AcDbText
  0
LINE
  5
550B
100
AcDbEntity
  8
OBJECT
100
AcDbLine
 10
-121.2234
 20
321.46571
 30
0.0
 11
-74.341558
 21
321.46571
 31
0.0
  0
TEXT
  5
550C
100
AcDbEntity
  8
OBJECT
100
AcDbText
 10
-112.55757
 20
326.121708
 30
0.0
 40
1.35
  1
3/8" Stainless Steel Washers
  7
ROMAND
100
AcDbText
  0
LINE
  5
550D
100
AcDbEntity
  8
OBJECT
100
AcDbLine
 10
-121.2234
 20
324.776325
 30
0.0
 11
-74.341558
 21
324.776325
 31
0.0
  0
LINE
  5
550E
100
AcDbEntity
  8
OBJECT
100
AcDbLine
 10
-121.2234
 20
328.086939
 30
0.0
 11
-74.341558
 21
328.086939
 31
0.0
  0
TEXT
  5
550F
100
AcDbEntity
  8
OBJECT
100
AcDbText
 10
-112.55757
 20
332.742936
 30
0.0
 40
1.35
  1
1/4" - 20 Aluminum Inserts
  7
ROMAND
100
AcDbText
  0
LINE
  5
5510
100
AcDbEntity
  8
OBJECT
100
AcDbLine
 10
-121.2234
 20
331.397553
 30
0.0
 11
-74.341558
 21
331.397553
 31
0.0
  0
LINE
  5
5511
100
AcDbEntity
  8
OBJECT
100
AcDbLine
 10
-121.2234
 20
338.018781
 30
0.0
 11
-74.341558
 21
338.018781
 31
0.0
  0
LINE
  5
5512
100
AcDbEntity
  8
OBJECT
100
AcDbLine
 10
-121.2234
 20
334.708167
 30
0.0
 11
-74.341558
 21
334.708167
 31
0.0
  0
TEXT
  5
5513
100
AcDbEntity
  8
OBJECT
100
AcDbText
 10
-112.55757
 20
319.50048
 30
0.0
 40
1.35
  1
Concrete Anchors
  7
ROMAND
100
AcDbText
  0
TEXT
  5
5514
100
AcDbEntity
  8
OBJECT
100
AcDbText
 10
-112.55757
 20
329.432322
 30
0.0
 40
1.35
  1
3/8" Stainless Steel Bolts
  7
ROMAND
100
AcDbText
  0
LINE
  5
5515
100
AcDbEntity
  8
OBJECT
100
AcDbLine
 10
-112.877941
 20
328.086939
 30
0.0
 11
-112.877941
 21
331.397553
 31
0.0
  0
LINE
  5
5516
100
AcDbEntity
  8
OBJECT
100
AcDbLine
 10
-121.2234
 20
328.086939
 30
0.0
 11
-121.2234
 21
331.397553
 31
0.0
  0
TEXT
  5
5517
100
AcDbEntity
  8
OBJECT
100
AcDbText
 10
-118.325754
 20
322.811094
 30
0.0
 40
1.35
  1
04
  7
ROMAND
100
AcDbText
  0
TEXT
  5
5518
100
AcDbEntity
  8
OBJECT
100
AcDbText
 10
-118.325754
 20
326.121708
 30
0.0
 40
1.35
  1
03
  7
ROMAND
100
AcDbText
  0
TEXT
  5
5519
100
AcDbEntity
  8
OBJECT
100
AcDbText
 10
-118.325754
 20
319.50048
 30
0.0
 40
1.35
  1
05
  7
ROMAND
100
AcDbText
  0
LINE
  5
551A
100
AcDbEntity
  8
OBJECT
100
AcDbLine
 10
-121.2234
 20
318.155096
 30
0.0
 11
-121.2234
 21
324.776325
 31
0.0
  0
LINE
  5
551B
100
AcDbEntity
  8
OBJECT
100
AcDbLine
 10
-121.2234
 20
324.776325
 30
0.0
 11
-121.2234
 21
328.086939
 31
0.0
  0
LINE
  5
551C
100
AcDbEntity
  8
OBJECT
100
AcDbLine
 10
-112.877941
 20
318.155096
 30
0.0
 11
-112.877941
 21
324.776325
 31
0.0
  0
LINE
  5
551D
100
AcDbEntity
  8
OBJECT
100
AcDbLine
 10
-112.877941
 20
324.776325
 30
0.0
 11
-112.877941
 21
328.086939
 31
0.0
  0
TEXT
  5
551E
100
AcDbEntity
  8
OBJECT
100
AcDbText
 10
-118.325754
 20
332.742936
 30
0.0
 40
1.35
  1
01
  7
ROMAND
100
AcDbText
  0
TEXT
  5
551F
100
AcDbEntity
  8
OBJECT
100
AcDbText
 10
-120.903029
 20
336.05355
 30
0.0
 40
1.35
  1
ITEM #
  7
ROMAND
100
AcDbText
  0
TEXT
  5
5520
100
AcDbEntity
  8
OBJECT
100
AcDbText
 10
-118.325754
 20
329.432322
 30
0.0
 40
1.35
  1
02
  7
ROMAND
100
AcDbText
  0
LINE
  5
5521
100
AcDbEntity
  8
OBJECT
100
AcDbLine
 10
-121.2234
 20
331.397553
 30
0.0
 11
-121.2234
 21
334.708167
 31
0.0
  0
LINE
  5
5522
100
AcDbEntity
  8
OBJECT
100
AcDbLine
 10
-121.2234
 20
334.708167
 30
0.0
 11
-121.2234
 21
338.018781
 31
0.0
  0
LINE
  5
5523
100
AcDbEntity
  8
OBJECT
100
AcDbLine
 10
-112.877941
 20
331.397553
 30
0.0
 11
-112.877941
 21
334.708167
 31
0.0
  0
LINE
  5
5524
100
AcDbEntity
  8
OBJECT
100
AcDbLine
 10
-112.877941
 20
334.708167
 30
0.0
 11
-112.877941
 21
338.018781
 31
0.0
  0
TEXT
  5
5525
100
AcDbEntity
  8
OBJECT
100
AcDbText
 10
-101.880291
 20
336.05355
 30
0.0
 40
1.35
  1
DESCRIPTION
  7
ROMAND
100
AcDbText
  0
ELLIPSE
  5
5526
100
AcDbEntity
  8
OBJECT
100
AcDbEllipse
 10
-99.703932
 20
366.615385
 30
0.0
 11
-15.92168332809065
 21
0.0
 31
0.0
210
0.0
220
0.0
230
1.0
 40
0.57735
 41
0.4912039333316933
 42
2.650388720258092
  0
ELLIPSE
  5
5527
100
AcDbEntity
  8
OBJECT
100
AcDbEllipse
 10
-99.703932
 20
370.490385
 30
0.0
 11
-15.92168332809065
 21
0.0
 31
0.0
210
0.0
220
0.0
230
1.0
 40
0.57735
 41
0.0
 42
3.141592653589793
  0
ELLIPSE
  5
5528
100
AcDbEntity
  8
OBJECT
100
AcDbEllipse
 10
-99.703932
 20
378.990385
 30
0.0
 11
-15.92168332809065
 21
0.0
 31
0.0
210
0.0
220
0.0
230
1.0
 40
0.57735
 41
0.5153475556320006
 42
1.055448771163019
  0
LINE
  5
5529
100
AcDbEntity
  8
OBJECT
100
AcDbLine
 10
-107.550731
 20
379.491891
 30
0.0
 11
-107.550731
 21
370.991891
 31
0.0
  0
LINE
  5
552A
100
AcDbEntity
  8
OBJECT
100
AcDbLine
 10
-117.003453
 20
370.490385
 30
0.0
 11
-117.003453
 21
368.115385
 31
0.0
  0
LINE
  5
552B
100
AcDbEntity
  8
OBJECT
100
AcDbLine
 10
-119.912223
 20
366.615385
 30
0.0
 11
-119.912223
 21
364.990385
 31
0.0
  0
ELLIPSE
  5
552C
100
AcDbEntity
  8
OBJECT
100
AcDbEllipse
 10
-99.703932
 20
387.490385
 30
0.0
 11
-15.92168332809065
 21
0.0
 31
0.0
210
0.0
220
0.0
230
1.0
 40
0.57735
 41
6.798532862811586
 42
7.338634078342605
  0
LINE
  5
552D
100
AcDbEntity
  8
OBJECT
100
AcDbLine
 10
-113.557731
 20
382.960033
 30
0.0
 11
-113.557731
 21
374.460033
 31
0.0
  0
LINE
  5
552E
100
AcDbEntity
  8
OBJECT
100
AcDbLine
 10
-112.475199
 20
375.085033
 30
0.0
 11
-112.475199
 21
382.001161
 31
0.0
  0
LINE
  5
552F
100
AcDbEntity
  8
OBJECT
100
AcDbLine
 10
-107.550731
 20
372.241891
 30
0.0
 11
-112.475199
 21
375.085033
 31
0.0
  0
LINE
  5
5530
100
AcDbEntity
  8
OBJECT
100
AcDbLine
 10
-113.557731
 20
374.460033
 30
0.0
 11
-112.475199
 21
375.085033
 31
0.0
  0
LINE
  5
5531
100
AcDbEntity
  8
OBJECT
100
AcDbLine
 10
-112.475199
 20
390.161178
 30
0.0
 11
-112.475199
 21
391.395737
 31
0.0
  0
LINE
  5
5532
100
AcDbEntity
  8
OBJECT
100
AcDbLine
 10
-113.557731
 20
392.020737
 30
0.0
 11
-113.557731
 21
391.741978
 31
0.0
  0
LINE
  5
5533
100
AcDbEntity
  8
OBJECT
100
AcDbLine
 10
-112.475199
 20
391.395737
 30
0.0
 11
-113.557731
 21
392.020737
 31
0.0
  0
ELLIPSE
  5
5534
100
AcDbEntity
  8
OBJECT
100
AcDbEllipse
 10
-110.420997
 20
387.802885
 30
0.0
 11
-0.1530931089239486
 21
0.0
 31
0.0
210
0.0
220
0.0
230
1.0
 40
0.57735
 41
0.0
 42
6.283185307179586
  0
ELLIPSE
  5
5535
100
AcDbEntity
  8
OBJECT
100
AcDbEllipse
 10
-99.703932
 20
378.990385
 30
0.0
 11
-15.92168332809065
 21
0.0
 31
0.0
210
0.0
220
0.0
230
1.0
 40
0.57735
 41
2.086143882426814
 42
2.626245097958003
  0
LINE
  5
5536
100
AcDbEntity
  8
OBJECT
100
AcDbLine
 10
-91.857133
 20
379.491891
 30
0.0
 11
-91.857133
 21
370.991891
 31
0.0
  0
ELLIPSE
  5
5537
100
AcDbEntity
  8
OBJECT
100
AcDbEllipse
 10
-99.703932
 20
387.490385
 30
0.0
 11
-15.92168332809065
 21
0.0
 31
0.0
210
0.0
220
0.0
230
1.0
 40
0.57735
 41
2.086143882426814
 42
2.626245097958003
  0
LINE
  5
5538
100
AcDbEntity
  8
OBJECT
100
AcDbLine
 10
-85.850133
 20
382.960033
 30
0.0
 11
-85.850133
 21
374.460033
 31
0.0
  0
LINE
  5
5539
100
AcDbEntity
  8
OBJECT
100
AcDbLine
 10
-86.932665
 20
375.085033
 30
0.0
 11
-86.932665
 21
382.001161
 31
0.0
  0
LINE
  5
553A
100
AcDbEntity
  8
OBJECT
100
AcDbLine
 10
-91.857133
 20
372.241891
 30
0.0
 11
-86.932665
 21
375.085033
 31
0.0
  0
LINE
  5
553B
100
AcDbEntity
  8
OBJECT
100
AcDbLine
 10
-85.850133
 20
374.460033
 30
0.0
 11
-86.932665
 21
375.085033
 31
0.0
  0
ELLIPSE
  5
553C
100
AcDbEntity
  8
OBJECT
100
AcDbEllipse
 10
-88.986868
 20
387.802885
 30
0.0
 11
-0.1530931089239486
 21
0.0
 31
0.0
210
0.0
220
0.0
230
1.0
 40
0.57735
 41
0.0
 42
6.283185307179586
  0
LINE
  5
553D
100
AcDbEntity
  8
OBJECT
100
AcDbLine
 10
-85.850133
 20
392.020737
 30
0.0
 11
-85.850133
 21
391.741978
 31
0.0
  0
LINE
  5
553E
100
AcDbEntity
  8
OBJECT
100
AcDbLine
 10
-86.932665
 20
390.161178
 30
0.0
 11
-86.932665
 21
391.395737
 31
0.0
  0
LINE
  5
553F
100
AcDbEntity
  8
OBJECT
100
AcDbLine
 10
-86.932665
 20
391.395737
 30
0.0
 11
-85.850133
 21
392.020737
 31
0.0
  0
LINE
  5
5540
100
AcDbEntity
  8
OBJECT
100
AcDbLine
 10
-74.341558
 20
328.086939
 30
0.0
 11
-74.341558
 21
331.397553
 31
0.0
  0
LINE
  5
5541
100
AcDbEntity
  8
OBJECT
100
AcDbLine
 10
-79.496106
 20
328.086939
 30
0.0
 11
-79.496106
 21
331.397553
 31
0.0
  0
LINE
  5
5542
100
AcDbEntity
  8
OBJECT
100
AcDbLine
 10
-74.341558
 20
318.155096
 30
0.0
 11
-74.341558
 21
324.776325
 31
0.0
  0
LINE
  5
5543
100
AcDbEntity
  8
OBJECT
100
AcDbLine
 10
-79.496106
 20
318.155096
 30
0.0
 11
-79.496106
 21
324.776325
 31
0.0
  0
TEXT
  5
5544
100
AcDbEntity
  8
OBJECT
100
AcDbText
 10
-78.807553
 20
326.121708
 30
0.0
 40
1.35
  1
10
  7
ROMAND
100
AcDbText
  0
TEXT
  5
5545
100
AcDbEntity
  8
OBJECT
100
AcDbText
 10
-78.807553
 20
319.50048
 30
0.0
 40
1.35
  1
10
  7
ROMAND
100
AcDbText
  0
TEXT
  5
5546
100
AcDbEntity
  8
OBJECT
100
AcDbText
 10
-77.948462
 20
322.811094
 30
0.0
 40
1.35
  1
1
  7
ROMAND
100
AcDbText
  0
LINE
  5
5547
100
AcDbEntity
  8
OBJECT
100
AcDbLine
 10
-79.496106
 20
324.776325
 30
0.0
 11
-79.496106
 21
328.086939
 31
0.0
  0
LINE
  5
5548
100
AcDbEntity
  8
OBJECT
100
AcDbLine
 10
-74.341558
 20
324.776325
 30
0.0
 11
-74.341558
 21
328.086939
 31
0.0
  0
TEXT
  5
5549
100
AcDbEntity
  8
OBJECT
100
AcDbText
 10
-79.175735
 20
336.05355
 30
0.0
 40
1.35
  1
QTY.
  7
ROMAND
100
AcDbText
  0
TEXT
  5
554A
100
AcDbEntity
  8
OBJECT
100
AcDbText
 10
-78.807553
 20
329.432322
 30
0.0
 40
1.35
  1
10
  7
ROMAND
100
AcDbText
  0
TEXT
  5
554B
100
AcDbEntity
  8
OBJECT
100
AcDbText
 10
-77.948462
 20
332.742936
 30
0.0
 40
1.35
  1
4
  7
ROMAND
100
AcDbText
  0
LINE
  5
554C
100
AcDbEntity
  8
OBJECT
100
AcDbLine
 10
-79.496106
 20
331.397553
 30
0.0
 11
-79.496106
 21
334.708167
 31
0.0
  0
LINE
  5
554D
100
AcDbEntity
  8
OBJECT
100
AcDbLine
 10
-79.496106
 20
334.708167
 30
0.0
 11
-79.496106
 21
338.018781
 31
0.0
  0
LINE
  5
554E
100
AcDbEntity
  8
OBJECT
100
AcDbLine
 10
-74.341558
 20
331.397553
 30
0.0
 11
-74.341558
 21
334.708167
 31
0.0
  0
LINE
  5
554F
100
AcDbEntity
  8
OBJECT
100
AcDbLine
 10
-74.341558
 20
334.708167
 30
0.0
 11
-74.341558
 21
338.018781
 31
0.0
  0
LINE
  5
5550
100
AcDbEntity
  8
OBJECT
100
AcDbLine
 10
-79.495642
 20
366.615385
 30
0.0
 11
-79.495642
 21
364.990385
 31
0.0
  0
LINE
  5
5551
100
AcDbEntity
  8
OBJECT
100
AcDbLine
 10
-82.404411
 20
370.490385
 30
0.0
 11
-82.404411
 21
368.115385
 31
0.0
  0
ELLIPSE
  5
5552
100
AcDbEntity
  8
OBJECT
100
AcDbEllipse
 10
-99.703932
 20
392.990385
 30
0.0
 11
-14.39075223885117
 21
0.0
 31
0.0
210
0.0
220
0.0
230
1.0
 40
0.57735
 41
3.201808337146899
 42
6.222969623622476
  0
ELLIPSE
  5
5553
100
AcDbEntity
  8
OBJECT
100
AcDbEllipse
 10
-110.420997
 20
400.177885
 30
0.0
 11
-0.1530931089239486
 21
0.0
 31
0.0
210
0.0
220
0.0
230
1.0
 40
0.57735
 41
0.0
 42
6.283185307179586
  0
LINE
  5
5554
100
AcDbEntity
  8
OBJECT
100
AcDbLine
 10
-107.550731
 20
395.48888
 30
0.0
 11
-106.4682
 21
394.86388
 31
0.0
  0
ELLIPSE
  5
5555
100
AcDbEntity
  8
OBJECT
100
AcDbEllipse
 10
-88.986868
 20
400.177885
 30
0.0
 11
-0.1530931089239486
 21
0.0
 31
0.0
210
0.0
220
0.0
230
1.0
 40
0.57735
 41
0.0
 42
6.283185307179586
  0
LINE
  5
5556
100
AcDbEntity
  8
OBJECT
100
AcDbLine
 10
-92.939665
 20
394.86388
 30
0.0
 11
-91.857133
 21
395.48888
 31
0.0
  0
LWPOLYLINE
  5
5604
100
AcDbEntity
  8
BORDER
 62
     5
100
AcDbPolyline
 90
        6
 70
     0
 43
0.721814
 10
-129.683677
 20
270.817202
 10
-129.683677
 20
441.400456
 42
-0.414214
 10
-128.063209
 20
443.020924
 10
15.599536
 20
443.020924
 42
-0.414214
 10
17.220004
 20
441.400456
 10
17.220004
 20
270.817202
  0
LWPOLYLINE
  5
5605
100
AcDbEntity
  8
BORDER
 62
     5
100
AcDbPolyline
 90
        2
 70
     0
 43
0.405117
 10
-129.683677
 20
270.817202
 10
-129.683677
 20
441.400456
  0
LINE
  5
5606
100
AcDbEntity
  8
LIMITS
 62
     7
100
AcDbLine
 10
-132.924613
 20
446.26186
 30
0.0
 11
-132.924613
 21
247.762909
 31
0.0
  0
LWPOLYLINE
  5
5607
100
AcDbEntity
  8
BORDER
 62
     5
100
AcDbPolyline
 90
        2
 70
     0
 43
0.405117
 10
17.220004
 20
270.817202
 10
17.220004
 20
441.400456
  0
LINE
  5
5608
100
AcDbEntity
  8
LIMITS
 62
     7
100
AcDbLine
 10
20.46094
 20
247.762909
 30
0.0
 11
20.46094
 21
446.26186
 31
0.0
  0
LINE
  5
5609
100
AcDbEntity
  8
LIMITS
100
AcDbLine
 10
20.46094
 20
442.219082
 30
0.0
 11
20.46094
 21
247.762909
 31
0.0
  0
LINE
  5
560A
100
AcDbEntity
  8
LIMITS
100
AcDbLine
 10
20.46094
 20
247.762909
 30
0.0
 11
20.46094
 21
442.219082
 31
0.0
  0
TEXT
  5
560B
100
AcDbEntity
  8
BORDER
 62
     6
100
AcDbText
 10
-49.088025
 20
260.472087
 30
0.0
 40
0.760265
  1
in this print by any other source than TOPP INDUSTRIES, INC.
 41
0.839168
  7
ROMANS
 72
     5
 11
-17.765769
 21
260.472087
 31
0.0
100
AcDbText
  0
TEXT
  5
560C
100
AcDbEntity
  8
BORDER
 62
     6
100
AcDbText
 10
-49.088025
 20
261.702992
 30
0.0
 40
0.760265
  1
and will not be used to manufacture or procure the manufacture of the items shown
 41
0.600404
  7
ROMANS
 72
     5
 11
-17.765769
 21
261.702992
 31
0.0
100
AcDbText
  0
TEXT
  5
560D
100
AcDbEntity
  8
BORDER
 62
     6
100
AcDbText
 10
-49.088025
 20
262.933897
 30
0.0
 40
0.760265
  1
be used as a record or to identify or inspect parts or for other information purposes
 41
0.596266
  7
ROMANS
 72
     5
 11
-17.765769
 21
262.933897
 31
0.0
100
AcDbText
  0
TEXT
  5
560E
100
AcDbEntity
  8
BORDER
 62
     6
100
AcDbText
 10
-49.088025
 20
264.164802
 30
0.0
 40
0.760265
  1
restriction includes, but is not limited to the condition that this print will not only
 41
0.626489
  7
ROMANS
 72
     5
 11
-17.765769
 21
264.164802
 31
0.0
100
AcDbText
  0
TEXT
  5
560F
100
AcDbEntity
  8
BORDER
 62
     6
100
AcDbText
 10
-49.088025
 20
265.395707
 30
0.0
 40
0.760265
  1
by TOPP INDUSTRIES, INC. It is furnished on a strictly confidential basis.  This
 41
0.659437
  7
ROMANS
 72
     5
 11
-17.765769
 21
265.395707
 31
0.0
100
AcDbText
  0
TEXT
  5
5610
100
AcDbEntity
  8
BORDER
 62
     6
100
AcDbText
 10
-49.088025
 20
266.626612
 30
0.0
 40
0.760265
  1
This print is and contains confidential proprietary information owned exclusively
 41
0.656934
  7
ROMANS
 72
     5
 11
-17.765769
 21
266.626612
 31
0.0
100
AcDbText
  0
LINE
  5
5611
100
AcDbEntity
  8
BORDER
100
AcDbLine
 10
-64.373902
 20
258.461334
 30
0.0
 11
-41.521965
 21
258.461334
 31
0.0
  0
LINE
  5
5612
100
AcDbEntity
  8
BORDER
100
AcDbLine
 10
-64.373902
 20
253.839664
 30
0.0
 11
-41.521965
 21
253.839664
 31
0.0
  0
LINE
  5
5613
100
AcDbEntity
  8
BORDER
100
AcDbLine
 10
-64.373902
 20
259.916419
 30
0.0
 11
-17.214943
 21
259.916419
 31
0.0
  0
LINE
  5
5614
100
AcDbEntity
  8
BORDER
100
AcDbLine
 10
-64.373902
 20
268.01876
 30
0.0
 11
-19.240528
 21
268.01876
 31
0.0
  0
LWPOLYLINE
  5
5615
100
AcDbEntity
  8
BORDER
 62
     5
100
AcDbPolyline
 90
        2
 70
     0
 43
1.012793
 10
-93.223144
 20
270.044345
 10
-19.240528
 20
270.044345
  0
LWPOLYLINE
  5
5616
100
AcDbEntity
  8
BORDER
 62
     5
100
AcDbPolyline
 90
        2
 70
     0
 43
1.012793
 10
13.168834
 20
251.814079
 10
-125.632506
 20
251.814079
  0
LINE
  5
5617
100
AcDbEntity
  8
LIMITS
 62
     7
100
AcDbLine
 10
-132.924613
 20
247.762909
 30
0.0
 11
20.46094
 21
247.762909
 31
0.0
  0
ARC
  5
5618
100
AcDbEntity
  8
BORDER
100
AcDbCircle
 10
-93.223144
 20
265.993175
 30
0.0
 40
2.025585
100
AcDbArc
 50
90.0
 51
180.0
  0
LWPOLYLINE
  5
5619
100
AcDbEntity
  8
BORDER
 62
     5
100
AcDbPolyline
 90
        2
 70
     0
 43
1.012793
 10
-93.223144
 20
270.044345
 42
0.414214
 10
-97.274314
 20
265.993175
 42
-0.560527
  0
TEXT
  5
561A
100
AcDbEntity
  8
BORDER
 62
     6
100
AcDbText
 10
-94.955228
 20
261.991455
 30
0.0
 40
0.908832
  1
Reference:
  7
ROMANC
100
AcDbText
  0
LINE
  5
561B
100
AcDbEntity
  8
BORDER
100
AcDbLine
 10
-95.248729
 20
263.3409
 30
0.0
 11
-64.373902
 21
263.3409
 31
0.0
  0
LINE
  5
561C
100
AcDbEntity
  8
BORDER
100
AcDbLine
 10
-95.248729
 20
258.461334
 30
0.0
 11
-47.466027
 21
258.461334
 31
0.0
  0
LINE
  5
561D
100
AcDbEntity
  8
BORDER
100
AcDbLine
 10
-95.248729
 20
259.916419
 30
0.0
 11
-47.466027
 21
259.916419
 31
0.0
  0
LINE
  5
561E
100
AcDbEntity
  8
BORDER
100
AcDbLine
 10
-95.248729
 20
253.839664
 30
0.0
 11
-47.466027
 21
253.839664
 31
0.0
  0
LWPOLYLINE
  5
561F
100
AcDbEntity
  8
BORDER
 62
     5
100
AcDbPolyline
 90
        2
 70
     0
 43
1.012793
 10
-125.632506
 20
251.814079
 42
-0.414214
 10
-129.683677
 20
255.865249
 42
0.560527
  0
LINE
  5
5620
102
{ACAD_REACTORS
330
5626
102
}
100
AcDbEntity
  8
BORDER
100
AcDbLine
 10
-121.734136
 20
258.418036
 30
0.0
 11
-117.213926
 21
258.418036
 31
0.0
  0
LINE
  5
5621
102
{ACAD_REACTORS
330
5626
102
}
100
AcDbEntity
  8
BORDER
100
AcDbLine
 10
-123.556471
 20
265.884338
 30
0.0
 11
-115.391591
 21
265.884338
 31
0.0
  0
LINE
  5
5622
100
AcDbEntity
  8
BORDER
100
AcDbLine
 10
-124.615443
 20
258.136971
 30
0.0
 11
-104.254568
 21
258.136971
 31
0.0
  0
LINE
  5
5623
100
AcDbEntity
  8
BORDER
100
AcDbLine
 10
-124.615443
 20
258.136971
 30
0.0
 11
-104.254568
 21
258.136971
 31
0.0
  0
LWPOLYLINE
  5
5624
100
AcDbEntity
  8
BORDER
 62
     5
100
AcDbPolyline
 90
        2
 70
     0
 43
1.012793
 10
-125.632506
 20
270.044345
 10
-103.35107
 20
270.044345
  0
LINE
  5
5625
100
AcDbEntity
  8
BORDER
100
AcDbLine
 10
-125.632506
 20
268.01876
 30
0.0
 11
-103.35107
 21
268.01876
 31
0.0
  0
HATCH
  5
5626
100
AcDbEntity
  8
BORDER
100
AcDbHatch
 10
0.0
 20
0.0
 30
0.0
210
0.0
220
0.0
230
1.0
  2
ANSI37
 70
     0
 71
     1
 91
        1
 92
        7
 72
     1
 73
     1
 93
       18
 10
-120.367384715188
 20
259.6674918789486
 42
-0.414213562373083
 10
-121.4011996971823
 20
258.6336768969544
 42
0.0
 10
-121.7341359549033
 20
258.6336768969544
 42
0.0
 10
-121.7341359549033
 20
258.4180364738347
 42
0.0
 10
-117.2139263376754
 20
258.4180364738347
 42
0.0
 10
-117.2139263376754
 20
258.6336768969544
 42
0.0
 10
-117.5468625953973
 20
258.6336768969544
 42
-0.4142135623730025
 10
-118.5806775773912
 20
259.6674918789487
 42
0.0
 10
-118.5806775773912
 20
265.3572169554449
 42
0.0
 10
-117.6707306394258
 20
265.3572169554449
 42
-0.4138200196737591
 10
-115.6073957900799
 20
263.2966530072103
 42
0.0
 10
-115.3915913513876
 20
263.2966530072104
 42
0.0
 10
-115.3915913513871
 20
265.884338084643
 42
0.0
 10
-123.5564709411916
 20
265.884338084643
 42
0.0
 10
-123.5564709411917
 20
263.2966530072103
 42
0.0
 10
-123.3406665024989
 20
263.2966530072103
 42
-0.4138200196737593
 10
-121.277331653153
 20
265.3572169554449
 42
0.0
 10
-120.367384715188
 20
265.3572169554449
 42
0.0
 97
       18
330
566B
330
566A
330
5674
330
5673
330
5621
330
563B
330
563A
330
5639
330
563C
330
5638
330
562A
330
5632
330
5631
330
5620
330
5655
330
5652
330
564C
330
5669
 75
     0
 76
     1
 52
0.0
 41
0.031383
 77
     0
 78
     2
 53
45.0
 43
-130.906719
 44
145.117187
 45
-0.0027739284631318
 46
0.0027739284631318
 79
     0
 53
135.0
 43
-130.906719
 44
145.117187
 45
-0.0027739284631318
 46
-0.0027739284631318
 79
     0
 47
0.049862
 98
        1
 10
-119.693298
 20
262.401978
  0
LINE
  5
5627
100
AcDbEntity
  8
BORDER
100
AcDbLine
 10
-125.632506
 20
253.839664
 30
0.0
 11
-101.325485
 21
253.839664
 31
0.0
  0
ARC
  5
5628
100
AcDbEntity
  8
BORDER
100
AcDbCircle
 10
-125.632506
 20
265.993175
 30
0.0
 40
2.025585
100
AcDbArc
 50
90.0
 51
180.0
  0
LWPOLYLINE
  5
5629
100
AcDbEntity
  8
BORDER
 62
     5
100
AcDbPolyline
 90
        2
 70
     0
 43
1.012793
 10
-125.632506
 20
270.044345
 42
0.414214
 10
-129.683677
 20
265.993175
 42
-0.560527
  0
ARC
  5
562A
102
{ACAD_REACTORS
330
5626
102
}
100
AcDbEntity
  8
BORDER
100
AcDbCircle
 10
-121.4012
 20
259.667492
 30
0.0
 40
1.033815
100
AcDbArc
 50
270.0
 51
0.0
  0
LINE
  5
562B
100
AcDbEntity
  8
BORDER
100
AcDbLine
 10
-127.658092
 20
255.865249
 30
0.0
 11
-127.658092
 21
265.993175
 31
0.0
  0
LWPOLYLINE
  5
562C
100
AcDbEntity
  8
BORDER
 62
     5
100
AcDbPolyline
 90
        2
 70
     0
 43
1.012793
 10
-129.683677
 20
265.993175
 10
-129.683677
 20
255.865249
  0
ARC
  5
562D
100
AcDbEntity
  8
BORDER
100
AcDbCircle
 10
-125.632506
 20
255.865249
 30
0.0
 40
2.025585
100
AcDbArc
 50
180.0
 51
270.0
  0
LINE
  5
562E
100
AcDbEntity
  8
BORDER
100
AcDbLine
 10
-124.063226
 20
257.601013
 30
0.0
 11
-123.380947
 21
257.601013
 31
0.0
  0
LINE
  5
562F
100
AcDbEntity
  8
BORDER
100
AcDbLine
 10
-124.063226
 20
255.93501
 30
0.0
 11
-123.380947
 21
255.93501
 31
0.0
  0
LINE
  5
5630
100
AcDbEntity
  8
BORDER
100
AcDbLine
 10
-123.722087
 20
257.601013
 30
0.0
 11
-123.722087
 21
255.93501
 31
0.0
  0
LINE
  5
5631
102
{ACAD_REACTORS
330
5626
102
}
100
AcDbEntity
  8
BORDER
100
AcDbLine
 10
-121.734136
 20
258.633677
 30
0.0
 11
-121.734136
 21
258.418036
 31
0.0
  0
LINE
  5
5632
102
{ACAD_REACTORS
330
5626
102
}
100
AcDbEntity
  8
BORDER
100
AcDbLine
 10
-121.734136
 20
258.633677
 30
0.0
 11
-121.4012
 21
258.633677
 31
0.0
  0
ARC
  5
5633
100
AcDbEntity
  8
BORDER
100
AcDbCircle
 10
-120.505394
 20
256.781109
 30
0.0
 40
0.820115
100
AcDbArc
 50
44.321228
 51
180.91508
  0
ARC
  5
5634
100
AcDbEntity
  8
BORDER
100
AcDbCircle
 10
-120.564615
 20
256.697941
 30
0.0
 40
0.76401
100
AcDbArc
 50
174.737783
 51
327.723969
  0
LINE
  5
5635
100
AcDbEntity
  8
BORDER
100
AcDbLine
 10
-121.716168
 20
257.601013
 30
0.0
 11
-121.716168
 21
255.93501
 31
0.0
  0
LINE
  5
5636
100
AcDbEntity
  8
BORDER
100
AcDbLine
 10
-122.992662
 20
257.601013
 30
0.0
 11
-122.992662
 21
255.93501
 31
0.0
  0
LINE
  5
5637
100
AcDbEntity
  8
BORDER
100
AcDbLine
 10
-121.716168
 20
255.93501
 30
0.0
 11
-122.992662
 21
257.601013
 31
0.0
  0
LINE
  5
5638
102
{ACAD_REACTORS
330
5626
102
}
100
AcDbEntity
  8
BORDER
100
AcDbLine
 10
-120.367385
 20
259.667492
 30
0.0
 11
-120.367385
 21
265.357217
 31
0.0
  0
ARC
  5
5639
102
{ACAD_REACTORS
330
5626
102
}
100
AcDbEntity
  8
BORDER
100
AcDbCircle
 10
-121.277332
 20
263.29388
 30
0.0
 40
2.063337
100
AcDbArc
 50
90.0
 51
179.923004
  0
LINE
  5
563A
102
{ACAD_REACTORS
330
5626
102
}
100
AcDbEntity
  8
BORDER
100
AcDbLine
 10
-123.556471
 20
263.296653
 30
0.0
 11
-123.340668
 21
263.296653
 31
0.0
  0
LINE
  5
563B
102
{ACAD_REACTORS
330
5626
102
}
100
AcDbEntity
  8
BORDER
100
AcDbLine
 10
-123.556471
 20
263.296653
 30
0.0
 11
-123.556471
 21
265.884338
 31
0.0
  0
LINE
  5
563C
102
{ACAD_REACTORS
330
5626
102
}
100
AcDbEntity
  8
BORDER
100
AcDbLine
 10
-121.277332
 20
265.357217
 30
0.0
 11
-120.367385
 21
265.357217
 31
0.0
  0
ARC
  5
563D
100
AcDbEntity
  8
BORDER
100
AcDbCircle
 10
-103.35107
 20
265.993175
 30
0.0
 40
2.025585
100
AcDbArc
 50
0.0
 51
90.0
  0
LWPOLYLINE
  5
563E
100
AcDbEntity
  8
BORDER
 62
     5
100
AcDbPolyline
 90
        2
 70
     0
 43
1.012793
 10
-103.35107
 20
270.044345
 42
-0.414214
 10
-99.2999
 20
265.993175
 42
0.560527
  0
LINE
  5
563F
100
AcDbEntity
  8
BORDER
100
AcDbLine
 10
-107.107124
 20
265.091001
 30
0.0
 11
-106.732696
 21
265.091001
 31
0.0
  0
LINE
  5
5640
100
AcDbEntity
  8
BORDER
100
AcDbLine
 10
-107.107124
 20
263.874884
 30
0.0
 11
-106.732696
 21
263.874884
 31
0.0
  0
LINE
  5
5641
102
{ACAD_REACTORS
330
5646
102
}
100
AcDbEntity
  8
BORDER
100
AcDbLine
 10
-107.838001
 20
262.791572
 30
0.0
 11
-105.83843
 21
262.791572
 31
0.0
  0
LINE
  5
5642
102
{ACAD_REACTORS
330
5646
102
}
100
AcDbEntity
  8
BORDER
100
AcDbLine
 10
-107.84121
 20
258.452373
 30
0.0
 11
-105.988969
 21
258.452373
 31
0.0
  0
LINE
  5
5643
100
AcDbEntity
  8
BORDER
100
AcDbLine
 10
-107.564082
 20
257.601013
 30
0.0
 11
-106.489226
 21
257.601013
 31
0.0
  0
LINE
  5
5644
100
AcDbEntity
  8
BORDER
100
AcDbLine
 10
-106.489226
 20
255.93501
 30
0.0
 11
-107.564082
 21
255.93501
 31
0.0
  0
LINE
  5
5645
100
AcDbEntity
  8
BORDER
100
AcDbLine
 10
-107.564082
 20
256.768012
 30
0.0
 11
-106.849291
 21
256.768012
 31
0.0
  0
HATCH
  5
5646
100
AcDbEntity
  8
BORDER
100
AcDbHatch
 10
0.0
 20
0.0
 30
0.0
210
0.0
220
0.0
230
1.0
  2
ANSI37
 70
     0
 71
     1
 91
        2
 92
        7
 72
     1
 73
     1
 93
       16
 10
-107.2169739645057
 20
258.9916048293052
 42
-0.4142135623729673
 10
-107.6437231721894
 20
258.5648556216217
 42
0.0
 10
-107.8412098972855
 20
258.5648556216217
 42
0.0
 10
-107.8412098972854
 20
258.4523730136936
 42
0.0
 10
-105.988969298809
 20
258.4523730136936
 42
0.0
 10
-105.9889692988089
 20
258.5648556216217
 42
0.0
 10
-106.1864560239043
 20
258.5648556216217
 42
-0.4142135623735438
 10
-106.6132052315887
 20
258.9916048293054
 42
0.0
 10
-106.6132052315887
 20
260.4872811831386
 42
0.0609117558027733
 10
-105.8661688322342
 20
260.3952504243719
 42
0.4291497434354667
 10
-104.5460638166148
 20
261.5814282074469
 42
0.3916311771483092
 10
-105.8384301999865
 20
262.7915718268005
 42
0.0
 10
-107.8380011376808
 20
262.7915718268005
 42
0.0
 10
-107.8380011376808
 20
262.6724639779753
 42
0.0
 10
-107.6437231721894
 20
262.6724639779753
 42
-0.4142135623731244
 10
-107.2169739645057
 20
262.2457147702916
 42
0.0
 97
       16
330
5699
330
5641
330
5677
330
5678
330
5676
330
5679
330
5648
330
5665
330
5664
330
5642
330
5694
330
5693
330
5691
330
569F
330
569A
330
569E
 92
       22
 72
     1
 73
     1
 93
        3
 10
-106.6132052315887
 20
262.4710612105809
 42
-0.528742588941968
 10
-105.2726336992529
 20
261.5302998657901
 42
-0.5439228899272135
 10
-106.6132052315887
 20
260.6508921327404
 42
0.0
 97
        3
330
569C
330
569D
330
569B
 75
     0
 76
     1
 52
0.0
 41
0.031383
 77
     0
 78
     2
 53
45.0
 43
-130.906719
 44
145.117187
 45
-0.0027739284631318
 46
0.0027739284631318
 79
     0
 53
135.0
 43
-130.906719
 44
145.117187
 45
-0.0027739284631318
 46
-0.0027739284631318
 79
     0
 47
0.027301
 98
        2
 10
-106.965415
 20
261.32629
 10
-106.965415
 20
261.32629
  0
LINE
  5
5647
100
AcDbEntity
  8
BORDER
100
AcDbLine
 10
-115.114102
 20
263.314652
 30
0.0
 11
-104.733637
 21
263.314652
 31
0.0
  0
ARC
  5
5648
102
{ACAD_REACTORS
330
5646
102
}
100
AcDbEntity
  8
BORDER
100
AcDbCircle
 10
-107.643723
 20
258.991605
 30
0.0
 40
0.426749
100
AcDbArc
 50
270.0
 51
360.0
  0
ELLIPSE
  5
5649
102
{ACAD_REACTORS
330
564E
102
}
100
AcDbEntity
  8
BORDER
100
AcDbEllipse
 10
-113.96161
 20
260.641047
 30
0.0
 11
0.0000000000000153
 21
2.030507357557323
 31
0.0
210
0.0
220
0.0
230
1.0
 40
0.683214
 41
0.0
 42
6.283185307179586
  0
LWPOLYLINE
  5
564A
102
{ACAD_REACTORS
330
564B
102
}
100
AcDbEntity
  8
BORDER
100
AcDbPolyline
 90
       17
 70
     0
 43
0.0
 10
-109.509628
 20
260.411689
 42
-0.060912
 10
-110.256665
 20
260.50372
 10
-110.256665
 20
259.008043
 42
0.414214
 10
-109.829915
 20
258.581294
 10
-109.632429
 20
258.581294
 10
-109.632429
 20
258.468812
 10
-111.484669
 20
258.468812
 10
-111.484669
 20
258.581294
 10
-111.287183
 20
258.581294
 42
0.414214
 10
-110.860433
 20
259.008043
 10
-110.860433
 20
262.262153
 42
0.414214
 10
-111.287183
 20
262.688903
 10
-111.481461
 20
262.688903
 10
-111.481461
 20
262.80801
 10
-109.497562
 20
262.80801
 42
-0.395102
 10
-108.189523
 20
261.597867
 42
-0.42915
 10
-109.509628
 20
260.411689
  0
HATCH
  5
564B
100
AcDbEntity
  8
BORDER
100
AcDbHatch
 10
0.0
 20
0.0
 30
0.0
210
0.0
220
0.0
230
1.0
  2
ANSI37
 70
     0
 71
     1
 91
        2
 92
        7
 72
     1
 73
     1
 93
       16
 10
-110.8604333937521
 20
259.0080434386874
 42
-0.4142135623731037
 10
-111.2871826014356
 20
258.5812942310038
 42
0.0
 10
-111.4846693265318
 20
258.5812942310038
 42
0.0
 10
-111.4846693265318
 20
258.4688116230748
 42
0.0
 10
-109.632428728055
 20
258.4688116230748
 42
0.0
 10
-109.632428728055
 20
258.5812942310038
 42
0.0
 10
-109.8299154531511
 20
258.5812942310038
 42
-0.4142135623730756
 10
-110.2566646608346
 20
259.0080434386873
 42
0.0
 10
-110.2566646608346
 20
260.50371979252
 42
0.0609117558023421
 10
-109.5096282614853
 20
260.4116890337534
 42
0.4291497434370736
 10
-108.1895232458615
 20
261.5978668168303
 42
0.3951020987297066
 10
-109.4975624509357
 20
262.8080104361819
 42
0.0
 10
-111.4814605669272
 20
262.8080104361819
 42
0.0
 10
-111.4814605669272
 20
262.6889025873575
 42
0.0
 10
-111.2871826014357
 20
262.6889025873575
 42
-0.4142135623730852
 10
-110.8604333937521
 20
262.2621533796739
 42
0.0
 97
        1
330
564A
 92
       22
 72
     1
 73
     1
 93
        3
 10
-110.2566646608346
 20
262.4874998199619
 42
-0.5287425889468004
 10
-108.9160931284991
 20
261.5467384751561
 42
-0.5439228899216284
 10
-110.2566646608346
 20
260.6673307421223
 42
0.0
 97
        1
330
5675
 75
     0
 76
     1
 52
0.0
 41
0.031383
 77
     0
 78
     2
 53
45.0
 43
-130.906719
 44
145.117187
 45
-0.0027739284631318
 46
0.0027739284631318
 79
     0
 53
135.0
 43
-130.906719
 44
145.117187
 45
-0.0027739284631318
 46
-0.0027739284631318
 79
     0
 47
0.027301
 98
        2
 10
-110.61811
 20
261.703283
 10
-110.61811
 20
261.703283
  0
ARC
  5
564C
102
{ACAD_REACTORS
330
5626
102
}
100
AcDbEntity
  8
BORDER
100
AcDbCircle
 10
-117.546863
 20
259.667492
 30
0.0
 40
1.033815
100
AcDbArc
 50
180.0
 51
270.0
  0
ELLIPSE
  5
564D
102
{ACAD_REACTORS
330
564E
102
}
100
AcDbEntity
  8
BORDER
100
AcDbEllipse
 10
-113.96161
 20
260.628155
 30
0.0
 11
0.0000000000000153
 21
2.262565249761702
 31
0.0
210
0.0
220
0.0
230
1.0
 40
0.93822
 41
0.0
 42
6.283185307179586
  0
HATCH
  5
564E
100
AcDbEntity
  8
BORDER
100
AcDbHatch
 10
0.0
 20
0.0
 30
0.0
210
0.0
220
0.0
230
1.0
  2
ANSI37
 70
     0
 71
     1
 91
        2
 92
        5
 93
        1
 72
     3
 10
-113.96161
 20
260.628155
 11
0.0
 21
2.262565
 40
0.93822
 50
0.0
 51
360.0
 73
     1
 97
        1
330
564D
 92
       20
 93
        1
 72
     3
 10
-113.96161
 20
260.641047
 11
0.0
 21
2.030507
 40
0.683214
 50
0.0
 51
360.0
 73
     1
 97
        1
330
5649
 75
     0
 76
     1
 52
0.0
 41
0.031383
 77
     0
 78
     2
 53
45.0
 43
-130.906719
 44
145.117187
 45
-0.0027739284631318
 46
0.0027739284631318
 79
     0
 53
135.0
 43
-130.906719
 44
145.117187
 45
-0.0027739284631318
 46
-0.0027739284631318
 79
     0
 47
0.027301
 98
        2
 10
-115.488368
 20
261.549058
 10
-115.488368
 20
261.549058
  0
SPLINE
  5
564F
100
AcDbEntity
  8
BORDER
100
AcDbSpline
210
0.0
220
0.0
230
1.0
 70
    11
 71
     3
 72
    24
 73
    20
 74
     0
 42
0.0000001
 43
0.0000001
 40
0.0
 40
0.0
 40
0.0
 40
0.0
 40
0.474866629778075
 40
0.474866629778075
 40
1.277791044886493
 40
1.277791044886493
 40
2.080715459994911
 40
2.080715459994911
 40
2.883639875103329
 40
2.883639875103329
 40
3.686564290211747
 40
3.686564290211747
 40
4.489488705320165
 40
4.489488705320165
 40
5.292413120428583
 40
5.292413120428583
 40
6.095337535537001
 40
6.095337535537001
 40
6.283185307179586
 40
6.283185307179586
 40
6.283185307179586
 40
6.283185307179586
 10
-113.8690555317124
 20
257.6236088320977
 30
0.0
 10
-114.0040818104341
 20
257.6236088320977
 30
0.0
 10
-114.1389943499606
 20
257.5908559406111
 30
0.0
 10
-114.4621100570796
 20
257.424214544544
 30
0.0
 10
-114.6197462365008
 20
257.2343353773807
 30
0.0
 10
-114.7516006511071
 20
256.7958955458103
 30
0.0
 10
-114.7249423019823
 20
256.550272357253
 30
0.0
 10
-114.5021075997176
 20
256.1505585679564
 30
0.0
 10
-114.3074161759616
 20
255.9991523490559
 30
0.0
 10
-113.865914739704
 20
255.8823015674665
 30
0.0
 10
-113.6220789780095
 20
255.9176503808656
 30
0.0
 10
-113.2316337955118
 20
256.1550915070731
 30
0.0
 10
-113.0876462112338
 20
256.3555768971746
 30
0.0
 10
-112.9867311731117
 20
256.8022012756958
 30
0.0
 10
-113.0304742638137
 20
257.045349529331
 30
0.0
 10
-113.2806760241716
 20
257.4284289273474
 30
0.0
 10
-113.4854658077689
 20
257.5657849364609
 30
0.0
 10
-113.7622292360335
 20
257.6185613405452
 30
0.0
 10
-113.8156418277785
 20
257.6236088320977
 30
0.0
 10
-113.8690555317124
 20
257.6236088320977
 30
0.0
  0
ARC
  5
5650
100
AcDbEntity
  8
BORDER
100
AcDbCircle
 10
-117.003751
 20
257.173894
 30
0.0
 40
0.427119
100
AcDbArc
 50
270.0
 51
90.0
  0
LINE
  5
5651
100
AcDbEntity
  8
BORDER
100
AcDbLine
 10
-117.123694
 20
256.746774
 30
0.0
 11
-116.462291
 21
255.93501
 31
0.0
  0
LINE
  5
5652
102
{ACAD_REACTORS
330
5626
102
}
100
AcDbEntity
  8
BORDER
100
AcDbLine
 10
-117.213926
 20
258.633677
 30
0.0
 11
-117.546863
 21
258.633677
 31
0.0
  0
LINE
  5
5653
100
AcDbEntity
  8
BORDER
100
AcDbLine
 10
-117.003751
 20
257.601013
 30
0.0
 11
-117.579695
 21
257.601013
 31
0.0
  0
LINE
  5
5654
100
AcDbEntity
  8
BORDER
100
AcDbLine
 10
-117.579695
 20
256.746774
 30
0.0
 11
-117.003751
 21
256.746774
 31
0.0
  0
LINE
  5
5655
102
{ACAD_REACTORS
330
5626
102
}
100
AcDbEntity
  8
BORDER
100
AcDbLine
 10
-117.213926
 20
258.633677
 30
0.0
 11
-117.213926
 21
258.418036
 31
0.0
  0
LINE
  5
5656
100
AcDbEntity
  8
BORDER
100
AcDbLine
 10
-117.579695
 20
257.601013
 30
0.0
 11
-117.579695
 21
255.93501
 31
0.0
  0
SPLINE
  5
5657
100
AcDbEntity
  8
BORDER
100
AcDbSpline
210
0.0
220
0.0
230
1.0
 70
    11
 71
     3
 72
    24
 73
    20
 74
     0
 42
0.0000001
 43
0.0000001
 40
0.0
 40
0.0
 40
0.0
 40
0.0
 40
0.474866629778075
 40
0.474866629778075
 40
1.277791044886493
 40
1.277791044886493
 40
2.080715459994911
 40
2.080715459994911
 40
2.883639875103329
 40
2.883639875103329
 40
3.686564290211747
 40
3.686564290211747
 40
4.489488705320165
 40
4.489488705320165
 40
5.292413120428583
 40
5.292413120428583
 40
6.095337535537001
 40
6.095337535537001
 40
6.283185307179586
 40
6.283185307179586
 40
6.283185307179586
 40
6.283185307179586
 10
-118.8261654709094
 20
257.6236088320977
 30
0.0
 10
-118.9611917496307
 20
257.6236088320977
 30
0.0
 10
-119.0961042891573
 20
257.5908559406111
 30
0.0
 10
-119.4192199962763
 20
257.424214544544
 30
0.0
 10
-119.5768561756978
 20
257.2343353773807
 30
0.0
 10
-119.7087105903042
 20
256.7958955458103
 30
0.0
 10
-119.6820522411794
 20
256.550272357253
 30
0.0
 10
-119.4592175389142
 20
256.1505585679564
 30
0.0
 10
-119.2645261151583
 20
255.9991523490559
 30
0.0
 10
-118.8230246789009
 20
255.8823015674665
 30
0.0
 10
-118.5791889172062
 20
255.9176503808656
 30
0.0
 10
-118.1887437347085
 20
256.1550915070731
 30
0.0
 10
-118.0447561504303
 20
256.3555768971746
 30
0.0
 10
-117.9438411123089
 20
256.8022012756958
 30
0.0
 10
-117.9875842030108
 20
257.045349529331
 30
0.0
 10
-118.2377859633687
 20
257.4284289273474
 30
0.0
 10
-118.4425757469656
 20
257.5657849364609
 30
0.0
 10
-118.7193391752302
 20
257.6185613405452
 30
0.0
 10
-118.7727517669756
 20
257.6236088320977
 30
0.0
 10
-118.8261654709094
 20
257.6236088320977
 30
0.0
  0
ARC
  5
5658
100
AcDbEntity
  8
BORDER
100
AcDbCircle
 10
-115.38737
 20
257.173894
 30
0.0
 40
0.427119
100
AcDbArc
 50
270.0
 51
90.0
  0
LINE
  5
5659
100
AcDbEntity
  8
BORDER
100
AcDbLine
 10
-115.819773
 20
257.601013
 30
0.0
 11
-115.819773
 21
255.93501
 31
0.0
  0
LINE
  5
565A
100
AcDbEntity
  8
BORDER
100
AcDbLine
 10
-115.38737
 20
257.601013
 30
0.0
 11
-115.819773
 21
257.601013
 31
0.0
  0
LINE
  5
565B
100
AcDbEntity
  8
BORDER
100
AcDbLine
 10
-115.819773
 20
256.746774
 30
0.0
 11
-115.38737
 21
256.746774
 31
0.0
  0
LINE
  5
565C
100
AcDbEntity
  8
BORDER
100
AcDbLine
 10
-110.749026
 20
256.542476
 30
0.0
 11
-109.923777
 21
256.542476
 31
0.0
  0
LINE
  5
565D
100
AcDbEntity
  8
BORDER
100
AcDbLine
 10
-109.682857
 20
255.93501
 30
0.0
 11
-110.34359
 21
257.601013
 31
0.0
  0
ARC
  5
565E
100
AcDbEntity
  8
BORDER
100
AcDbCircle
 10
-111.98041
 20
257.173894
 30
0.0
 40
0.427119
100
AcDbArc
 50
270.0
 51
90.0
  0
LINE
  5
565F
100
AcDbEntity
  8
BORDER
100
AcDbLine
 10
-110.34359
 20
257.601013
 30
0.0
 11
-110.981694
 21
255.93501
 31
0.0
  0
LINE
  5
5660
100
AcDbEntity
  8
BORDER
100
AcDbLine
 10
-112.100353
 20
256.746774
 30
0.0
 11
-111.43895
 21
255.93501
 31
0.0
  0
LINE
  5
5661
100
AcDbEntity
  8
BORDER
100
AcDbLine
 10
-112.556354
 20
257.601013
 30
0.0
 11
-112.556354
 21
255.93501
 31
0.0
  0
LINE
  5
5662
100
AcDbEntity
  8
BORDER
100
AcDbLine
 10
-112.556354
 20
256.746774
 30
0.0
 11
-111.98041
 21
256.746774
 31
0.0
  0
LINE
  5
5663
100
AcDbEntity
  8
BORDER
100
AcDbLine
 10
-111.98041
 20
257.601013
 30
0.0
 11
-112.556354
 21
257.601013
 31
0.0
  0
LINE
  5
5664
102
{ACAD_REACTORS
330
5646
102
}
100
AcDbEntity
  8
BORDER
100
AcDbLine
 10
-107.84121
 20
258.564856
 30
0.0
 11
-107.84121
 21
258.452373
 31
0.0
  0
LINE
  5
5665
102
{ACAD_REACTORS
330
5646
102
}
100
AcDbEntity
  8
BORDER
100
AcDbLine
 10
-107.84121
 20
258.564856
 30
0.0
 11
-107.643723
 21
258.564856
 31
0.0
  0
LINE
  5
5666
100
AcDbEntity
  8
BORDER
100
AcDbLine
 10
-107.564082
 20
255.93501
 30
0.0
 11
-107.564082
 21
257.601013
 31
0.0
  0
LINE
  5
5667
100
AcDbEntity
  8
BORDER
100
AcDbLine
 10
-108.638196
 20
257.601013
 30
0.0
 11
-108.638196
 21
255.93501
 31
0.0
  0
LINE
  5
5668
100
AcDbEntity
  8
BORDER
100
AcDbLine
 10
-109.344042
 20
257.601013
 30
0.0
 11
-107.932349
 21
257.601013
 31
0.0
  0
LINE
  5
5669
102
{ACAD_REACTORS
330
5626
102
}
100
AcDbEntity
  8
BORDER
100
AcDbLine
 10
-118.580678
 20
259.667492
 30
0.0
 11
-118.580678
 21
265.357217
 31
0.0
  0
ARC
  5
566A
102
{ACAD_REACTORS
330
5626
102
}
100
AcDbEntity
  8
BORDER
100
AcDbCircle
 10
-117.670731
 20
263.29388
 30
0.0
 40
2.063337
100
AcDbArc
 50
0.076996
 51
90.0
  0
LINE
  5
566B
102
{ACAD_REACTORS
330
5626
102
}
100
AcDbEntity
  8
BORDER
100
AcDbLine
 10
-117.670731
 20
265.357217
 30
0.0
 11
-118.580678
 21
265.357217
 31
0.0
  0
LINE
  5
566C
100
AcDbEntity
  8
BORDER
100
AcDbLine
 10
-115.013598
 20
265.091001
 30
0.0
 11
-114.826384
 21
265.091001
 31
0.0
  0
LINE
  5
566D
100
AcDbEntity
  8
BORDER
100
AcDbLine
 10
-115.013598
 20
263.874884
 30
0.0
 11
-114.63917
 21
263.874884
 31
0.0
  0
LINE
  5
566E
100
AcDbEntity
  8
BORDER
100
AcDbLine
 10
-113.442634
 20
263.874884
 30
0.0
 11
-114.276218
 21
265.116426
 31
0.0
  0
LINE
  5
566F
100
AcDbEntity
  8
BORDER
100
AcDbLine
 10
-114.826384
 20
265.091001
 30
0.0
 11
-114.63917
 21
265.091001
 31
0.0
  0
LINE
  5
5670
100
AcDbEntity
  8
BORDER
100
AcDbLine
 10
-114.826384
 20
265.091001
 30
0.0
 11
-114.826384
 21
263.874884
 31
0.0
  0
LINE
  5
5671
100
AcDbEntity
  8
BORDER
100
AcDbLine
 10
-114.276218
 20
265.116426
 30
0.0
 11
-114.276218
 21
263.874884
 31
0.0
  0
LINE
  5
5672
100
AcDbEntity
  8
BORDER
100
AcDbLine
 10
-113.442634
 20
265.091001
 30
0.0
 11
-113.442634
 21
263.874884
 31
0.0
  0
LINE
  5
5673
102
{ACAD_REACTORS
330
5626
102
}
100
AcDbEntity
  8
BORDER
100
AcDbLine
 10
-115.391591
 20
263.296653
 30
0.0
 11
-115.391591
 21
265.884338
 31
0.0
  0
LINE
  5
5674
102
{ACAD_REACTORS
330
5626
102
}
100
AcDbEntity
  8
BORDER
100
AcDbLine
 10
-115.391591
 20
263.296653
 30
0.0
 11
-115.607394
 21
263.296653
 31
0.0
  0
LWPOLYLINE
  5
5675
102
{ACAD_REACTORS
330
564B
102
}
100
AcDbEntity
  8
BORDER
100
AcDbPolyline
 90
        3
 70
     1
 43
0.0
 10
-110.256665
 20
260.667331
 42
0.543923
 10
-108.916093
 20
261.546738
 42
0.528743
 10
-110.256665
 20
262.4875
  0
ARC
  5
5676
102
{ACAD_REACTORS
330
5646
102
}
100
AcDbEntity
  8
BORDER
100
AcDbCircle
 10
-107.643723
 20
262.245715
 30
0.0
 40
0.426749
100
AcDbArc
 50
0.0
 51
90.0
  0
LINE
  5
5677
102
{ACAD_REACTORS
330
5646
102
}
100
AcDbEntity
  8
BORDER
100
AcDbLine
 10
-107.838001
 20
262.791572
 30
0.0
 11
-107.838001
 21
262.672464
 31
0.0
  0
LINE
  5
5678
102
{ACAD_REACTORS
330
5646
102
}
100
AcDbEntity
  8
BORDER
100
AcDbLine
 10
-107.838001
 20
262.672464
 30
0.0
 11
-107.643723
 21
262.672464
 31
0.0
  0
LINE
  5
5679
102
{ACAD_REACTORS
330
5646
102
}
100
AcDbEntity
  8
BORDER
100
AcDbLine
 10
-107.216974
 20
258.991605
 30
0.0
 11
-107.216974
 21
262.245715
 31
0.0
  0
ARC
  5
567A
100
AcDbEntity
  8
BORDER
100
AcDbCircle
 10
-104.73528
 20
273.154875
 30
0.0
 40
10.166393
100
AcDbArc
 50
236.383068
 51
240.315223
  0
ARC
  5
567B
100
AcDbEntity
  8
BORDER
100
AcDbCircle
 10
-110.050047
 20
264.260528
 30
0.0
 40
0.385036
100
AcDbArc
 50
200.502447
 51
334.026213
  0
ARC
  5
567C
100
AcDbEntity
  8
BORDER
100
AcDbCircle
 10
-110.099003
 20
264.715134
 30
0.0
 40
0.377216
100
AcDbArc
 50
25.379638
 51
143.047804
  0
LINE
  5
567D
100
AcDbEntity
  8
BORDER
100
AcDbLine
 10
-110.808508
 20
265.091001
 30
0.0
 11
-110.808508
 21
264.28334
 31
0.0
  0
LINE
  5
567E
100
AcDbEntity
  8
BORDER
100
AcDbLine
 10
-111.625421
 20
264.28334
 30
0.0
 11
-111.625421
 21
265.091001
 31
0.0
  0
ARC
  5
567F
100
AcDbEntity
  8
BORDER
100
AcDbCircle
 10
-111.216965
 20
264.28334
 30
0.0
 40
0.408456
100
AcDbArc
 50
180.0
 51
0.0
  0
ARC
  5
5680
100
AcDbEntity
  8
BORDER
100
AcDbCircle
 10
-110.268702
 20
264.831744
 30
0.0
 40
0.17173
100
AcDbArc
 50
140.101426
 51
236.383068
  0
LINE
  5
5681
100
AcDbEntity
  8
BORDER
100
AcDbLine
 10
-112.666943
 20
265.091001
 30
0.0
 11
-112.925812
 21
265.091001
 31
0.0
  0
LINE
  5
5682
100
AcDbEntity
  8
BORDER
100
AcDbLine
 10
-112.925812
 20
263.874884
 30
0.0
 11
-112.666943
 21
263.874884
 31
0.0
  0
LINE
  5
5683
100
AcDbEntity
  8
BORDER
100
AcDbLine
 10
-112.925812
 20
265.091001
 30
0.0
 11
-112.925812
 21
263.874884
 31
0.0
  0
ARC
  5
5684
100
AcDbEntity
  8
BORDER
100
AcDbCircle
 10
-112.666943
 20
264.482942
 30
0.0
 40
0.608058
100
AcDbArc
 50
270.0
 51
90.0
  0
LINE
  5
5685
100
AcDbEntity
  8
BORDER
100
AcDbLine
 10
-106.91991
 20
265.091001
 30
0.0
 11
-106.91991
 21
263.874884
 31
0.0
  0
ARC
  5
5686
100
AcDbEntity
  8
BORDER
100
AcDbCircle
 10
-107.788041
 20
264.784042
 30
0.0
 40
0.306959
100
AcDbArc
 50
270.0
 51
90.0
  0
LINE
  5
5687
100
AcDbEntity
  8
BORDER
100
AcDbLine
 10
-107.872835
 20
264.477082
 30
0.0
 11
-107.487138
 21
263.874884
 31
0.0
  0
LINE
  5
5688
100
AcDbEntity
  8
BORDER
100
AcDbLine
 10
-108.230391
 20
265.091001
 30
0.0
 11
-108.230391
 21
263.874884
 31
0.0
  0
LINE
  5
5689
100
AcDbEntity
  8
BORDER
100
AcDbLine
 10
-107.788041
 20
265.091001
 30
0.0
 11
-108.230391
 21
265.091001
 31
0.0
  0
LINE
  5
568A
100
AcDbEntity
  8
BORDER
100
AcDbLine
 10
-108.230391
 20
264.477082
 30
0.0
 11
-107.788041
 21
264.477082
 31
0.0
  0
ARC
  5
568B
100
AcDbEntity
  8
BORDER
100
AcDbCircle
 10
-109.855007
 20
264.173496
 30
0.0
 40
0.17173
100
AcDbArc
 50
331.630608
 51
60.315223
  0
LINE
  5
568C
100
AcDbEntity
  8
BORDER
100
AcDbLine
 10
-108.988144
 20
265.091001
 30
0.0
 11
-108.988144
 21
263.874884
 31
0.0
  0
LINE
  5
568D
100
AcDbEntity
  8
BORDER
100
AcDbLine
 10
-109.487763
 20
265.091001
 30
0.0
 11
-108.488526
 21
265.091001
 31
0.0
  0
LINE
  5
568E
100
AcDbEntity
  8
BORDER
100
AcDbLine
 10
-101.325485
 20
253.839664
 30
0.0
 11
-101.325485
 21
265.993175
 31
0.0
  0
LWPOLYLINE
  5
568F
100
AcDbEntity
  8
BORDER
 62
     5
100
AcDbPolyline
 90
        2
 70
     0
 43
1.012793
 10
-99.2999
 20
253.839664
 10
-99.2999
 20
265.993175
  0
LWPOLYLINE
  5
5690
100
AcDbEntity
  8
BORDER
 62
     5
100
AcDbPolyline
 90
        2
 70
     0
 43
1.012793
 10
-97.274314
 20
265.993175
 10
-97.274314
 20
253.839664
  0
ARC
  5
5691
102
{ACAD_REACTORS
330
5646
102
}
100
AcDbEntity
  8
BORDER
100
AcDbCircle
 10
-106.186456
 20
258.991605
 30
0.0
 40
0.426749
100
AcDbArc
 50
180.0
 51
270.0
  0
ARC
  5
5692
100
AcDbEntity
  8
BORDER
100
AcDbCircle
 10
-105.396158
 20
256.768012
 30
0.0
 40
0.833001
100
AcDbArc
 50
270.0
 51
90.0
  0
LINE
  5
5693
102
{ACAD_REACTORS
330
5646
102
}
100
AcDbEntity
  8
BORDER
100
AcDbLine
 10
-106.186456
 20
258.564856
 30
0.0
 11
-105.988969
 21
258.564856
 31
0.0
  0
LINE
  5
5694
102
{ACAD_REACTORS
330
5646
102
}
100
AcDbEntity
  8
BORDER
100
AcDbLine
 10
-105.988969
 20
258.564856
 30
0.0
 11
-105.988969
 21
258.452373
 31
0.0
  0
LINE
  5
5695
100
AcDbEntity
  8
BORDER
100
AcDbLine
 10
-106.024932
 20
257.601013
 30
0.0
 11
-106.024932
 21
255.93501
 31
0.0
  0
LINE
  5
5696
100
AcDbEntity
  8
BORDER
100
AcDbLine
 10
-105.396158
 20
257.601013
 30
0.0
 11
-106.024932
 21
257.601013
 31
0.0
  0
LINE
  5
5697
100
AcDbEntity
  8
BORDER
100
AcDbLine
 10
-106.024932
 20
255.93501
 30
0.0
 11
-105.396158
 21
255.93501
 31
0.0
  0
LINE
  5
5698
100
AcDbEntity
  8
BORDER
100
AcDbLine
 10
-95.248729
 20
253.839664
 30
0.0
 11
-95.248729
 21
258.461334
 31
0.0
  0
ARC
  5
5699
102
{ACAD_REACTORS
330
5646
102
}
100
AcDbEntity
  8
BORDER
100
AcDbCircle
 10
-105.846267
 20
261.488043
 30
0.0
 40
1.303552
100
AcDbArc
 50
4.10812
 51
90.34444
  0
ARC
  5
569A
102
{ACAD_REACTORS
330
5646
102
}
100
AcDbEntity
  8
BORDER
100
AcDbCircle
 10
-105.863367
 20
263.49595
 30
0.0
 40
3.100701
100
AcDbArc
 50
256.005504
 51
269.948223
  0
LINE
  5
569B
102
{ACAD_REACTORS
330
5646
102
}
100
AcDbEntity
  8
BORDER
100
AcDbLine
 10
-106.613205
 20
262.471061
 30
0.0
 11
-106.613205
 21
260.650892
 31
0.0
  0
ARC
  5
569C
102
{ACAD_REACTORS
330
5646
102
}
100
AcDbEntity
  8
BORDER
100
AcDbCircle
 10
-106.263375
 20
261.544036
 30
0.0
 40
0.990836
100
AcDbArc
 50
359.205673
 51
110.674935
  0
ARC
  5
569D
102
{ACAD_REACTORS
330
5646
102
}
100
AcDbEntity
  8
BORDER
100
AcDbCircle
 10
-106.227534
 20
261.524463
 30
0.0
 40
0.954918
100
AcDbArc
 50
246.179097
 51
0.350223
  0
ARC
  5
569E
102
{ACAD_REACTORS
330
5646
102
}
100
AcDbEntity
  8
BORDER
100
AcDbCircle
 10
-105.769859
 20
261.615732
 30
0.0
 40
1.224276
100
AcDbArc
 50
265.488062
 51
358.394374
  0
LINE
  5
569F
102
{ACAD_REACTORS
330
5646
102
}
100
AcDbEntity
  8
BORDER
100
AcDbLine
 10
-106.613205
 20
260.487281
 30
0.0
 11
-106.613205
 21
258.991605
 31
0.0
  0
ARC
  5
56A0
100
AcDbEntity
  8
BORDER
100
AcDbCircle
 10
-104.79642
 20
264.173496
 30
0.0
 40
0.17173
100
AcDbArc
 50
331.630608
 51
60.315223
  0
ARC
  5
56A1
100
AcDbEntity
  8
BORDER
100
AcDbCircle
 10
-105.210115
 20
264.831744
 30
0.0
 40
0.17173
100
AcDbArc
 50
140.101426
 51
236.383068
  0
ARC
  5
56A2
100
AcDbEntity
  8
BORDER
100
AcDbCircle
 10
-99.676693
 20
273.154875
 30
0.0
 40
10.166393
100
AcDbArc
 50
236.383068
 51
240.315223
  0
ARC
  5
56A3
100
AcDbEntity
  8
BORDER
100
AcDbCircle
 10
-105.040415
 20
264.715134
 30
0.0
 40
0.377216
100
AcDbArc
 50
25.379638
 51
143.047804
  0
ARC
  5
56A4
100
AcDbEntity
  8
BORDER
100
AcDbCircle
 10
-104.99146
 20
264.260528
 30
0.0
 40
0.385036
100
AcDbArc
 50
200.502447
 51
334.026213
  0
LINE
  5
56A5
100
AcDbEntity
  8
BORDER
100
AcDbLine
 10
-106.356282
 20
264.482942
 30
0.0
 11
-105.783866
 21
264.482942
 31
0.0
  0
LINE
  5
56A6
100
AcDbEntity
  8
BORDER
100
AcDbLine
 10
-106.356282
 20
263.874884
 30
0.0
 11
-106.356282
 21
265.091001
 31
0.0
  0
LINE
  5
56A7
100
AcDbEntity
  8
BORDER
100
AcDbLine
 10
-106.356282
 20
265.091001
 30
0.0
 11
-105.62425
 21
265.091001
 31
0.0
  0
LINE
  5
56A8
100
AcDbEntity
  8
BORDER
100
AcDbLine
 10
-105.62425
 20
263.874884
 30
0.0
 11
-106.356282
 21
263.874884
 31
0.0
  0
LINE
  5
56A9
100
AcDbEntity
  8
BORDER
100
AcDbLine
 10
-95.248729
 20
259.916419
 30
0.0
 11
-95.248729
 21
265.993175
 31
0.0
  0
TEXT
  5
56AA
100
AcDbEntity
  8
BORDER
 62
     6
100
AcDbText
 10
-93.824701
 20
254.176154
 30
0.0
 40
0.772507
  1
Phone: 800/354-4534  Fax: 574/223-6106
  7
ROMANC
100
AcDbText
  0
LINE
  5
56AB
100
AcDbEntity
  8
BORDER
100
AcDbLine
 10
-93.223144
 20
268.01876
 30
0.0
 11
-47.466027
 21
268.01876
 31
0.0
  0
TEXT
  5
56AC
100
AcDbEntity
  8
BORDER
 62
     6
100
AcDbText
 10
-83.956255
 20
265.124262
 30
0.0
 40
1.045156
  1
RISER TANK
  7
ROMANC
100
AcDbText
  0
TEXT
  5
56AD
100
AcDbEntity
  8
BORDER
 62
     6
100
AcDbText
 10
-90.176626
 20
257.101725
 30
0.0
 40
0.772507
  1
Highway 25 North P.O. Box 420
  7
ROMANC
100
AcDbText
  0
TEXT
  5
56AE
100
AcDbEntity
  8
BORDER
 62
     6
100
AcDbText
 10
-86.849993
 20
255.729823
 30
0.0
 40
0.772507
  1
Rochester, IN  46975
  7
ROMANC
100
AcDbText
  0
TEXT
  5
56AF
100
AcDbEntity
  8
BORDER
 62
     6
100
AcDbText
 10
-80.6041
 20
261.347109
 30
0.0
 40
0.908832
  1
-
  7
ROMANC
100
AcDbText
  0
LINE
  5
56B0
100
AcDbEntity
  8
BORDER
100
AcDbLine
 10
-64.373902
 20
259.916419
 30
0.0
 11
-64.373902
 21
268.01876
 31
0.0
  0
TEXT
  5
56B1
100
AcDbEntity
  8
BORDER
 62
     6
100
AcDbText
 10
-63.958731
 20
266.677989
 30
0.0
 40
0.908832
  1
Scale: None
  7
ROMANC
100
AcDbText
  0
TEXT
  5
56B2
100
AcDbEntity
  8
BORDER
 62
     6
100
AcDbText
 10
-55.618168
 20
264.415756
 30
0.0
 40
1.239564
  1
RM
  7
COUNTRYBLUEPRINT
100
AcDbText
  0
TEXT
  5
56B3
100
AcDbEntity
  8
BORDER
 62
     6
100
AcDbText
 10
-63.958731
 20
262.347103
 30
0.0
 40
0.908832
  1
Appv'd By: .
  7
ROMANC
100
AcDbText
  0
TEXT
  5
56B4
100
AcDbEntity
  8
BORDER
 62
     6
100
AcDbText
 10
-63.958731
 20
260.18166
 30
0.0
 40
0.908832
  1
Date: 06/26/03
  7
ROMANC
100
AcDbText
  0
TEXT
  5
56B5
100
AcDbEntity
  8
BORDER
 62
     6
100
AcDbText
 10
-63.906924
 20
256.879921
 30
0.0
 40
0.908832
  1
Supersedes Prints
  7
ROMANC
100
AcDbText
  0
TEXT
  5
56B6
100
AcDbEntity
  8
BORDER
 62
     6
100
AcDbText
 10
-63.906924
 20
255.40848
 30
0.0
 40
0.908832
  1
Prior To:
  7
ROMANC
100
AcDbText
  0
LINE
  5
56B7
100
AcDbEntity
  8
BORDER
100
AcDbLine
 10
-64.373902
 20
253.839664
 30
0.0
 11
-64.373902
 21
258.461334
 31
0.0
  0
TEXT
  5
56B8
100
AcDbEntity
  8
BORDER
 62
     6
100
AcDbText
 10
-63.958731
 20
264.512546
 30
0.0
 40
0.908832
  1
Drawn By:
  7
ROMANC
100
AcDbText
  0
TEXT
  5
56B9
100
AcDbEntity
  8
BORDER
 62
     6
100
AcDbText
 10
-54.133026
 20
254.653495
 30
0.0
 40
1.164711
  1
10/22/03
  7
ROMAND
100
AcDbText
  0
LINE
  5
56BA
100
AcDbEntity
  8
BORDER
100
AcDbLine
 10
13.168834
 20
253.839664
 30
0.0
 11
-11.138188
 21
253.839664
 31
0.0
  0
TEXT
  5
56BB
100
AcDbEntity
  8
BORDER
 62
     6
100
AcDbText
 10
-6.912961
 20
262.886407
 30
0.0
 40
1.012793
  1
First Released 06/27/03
  7
ROMAND
100
AcDbText
  0
LINE
  5
56BC
100
AcDbEntity
  8
BORDER
100
AcDbLine
 10
13.168834
 20
256.301528
 30
0.0
 11
-9.112603
 21
256.301528
 31
0.0
  0
LINE
  5
56BD
100
AcDbEntity
  8
BORDER
100
AcDbLine
 10
13.168834
 20
258.327113
 30
0.0
 11
-9.112603
 21
258.327113
 31
0.0
  0
LINE
  5
56BE
100
AcDbEntity
  8
BORDER
100
AcDbLine
 10
13.168834
 20
260.352699
 30
0.0
 11
-9.112603
 21
260.352699
 31
0.0
  0
LINE
  5
56BF
100
AcDbEntity
  8
BORDER
100
AcDbLine
 10
13.168834
 20
262.378284
 30
0.0
 11
-9.112603
 21
262.378284
 31
0.0
  0
LINE
  5
56C0
100
AcDbEntity
  8
BORDER
100
AcDbLine
 10
13.168834
 20
264.403869
 30
0.0
 11
-9.112603
 21
264.403869
 31
0.0
  0
LINE
  5
56C1
100
AcDbEntity
  8
BORDER
100
AcDbLine
 10
13.168834
 20
268.01876
 30
0.0
 11
-9.112603
 21
268.01876
 31
0.0
  0
LWPOLYLINE
  5
56C2
100
AcDbEntity
  8
BORDER
 62
     5
100
AcDbPolyline
 90
        2
 70
     0
 43
1.012793
 10
13.168834
 20
270.044345
 10
-9.112603
 20
270.044345
  0
LWPOLYLINE
  5
56C3
100
AcDbEntity
  8
BORDER
 62
     5
100
AcDbPolyline
 90
        2
 70
     0
 43
1.012793
 10
-19.240528
 20
270.044345
 42
-0.414214
 10
-15.189358
 20
265.993175
 42
0.560527
  0
ARC
  5
56C4
100
AcDbEntity
  8
BORDER
100
AcDbCircle
 10
-19.240528
 20
265.993175
 30
0.0
 40
2.025585
100
AcDbArc
 50
0.0
 51
90.0
  0
TEXT
  5
56C5
100
AcDbEntity
  8
BORDER
 62
     6
100
AcDbText
 10
-32.853804
 20
254.713256
 30
0.0
 40
2.044871
  1
14804_A
  7
ROMANC
100
AcDbText
  0
LINE
  5
56C6
100
AcDbEntity
  8
BORDER
100
AcDbLine
 10
-40.06688
 20
253.839664
 30
0.0
 11
-17.214943
 21
253.839664
 31
0.0
  0
LINE
  5
56C7
100
AcDbEntity
  8
BORDER
100
AcDbLine
 10
-40.06688
 20
258.461334
 30
0.0
 11
-17.214943
 21
258.461334
 31
0.0
  0
TEXT
  5
56C8
100
AcDbEntity
  8
BORDER
 62
     6
100
AcDbText
 10
-39.588581
 20
256.980632
 30
0.0
 40
0.908832
  1
Reference
  7
ROMANC
100
AcDbText
  0
LINE
  5
56C9
100
AcDbEntity
  8
BORDER
100
AcDbLine
 10
-41.521965
 20
258.461334
 30
0.0
 11
-41.521965
 21
253.839664
 31
0.0
  0
LINE
  5
56CA
100
AcDbEntity
  8
BORDER
100
AcDbLine
 10
-40.06688
 20
258.461334
 30
0.0
 11
-40.06688
 21
253.839664
 31
0.0
  0
TEXT
  5
56CB
100
AcDbEntity
  8
BORDER
 62
     6
100
AcDbText
 10
-39.588581
 20
255.50919
 30
0.0
 40
0.908832
  1
No:
  7
ROMANC
100
AcDbText
  0
LINE
  5
56CC
100
AcDbEntity
  8
BORDER
100
AcDbLine
 10
-17.214943
 20
258.461334
 30
0.0
 11
-17.214943
 21
253.839664
 31
0.0
  0
LINE
  5
56CD
100
AcDbEntity
  8
BORDER
100
AcDbLine
 10
-17.214943
 20
265.993175
 30
0.0
 11
-17.214943
 21
259.916419
 31
0.0
  0
ARC
  5
56CE
100
AcDbEntity
  8
BORDER
100
AcDbCircle
 10
-9.112603
 20
265.993175
 30
0.0
 40
2.025585
100
AcDbArc
 50
90.0
 51
180.0
  0
LWPOLYLINE
  5
56CF
100
AcDbEntity
  8
BORDER
 62
     5
100
AcDbPolyline
 90
        2
 70
     0
 43
1.012793
 10
-9.112603
 20
270.044345
 42
0.414214
 10
-13.163773
 20
265.993175
 42
-0.560527
  0
TEXT
  5
56D0
100
AcDbEntity
  8
BORDER
 62
     6
100
AcDbText
 10
-3.374281
 20
265.311052
 30
0.0
 40
1.363247
  1
Revisions
  7
ROMANC
100
AcDbText
  0
LINE
  5
56D1
100
AcDbEntity
  8
BORDER
100
AcDbLine
 10
-9.112603
 20
264.403869
 30
0.0
 11
-9.112603
 21
256.301528
 31
0.0
  0
LINE
  5
56D2
100
AcDbEntity
  8
BORDER
100
AcDbLine
 10
-7.087018
 20
264.403869
 30
0.0
 11
-7.087018
 21
256.301528
 31
0.0
  0
LINE
  5
56D3
100
AcDbEntity
  8
BORDER
100
AcDbLine
 10
-11.138188
 20
253.839664
 30
0.0
 11
-11.138188
 21
265.993175
 31
0.0
  0
LWPOLYLINE
  5
56D4
100
AcDbEntity
  8
BORDER
 62
     5
100
AcDbPolyline
 90
        2
 70
     0
 43
1.012793
 10
-13.163773
 20
253.839664
 10
-13.163773
 20
265.993175
  0
LWPOLYLINE
  5
56D5
100
AcDbEntity
  8
BORDER
 62
     5
100
AcDbPolyline
 90
        2
 70
     0
 43
1.012793
 10
-15.189358
 20
253.839664
 10
-15.189358
 20
265.993175
  0
TEXT
  5
56D6
100
AcDbEntity
  8
BORDER
 62
     6
100
AcDbText
 10
-8.581118
 20
262.886407
 30
0.0
 40
1.012793
  1
1
  7
ROMAND
100
AcDbText
  0
LWPOLYLINE
  5
56D7
100
AcDbEntity
  8
BORDER
100
AcDbPolyline
 90
        6
 70
     1
 43
0.0
 10
-7.668567
 20
262.639989
 10
-7.237015
 20
263.387459
 10
-7.668567
 20
264.134928
 10
-8.531671
 20
264.134928
 10
-8.963222
 20
263.387459
 10
-8.531671
 20
262.639989
  0
LWPOLYLINE
  5
56D8
100
AcDbEntity
  8
BORDER
 62
     5
100
AcDbPolyline
 90
        2
 70
     0
 43
1.012793
 10
13.168834
 20
251.814079
 42
0.414214
 10
17.220004
 20
255.865249
 42
-0.560527
  0
ARC
  5
56D9
100
AcDbEntity
  8
BORDER
100
AcDbCircle
 10
13.168834
 20
265.993175
 30
0.0
 40
2.025585
100
AcDbArc
 50
0.0
 51
90.0
  0
LWPOLYLINE
  5
56DA
100
AcDbEntity
  8
BORDER
 62
     5
100
AcDbPolyline
 90
        2
 70
     0
 43
1.012793
 10
13.168834
 20
270.044345
 42
-0.414214
 10
17.220004
 20
265.993175
 42
0.560527
  0
LINE
  5
56DB
100
AcDbEntity
  8
BORDER
100
AcDbLine
 10
13.168834
 20
264.403869
 30
0.0
 11
13.168834
 21
256.301528
 31
0.0
  0
LINE
  5
56DC
100
AcDbEntity
  8
BORDER
100
AcDbLine
 10
15.194419
 20
255.865249
 30
0.0
 11
15.194419
 21
265.993175
 31
0.0
  0
LWPOLYLINE
  5
56DD
100
AcDbEntity
  8
BORDER
 62
     5
100
AcDbPolyline
 90
        2
 70
     0
 43
1.012793
 10
17.220004
 20
265.993175
 10
17.220004
 20
255.865249
  0
ARC
  5
56DE
100
AcDbEntity
  8
BORDER
100
AcDbCircle
 10
13.168834
 20
255.865249
 30
0.0
 40
2.025585
100
AcDbArc
 50
270.0
 51
0.0
  0
LWPOLYLINE
  5
56DF
100
AcDbEntity
  8
BORDER
 62
     5
100
AcDbPolyline
 90
        2
 70
     0
 43
0.405117
 10
15.599536
 20
443.020924
 10
-128.063209
 20
443.020924
  0
LINE
  5
56E0
100
AcDbEntity
  8
BORDER
 62
     5
100
AcDbLine
 10
15.599536
 20
443.020924
 30
0.0
 11
-128.063209
 21
443.020924
 31
0.0
  0
LINE
  5
56E1
100
AcDbEntity
  8
LIMITS
 62
     7
100
AcDbLine
 10
20.46094
 20
446.26186
 30
0.0
 11
-132.924613
 21
446.26186
 31
0.0
  0
ENDSEC
  0
SECTION
  2
OBJECTS
  0
DICTIONARY
  5
C
100
AcDbDictionary
  3
ACAD_GROUP
350
D
  3
ACAD_MLINESTYLE
350
1A
  3
ACDBVARIABLEDICTIONARY
350
45
  0
DICTIONARY
  5
D
102
{ACAD_REACTORS
330
C
102
}
100
AcDbDictionary
  0
DICTIONARY
  5
1A
102
{ACAD_REACTORS
330
C
102
}
100
AcDbDictionary
  3
STANDARD
350
1B
  0
DICTIONARY
  5
45
102
{ACAD_REACTORS
330
C
102
}
100
AcDbDictionary
  3
DIMADEC
350
46
  3
SORTENTS
350
12BF
  0
MLINESTYLE
  5
1B
102
{ACAD_REACTORS
330
1A
102
}
100
AcDbMlineStyle
  2
STANDARD
 70
     0
  3

 62
   256
 51
90.0
 52
90.0
 71
     2
 49
0.5
 62
   256
  6
BYLAYER
 49
-0.5
 62
   256
  6
BYLAYER
  0
DICTIONARYVAR
  5
46
102
{ACAD_REACTORS
330
45
102
}
100
DictionaryVariables
280
     0
  1
0
  0
DICTIONARYVAR
  5
12BF
102
{ACAD_REACTORS
330
45
102
}
100
DictionaryVariables
280
     0
  1
96
  0
ENDSEC
  0
EOF
