  0
SECTION
  2
HEADER
  9
$ACADVER
  1
AC1014
  9
$ACADMAINTVER
 70
     0
  9
$DWGCODEPAGE
  3
ANSI_1252
  9
$INSBASE
 10
0.0
 20
0.0
 30
0.0
  9
$EXTMIN
 10
480.43121
 20
40.130527
 30
0.0
  9
$EXTMAX
 10
665.669273
 20
279.850373
 30
20.0
  9
$LIMMIN
 10
-48.380455
 20
7.22543
  9
$LIMMAX
 10
160.479799
 20
269.038281
  9
$ORTHOMODE
 70
     1
  9
$REGENMODE
 70
     1
  9
$FILLMODE
 70
     1
  9
$QTEXTMODE
 70
     0
  9
$MIRRTEXT
 70
     1
  9
$DRAGMODE
 70
     2
  9
$LTSCALE
 40
1.0
  9
$OSMODE
 70
   675
  9
$ATTMODE
 70
     1
  9
$TEXTSIZE
 40
2.5
  9
$TRACEWID
 40
0.05
  9
$TEXTSTYLE
  7
ROMANS
  9
$CLAYER
  8
DIM
  9
$CELTYPE
  6
BYLAYER
  9
$CECOLOR
 62
   256
  9
$CELTSCALE
 40
1.0
  9
$DELOBJ
 70
     1
  9
$DISPSILH
 70
     0
  9
$DIMSCALE
 40
0.0
  9
$DIMASZ
 40
2.0
  9
$DIMEXO
 40
0.0625
  9
$DIMDLI
 40
0.38
  9
$DIMRND
 40
0.0
  9
$DIMDLE
 40
0.0
  9
$DIMEXE
 40
0.18
  9
$DIMTP
 40
0.0
  9
$DIMTM
 40
0.0
  9
$DIMTXT
 40
1.5
  9
$DIMCEN
 40
0.09
  9
$DIMTSZ
 40
0.0
  9
$DIMTOL
 70
     0
  9
$DIMLIM
 70
     0
  9
$DIMTIH
 70
     1
  9
$DIMTOH
 70
     1
  9
$DIMSE1
 70
     0
  9
$DIMSE2
 70
     0
  9
$DIMTAD
 70
     0
  9
$DIMZIN
 70
     8
  9
$DIMBLK
  1

  9
$DIMASO
 70
     1
  9
$DIMSHO
 70
     1
  9
$DIMPOST
  1

  9
$DIMAPOST
  1

  9
$DIMALT
 70
     0
  9
$DIMALTD
 70
     2
  9
$DIMALTF
 40
25.4
  9
$DIMLFAC
 40
1.0
  9
$DIMTOFL
 70
     1
  9
$DIMTVP
 40
0.0
  9
$DIMTIX
 70
     0
  9
$DIMSOXD
 70
     0
  9
$DIMSAH
 70
     0
  9
$DIMBLK1
  1

  9
$DIMBLK2
  1

  9
$DIMSTYLE
  2
STANDARD
  9
$DIMCLRD
 70
     0
  9
$DIMCLRE
 70
     0
  9
$DIMCLRT
 70
     0
  9
$DIMTFAC
 40
1.0
  9
$DIMGAP
 40
1.5
  9
$DIMJUST
 70
     0
  9
$DIMSD1
 70
     0
  9
$DIMSD2
 70
     0
  9
$DIMTOLJ
 70
     1
  9
$DIMTZIN
 70
     0
  9
$DIMALTZ
 70
     0
  9
$DIMALTTZ
 70
     0
  9
$DIMFIT
 70
     3
  9
$DIMUPT
 70
     0
  9
$DIMUNIT
 70
     7
  9
$DIMDEC
 70
     4
  9
$DIMTDEC
 70
     4
  9
$DIMALTU
 70
     2
  9
$DIMALTTD
 70
     2
  9
$DIMTXSTY
  7
STANDARD
  9
$DIMAUNIT
 70
     0
  9
$LUNITS
 70
     2
  9
$LUPREC
 70
     4
  9
$SKETCHINC
 40
0.1
  9
$FILLETRAD
 40
0.0
  9
$AUNITS
 70
     0
  9
$AUPREC
 70
     0
  9
$MENU
  1
acad
  9
$ELEVATION
 40
0.0
  9
$PELEVATION
 40
0.0
  9
$THICKNESS
 40
0.0
  9
$LIMCHECK
 70
     0
  9
$BLIPMODE
 70
     0
  9
$CHAMFERA
 40
0.5
  9
$CHAMFERB
 40
0.5
  9
$CHAMFERC
 40
0.0
  9
$CHAMFERD
 40
0.0
  9
$SKPOLY
 70
     0
  9
$TDCREATE
 40
2452202.479444050
  9
$TDUPDATE
 40
2453112.328126122
  9
$TDINDWG
 40
0.1873936690
  9
$TDUSRTIMER
 40
0.1873936690
  9
$USRTIMER
 70
     1
  9
$ANGBASE
 50
0.0
  9
$ANGDIR
 70
     0
  9
$PDMODE
 70
    34
  9
$PDSIZE
 40
0.0
  9
$PLINEWID
 40
0.0
  9
$COORDS
 70
     2
  9
$SPLFRAME
 70
     0
  9
$SPLINETYPE
 70
     6
  9
$SPLINESEGS
 70
     8
  9
$ATTDIA
 70
     0
  9
$ATTREQ
 70
     1
  9
$HANDLING
 70
     1
  9
$HANDSEED
  5
7FD3
  9
$SURFTAB1
 70
     6
  9
$SURFTAB2
 70
     6
  9
$SURFTYPE
 70
     6
  9
$SURFU
 70
     6
  9
$SURFV
 70
     6
  9
$UCSNAME
  2

  9
$UCSORG
 10
0.0
 20
0.0
 30
0.0
  9
$UCSXDIR
 10
1.0
 20
0.0
 30
0.0
  9
$UCSYDIR
 10
0.0
 20
1.0
 30
0.0
  9
$PUCSNAME
  2

  9
$PUCSORG
 10
0.0
 20
0.0
 30
0.0
  9
$PUCSXDIR
 10
1.0
 20
0.0
 30
0.0
  9
$PUCSYDIR
 10
0.0
 20
1.0
 30
0.0
  9
$USERI1
 70
     0
  9
$USERI2
 70
     0
  9
$USERI3
 70
     0
  9
$USERI4
 70
     0
  9
$USERI5
 70
     0
  9
$USERR1
 40
0.0
  9
$USERR2
 40
0.0
  9
$USERR3
 40
0.0
  9
$USERR4
 40
0.0
  9
$USERR5
 40
0.0
  9
$WORLDVIEW
 70
     1
  9
$SHADEDGE
 70
     3
  9
$SHADEDIF
 70
    70
  9
$TILEMODE
 70
     1
  9
$MAXACTVP
 70
    48
  9
$PINSBASE
 10
0.0
 20
0.0
 30
0.0
  9
$PLIMCHECK
 70
     0
  9
$PEXTMIN
 10
1.000000E+20
 20
1.000000E+20
 30
1.000000E+20
  9
$PEXTMAX
 10
-1.000000E+20
 20
-1.000000E+20
 30
-1.000000E+20
  9
$PLIMMIN
 10
0.0
 20
0.0
  9
$PLIMMAX
 10
12.0
 20
9.0
  9
$UNITMODE
 70
     0
  9
$VISRETAIN
 70
     1
  9
$PLINEGEN
 70
     0
  9
$PSLTSCALE
 70
     1
  9
$TREEDEPTH
 70
  3020
  9
$PICKSTYLE
 70
     1
  9
$CMLSTYLE
  2
STANDARD
  9
$CMLJUST
 70
     0
  9
$CMLSCALE
 40
1.0
  9
$PROXYGRAPHICS
 70
     1
  9
$MEASUREMENT
 70
     0
  0
ENDSEC
  0
SECTION
  2
CLASSES
  0
CLASS
  1
LWPOLYLINE
  2
AcDbPolyline
  3
"AutoCAD"
 90
        0
280
     0
281
     1
  0
CLASS
  1
HATCH
  2
AcDbHatch
  3
"ACAD_SEDONA"
 90
        0
280
     0
281
     1
  0
ENDSEC
  0
SECTION
  2
TABLES
  0
TABLE
  2
VPORT
  5
2995
100
AcDbSymbolTable
 70
     1
  0
VPORT
  5
7FCB
100
AcDbSymbolTableRecord
100
AcDbViewportTableRecord
  2
*ACTIVE
 70
     0
 10
0.0
 20
0.0
 11
1.0
 21
1.0
 12
573.070753
 22
159.995074
 13
0.0
 23
0.0
 14
0.05
 24
0.05
 15
0.5
 25
0.5
 16
0.0
 26
0.0
 36
1.0
 17
0.0
 27
0.0
 37
0.0
 40
242.354522
 41
1.750909
 42
50.0
 43
0.0
 44
0.0
 50
0.0
 51
0.0
 71
     0
 72
   100
 73
     1
 74
     1
 75
     0
 76
     0
 77
     0
 78
     0
  0
ENDTAB
  0
TABLE
  2
LTYPE
  5
2992
100
AcDbSymbolTable
 70
     3
  0
LTYPE
  5
299F
100
AcDbSymbolTableRecord
100
AcDbLinetypeTableRecord
  2
BYBLOCK
 70
     0
  3

 72
    65
 73
     0
 40
0.0
  0
LTYPE
  5
29A0
100
AcDbSymbolTableRecord
100
AcDbLinetypeTableRecord
  2
BYLAYER
 70
     0
  3

 72
    65
 73
     0
 40
0.0
  0
LTYPE
  5
29A1
100
AcDbSymbolTableRecord
100
AcDbLinetypeTableRecord
  2
CONTINUOUS
 70
     0
  3
Solid line
 72
    65
 73
     0
 40
0.0
  0
LTYPE
  5
29AE
100
AcDbSymbolTableRecord
100
AcDbLinetypeTableRecord
  2
CENTER
 70
     0
  3
____ _ ____ _ ____ _ ____ _ ____ _ ____ _ ____ 
 72
    65
 73
     4
 40
2.0
 49
1.25
 74
     0
 49
-0.25
 74
     0
 49
0.25
 74
     0
 49
-0.25
 74
     0
  0
LTYPE
  5
29AF
100
AcDbSymbolTableRecord
100
AcDbLinetypeTableRecord
  2
PHANTOM
 70
     0
  3
______  __  __  ______  __  __  ______  __  __ 
 72
    65
 73
     6
 40
2.5
 49
1.25
 74
     0
 49
-0.25
 74
     0
 49
0.25
 74
     0
 49
-0.25
 74
     0
 49
0.25
 74
     0
 49
-0.25
 74
     0
  0
ENDTAB
  0
TABLE
  2
LAYER
  5
298F
100
AcDbSymbolTable
 70
     8
  0
LAYER
  5
299B
100
AcDbSymbolTableRecord
100
AcDbLayerTableRecord
  2
0
 70
     0
 62
     7
  6
CONTINUOUS
  0
LAYER
  5
29AC
100
AcDbSymbolTableRecord
100
AcDbLayerTableRecord
  2
DIM
 70
     0
 62
     6
  6
CONTINUOUS
  0
LAYER
  5
29B1
100
AcDbSymbolTableRecord
100
AcDbLayerTableRecord
  2
OBJECT
 70
     0
 62
     2
  6
CONTINUOUS
  0
LAYER
  5
29B2
100
AcDbSymbolTableRecord
100
AcDbLayerTableRecord
  2
CENTER
 70
     0
 62
     3
  6
CENTER
  0
LAYER
  5
29B4
100
AcDbSymbolTableRecord
100
AcDbLayerTableRecord
  2
15
 70
     0
 62
     4
  6
CONTINUOUS
  0
LAYER
  5
29B5
100
AcDbSymbolTableRecord
100
AcDbLayerTableRecord
  2
BORDER
 70
     0
 62
     5
  6
CONTINUOUS
  0
LAYER
  5
29B6
100
AcDbSymbolTableRecord
100
AcDbLayerTableRecord
  2
LIMITS
 70
     0
 62
     7
  6
CONTINUOUS
  0
LAYER
  5
2BD1
100
AcDbSymbolTableRecord
100
AcDbLayerTableRecord
  2
DEFPOINTS
 70
     0
 62
     7
  6
CONTINUOUS
  0
ENDTAB
  0
TABLE
  2
STYLE
  5
2990
100
AcDbSymbolTable
 70
     5
  0
STYLE
  5
299C
100
AcDbSymbolTableRecord
100
AcDbTextStyleTableRecord
  2
STANDARD
 70
     0
 40
0.0
 41
1.0
 50
0.0
 71
     0
 42
0.2
  3
txt
  4

  0
STYLE
  5
29AD
100
AcDbSymbolTableRecord
100
AcDbTextStyleTableRecord
  2
ROMANS
 70
     0
 40
1.5
 41
1.0
 50
0.0
 71
     0
 42
2.5
  3
romans.shx
  4

  0
STYLE
  5
29B8
100
AcDbSymbolTableRecord
100
AcDbTextStyleTableRecord
  2
ROMANC
 70
     0
 40
0.0531
 41
1.0
 50
0.0
 71
     0
 42
0.0531
  3
romanc
  4

  0
STYLE
  5
29B9
100
AcDbSymbolTableRecord
100
AcDbTextStyleTableRecord
  2
ROMAND
 70
     0
 40
0.085
 41
1.0
 50
0.0
 71
     0
 42
0.085
  3
romand
  4

  0
STYLE
  5
29BA
100
AcDbSymbolTableRecord
100
AcDbTextStyleTableRecord
  2
COUNTRYBLUEPRINT
 70
     0
 40
0.064696
 41
1.0
 50
0.0
 71
     0
 42
0.064696
  3
cobt____.pfb
  4

  0
ENDTAB
  0
TABLE
  2
VIEW
  5
2993
100
AcDbSymbolTable
 70
     0
  0
ENDTAB
  0
TABLE
  2
UCS
  5
2994
100
AcDbSymbolTable
 70
     0
  0
ENDTAB
  0
TABLE
  2
APPID
  5
2996
100
AcDbSymbolTable
 70
     1
  0
APPID
  5
299D
100
AcDbSymbolTableRecord
100
AcDbRegAppTableRecord
  2
ACAD
 70
     0
  0
ENDTAB
  0
TABLE
  2
DIMSTYLE
  5
2997
100
AcDbSymbolTable
 70
     1
  0
DIMSTYLE
105
29BB
102
{ACAD_REACTORS
330
7F3B
330
7F56
330
7F6E
330
7F88
330
7FA2
102
}
100
AcDbSymbolTableRecord
100
AcDbDimStyleTableRecord
  2
STANDARD
 70
     0
  3

  4

  5

  6

  7

 40
1.0
 41
0.18
 42
0.0625
 43
0.38
 44
0.18
 45
0.0
 46
0.0
 47
0.0
 48
0.0
140
0.18
141
0.09
142
0.0
143
25.4
144
1.0
145
0.0
146
1.0
147
0.09
 71
     0
 72
     0
 73
     1
 74
     1
 75
     0
 76
     0
 77
     0
 78
     0
170
     0
171
     2
172
     0
173
     0
174
     0
175
     0
176
     0
177
     0
178
     0
270
     2
271
     4
272
     4
273
     2
274
     2
340
299C
275
     0
280
     0
281
     0
282
     0
283
     1
284
     0
285
     0
286
     0
287
     3
288
     0
  0
ENDTAB
  0
TABLE
  2
BLOCK_RECORD
  5
298E
100
AcDbSymbolTable
 70
    15
  0
BLOCK_RECORD
  5
29A5
100
AcDbSymbolTableRecord
100
AcDbBlockTableRecord
  2
*MODEL_SPACE
  0
BLOCK_RECORD
  5
29A2
100
AcDbSymbolTableRecord
100
AcDbBlockTableRecord
  2
*PAPER_SPACE
  0
BLOCK_RECORD
  5
2A9A
100
AcDbSymbolTableRecord
100
AcDbBlockTableRecord
  2
*U0
  0
BLOCK_RECORD
  5
2A9E
100
AcDbSymbolTableRecord
100
AcDbBlockTableRecord
  2
*U1
  0
BLOCK_RECORD
  5
2AAA
100
AcDbSymbolTableRecord
100
AcDbBlockTableRecord
  2
*U2
  0
BLOCK_RECORD
  5
2AAC
100
AcDbSymbolTableRecord
100
AcDbBlockTableRecord
  2
*U3
  0
BLOCK_RECORD
  5
2AAE
100
AcDbSymbolTableRecord
100
AcDbBlockTableRecord
  2
*U4
  0
BLOCK_RECORD
  5
7F2D
100
AcDbSymbolTableRecord
100
AcDbBlockTableRecord
  2
*D10
  0
BLOCK_RECORD
  5
7F49
100
AcDbSymbolTableRecord
100
AcDbBlockTableRecord
  2
*D11
  0
BLOCK_RECORD
  5
7F61
100
AcDbSymbolTableRecord
100
AcDbBlockTableRecord
  2
*D12
  0
BLOCK_RECORD
  5
7F7B
100
AcDbSymbolTableRecord
100
AcDbBlockTableRecord
  2
*D13
  0
BLOCK_RECORD
  5
7F95
100
AcDbSymbolTableRecord
100
AcDbBlockTableRecord
  2
*D14
  0
ENDTAB
  0
ENDSEC
  0
SECTION
  2
BLOCKS
  0
BLOCK
  5
29A6
100
AcDbEntity
  8
0
100
AcDbBlockBegin
  2
*MODEL_SPACE
 70
     0
 10
0.0
 20
0.0
 30
0.0
  3
*MODEL_SPACE
  1

  0
ENDBLK
  5
29A7
100
AcDbEntity
  8
0
100
AcDbBlockEnd
  0
BLOCK
  5
29A3
100
AcDbEntity
 67
     1
  8
0
100
AcDbBlockBegin
  2
*PAPER_SPACE
 70
     0
 10
0.0
 20
0.0
 30
0.0
  3
*PAPER_SPACE
  1

  0
ENDBLK
  5
29A4
100
AcDbEntity
 67
     1
  8
0
100
AcDbBlockEnd
  0
BLOCK
  5
2A9B
100
AcDbEntity
  8
0
100
AcDbBlockBegin
  2
*U0
 70
     1
 10
0.0
 20
0.0
 30
0.0
  3
*U0
  1

  0
SOLID
  5
26B2
100
AcDbEntity
  8
DIM
100
AcDbTrace
 10
212.98644
 20
105.174464
 30
0.0
 11
214.130976
 21
105.718467
 31
0.0
 12
213.22474
 22
104.832669
 32
0.0
 13
213.22474
 23
104.832669
 33
0.0
  0
POLYLINE
  5
26B3
100
AcDbEntity
  8
DIM
100
AcDb2dPolyline
 66
     1
 10
0.0
 20
0.0
 30
0.0
  0
VERTEX
  5
26B4
100
AcDbEntity
  8
DIM
100
AcDbVertex
100
AcDb2dVertex
 10
213.10559
 20
105.003567
 30
0.0
  0
VERTEX
  5
26B5
100
AcDbEntity
  8
DIM
100
AcDbVertex
100
AcDb2dVertex
 10
206.900153
 20
100.677131
 30
0.0
  0
SEQEND
  5
26B6
100
AcDbEntity
  8
DIM
  0
ENDBLK
  5
26B8
100
AcDbEntity
  8
0
100
AcDbBlockEnd
  0
BLOCK
  5
2A9F
100
AcDbEntity
  8
0
100
AcDbBlockBegin
  2
*U1
 70
     1
 10
0.0
 20
0.0
 30
0.0
  3
*U1
  1

  0
SOLID
  5
26BE
100
AcDbEntity
  8
DIM
100
AcDbTrace
 10
236.304328
 20
114.165616
 30
0.0
 11
235.170095
 21
113.600446
 31
0.0
 12
236.05972
 22
114.502926
 32
0.0
 13
236.05972
 23
114.502926
 33
0.0
  0
POLYLINE
  5
26BF
100
AcDbEntity
  8
DIM
100
AcDb2dPolyline
 66
     1
 10
0.0
 20
0.0
 30
0.0
  0
VERTEX
  5
26C0
100
AcDbEntity
  8
DIM
100
AcDbVertex
100
AcDb2dVertex
 10
236.182024
 20
114.334271
 30
0.0
  0
VERTEX
  5
26C1
100
AcDbEntity
  8
DIM
100
AcDbVertex
100
AcDb2dVertex
 10
243.268869
 20
119.473471
 30
0.0
  0
SEQEND
  5
26C2
100
AcDbEntity
  8
DIM
  0
ENDBLK
  5
26C4
100
AcDbEntity
  8
0
100
AcDbBlockEnd
  0
BLOCK
  5
2AAB
100
AcDbEntity
  8
0
100
AcDbBlockBegin
  2
*U2
 70
     1
 10
0.0
 20
0.0
 30
0.0
  3
*U2
  1

  0
TEXT
  5
26DE
100
AcDbEntity
  8
DIM
100
AcDbText
 10
383.955825
 20
155.518002
 30
0.0
 40
1.5
  1
6
  7
ROMANS
100
AcDbText
  0
ENDBLK
  5
26E0
100
AcDbEntity
  8
0
100
AcDbBlockEnd
  0
BLOCK
  5
2AAD
100
AcDbEntity
  8
0
100
AcDbBlockBegin
  2
*U3
 70
     1
 10
0.0
 20
0.0
 30
0.0
  3
*U3
  1

  0
TEXT
  5
26E2
100
AcDbEntity
  8
DIM
100
AcDbText
 10
373.24154
 20
160.10015
 30
0.0
 40
1.5
  1
38
  7
ROMANS
100
AcDbText
  0
ENDBLK
  5
26E4
100
AcDbEntity
  8
0
100
AcDbBlockEnd
  0
BLOCK
  5
2AAF
100
AcDbEntity
  8
0
100
AcDbBlockBegin
  2
*U4
 70
     1
 10
0.0
 20
0.0
 30
0.0
  3
*U4
  1

  0
TEXT
  5
26E6
100
AcDbEntity
  8
DIM
100
AcDbText
 10
349.039178
 20
133.219199
 30
0.0
 40
1.5
  1
36
 50
90.0
  7
ROMANS
100
AcDbText
  0
ENDBLK
  5
26E8
100
AcDbEntity
  8
0
100
AcDbBlockEnd
  0
BLOCK
  5
7F3C
100
AcDbEntity
  8
0
100
AcDbBlockBegin
  2
*D10
 70
     1
 10
0.0
 20
0.0
 30
0.0
  3
*D10
  1

  0
LINE
  5
7F3D
100
AcDbEntity
  8
0
  6
BYBLOCK
 62
     0
100
AcDbLine
 10
587.873994
 20
121.414956
 30
0.0
 11
587.873994
 21
125.53433
 31
0.0
  0
LINE
  5
7F3E
100
AcDbEntity
  8
0
  6
BYBLOCK
 62
     0
100
AcDbLine
 10
590.873994
 20
123.027567
 30
0.0
 11
590.873994
 21
125.53433
 31
0.0
  0
LINE
  5
7F3F
100
AcDbEntity
  8
0
  6
BYBLOCK
 62
     0
100
AcDbLine
 10
585.873994
 20
125.35433
 30
0.0
 11
583.873994
 21
125.35433
 31
0.0
  0
LINE
  5
7F40
100
AcDbEntity
  8
0
  6
BYBLOCK
 62
     0
100
AcDbLine
 10
592.873994
 20
125.35433
 30
0.0
 11
594.873994
 21
125.35433
 31
0.0
  0
LINE
  5
7F41
100
AcDbEntity
  8
0
  6
BYBLOCK
 62
     0
100
AcDbLine
 10
587.873994
 20
125.35433
 30
0.0
 11
590.873994
 21
125.35433
 31
0.0
  0
SOLID
  5
7F42
100
AcDbEntity
  8
0
  6
BYBLOCK
 62
     0
100
AcDbTrace
 10
585.873994
 20
125.687663
 30
0.0
 11
585.873994
 21
125.020997
 31
0.0
 12
587.873994
 22
125.35433
 32
0.0
 13
587.873994
 23
125.35433
 33
0.0
  0
SOLID
  5
7F43
100
AcDbEntity
  8
0
  6
BYBLOCK
 62
     0
100
AcDbTrace
 10
592.873994
 20
125.687663
 30
0.0
 11
592.873994
 21
125.020997
 31
0.0
 12
590.873994
 22
125.35433
 32
0.0
 13
590.873994
 23
125.35433
 33
0.0
  0
MTEXT
  5
7F44
100
AcDbEntity
  8
0
  6
BYBLOCK
 62
     0
100
AcDbMText
 10
596.873994
 20
125.35433
 30
0.0
 40
1.5
 41
0.0
 71
     5
 72
     1
  1
\A1;3
  0
POINT
  5
7F45
100
AcDbEntity
  8
DEFPOINTS
  6
BYBLOCK
 62
     0
100
AcDbPoint
 10
587.873994
 20
121.352456
 30
0.0
  0
POINT
  5
7F46
100
AcDbEntity
  8
DEFPOINTS
  6
BYBLOCK
 62
     0
100
AcDbPoint
 10
590.873994
 20
122.965067
 30
0.0
  0
POINT
  5
7F47
100
AcDbEntity
  8
DEFPOINTS
  6
BYBLOCK
 62
     0
100
AcDbPoint
 10
590.873994
 20
125.35433
 30
0.0
  0
ENDBLK
  5
7F48
100
AcDbEntity
  8
0
100
AcDbBlockEnd
  0
BLOCK
  5
7F4A
100
AcDbEntity
  8
0
100
AcDbBlockBegin
  2
*D11
 70
     1
 10
0.0
 20
0.0
 30
0.0
  3
*D11
  1

  0
LINE
  5
7F4B
100
AcDbEntity
  8
0
  6
BYBLOCK
 62
     0
100
AcDbLine
 10
571.873994
 20
84.67466
 30
0.0
 11
571.873994
 21
80.424683
 31
0.0
  0
LINE
  5
7F4C
100
AcDbEntity
  8
0
  6
BYBLOCK
 62
     0
100
AcDbLine
 10
587.873994
 20
88.515178
 30
0.0
 11
587.873994
 21
80.424683
 31
0.0
  0
LINE
  5
7F4D
100
AcDbEntity
  8
0
  6
BYBLOCK
 62
     0
100
AcDbLine
 10
573.873994
 20
80.604683
 30
0.0
 11
577.373994
 21
80.604683
 31
0.0
  0
LINE
  5
7F4E
100
AcDbEntity
  8
0
  6
BYBLOCK
 62
     0
100
AcDbLine
 10
585.873994
 20
80.604683
 30
0.0
 11
582.373994
 21
80.604683
 31
0.0
  0
SOLID
  5
7F4F
100
AcDbEntity
  8
0
  6
BYBLOCK
 62
     0
100
AcDbTrace
 10
573.873994
 20
80.938016
 30
0.0
 11
573.873994
 21
80.271349
 31
0.0
 12
571.873994
 22
80.604683
 32
0.0
 13
571.873994
 23
80.604683
 33
0.0
  0
SOLID
  5
7F50
100
AcDbEntity
  8
0
  6
BYBLOCK
 62
     0
100
AcDbTrace
 10
585.873994
 20
80.938016
 30
0.0
 11
585.873994
 21
80.271349
 31
0.0
 12
587.873994
 22
80.604683
 32
0.0
 13
587.873994
 23
80.604683
 33
0.0
  0
MTEXT
  5
7F51
100
AcDbEntity
  8
0
  6
BYBLOCK
 62
     0
100
AcDbMText
 10
579.873994
 20
80.604683
 30
0.0
 40
1.5
 41
0.0
 71
     5
 72
     1
  1
\A1;16
  0
POINT
  5
7F52
100
AcDbEntity
  8
DEFPOINTS
  6
BYBLOCK
 62
     0
100
AcDbPoint
 10
571.873994
 20
84.73716
 30
0.0
  0
POINT
  5
7F53
100
AcDbEntity
  8
DEFPOINTS
  6
BYBLOCK
 62
     0
100
AcDbPoint
 10
587.873994
 20
88.577678
 30
0.0
  0
POINT
  5
7F54
100
AcDbEntity
  8
DEFPOINTS
  6
BYBLOCK
 62
     0
100
AcDbPoint
 10
587.873994
 20
80.604683
 30
0.0
  0
ENDBLK
  5
7F55
100
AcDbEntity
  8
0
100
AcDbBlockEnd
  0
BLOCK
  5
7FBB
100
AcDbEntity
  8
0
100
AcDbBlockBegin
  2
*D12
 70
     1
 10
0.0
 20
0.0
 30
0.0
  3
*D12
  1

  0
LINE
  5
7FBC
100
AcDbEntity
  8
0
  6
BYBLOCK
 62
     0
100
AcDbLine
 10
558.087559
 20
249.13151
 30
0.0
 11
545.911725
 21
249.13151
 31
0.0
  0
LINE
  5
7FBD
100
AcDbEntity
  8
0
  6
BYBLOCK
 62
     0
100
AcDbLine
 10
558.087598
 20
219.13151
 30
0.0
 11
545.911725
 21
219.13151
 31
0.0
  0
LINE
  5
7FBE
100
AcDbEntity
  8
0
  6
BYBLOCK
 62
     0
100
AcDbLine
 10
546.091725
 20
247.13151
 30
0.0
 11
546.091725
 21
236.38151
 31
0.0
  0
LINE
  5
7FBF
100
AcDbEntity
  8
0
  6
BYBLOCK
 62
     0
100
AcDbLine
 10
546.091725
 20
221.13151
 30
0.0
 11
546.091725
 21
231.88151
 31
0.0
  0
SOLID
  5
7FC0
100
AcDbEntity
  8
0
  6
BYBLOCK
 62
     0
100
AcDbTrace
 10
545.758391
 20
247.13151
 30
0.0
 11
546.425058
 21
247.13151
 31
0.0
 12
546.091725
 22
249.13151
 32
0.0
 13
546.091725
 23
249.13151
 33
0.0
  0
SOLID
  5
7FC1
100
AcDbEntity
  8
0
  6
BYBLOCK
 62
     0
100
AcDbTrace
 10
545.758391
 20
221.13151
 30
0.0
 11
546.425058
 21
221.13151
 31
0.0
 12
546.091725
 22
219.13151
 32
0.0
 13
546.091725
 23
219.13151
 33
0.0
  0
MTEXT
  5
7FC2
100
AcDbEntity
  8
0
  6
BYBLOCK
 62
     0
100
AcDbMText
 10
546.091725
 20
234.13151
 30
0.0
 40
1.5
 41
0.0
 71
     5
 72
     1
  1
\A1;30"
  0
POINT
  5
7FC3
100
AcDbEntity
  8
DEFPOINTS
  6
BYBLOCK
 62
     0
100
AcDbPoint
 10
558.150059
 20
249.13151
 30
0.0
  0
POINT
  5
7FC4
100
AcDbEntity
  8
DEFPOINTS
  6
BYBLOCK
 62
     0
100
AcDbPoint
 10
558.150098
 20
219.13151
 30
0.0
  0
POINT
  5
7FC5
100
AcDbEntity
  8
DEFPOINTS
  6
BYBLOCK
 62
     0
100
AcDbPoint
 10
546.091725
 20
219.13151
 30
0.0
  0
ENDBLK
  5
7FC6
100
AcDbEntity
  8
0
100
AcDbBlockEnd
  0
BLOCK
  5
7FAF
100
AcDbEntity
  8
0
100
AcDbBlockBegin
  2
*D13
 70
     1
 10
0.0
 20
0.0
 30
0.0
  3
*D13
  1

  0
LINE
  5
7FB0
100
AcDbEntity
  8
0
  6
BYBLOCK
 62
     0
100
AcDbLine
 10
589.900027
 20
156.286487
 30
0.0
 11
597.751475
 21
156.286487
 31
0.0
  0
LINE
  5
7FB1
100
AcDbEntity
  8
0
  6
BYBLOCK
 62
     0
100
AcDbLine
 10
593.212559
 20
181.286487
 30
0.0
 11
597.751475
 21
181.286487
 31
0.0
  0
LINE
  5
7FB2
100
AcDbEntity
  8
0
  6
BYBLOCK
 62
     0
100
AcDbLine
 10
597.571475
 20
158.286487
 30
0.0
 11
597.571475
 21
166.536487
 31
0.0
  0
LINE
  5
7FB3
100
AcDbEntity
  8
0
  6
BYBLOCK
 62
     0
100
AcDbLine
 10
597.571475
 20
179.286487
 30
0.0
 11
597.571475
 21
171.036487
 31
0.0
  0
SOLID
  5
7FB4
100
AcDbEntity
  8
0
  6
BYBLOCK
 62
     0
100
AcDbTrace
 10
597.238142
 20
158.286487
 30
0.0
 11
597.904809
 21
158.286487
 31
0.0
 12
597.571475
 22
156.286487
 32
0.0
 13
597.571475
 23
156.286487
 33
0.0
  0
SOLID
  5
7FB5
100
AcDbEntity
  8
0
  6
BYBLOCK
 62
     0
100
AcDbTrace
 10
597.238142
 20
179.286487
 30
0.0
 11
597.904809
 21
179.286487
 31
0.0
 12
597.571475
 22
181.286487
 32
0.0
 13
597.571475
 23
181.286487
 33
0.0
  0
MTEXT
  5
7FB6
100
AcDbEntity
  8
0
  6
BYBLOCK
 62
     0
100
AcDbMText
 10
597.571475
 20
168.786487
 30
0.0
 40
1.5
 41
0.0
 71
     5
 72
     1
  1
\A1;25"
  0
POINT
  5
7FB7
100
AcDbEntity
  8
DEFPOINTS
  6
BYBLOCK
 62
     0
100
AcDbPoint
 10
589.837527
 20
156.286487
 30
0.0
  0
POINT
  5
7FB8
100
AcDbEntity
  8
DEFPOINTS
  6
BYBLOCK
 62
     0
100
AcDbPoint
 10
593.150059
 20
181.286487
 30
0.0
  0
POINT
  5
7FB9
100
AcDbEntity
  8
DEFPOINTS
  6
BYBLOCK
 62
     0
100
AcDbPoint
 10
597.571475
 20
181.286487
 30
0.0
  0
ENDBLK
  5
7FBA
100
AcDbEntity
  8
0
100
AcDbBlockEnd
  0
BLOCK
  5
7FA3
100
AcDbEntity
  8
0
100
AcDbBlockBegin
  2
*D14
 70
     1
 10
0.0
 20
0.0
 30
0.0
  3
*D14
  1

  0
LINE
  5
7FA4
100
AcDbEntity
  8
0
  6
BYBLOCK
 62
     0
100
AcDbLine
 10
558.150131
 20
156.536487
 30
0.0
 11
558.150131
 21
151.444016
 31
0.0
  0
LINE
  5
7FA5
100
AcDbEntity
  8
0
  6
BYBLOCK
 62
     0
100
AcDbLine
 10
590.150027
 20
156.536487
 30
0.0
 11
590.150027
 21
151.444016
 31
0.0
  0
LINE
  5
7FA6
100
AcDbEntity
  8
0
  6
BYBLOCK
 62
     0
100
AcDbLine
 10
560.150131
 20
151.624016
 30
0.0
 11
570.900079
 21
151.624016
 31
0.0
  0
LINE
  5
7FA7
100
AcDbEntity
  8
0
  6
BYBLOCK
 62
     0
100
AcDbLine
 10
588.150027
 20
151.624016
 30
0.0
 11
577.400079
 21
151.624016
 31
0.0
  0
SOLID
  5
7FA8
100
AcDbEntity
  8
0
  6
BYBLOCK
 62
     0
100
AcDbTrace
 10
560.150131
 20
151.957349
 30
0.0
 11
560.150131
 21
151.290683
 31
0.0
 12
558.150131
 22
151.624016
 32
0.0
 13
558.150131
 23
151.624016
 33
0.0
  0
SOLID
  5
7FA9
100
AcDbEntity
  8
0
  6
BYBLOCK
 62
     0
100
AcDbTrace
 10
588.150027
 20
151.957349
 30
0.0
 11
588.150027
 21
151.290683
 31
0.0
 12
590.150027
 22
151.624016
 32
0.0
 13
590.150027
 23
151.624016
 33
0.0
  0
MTEXT
  5
7FAA
100
AcDbEntity
  8
0
  6
BYBLOCK
 62
     0
100
AcDbMText
 10
574.150079
 20
151.624016
 30
0.0
 40
1.5
 41
0.0
 71
     5
 72
     1
  1
\A1;32"
  0
POINT
  5
7FAB
100
AcDbEntity
  8
DEFPOINTS
  6
BYBLOCK
 62
     0
100
AcDbPoint
 10
558.150131
 20
156.598987
 30
0.0
  0
POINT
  5
7FAC
100
AcDbEntity
  8
DEFPOINTS
  6
BYBLOCK
 62
     0
100
AcDbPoint
 10
590.150027
 20
156.598987
 30
0.0
  0
POINT
  5
7FAD
100
AcDbEntity
  8
DEFPOINTS
  6
BYBLOCK
 62
     0
100
AcDbPoint
 10
590.150027
 20
151.624016
 30
0.0
  0
ENDBLK
  5
7FAE
100
AcDbEntity
  8
0
100
AcDbBlockEnd
  0
ENDSEC
  0
SECTION
  2
ENTITIES
  0
TEXT
  5
361
100
AcDbEntity
  8
DIM
100
AcDbText
 10
39.558104
 20
118.305038
 30
0.0
 40
2.5
  1

  7
ROMANS
100
AcDbText
  0
TEXT
  5
439
100
AcDbEntity
  8
0
  6
BYBLOCK
 62
     0
100
AcDbText
 10
3707.228985
 20
-3251.828613
 30
0.0
 40
37.5
  1
   
 50
270.0
  7
ROMANS
 72
     1
 11
3725.978985
 21
-3308.078613
 31
0.0
100
AcDbText
 73
     2
  0
TEXT
  5
43A
100
AcDbEntity
  8
0
  6
BYBLOCK
 62
     0
100
AcDbText
 10
5001.846172
 20
-2435.961412
 30
0.0
 40
37.5
  1
  
 50
270.0
  7
ROMANS
 72
     1
 11
5020.596172
 21
-2473.461412
 31
0.0
100
AcDbText
 73
     2
  0
TEXT
  5
43B
100
AcDbEntity
  8
0
  6
BYBLOCK
 62
     0
100
AcDbText
 10
4776.846172
 20
-2435.495512
 30
0.0
 40
37.5
  1
  
 50
270.0
  7
ROMANS
 72
     1
 11
4795.596172
 21
-2472.995512
 31
0.0
100
AcDbText
 73
     2
  0
TEXT
  5
43C
100
AcDbEntity
  8
0
  6
BYBLOCK
 62
     0
100
AcDbText
 10
4064.753472
 20
-1416.688333
 30
0.0
 40
37.5
  1
  
 50
270.0
  7
ROMANS
 72
     1
 11
4083.503472
 21
-1454.188333
 31
0.0
100
AcDbText
 73
     2
  0
LINE
  5
1677
100
AcDbEntity
  8
OBJECT
100
AcDbLine
 10
559.248994
 20
102.996317
 30
0.0
 11
558.498994
 21
102.996317
 31
0.0
  0
LINE
  5
1678
100
AcDbEntity
  8
OBJECT
100
AcDbLine
 10
559.248994
 20
106.933817
 30
0.0
 11
558.498994
 21
106.933817
 31
0.0
  0
LINE
  5
1679
100
AcDbEntity
  8
OBJECT
100
AcDbLine
 10
558.498994
 20
106.933817
 30
0.0
 11
558.498994
 21
102.996317
 31
0.0
  0
LINE
  5
167A
100
AcDbEntity
  8
OBJECT
100
AcDbLine
 10
559.248994
 20
102.996317
 30
0.0
 11
559.248994
 21
106.933817
 31
0.0
  0
ARC
  5
167B
100
AcDbEntity
  8
OBJECT
100
AcDbCircle
 10
558.405244
 20
104.965067
 30
0.0
 40
0.5
100
AcDbArc
 50
90.0
 51
270.0
  0
LINE
  5
167C
100
AcDbEntity
  8
OBJECT
100
AcDbLine
 10
558.405244
 20
107.027567
 30
0.0
 11
558.405244
 21
105.465067
 31
0.0
  0
LINE
  5
167D
100
AcDbEntity
  8
OBJECT
100
AcDbLine
 10
559.342744
 20
107.027567
 30
0.0
 11
558.405244
 21
107.027567
 31
0.0
  0
LINE
  5
167E
100
AcDbEntity
  8
OBJECT
100
AcDbLine
 10
559.342744
 20
105.465067
 30
0.0
 11
559.342744
 21
107.027567
 31
0.0
  0
ARC
  5
167F
100
AcDbEntity
  8
OBJECT
100
AcDbCircle
 10
559.342744
 20
104.965067
 30
0.0
 40
0.5
100
AcDbArc
 50
270.0
 51
90.0
  0
LINE
  5
1680
100
AcDbEntity
  8
OBJECT
100
AcDbLine
 10
559.342744
 20
102.902567
 30
0.0
 11
559.342744
 21
104.465067
 31
0.0
  0
LINE
  5
1681
100
AcDbEntity
  8
OBJECT
100
AcDbLine
 10
558.405244
 20
102.902567
 30
0.0
 11
559.342744
 21
102.902567
 31
0.0
  0
LINE
  5
1682
100
AcDbEntity
  8
OBJECT
100
AcDbLine
 10
558.405244
 20
104.465067
 30
0.0
 11
558.405244
 21
102.902567
 31
0.0
  0
LINE
  5
1688
100
AcDbEntity
  8
DIM
100
AcDbLine
 10
552.811494
 20
86.965067
 30
0.0
 11
548.84033
 21
86.965067
 31
0.0
  0
INSERT
  5
168E
100
AcDbEntity
  8
DIM
100
AcDbBlockReference
  2
*U0
 10
344.137055
 20
75.755997
 30
0.0
1001
ACAD
1000
DSTYLE
1002
{
1070
   272
1070
     0
1070
    40
1040
1.0
1070
   147
1040
1.25
1070
    42
1040
0.0625
1070
    41
1040
1.25
1002
}
  0
LINE
  5
168F
100
AcDbEntity
  8
DIM
100
AcDbLine
 10
549.849946
 20
176.433128
 30
0.0
 11
551.037207
 21
176.433128
 31
0.0
  0
TEXT
  5
1690
100
AcDbEntity
  8
DIM
100
AcDbText
 10
541.434002
 20
173.403179
 30
0.0
 40
1.5
  1
Pin
  7
ROMANS
100
AcDbText
  0
TEXT
  5
1691
100
AcDbEntity
  8
DIM
100
AcDbText
 10
541.434002
 20
175.83175
 30
0.0
 40
1.5
  1
Locking
  7
ROMANS
100
AcDbText
  0
LINE
  5
1694
100
AcDbEntity
  8
OBJECT
100
AcDbLine
 10
558.150099
 20
181.286487
 30
0.0
 11
554.962599
 21
181.286487
 31
0.0
  0
LINE
  5
1695
100
AcDbEntity
  8
OBJECT
100
AcDbLine
 10
558.150099
 20
180.580118
 30
0.0
 11
558.383233
 21
180.580118
 31
0.0
  0
LINE
  5
1696
100
AcDbEntity
  8
OBJECT
100
AcDbLine
 10
558.383233
 20
181.992857
 30
0.0
 11
558.383233
 21
180.580118
 31
0.0
  0
LINE
  5
1697
100
AcDbEntity
  8
OBJECT
100
AcDbLine
 10
558.150099
 20
181.992857
 30
0.0
 11
558.383233
 21
181.992857
 31
0.0
  0
LINE
  5
1698
100
AcDbEntity
  8
OBJECT
100
AcDbLine
 10
558.150099
 20
181.098988
 30
0.0
 11
558.150099
 21
181.992857
 31
0.0
  0
LINE
  5
1699
100
AcDbEntity
  8
DIM
100
AcDbLine
 10
552.811494
 20
86.965067
 30
0.0
 11
549.115014
 21
86.965067
 31
0.0
  0
LINE
  5
16A1
100
AcDbEntity
  8
CENTER
100
AcDbLine
 10
558.873994
 20
102.476293
 30
0.0
 11
558.873994
 21
107.456459
 31
0.0
  0
LINE
  5
16A2
100
AcDbEntity
  8
CENTER
100
AcDbLine
 10
560.053757
 20
104.965067
 30
0.0
 11
557.715322
 21
104.965067
 31
0.0
  0
INSERT
  5
16A3
100
AcDbEntity
  8
DIM
100
AcDbBlockReference
  2
*U1
 10
344.137055
 20
75.755997
 30
0.0
1001
ACAD
1000
DSTYLE
1002
{
1070
   272
1070
     0
1070
    40
1040
1.0
1070
   147
1040
1.25
1070
    42
1040
0.0625
1070
    41
1040
1.25
1002
}
  0
ARC
  5
16A4
100
AcDbEntity
  8
OBJECT
  6
PHANTOM
100
AcDbCircle
 10
587.150059
 20
181.286487
 30
0.0
 40
32.187461
100
AcDbArc
 50
134.554979
 51
180.0
  0
LINE
  5
16A5
100
AcDbEntity
  8
OBJECT
100
AcDbLine
 10
587.383057
 20
181.536487
 30
0.0
 11
587.383057
 21
181.286487
 31
0.0
  0
LINE
  5
16A9
100
AcDbEntity
  8
DIM
100
AcDbLine
 10
609.014774
 20
106.27772
 30
0.0
 11
607.028296
 21
106.27772
 31
0.0
  0
TEXT
  5
16AA
100
AcDbEntity
  8
DIM
100
AcDbText
 10
609.345854
 20
105.616401
 30
0.0
 40
1.5
  1
(4)9/16 Dia.
  7
ROMANS
100
AcDbText
  0
TEXT
  5
16AB
100
AcDbEntity
  8
DIM
100
AcDbText
 10
609.345854
 20
103.187829
 30
0.0
 40
1.5
  1
Holes 
  7
ROMANS
100
AcDbText
  0
LINE
  5
16C8
100
AcDbEntity
  8
CENTER
100
AcDbLine
 10
589.373994
 20
114.352456
 30
0.0
 11
589.373994
 21
113.965067
 31
0.0
  0
LINE
  5
16C9
100
AcDbEntity
  8
CENTER
100
AcDbLine
 10
589.373994
 20
113.577678
 30
0.0
 11
589.373994
 21
113.965067
 31
0.0
  0
CIRCLE
  5
16CA
100
AcDbEntity
  8
OBJECT
100
AcDbCircle
 10
589.373994
 20
113.965067
 30
0.0
 40
0.19
  0
LINE
  5
16CB
100
AcDbEntity
  8
CENTER
100
AcDbLine
 10
588.986605
 20
113.965067
 30
0.0
 11
589.373994
 21
113.965067
 31
0.0
  0
LINE
  5
16CC
100
AcDbEntity
  8
CENTER
100
AcDbLine
 10
589.761383
 20
113.965067
 30
0.0
 11
589.373994
 21
113.965067
 31
0.0
  0
LINE
  5
16CD
100
AcDbEntity
  8
CENTER
100
AcDbLine
 10
587.486605
 20
120.965067
 30
0.0
 11
587.873994
 21
120.965067
 31
0.0
  0
LINE
  5
16CE
100
AcDbEntity
  8
CENTER
100
AcDbLine
 10
587.873994
 20
120.577678
 30
0.0
 11
587.873994
 21
120.965067
 31
0.0
  0
LINE
  5
16CF
100
AcDbEntity
  8
CENTER
100
AcDbLine
 10
588.261383
 20
120.965067
 30
0.0
 11
587.873994
 21
120.965067
 31
0.0
  0
CIRCLE
  5
16D0
100
AcDbEntity
  8
OBJECT
100
AcDbCircle
 10
587.873994
 20
120.965067
 30
0.0
 40
0.19
  0
LINE
  5
16D1
100
AcDbEntity
  8
CENTER
100
AcDbLine
 10
587.873994
 20
121.352456
 30
0.0
 11
587.873994
 21
120.965067
 31
0.0
  0
INSERT
  5
16D9
100
AcDbEntity
  8
DIM
100
AcDbBlockReference
  2
*U2
 10
197.203883
 20
-29.028565
 30
0.0
  0
SOLID
  5
16DA
100
AcDbEntity
  8
DIM
100
AcDbTrace
 10
586.123994
 20
127.709426
 30
0.0
 11
586.123994
 21
127.292759
 31
0.0
 12
584.873994
 22
127.501093
 32
0.0
 13
584.873994
 23
127.501093
 33
0.0
  0
SOLID
  5
16DB
100
AcDbEntity
  8
DIM
100
AcDbTrace
 10
589.623994
 20
127.709426
 30
0.0
 11
589.623994
 21
127.292759
 31
0.0
 12
590.873994
 22
127.501093
 32
0.0
 13
590.873994
 23
127.501093
 33
0.0
  0
LINE
  5
16DC
100
AcDbEntity
  8
DIM
100
AcDbLine
 10
584.873994
 20
127.501093
 30
0.0
 11
583.623994
 21
127.501093
 31
0.0
  0
LINE
  5
16DD
100
AcDbEntity
  8
DIM
100
AcDbLine
 10
589.623994
 20
127.501093
 30
0.0
 11
586.123994
 21
127.501093
 31
0.0
  0
LINE
  5
16DE
100
AcDbEntity
  8
DIM
100
AcDbLine
 10
584.873994
 20
123.027567
 30
0.0
 11
584.873994
 21
127.681093
 31
0.0
  0
LINE
  5
16DF
100
AcDbEntity
  8
DIM
100
AcDbLine
 10
590.873994
 20
123.027567
 30
0.0
 11
590.873994
 21
127.681093
 31
0.0
  0
INSERT
  5
16E0
100
AcDbEntity
  8
DIM
100
AcDbBlockReference
  2
*U3
 10
197.203883
 20
-29.682704
 30
0.0
  0
SOLID
  5
16E1
100
AcDbEntity
  8
DIM
100
AcDbTrace
 10
589.623994
 20
131.375779
 30
0.0
 11
589.623994
 21
130.959113
 31
0.0
 12
590.873994
 22
131.167446
 32
0.0
 13
590.873994
 23
131.167446
 33
0.0
  0
SOLID
  5
16E2
100
AcDbEntity
  8
DIM
100
AcDbTrace
 10
554.123994
 20
131.375779
 30
0.0
 11
554.123994
 21
130.959113
 31
0.0
 12
552.873994
 22
131.167446
 32
0.0
 13
552.873994
 23
131.167446
 33
0.0
  0
LINE
  5
16E3
100
AcDbEntity
  8
DIM
100
AcDbLine
 10
589.623994
 20
131.167446
 30
0.0
 11
574.33828
 21
131.167446
 31
0.0
  0
LINE
  5
16E4
100
AcDbEntity
  8
DIM
100
AcDbLine
 10
554.123994
 20
131.167446
 30
0.0
 11
569.409708
 21
131.167446
 31
0.0
  0
LINE
  5
16E5
100
AcDbEntity
  8
DIM
100
AcDbLine
 10
590.873994
 20
123.027567
 30
0.0
 11
590.873994
 21
131.347446
 31
0.0
  0
LINE
  5
16E6
100
AcDbEntity
  8
DIM
100
AcDbLine
 10
552.873994
 20
123.027567
 30
0.0
 11
552.873994
 21
131.347446
 31
0.0
  0
INSERT
  5
16E7
100
AcDbEntity
  8
DIM
100
AcDbBlockReference
  2
*U4
 10
197.203883
 20
-29.682704
 30
0.0
  0
SOLID
  5
16E8
100
AcDbEntity
  8
DIM
100
AcDbTrace
 10
545.284728
 20
88.215067
 30
0.0
 11
545.701395
 21
88.215067
 31
0.0
 12
545.493062
 22
86.965067
 32
0.0
 13
545.493062
 23
86.965067
 33
0.0
  0
SOLID
  5
16E9
100
AcDbEntity
  8
DIM
100
AcDbTrace
 10
545.284728
 20
121.715067
 30
0.0
 11
545.701395
 21
121.715067
 31
0.0
 12
545.493062
 22
122.965067
 32
0.0
 13
545.493062
 23
122.965067
 33
0.0
  0
LINE
  5
16EA
100
AcDbEntity
  8
DIM
100
AcDbLine
 10
545.493062
 20
88.215067
 30
0.0
 11
545.493062
 21
102.500782
 31
0.0
  0
LINE
  5
16EB
100
AcDbEntity
  8
DIM
100
AcDbLine
 10
545.493062
 20
121.715067
 30
0.0
 11
545.493062
 21
107.429353
 31
0.0
  0
LINE
  5
16EC
100
AcDbEntity
  8
DIM
100
AcDbLine
 10
552.811494
 20
86.965067
 30
0.0
 11
545.313062
 21
86.965067
 31
0.0
  0
LINE
  5
16ED
100
AcDbEntity
  8
DIM
100
AcDbLine
 10
552.811494
 20
122.965067
 30
0.0
 11
545.313062
 21
122.965067
 31
0.0
  0
LINE
  5
16EE
100
AcDbEntity
  8
DIM
100
AcDbLine
 10
530.556494
 20
139.810134
 30
0.0
 11
612.621905
 21
139.810134
 31
0.0
  0
LINE
  5
16EF
100
AcDbEntity
  8
DIM
100
AcDbLine
 10
589.668486
 20
195.229468
 30
0.0
 11
587.405924
 21
195.229468
 31
0.0
  0
TEXT
  5
16F0
100
AcDbEntity
  8
DIM
100
AcDbText
 10
590.129996
 20
194.595214
 30
0.0
 40
1.5
  1
Frogmouth Aluminum Cover
  7
ROMANS
100
AcDbText
  0
LINE
  5
16F1
100
AcDbEntity
  8
DIM
100
AcDbLine
 10
515.253552
 20
268.502497
 30
0.0
 11
639.300725
 21
268.502497
 31
0.0
  0
TEXT
  5
1741
100
AcDbEntity
  8
DIM
100
AcDbText
 10
532.38386
 20
141.840905
 30
0.0
 40
2.25
  1
FROGMOUTH ALUMINUM COVER-CFM32X30X25A
  7
ROMANS
100
AcDbText
  0
TEXT
  5
1742
100
AcDbEntity
  8
DIM
100
AcDbText
 10
515.575109
 20
271.007225
 30
0.0
 40
2.25
  1
32" X 30" X 25" RECTANGULAR FIBERGLASS VALVEBOX-FRVB32X30X25
  7
ROMANS
100
AcDbText
  0
LINE
  5
1F41
100
AcDbEntity
  8
OBJECT
100
AcDbLine
 10
593.150059
 20
181.536487
 30
0.0
 11
587.383057
 21
181.536487
 31
0.0
  0
LINE
  5
1F42
100
AcDbEntity
  8
OBJECT
100
AcDbLine
 10
564.390087
 20
204.046459
 30
0.0
 11
587.150059
 21
181.286487
 31
0.0
  0
LINE
  5
1F43
100
AcDbEntity
  8
OBJECT
100
AcDbLine
 10
564.566864
 20
204.223236
 30
0.0
 11
587.326836
 21
181.463264
 31
0.0
  0
LINE
  5
1F44
100
AcDbEntity
  8
OBJECT
100
AcDbLine
 10
564.390087
 20
204.046459
 30
0.0
 11
564.566864
 21
204.223236
 31
0.0
  0
TEXT
  5
1F45
100
AcDbEntity
  8
15
 62
     6
100
AcDbText
 10
593.96837
 20
104.351183
 30
0.0
 40
1.5
  1
C
  7
ROMANS
100
AcDbText
  0
LINE
  5
1F46
100
AcDbEntity
  8
OBJECT
100
AcDbLine
 10
590.873994
 20
86.965067
 30
0.0
 11
590.873994
 21
122.965067
 31
0.0
  0
TEXT
  5
1F47
100
AcDbEntity
  8
15
 62
     6
100
AcDbText
 10
594.479214
 20
103.610184
 30
0.0
 40
1.5
  1
L
  7
ROMANS
100
AcDbText
  0
LINE
  5
1F48
100
AcDbEntity
  8
15
 62
     2
100
AcDbLine
 10
585.123994
 20
116.620222
 30
0.0
 11
584.873994
 21
116.620222
 31
0.0
  0
LINE
  5
1F49
100
AcDbEntity
  8
15
 62
     2
100
AcDbLine
 10
585.123994
 20
116.557722
 30
0.0
 11
584.873994
 21
116.557722
 31
0.0
  0
LINE
  5
1F4A
100
AcDbEntity
  8
15
 62
     2
100
AcDbLine
 10
585.123994
 20
117.373137
 30
0.0
 11
584.873994
 21
117.373137
 31
0.0
  0
LINE
  5
1F4B
100
AcDbEntity
  8
15
 62
     2
100
AcDbLine
 10
585.123994
 20
117.435637
 30
0.0
 11
584.873994
 21
117.435637
 31
0.0
  0
LINE
  5
1F4C
100
AcDbEntity
  8
15
 62
     2
100
AcDbLine
 10
585.123994
 20
115.932722
 30
0.0
 11
584.873994
 21
115.932722
 31
0.0
  0
LINE
  5
1F4D
100
AcDbEntity
  8
15
 62
     2
100
AcDbLine
 10
585.123994
 20
115.870222
 30
0.0
 11
584.873994
 21
115.870222
 31
0.0
  0
LINE
  5
1F4E
100
AcDbEntity
  8
15
 62
     2
100
AcDbLine
 10
585.123994
 20
115.056229
 30
0.0
 11
584.873994
 21
115.056229
 31
0.0
  0
LINE
  5
1F4F
100
AcDbEntity
  8
15
 62
     2
100
AcDbLine
 10
585.123994
 20
115.118729
 30
0.0
 11
584.873994
 21
115.118729
 31
0.0
  0
LINE
  5
1F51
100
AcDbEntity
  8
DIM
 62
     2
100
AcDbLine
 39
20.0
 10
585.123994
 20
118.245933
 30
0.0
 11
585.123994
 21
114.245933
 31
0.0
  0
LINE
  5
1F52
100
AcDbEntity
  8
DIM
 62
     2
100
AcDbLine
 39
20.0
 10
584.873994
 20
118.245933
 30
0.0
 11
584.873994
 21
114.245933
 31
0.0
  0
LINE
  5
1F53
100
AcDbEntity
  8
DIM
 62
     2
100
AcDbLine
 39
20.0
 10
585.123994
 20
114.245933
 30
0.0
 11
584.873994
 21
114.245933
 31
0.0
  0
LINE
  5
1F54
100
AcDbEntity
  8
DIM
 62
     2
100
AcDbLine
 39
20.0
 10
585.123994
 20
118.245933
 30
0.0
 11
584.873994
 21
118.245933
 31
0.0
  0
TEXT
  5
1F64
100
AcDbEntity
  8
15
 62
     6
100
AcDbText
 10
571.011989
 20
78.486235
 30
0.0
 40
1.5
  1
C
  7
ROMANS
100
AcDbText
  0
TEXT
  5
1F65
100
AcDbEntity
  8
15
 62
     6
100
AcDbText
 10
571.522833
 20
77.745236
 30
0.0
 40
1.5
  1
L
  7
ROMANS
100
AcDbText
  0
LINE
  5
1F6A
100
AcDbEntity
  8
OBJECT
100
AcDbLine
 10
552.873994
 20
86.965067
 30
0.0
 11
552.873994
 21
122.965067
 31
0.0
  0
LINE
  5
1F6B
100
AcDbEntity
  8
OBJECT
100
AcDbLine
 10
584.873994
 20
86.965067
 30
0.0
 11
584.873994
 21
122.965067
 31
0.0
  0
LINE
  5
1F6C
100
AcDbEntity
  8
CENTER
100
AcDbLine
 10
571.873994
 20
84.73716
 30
0.0
 11
571.873994
 21
125.192974
 31
0.0
  0
LINE
  5
1F6D
100
AcDbEntity
  8
OBJECT
100
AcDbLine
 10
585.123994
 20
122.965067
 30
0.0
 11
585.123994
 21
86.965067
 31
0.0
  0
LINE
  5
1F6E
100
AcDbEntity
  8
OBJECT
100
AcDbLine
 10
590.873994
 20
122.965067
 30
0.0
 11
552.873994
 21
122.965067
 31
0.0
  0
LINE
  5
1F6F
100
AcDbEntity
  8
OBJECT
100
AcDbLine
 10
590.873994
 20
86.965067
 30
0.0
 11
552.873994
 21
86.965067
 31
0.0
  0
LINE
  5
1F70
100
AcDbEntity
  8
CENTER
100
AcDbLine
 10
593.574147
 20
104.965067
 30
0.0
 11
550.173841
 21
104.965067
 31
0.0
  0
TEXT
  5
1F89
100
AcDbEntity
  8
15
 62
     6
100
AcDbText
 10
573.288073
 20
211.63055
 30
0.0
 40
1.5
  1
C
  7
ROMANS
100
AcDbText
  0
TEXT
  5
1F8A
100
AcDbEntity
  8
15
 62
     6
100
AcDbText
 10
573.798918
 20
210.889551
 30
0.0
 40
1.5
  1
L
  7
ROMANS
100
AcDbText
  0
TEXT
  5
1F8B
100
AcDbEntity
  8
15
 62
     6
100
AcDbText
 10
596.755299
 20
232.776627
 30
0.0
 40
1.5
  1
L
  7
ROMANS
100
AcDbText
  0
TEXT
  5
1F8C
100
AcDbEntity
  8
15
 62
     6
100
AcDbText
 10
596.244454
 20
233.517626
 30
0.0
 40
1.5
  1
C
  7
ROMANS
100
AcDbText
  0
LINE
  5
1F8D
100
AcDbEntity
  8
OBJECT
100
AcDbLine
 10
587.150059
 20
181.286487
 30
0.0
 11
587.326836
 21
181.463264
 31
0.0
  0
LINE
  5
1F8E
100
AcDbEntity
  8
OBJECT
100
AcDbLine
 10
593.150059
 20
181.286487
 30
0.0
 11
593.150059
 21
181.536487
 31
0.0
  0
ARC
  5
1F8F
100
AcDbEntity
  8
OBJECT
100
AcDbCircle
 10
557.775099
 20
180.911487
 30
0.0
 40
0.1875
100
AcDbArc
 50
0.000075
 51
90.0
  0
ARC
  5
1F90
100
AcDbEntity
  8
OBJECT
100
AcDbCircle
 10
557.962599
 20
181.098987
 30
0.0
 40
0.1875
100
AcDbArc
 50
0.000075
 51
90.0
  0
ARC
  5
1F91
100
AcDbEntity
  8
OBJECT
100
AcDbCircle
 10
590.525059
 20
180.911487
 30
0.0
 40
0.1875
100
AcDbArc
 50
90.0
 51
179.999925
  0
ARC
  5
1F92
100
AcDbEntity
  8
OBJECT
100
AcDbCircle
 10
590.337559
 20
181.098987
 30
0.0
 40
0.1875
100
AcDbArc
 50
90.0
 51
179.999925
  0
LINE
  5
1F93
100
AcDbEntity
  8
OBJECT
100
AcDbLine
 10
593.150059
 20
181.286487
 30
0.0
 11
593.150059
 21
181.098987
 31
0.0
  0
ARC
  5
1F94
100
AcDbEntity
  8
OBJECT
100
AcDbCircle
 10
558.462631
 20
156.598987
 30
0.0
 40
0.3125
100
AcDbArc
 50
180.000075
 51
270.0
  0
ARC
  5
1F95
100
AcDbEntity
  8
OBJECT
100
AcDbCircle
 10
558.462631
 20
156.598987
 30
0.0
 40
0.5
100
AcDbArc
 50
180.000075
 51
270.0
  0
ARC
  5
1F96
100
AcDbEntity
  8
OBJECT
100
AcDbCircle
 10
589.837527
 20
156.598987
 30
0.0
 40
0.3125
100
AcDbArc
 50
270.0
 51
359.999925
  0
ARC
  5
1F97
100
AcDbEntity
  8
OBJECT
100
AcDbCircle
 10
589.837527
 20
156.598987
 30
0.0
 40
0.5
100
AcDbArc
 50
270.0
 51
359.999925
  0
LINE
  5
1F98
100
AcDbEntity
  8
OBJECT
100
AcDbLine
 10
593.150079
 20
216.13151
 30
0.0
 11
555.150079
 21
216.13151
 31
0.0
  0
LINE
  5
1F99
100
AcDbEntity
  8
OBJECT
100
AcDbLine
 10
590.150098
 20
219.13151
 30
0.0
 11
558.150059
 21
219.13151
 31
0.0
  0
LINE
  5
1F9A
100
AcDbEntity
  8
OBJECT
100
AcDbLine
 10
593.150079
 20
252.13151
 30
0.0
 11
555.150079
 21
252.13151
 31
0.0
  0
LINE
  5
1F9B
100
AcDbEntity
  8
OBJECT
100
AcDbLine
 10
590.150098
 20
249.13151
 30
0.0
 11
558.150059
 21
249.13151
 31
0.0
  0
LINE
  5
1F9C
100
AcDbEntity
  8
OBJECT
100
AcDbLine
 10
555.150079
 20
216.13151
 30
0.0
 11
555.150079
 21
252.13151
 31
0.0
  0
LINE
  5
1F9D
100
AcDbEntity
  8
OBJECT
100
AcDbLine
 10
558.150098
 20
219.131509
 30
0.0
 11
558.150059
 21
249.13151
 31
0.0
  0
LINE
  5
1F9E
100
AcDbEntity
  8
OBJECT
100
AcDbLine
 10
593.150079
 20
216.13151
 30
0.0
 11
593.150079
 21
252.13151
 31
0.0
  0
LINE
  5
1F9F
100
AcDbEntity
  8
OBJECT
100
AcDbLine
 10
590.150059
 20
219.131509
 30
0.0
 11
590.150098
 21
249.13151
 31
0.0
  0
LINE
  5
1FA0
100
AcDbEntity
  8
CENTER
100
AcDbLine
 10
595.850232
 20
234.13151
 30
0.0
 11
552.449926
 21
234.13151
 31
0.0
  0
LINE
  5
1FA1
100
AcDbEntity
  8
OBJECT
100
AcDbLine
 10
554.962599
 20
181.098987
 30
0.0
 11
554.962599
 21
181.286487
 31
0.0
  0
LINE
  5
1FA2
100
AcDbEntity
  8
OBJECT
100
AcDbLine
 10
557.775099
 20
181.098987
 30
0.0
 11
554.962599
 21
181.098987
 31
0.0
  0
LINE
  5
1FA3
100
AcDbEntity
  8
OBJECT
100
AcDbLine
 10
558.150099
 20
181.098988
 30
0.0
 11
558.150131
 21
156.598987
 31
0.0
  0
LINE
  5
1FA4
100
AcDbEntity
  8
OBJECT
100
AcDbLine
 10
557.962631
 20
156.598987
 30
0.0
 11
557.962599
 21
180.911488
 31
0.0
  0
LINE
  5
1FA5
100
AcDbEntity
  8
OBJECT
100
AcDbLine
 10
589.837527
 20
156.286487
 30
0.0
 11
558.462631
 21
156.286487
 31
0.0
  0
LINE
  5
1FA6
100
AcDbEntity
  8
OBJECT
100
AcDbLine
 10
590.150059
 20
181.098988
 30
0.0
 11
590.150027
 21
156.598987
 31
0.0
  0
LINE
  5
1FA7
100
AcDbEntity
  8
OBJECT
100
AcDbLine
 10
590.525059
 20
181.098987
 30
0.0
 11
593.150059
 21
181.098987
 31
0.0
  0
LINE
  5
1FA8
100
AcDbEntity
  8
OBJECT
100
AcDbLine
 10
590.337527
 20
156.598987
 30
0.0
 11
590.337559
 21
180.911488
 31
0.0
  0
LINE
  5
1FA9
100
AcDbEntity
  8
OBJECT
100
AcDbLine
 10
558.462631
 20
156.098987
 30
0.0
 11
589.837527
 21
156.098987
 31
0.0
  0
LINE
  5
1FAA
100
AcDbEntity
  8
OBJECT
100
AcDbLine
 10
593.150059
 20
181.286487
 30
0.0
 11
558.383233
 21
181.286487
 31
0.0
  0
LINE
  5
1FAB
100
AcDbEntity
  8
CENTER
100
AcDbLine
 10
574.150079
 20
186.679714
 30
0.0
 11
574.150079
 21
154.353878
 31
0.0
  0
LINE
  5
1FAC
100
AcDbEntity
  8
CENTER
100
AcDbLine
 10
574.150079
 20
213.903603
 30
0.0
 11
574.150079
 21
254.359418
 31
0.0
  0
LINE
  5
2DF2
100
AcDbEntity
  8
LIMITS
 62
     7
100
AcDbLine
 10
665.669273
 20
279.850373
 30
0.0
 11
480.43121
 21
279.850373
 31
0.0
  0
LINE
  5
2DF3
100
AcDbEntity
  8
BORDER
 62
     5
100
AcDbLine
 10
659.798335
 20
275.936414
 30
0.0
 11
486.302148
 21
275.936414
 31
0.0
  0
LWPOLYLINE
  5
2DF4
100
AcDbEntity
  8
BORDER
 62
     5
100
AcDbPolyline
 90
        2
 70
     0
 43
0.489245
 10
659.798335
 20
275.936414
 10
486.302148
 20
275.936414
  0
TEXT
  5
2DF5
100
AcDbEntity
  8
BORDER
 62
     6
100
AcDbText
 10
563.718756
 20
62.97357
 30
0.0
 40
1.097562
  1
Scale: None
  7
ROMANC
100
AcDbText
  0
TEXT
  5
2DF6
100
AcDbEntity
  8
BORDER
 62
     6
100
AcDbText
 10
563.718756
 20
57.743319
 30
0.0
 40
1.097562
  1
Appv'd By: .
  7
ROMANC
100
AcDbText
  0
TEXT
  5
2DF7
100
AcDbEntity
  8
BORDER
 62
     6
100
AcDbText
 10
563.718756
 20
55.128193
 30
0.0
 40
1.097562
  1
Date: 06/26/03
  7
ROMANC
100
AcDbText
  0
TEXT
  5
2DF8
100
AcDbEntity
  8
BORDER
 62
     6
100
AcDbText
 10
563.781322
 20
51.140806
 30
0.0
 40
1.097562
  1
Supersedes Prints
  7
ROMANC
100
AcDbText
  0
LINE
  5
2DF9
100
AcDbEntity
  8
BORDER
100
AcDbLine
 10
563.21737
 20
47.4692
 30
0.0
 11
590.814809
 21
47.4692
 31
0.0
  0
LINE
  5
2DFA
100
AcDbEntity
  8
BORDER
100
AcDbLine
 10
563.21737
 20
53.05062
 30
0.0
 11
590.814809
 21
53.05062
 31
0.0
  0
LINE
  5
2DFB
100
AcDbEntity
  8
BORDER
100
AcDbLine
 10
525.930982
 20
47.4692
 30
0.0
 11
583.636386
 21
47.4692
 31
0.0
  0
LINE
  5
2DFC
100
AcDbEntity
  8
BORDER
100
AcDbLine
 10
528.377206
 20
64.59277
 30
0.0
 11
583.636386
 21
64.59277
 31
0.0
  0
LINE
  5
2DFD
100
AcDbEntity
  8
BORDER
100
AcDbLine
 10
525.930982
 20
54.807873
 30
0.0
 11
583.636386
 21
54.807873
 31
0.0
  0
LINE
  5
2DFE
100
AcDbEntity
  8
BORDER
100
AcDbLine
 10
525.930982
 20
53.05062
 30
0.0
 11
583.636386
 21
53.05062
 31
0.0
  0
LINE
  5
2DFF
100
AcDbEntity
  8
LIMITS
 62
     7
100
AcDbLine
 10
480.43121
 20
40.130527
 30
0.0
 11
665.669273
 21
40.130527
 31
0.0
  0
LWPOLYLINE
  5
2E00
100
AcDbEntity
  8
BORDER
 62
     5
100
AcDbPolyline
 90
        2
 70
     0
 43
1.223112
 10
656.862865
 20
45.022975
 10
489.237617
 20
45.022975
  0
LINE
  5
2E01
100
AcDbEntity
  8
BORDER
100
AcDbLine
 10
563.21737
 20
64.59277
 30
0.0
 11
617.723277
 21
64.59277
 31
0.0
  0
LWPOLYLINE
  5
2E02
100
AcDbEntity
  8
BORDER
 62
     5
100
AcDbPolyline
 90
        2
 70
     0
 43
1.223112
 10
528.377206
 20
67.038994
 10
617.723277
 20
67.038994
  0
LINE
  5
2E03
100
AcDbEntity
  8
BORDER
100
AcDbLine
 10
563.21737
 20
54.807873
 30
0.0
 11
620.169501
 21
54.807873
 31
0.0
  0
LWPOLYLINE
  5
2E04
100
AcDbEntity
  8
BORDER
 62
     5
100
AcDbPolyline
 90
        6
 70
     0
 43
0.871709
 10
484.345169
 20
67.972345
 10
484.345169
 20
273.979435
 42
-0.414214
 10
486.302148
 20
275.936414
 10
659.798335
 20
275.936414
 42
-0.414214
 10
661.755314
 20
273.979435
 10
661.755314
 20
67.972345
  0
LINE
  5
2E08
100
AcDbEntity
  8
LIMITS
 62
     7
100
AcDbLine
 10
480.43121
 20
279.850373
 30
0.0
 11
480.43121
 21
40.130527
 31
0.0
  0
LWPOLYLINE
  5
2E09
100
AcDbEntity
  8
BORDER
 62
     5
100
AcDbPolyline
 90
        2
 70
     0
 43
0.489245
 10
484.345169
 20
67.972345
 10
484.345169
 20
273.979435
  0
LINE
  5
2E0A
100
AcDbEntity
  8
BORDER
100
AcDbLine
 10
489.237617
 20
64.59277
 30
0.0
 11
516.146085
 21
64.59277
 31
0.0
  0
LWPOLYLINE
  5
2E0B
100
AcDbEntity
  8
BORDER
 62
     5
100
AcDbPolyline
 90
        2
 70
     0
 43
1.223112
 10
489.237617
 20
67.038994
 10
516.146085
 20
67.038994
  0
LINE
  5
2E0C
100
AcDbEntity
  8
BORDER
100
AcDbLine
 10
489.237617
 20
47.4692
 30
0.0
 11
518.592309
 21
47.4692
 31
0.0
  0
LWPOLYLINE
  5
2E16
100
AcDbEntity
  8
BORDER
 62
     5
100
AcDbPolyline
 90
        2
 70
     0
 43
1.223112
 10
489.237617
 20
67.038994
 42
0.414214
 10
484.345169
 20
62.146545
 42
-0.560527
  0
LWPOLYLINE
  5
2E17
100
AcDbEntity
  8
BORDER
 62
     5
100
AcDbPolyline
 90
        2
 70
     0
 43
1.223112
 10
489.237617
 20
45.022975
 42
-0.414214
 10
484.345169
 20
49.915424
 42
0.560527
  0
LWPOLYLINE
  5
2E18
100
AcDbEntity
  8
BORDER
 62
     5
100
AcDbPolyline
 90
        2
 70
     0
 43
1.223112
 10
484.345169
 20
62.146545
 10
484.345169
 20
49.915424
  0
ARC
  5
2E19
102
{ACAD_REACTORS
330
2E1D
102
}
100
AcDbEntity
  8
BORDER
100
AcDbCircle
 10
498.85276
 20
58.886707
 30
0.0
 40
2.491815
100
AcDbArc
 50
0.076996
 51
90.0
  0
LINE
  5
2E1A
102
{ACAD_REACTORS
330
2E1D
102
}
100
AcDbEntity
  8
BORDER
100
AcDbLine
 10
491.744769
 20
62.015107
 30
0.0
 11
501.605192
 21
62.015107
 31
0.0
  0
LINE
  5
2E1B
100
AcDbEntity
  8
BORDER
100
AcDbLine
 10
490.465887
 20
52.658899
 30
0.0
 11
515.054963
 21
52.658899
 31
0.0
  0
LINE
  5
2E1C
100
AcDbEntity
  8
BORDER
100
AcDbLine
 10
490.465887
 20
52.658899
 30
0.0
 11
515.054963
 21
52.658899
 31
0.0
  0
HATCH
  5
2E1D
100
AcDbEntity
  8
BORDER
100
AcDbHatch
 10
0.0
 20
0.0
 30
0.0
210
0.0
220
0.0
230
1.0
  2
ANSI37
 70
     0
 71
     1
 91
        1
 92
        7
 72
     1
 73
     1
 93
       18
 10
495.5961103950395
 20
54.50725187193069
 42
-0.4142135623730684
 10
494.3476102553205
 20
53.25875173221187
 42
0.0
 10
493.9455354435581
 20
53.25875173221187
 42
0.0
 10
493.9455354435582
 20
52.99833076416328
 42
0.0
 10
499.4044255128256
 20
52.99833076416329
 42
0.0
 10
499.4044255128255
 20
53.25875173221186
 42
0.0
 10
499.0023507010625
 20
53.25875173221187
 42
-0.4142135623730283
 10
497.7538505613438
 20
54.5072518719308
 42
0.0
 10
497.7538505613438
 20
61.37852253127512
 42
0.0
 10
498.8527598429592
 20
61.37852253127512
 42
-0.4138200196737635
 10
501.3445730712082
 20
58.89005561787441
 42
0.0
 10
501.6051921148011
 20
58.89005561787442
 42
0.0
 10
501.6051921148017
 20
62.01510723445209
 42
0.0
 10
491.7447688415821
 20
62.01510723445209
 42
0.0
 10
491.7447688415821
 20
58.89005561787441
 42
0.0
 10
492.0053878851754
 20
58.89005561787441
 42
-0.4138200196737639
 10
494.4972011134244
 20
61.37852253127512
 42
0.0
 10
495.5961103950395
 20
61.37852253127512
 42
0.0
 97
       18
330
2E3C
330
2E19
330
2E56
330
2E59
330
2E1A
330
2E28
330
2E27
330
2E1F
330
2E37
330
2E33
330
2E34
330
2E36
330
2E35
330
2E32
330
2E3A
330
2E3B
330
2E39
330
2E38
 75
     0
 76
     1
 52
0.0
 41
0.037901
 77
     0
 78
     2
 53
45.0
 43
482.868147
 44
-83.830917
 45
-0.0033499708691682
 46
0.0033499708691682
 79
     0
 53
135.0
 43
482.868147
 44
-83.830917
 45
-0.0033499708691682
 46
-0.0033499708691682
 79
     0
 47
0.049862
 98
        1
 10
496.41018
 20
57.80959
  0
ARC
  5
2E1E
100
AcDbEntity
  8
BORDER
100
AcDbCircle
 10
489.237617
 20
62.146545
 30
0.0
 40
2.446224
100
AcDbArc
 50
90.0
 51
180.0
  0
ARC
  5
2E1F
102
{ACAD_REACTORS
330
2E1D
102
}
100
AcDbEntity
  8
BORDER
100
AcDbCircle
 10
494.497201
 20
58.886707
 30
0.0
 40
2.491815
100
AcDbArc
 50
90.0
 51
179.923004
  0
LINE
  5
2E20
100
AcDbEntity
  8
BORDER
100
AcDbLine
 10
493.967235
 20
49.999672
 30
0.0
 11
492.42566
 21
52.011641
 31
0.0
  0
LINE
  5
2E21
100
AcDbEntity
  8
BORDER
100
AcDbLine
 10
486.791393
 20
49.915424
 30
0.0
 11
486.791393
 21
62.146545
 31
0.0
  0
ARC
  5
2E22
100
AcDbEntity
  8
BORDER
100
AcDbCircle
 10
489.237617
 20
49.915424
 30
0.0
 40
2.446224
100
AcDbArc
 50
180.0
 51
270.0
  0
LINE
  5
2E23
100
AcDbEntity
  8
BORDER
100
AcDbLine
 10
491.13278
 20
49.999672
 30
0.0
 11
491.956742
 21
49.999672
 31
0.0
  0
LINE
  5
2E24
100
AcDbEntity
  8
BORDER
100
AcDbLine
 10
491.13278
 20
52.011641
 30
0.0
 11
491.956742
 21
52.011641
 31
0.0
  0
LINE
  5
2E25
100
AcDbEntity
  8
BORDER
100
AcDbLine
 10
491.544761
 20
52.011641
 30
0.0
 11
491.544761
 21
49.999672
 31
0.0
  0
LINE
  5
2E26
100
AcDbEntity
  8
BORDER
100
AcDbLine
 10
492.42566
 20
52.011641
 30
0.0
 11
492.42566
 21
49.999672
 31
0.0
  0
LINE
  5
2E27
102
{ACAD_REACTORS
330
2E1D
102
}
100
AcDbEntity
  8
BORDER
100
AcDbLine
 10
491.744769
 20
58.890056
 30
0.0
 11
492.005386
 21
58.890056
 31
0.0
  0
LINE
  5
2E28
102
{ACAD_REACTORS
330
2E1D
102
}
100
AcDbEntity
  8
BORDER
100
AcDbLine
 10
491.744769
 20
58.890056
 30
0.0
 11
491.744769
 21
62.015107
 31
0.0
  0
SPLINE
  5
2E29
100
AcDbEntity
  8
BORDER
100
AcDbSpline
210
0.0
220
0.0
230
1.0
 70
    11
 71
     3
 72
    24
 73
    20
 74
     0
 42
0.0000001
 43
0.0000001
 40
0.0
 40
0.0
 40
0.0
 40
0.0
 40
0.474866629778075
 40
0.474866629778075
 40
1.277791044886493
 40
1.277791044886493
 40
2.080715459994911
 40
2.080715459994911
 40
2.883639875103329
 40
2.883639875103329
 40
3.686564290211747
 40
3.686564290211747
 40
4.489488705320165
 40
4.489488705320165
 40
5.292413120428583
 40
5.292413120428583
 40
6.095337535537001
 40
6.095337535537001
 40
6.283185307179586
 40
6.283185307179586
 40
6.283185307179586
 40
6.283185307179586
 10
497.4573839065795
 20
52.03892986653661
 30
0.0
 10
497.2943176608922
 20
52.03892986653661
 30
0.0
 10
497.1313887738258
 20
51.99937541016934
 30
0.0
 10
496.7411738780183
 20
51.79812875588753
 30
0.0
 10
496.5508024910095
 20
51.56881870441605
 30
0.0
 10
496.3915667883685
 20
51.03933112636018
 30
0.0
 10
496.4237610912046
 20
50.74270108077849
 30
0.0
 10
496.6928703242472
 20
50.2599815125036
 30
0.0
 10
496.927991960125
 20
50.07713381853133
 30
0.0
 10
497.4611769249919
 20
49.93601744888924
 30
0.0
 10
497.7556483612222
 20
49.97870690419439
 30
0.0
 10
498.2271745756718
 20
50.26545577551882
 30
0.0
 10
498.4010630588335
 20
50.50757457038324
 30
0.0
 10
498.5229344201398
 20
51.04694632325728
 30
0.0
 10
498.4701075064228
 20
51.34058748141733
 30
0.0
 10
498.1679480889204
 20
51.80321831021834
 30
0.0
 10
497.9206310371394
 20
51.96909808518416
 30
0.0
 10
497.5863940751341
 20
52.03283419756467
 30
0.0
 10
497.5218896624311
 20
52.03892986653661
 30
0.0
 10
497.4573839065795
 20
52.03892986653661
 30
0.0
  0
ARC
  5
2E2A
100
AcDbEntity
  8
BORDER
100
AcDbCircle
 10
495.429441
 20
51.021474
 30
0.0
 40
0.990423
100
AcDbArc
 50
44.321228
 51
180.91508
  0
ARC
  5
2E2B
100
AcDbEntity
  8
BORDER
100
AcDbCircle
 10
495.357923
 20
50.921035
 30
0.0
 40
0.922666
100
AcDbArc
 50
174.737783
 51
327.723969
  0
LINE
  5
2E2C
100
AcDbEntity
  8
BORDER
100
AcDbLine
 10
493.967235
 20
52.011641
 30
0.0
 11
493.967235
 21
49.999672
 31
0.0
  0
LINE
  5
2E2D
100
AcDbEntity
  8
BORDER
100
AcDbLine
 10
498.9627
 20
52.011641
 30
0.0
 11
498.9627
 21
49.999672
 31
0.0
  0
LINE
  5
2E2E
100
AcDbEntity
  8
BORDER
100
AcDbLine
 10
498.9627
 20
50.980009
 30
0.0
 11
499.658247
 21
50.980009
 31
0.0
  0
LINE
  5
2E2F
100
AcDbEntity
  8
BORDER
100
AcDbLine
 10
499.658247
 20
52.011641
 30
0.0
 11
498.9627
 21
52.011641
 31
0.0
  0
LINE
  5
2E30
100
AcDbEntity
  8
BORDER
100
AcDbLine
 10
499.513396
 20
50.980009
 30
0.0
 11
500.312148
 21
49.999672
 31
0.0
  0
ARC
  5
2E31
100
AcDbEntity
  8
BORDER
100
AcDbCircle
 10
499.658247
 20
51.495825
 30
0.0
 40
0.515816
100
AcDbArc
 50
270.0
 51
90.0
  0
LINE
  5
2E32
102
{ACAD_REACTORS
330
2E1D
102
}
100
AcDbEntity
  8
BORDER
100
AcDbLine
 10
493.945535
 20
52.998331
 30
0.0
 11
499.404426
 21
52.998331
 31
0.0
  0
LINE
  5
2E33
102
{ACAD_REACTORS
330
2E1D
102
}
100
AcDbEntity
  8
BORDER
100
AcDbLine
 10
495.59611
 20
54.507252
 30
0.0
 11
495.59611
 21
61.378523
 31
0.0
  0
ARC
  5
2E34
102
{ACAD_REACTORS
330
2E1D
102
}
100
AcDbEntity
  8
BORDER
100
AcDbCircle
 10
494.34761
 20
54.507252
 30
0.0
 40
1.2485
100
AcDbArc
 50
270.0
 51
0.0
  0
LINE
  5
2E35
102
{ACAD_REACTORS
330
2E1D
102
}
100
AcDbEntity
  8
BORDER
100
AcDbLine
 10
493.945535
 20
53.258752
 30
0.0
 11
493.945535
 21
52.998331
 31
0.0
  0
LINE
  5
2E36
102
{ACAD_REACTORS
330
2E1D
102
}
100
AcDbEntity
  8
BORDER
100
AcDbLine
 10
493.945535
 20
53.258752
 30
0.0
 11
494.34761
 21
53.258752
 31
0.0
  0
LINE
  5
2E37
102
{ACAD_REACTORS
330
2E1D
102
}
100
AcDbEntity
  8
BORDER
100
AcDbLine
 10
494.497201
 20
61.378523
 30
0.0
 11
495.59611
 21
61.378523
 31
0.0
  0
LINE
  5
2E38
102
{ACAD_REACTORS
330
2E1D
102
}
100
AcDbEntity
  8
BORDER
100
AcDbLine
 10
497.753851
 20
54.507252
 30
0.0
 11
497.753851
 21
61.378523
 31
0.0
  0
ARC
  5
2E39
102
{ACAD_REACTORS
330
2E1D
102
}
100
AcDbEntity
  8
BORDER
100
AcDbCircle
 10
499.002351
 20
54.507252
 30
0.0
 40
1.2485
100
AcDbArc
 50
180.0
 51
270.0
  0
LINE
  5
2E3A
102
{ACAD_REACTORS
330
2E1D
102
}
100
AcDbEntity
  8
BORDER
100
AcDbLine
 10
499.404426
 20
53.258752
 30
0.0
 11
499.404426
 21
52.998331
 31
0.0
  0
LINE
  5
2E3B
102
{ACAD_REACTORS
330
2E1D
102
}
100
AcDbEntity
  8
BORDER
100
AcDbLine
 10
499.404426
 20
53.258752
 30
0.0
 11
499.002351
 21
53.258752
 31
0.0
  0
LINE
  5
2E3C
102
{ACAD_REACTORS
330
2E1D
102
}
100
AcDbEntity
  8
BORDER
100
AcDbLine
 10
498.85276
 20
61.378523
 30
0.0
 11
497.753851
 21
61.378523
 31
0.0
  0
ARC
  5
2E3D
100
AcDbEntity
  8
BORDER
100
AcDbCircle
 10
507.996856
 20
60.603102
 30
0.0
 40
0.45555
100
AcDbArc
 50
25.379638
 51
143.047804
  0
ARC
  5
2E3E
100
AcDbEntity
  8
BORDER
100
AcDbCircle
 10
508.055978
 20
60.054092
 30
0.0
 40
0.464994
100
AcDbArc
 50
200.502447
 51
334.026213
  0
ARC
  5
2E3F
100
AcDbEntity
  8
BORDER
100
AcDbCircle
 10
514.474425
 20
70.795466
 30
0.0
 40
12.277577
100
AcDbArc
 50
236.383068
 51
240.315223
  0
LINE
  5
2E40
100
AcDbEntity
  8
BORDER
100
AcDbLine
 10
501.940306
 20
58.911792
 30
0.0
 11
514.476409
 21
58.911792
 31
0.0
  0
LINE
  5
2E41
100
AcDbEntity
  8
BORDER
100
AcDbLine
 10
508.499419
 20
49.999672
 30
0.0
 11
507.701477
 21
52.011641
 31
0.0
  0
LINE
  5
2E42
100
AcDbEntity
  8
BORDER
100
AcDbLine
 10
507.211847
 20
50.733285
 30
0.0
 11
508.20847
 21
50.733285
 31
0.0
  0
LWPOLYLINE
  5
2E43
102
{ACAD_REACTORS
330
2E45
102
}
100
AcDbEntity
  8
BORDER
100
AcDbPolyline
 90
        3
 70
     1
 43
0.0
 10
507.806453
 20
55.71472
 42
0.543923
 10
509.425412
 20
56.776749
 42
0.528743
 10
507.806453
 20
57.912871
  0
LWPOLYLINE
  5
2E44
102
{ACAD_REACTORS
330
2E45
102
}
100
AcDbEntity
  8
BORDER
100
AcDbPolyline
 90
       17
 70
     0
 43
0.0
 10
508.708622
 20
55.405991
 42
-0.060912
 10
507.806453
 20
55.517133
 10
507.806453
 20
53.71086
 42
0.414214
 10
508.321823
 20
53.195491
 10
508.56032
 20
53.195491
 10
508.56032
 20
53.05965
 10
506.323437
 20
53.05965
 10
506.323437
 20
53.195491
 10
506.561935
 20
53.195491
 42
0.414214
 10
507.077304
 20
53.71086
 10
507.077304
 20
57.640729
 42
0.414214
 10
506.561935
 20
58.156098
 10
506.327313
 20
58.156098
 10
506.327313
 20
58.29994
 10
508.723193
 20
58.29994
 42
-0.395102
 10
510.302864
 20
56.838494
 42
-0.42915
 10
508.708622
 20
55.405991
  0
HATCH
  5
2E45
100
AcDbEntity
  8
BORDER
100
AcDbHatch
 10
0.0
 20
0.0
 30
0.0
210
0.0
220
0.0
230
1.0
  2
ANSI37
 70
     0
 71
     1
 91
        2
 92
        7
 72
     1
 73
     1
 93
       16
 10
507.0773040900826
 20
53.71086036654213
 42
-0.4142135623730741
 10
506.5619348463617
 20
53.1954911228212
 42
0.0
 10
506.3234374283813
 20
53.19549112282121
 42
0.0
 10
506.3234374283811
 20
53.05965003504316
 42
0.0
 10
508.5603199327636
 20
53.05965003504316
 42
0.0
 10
508.5603199327637
 20
53.19549112282121
 42
0.0
 10
508.3218225147832
 20
53.1954911228212
 42
-0.4142135623730749
 10
507.8064532710623
 20
53.71086036654208
 42
0.0
 10
507.8064532710623
 20
55.51713341274255
 42
0.0609117558023567
 10
508.7086215170318
 20
55.40599126721379
 42
0.4291497434370737
 10
510.302863547913
 20
56.83849432984743
 42
0.3951020987304174
 10
508.7231929504267
 20
58.29994004707396
 42
0.0
 10
506.3273125287467
 20
58.29994004707395
 42
0.0
 10
506.3273125287468
 20
58.15609790076266
 42
0.0
 10
506.5619348463616
 20
58.15609790076265
 42
-0.414213562373103
 10
507.0773040900826
 20
57.64072865704171
 42
0.0
 97
        1
330
2E44
 92
       22
 72
     1
 73
     1
 93
        3
 10
507.8064532710623
 20
57.91287122325014
 42
-0.5287425889465087
 10
509.4254119576498
 20
56.77674852152124
 42
-0.5439228899219494
 10
507.8064532710623
 20
55.71472030884648
 42
0.0
 97
        1
330
2E43
 75
     0
 76
     1
 52
0.0
 41
0.037901
 77
     0
 78
     2
 53
45.0
 43
482.868147
 44
-83.830917
 45
-0.0033499708691682
 46
0.0033499708691682
 79
     0
 53
135.0
 43
482.868147
 44
-83.830917
 45
-0.0033499708691682
 46
-0.0033499708691682
 79
     0
 47
0.027301
 98
        2
 10
507.36995
 20
56.965802
 10
507.36995
 20
56.965802
  0
SPLINE
  5
2E46
100
AcDbEntity
  8
BORDER
100
AcDbSpline
210
0.0
220
0.0
230
1.0
 70
    11
 71
     3
 72
    24
 73
    20
 74
     0
 42
0.0000001
 43
0.0000001
 40
0.0
 40
0.0
 40
0.0
 40
0.0
 40
0.474866629778075
 40
0.474866629778075
 40
1.277791044886493
 40
1.277791044886493
 40
2.080715459994911
 40
2.080715459994911
 40
2.883639875103329
 40
2.883639875103329
 40
3.686564290211747
 40
3.686564290211747
 40
4.489488705320165
 40
4.489488705320165
 40
5.292413120428583
 40
5.292413120428583
 40
6.095337535537001
 40
6.095337535537001
 40
6.283185307179586
 40
6.283185307179586
 40
6.283185307179586
 40
6.283185307179586
 10
503.4439023450636
 20
52.03892986653661
 30
0.0
 10
503.2808360993757
 20
52.03892986653661
 30
0.0
 10
503.1179072123094
 20
51.99937541016934
 30
0.0
 10
502.7276923165017
 20
51.79812875588753
 30
0.0
 10
502.5373209294933
 20
51.56881870441605
 30
0.0
 10
502.3780852268525
 20
51.03933112636018
 30
0.0
 10
502.4102795296887
 20
50.74270108077849
 30
0.0
 10
502.6793887627308
 20
50.2599815125036
 30
0.0
 10
502.9145103986086
 20
50.07713381853133
 30
0.0
 10
503.4476953634756
 20
49.93601744888924
 30
0.0
 10
503.7421667997057
 20
49.97870690419439
 30
0.0
 10
504.213693014155
 20
50.26545577551882
 30
0.0
 10
504.387581497317
 20
50.50757457038324
 30
0.0
 10
504.509452858624
 20
51.04694632325728
 30
0.0
 10
504.4566259449068
 20
51.34058748141733
 30
0.0
 10
504.1544665274045
 20
51.80321831021834
 30
0.0
 10
503.9071494756231
 20
51.96909808518416
 30
0.0
 10
503.5729125136177
 20
52.03283419756467
 30
0.0
 10
503.5084081009153
 20
52.03892986653661
 30
0.0
 10
503.4439023450636
 20
52.03892986653661
 30
0.0
  0
ARC
  5
2E47
100
AcDbEntity
  8
BORDER
100
AcDbCircle
 10
501.61029
 20
51.495825
 30
0.0
 40
0.515816
100
AcDbArc
 50
270.0
 51
90.0
  0
LINE
  5
2E48
100
AcDbEntity
  8
BORDER
100
AcDbLine
 10
501.088094
 20
52.011641
 30
0.0
 11
501.088094
 21
49.999672
 31
0.0
  0
LINE
  5
2E49
100
AcDbEntity
  8
BORDER
100
AcDbLine
 10
501.088094
 20
50.980009
 30
0.0
 11
501.61029
 21
50.980009
 31
0.0
  0
LINE
  5
2E4A
100
AcDbEntity
  8
BORDER
100
AcDbLine
 10
501.61029
 20
52.011641
 30
0.0
 11
501.088094
 21
52.011641
 31
0.0
  0
LINE
  5
2E4B
100
AcDbEntity
  8
BORDER
100
AcDbLine
 10
505.579899
 20
50.980009
 30
0.0
 11
506.378651
 21
49.999672
 31
0.0
  0
ARC
  5
2E4C
100
AcDbEntity
  8
BORDER
100
AcDbCircle
 10
505.72475
 20
51.495825
 30
0.0
 40
0.515816
100
AcDbArc
 50
270.0
 51
90.0
  0
LINE
  5
2E4D
100
AcDbEntity
  8
BORDER
100
AcDbLine
 10
505.029204
 20
52.011641
 30
0.0
 11
505.029204
 21
49.999672
 31
0.0
  0
LINE
  5
2E4E
100
AcDbEntity
  8
BORDER
100
AcDbLine
 10
505.72475
 20
52.011641
 30
0.0
 11
505.029204
 21
52.011641
 31
0.0
  0
LINE
  5
2E4F
100
AcDbEntity
  8
BORDER
100
AcDbLine
 10
505.029204
 20
50.980009
 30
0.0
 11
505.72475
 21
50.980009
 31
0.0
  0
LINE
  5
2E50
100
AcDbEntity
  8
BORDER
100
AcDbLine
 10
507.701477
 20
52.011641
 30
0.0
 11
506.930862
 21
49.999672
 31
0.0
  0
ELLIPSE
  5
2E51
102
{ACAD_REACTORS
330
2E53
102
}
100
AcDbEntity
  8
BORDER
100
AcDbEllipse
 10
503.332127
 20
55.682978
 30
0.0
 11
0.0000000000000184
 21
2.452168679854462
 31
0.0
210
0.0
220
0.0
230
1.0
 40
0.683214
 41
0.0
 42
6.283185307179586
  0
ELLIPSE
  5
2E52
102
{ACAD_REACTORS
330
2E53
102
}
100
AcDbEntity
  8
BORDER
100
AcDbEllipse
 10
503.332127
 20
55.667409
 30
0.0
 11
0.0000000000000184
 21
2.732416418459644
 31
0.0
210
0.0
220
0.0
230
1.0
 40
0.93822
 41
0.0
 42
6.283185307179586
  0
HATCH
  5
2E53
100
AcDbEntity
  8
BORDER
100
AcDbHatch
 10
0.0
 20
0.0
 30
0.0
210
0.0
220
0.0
230
1.0
  2
ANSI37
 70
     0
 71
     1
 91
        2
 92
        5
 93
        1
 72
     3
 10
503.332127
 20
55.667409
 11
0.0
 21
2.732416
 40
0.93822
 50
0.0
 51
360.0
 73
     1
 97
        1
330
2E52
 92
       20
 93
        1
 72
     3
 10
503.332127
 20
55.682978
 11
0.0
 21
2.452169
 40
0.683214
 50
0.0
 51
360.0
 73
     1
 97
        1
330
2E51
 75
     0
 76
     1
 52
0.0
 41
0.037901
 77
     0
 78
     2
 53
45.0
 43
482.868147
 44
-83.830917
 45
-0.0033499708691682
 46
0.0033499708691682
 79
     0
 53
135.0
 43
482.868147
 44
-83.830917
 45
-0.0033499708691682
 46
-0.0033499708691682
 79
     0
 47
0.027301
 98
        2
 10
501.488319
 20
56.77955
 10
501.488319
 20
56.77955
  0
LINE
  5
2E54
100
AcDbEntity
  8
BORDER
100
AcDbLine
 10
502.061681
 20
59.588364
 30
0.0
 11
502.513864
 21
59.588364
 31
0.0
  0
LINE
  5
2E55
100
AcDbEntity
  8
BORDER
100
AcDbLine
 10
502.287772
 20
61.057023
 30
0.0
 11
502.513864
 21
61.057023
 31
0.0
  0
LINE
  5
2E56
102
{ACAD_REACTORS
330
2E1D
102
}
100
AcDbEntity
  8
BORDER
100
AcDbLine
 10
501.605192
 20
58.890056
 30
0.0
 11
501.344575
 21
58.890056
 31
0.0
  0
LINE
  5
2E57
100
AcDbEntity
  8
BORDER
100
AcDbLine
 10
502.287772
 20
61.057023
 30
0.0
 11
502.287772
 21
59.588364
 31
0.0
  0
LINE
  5
2E58
100
AcDbEntity
  8
BORDER
100
AcDbLine
 10
502.061681
 20
61.057023
 30
0.0
 11
502.287772
 21
61.057023
 31
0.0
  0
LINE
  5
2E59
102
{ACAD_REACTORS
330
2E1D
102
}
100
AcDbEntity
  8
BORDER
100
AcDbLine
 10
501.605192
 20
58.890056
 30
0.0
 11
501.605192
 21
62.015107
 31
0.0
  0
LINE
  5
2E5A
100
AcDbEntity
  8
BORDER
100
AcDbLine
 10
503.958875
 20
61.057023
 30
0.0
 11
503.958875
 21
59.588364
 31
0.0
  0
LINE
  5
2E5B
100
AcDbEntity
  8
BORDER
100
AcDbLine
 10
502.952187
 20
61.087728
 30
0.0
 11
502.952187
 21
59.588364
 31
0.0
  0
LINE
  5
2E5C
100
AcDbEntity
  8
BORDER
100
AcDbLine
 10
503.958875
 20
59.588364
 30
0.0
 11
502.952187
 21
61.087728
 31
0.0
  0
LINE
  5
2E5D
100
AcDbEntity
  8
BORDER
100
AcDbLine
 10
504.583022
 20
59.588364
 30
0.0
 11
504.895649
 21
59.588364
 31
0.0
  0
LINE
  5
2E5E
100
AcDbEntity
  8
BORDER
100
AcDbLine
 10
504.895649
 20
61.057023
 30
0.0
 11
504.583022
 21
61.057023
 31
0.0
  0
LINE
  5
2E5F
100
AcDbEntity
  8
BORDER
100
AcDbLine
 10
504.583022
 20
61.057023
 30
0.0
 11
504.583022
 21
59.588364
 31
0.0
  0
ARC
  5
2E60
100
AcDbEntity
  8
BORDER
100
AcDbCircle
 10
504.895649
 20
60.322693
 30
0.0
 40
0.73433
100
AcDbArc
 50
270.0
 51
90.0
  0
ARC
  5
2E61
100
AcDbEntity
  8
BORDER
100
AcDbCircle
 10
507.791916
 20
60.743928
 30
0.0
 40
0.207392
100
AcDbArc
 50
140.101426
 51
236.383068
  0
LINE
  5
2E62
100
AcDbEntity
  8
BORDER
100
AcDbLine
 10
507.140012
 20
61.057023
 30
0.0
 11
507.140012
 21
60.081641
 31
0.0
  0
LINE
  5
2E63
100
AcDbEntity
  8
BORDER
100
AcDbLine
 10
506.153457
 20
60.081641
 30
0.0
 11
506.153457
 21
61.057023
 31
0.0
  0
ARC
  5
2E64
100
AcDbEntity
  8
BORDER
100
AcDbCircle
 10
506.646734
 20
60.081641
 30
0.0
 40
0.493278
100
AcDbArc
 50
180.0
 51
0.0
  0
LINE
  5
2E65
100
AcDbEntity
  8
BORDER
100
AcDbLine
 10
511.058186
 20
51.005657
 30
0.0
 11
511.921413
 21
51.005657
 31
0.0
  0
LINE
  5
2E66
100
AcDbEntity
  8
BORDER
100
AcDbLine
 10
512.35625
 20
49.999672
 30
0.0
 11
511.058186
 21
49.999672
 31
0.0
  0
LINE
  5
2E67
100
AcDbEntity
  8
BORDER
100
AcDbLine
 10
511.058186
 20
52.011641
 30
0.0
 11
512.35625
 21
52.011641
 31
0.0
  0
LINE
  5
2E68
100
AcDbEntity
  8
BORDER
100
AcDbLine
 10
508.908594
 20
52.011641
 30
0.0
 11
510.613443
 21
52.011641
 31
0.0
  0
LINE
  5
2E69
100
AcDbEntity
  8
BORDER
100
AcDbLine
 10
511.058186
 20
49.999672
 30
0.0
 11
511.058186
 21
52.011641
 31
0.0
  0
LINE
  5
2E6A
100
AcDbEntity
  8
BORDER
100
AcDbLine
 10
509.761018
 20
52.011641
 30
0.0
 11
509.761018
 21
49.999672
 31
0.0
  0
LINE
  5
2E6B
100
AcDbEntity
  8
BORDER
100
AcDbLine
 10
513.676308
 20
52.011641
 30
0.0
 11
512.916961
 21
52.011641
 31
0.0
  0
LINE
  5
2E6C
100
AcDbEntity
  8
BORDER
100
AcDbLine
 10
512.916961
 20
49.999672
 30
0.0
 11
513.676308
 21
49.999672
 31
0.0
  0
LINE
  5
2E6D
100
AcDbEntity
  8
BORDER
100
AcDbLine
 10
512.916961
 20
52.011641
 30
0.0
 11
512.916961
 21
49.999672
 31
0.0
  0
ARC
  5
2E6E
100
AcDbEntity
  8
BORDER
100
AcDbCircle
 10
513.676308
 20
51.005657
 30
0.0
 40
1.005985
100
AcDbArc
 50
270.0
 51
90.0
  0
ARC
  5
2E6F
102
{ACAD_REACTORS
330
2E73
102
}
100
AcDbEntity
  8
BORDER
100
AcDbCircle
 10
510.962006
 20
57.620876
 30
0.0
 40
0.515369
100
AcDbArc
 50
0.0
 51
90.0
  0
LINE
  5
2E70
102
{ACAD_REACTORS
330
2E73
102
}
100
AcDbEntity
  8
BORDER
100
AcDbLine
 10
510.727384
 20
58.280088
 30
0.0
 11
513.142192
 21
58.280088
 31
0.0
  0
LINE
  5
2E71
102
{ACAD_REACTORS
330
2E73
102
}
100
AcDbEntity
  8
BORDER
100
AcDbLine
 10
510.723509
 20
53.039798
 30
0.0
 11
512.960391
 21
53.039798
 31
0.0
  0
ARC
  5
2E72
102
{ACAD_REACTORS
330
2E73
102
}
100
AcDbEntity
  8
BORDER
100
AcDbCircle
 10
510.962006
 20
53.691008
 30
0.0
 40
0.515369
100
AcDbArc
 50
270.0
 51
360.0
  0
HATCH
  5
2E73
100
AcDbEntity
  8
BORDER
100
AcDbHatch
 10
0.0
 20
0.0
 30
0.0
210
0.0
220
0.0
230
1.0
  2
ANSI37
 70
     0
 71
     1
 91
        2
 92
        7
 72
     1
 73
     1
 93
       16
 10
511.477375365602
 20
53.69100806562963
 42
-0.4142135623729124
 10
510.9620061218808
 20
53.17563882190876
 42
0.0
 10
510.7235087039005
 20
53.17563882190876
 42
0.0
 10
510.7235087039005
 20
53.03979773413175
 42
0.0
 10
512.9603912082822
 20
53.03979773413175
 42
0.0
 10
512.9603912082822
 20
53.17563882190875
 42
0.0
 10
512.721893790303
 20
53.17563882190876
 42
-0.4142135623735596
 10
512.206524546581
 20
53.69100806562997
 42
0.0
 10
512.206524546581
 20
55.49728111183098
 42
0.0609117558027525
 10
513.1086927925564
 20
55.38613896630221
 42
0.4291497434355222
 10
514.7029348234324
 20
56.81864202893334
 42
0.3916311771492478
 10
513.1421917133833
 20
58.28008774616254
 42
0.0
 10
510.7273838042661
 20
58.28008774616254
 42
0.0
 10
510.727383804266
 20
58.1362455998502
 42
0.0
 10
510.962006121881
 20
58.1362455998502
 42
-0.4142135623729981
 10
511.477375365602
 20
57.62087635612902
 42
0.0
 97
       16
330
2E83
330
2E70
330
2E7D
330
2E7C
330
2E6F
330
2E76
330
2E72
330
2E74
330
2E75
330
2E71
330
2E88
330
2E89
330
2E8A
330
2E86
330
2E87
330
2E84
 92
       22
 72
     1
 73
     1
 93
        3
 10
512.206524546581
 20
57.89301892233899
 42
-0.5287425889412538
 10
513.8254832331689
 20
56.75689622062971
 42
-0.5439228899279119
 10
512.206524546581
 20
55.69486800793429
 42
0.0
 97
        3
330
2E82
330
2E85
330
2E81
 75
     0
 76
     1
 52
0.0
 41
0.037901
 77
     0
 78
     2
 53
45.0
 43
482.868147
 44
-83.830917
 45
-0.0033499708691682
 46
0.0033499708691682
 79
     0
 53
135.0
 43
482.868147
 44
-83.830917
 45
-0.0033499708691682
 46
-0.0033499708691682
 79
     0
 47
0.027301
 98
        2
 10
511.781173
 20
56.510521
 10
511.781173
 20
56.510521
  0
LINE
  5
2E74
102
{ACAD_REACTORS
330
2E73
102
}
100
AcDbEntity
  8
BORDER
100
AcDbLine
 10
510.723509
 20
53.175639
 30
0.0
 11
510.962006
 21
53.175639
 31
0.0
  0
LINE
  5
2E75
102
{ACAD_REACTORS
330
2E73
102
}
100
AcDbEntity
  8
BORDER
100
AcDbLine
 10
510.723509
 20
53.175639
 30
0.0
 11
510.723509
 21
53.039798
 31
0.0
  0
LINE
  5
2E76
102
{ACAD_REACTORS
330
2E73
102
}
100
AcDbEntity
  8
BORDER
100
AcDbLine
 10
511.477375
 20
53.691008
 30
0.0
 11
511.477375
 21
57.620876
 31
0.0
  0
LINE
  5
2E77
100
AcDbEntity
  8
BORDER
100
AcDbLine
 10
508.735028
 20
61.057023
 30
0.0
 11
509.941769
 21
61.057023
 31
0.0
  0
LINE
  5
2E78
100
AcDbEntity
  8
BORDER
100
AcDbLine
 10
509.338398
 20
61.057023
 30
0.0
 11
509.338398
 21
59.588364
 31
0.0
  0
ARC
  5
2E79
100
AcDbEntity
  8
BORDER
100
AcDbCircle
 10
508.291521
 20
59.948986
 30
0.0
 40
0.207392
100
AcDbArc
 50
331.630608
 51
60.315223
  0
LINE
  5
2E7A
100
AcDbEntity
  8
BORDER
100
AcDbLine
 10
510.685316
 20
60.315616
 30
0.0
 11
511.151108
 21
59.588364
 31
0.0
  0
ARC
  5
2E7B
100
AcDbEntity
  8
BORDER
100
AcDbCircle
 10
510.787719
 20
60.68632
 30
0.0
 40
0.370703
100
AcDbArc
 50
270.0
 51
90.0
  0
LINE
  5
2E7C
102
{ACAD_REACTORS
330
2E73
102
}
100
AcDbEntity
  8
BORDER
100
AcDbLine
 10
510.727384
 20
58.136246
 30
0.0
 11
510.962006
 21
58.136246
 31
0.0
  0
LINE
  5
2E7D
102
{ACAD_REACTORS
330
2E73
102
}
100
AcDbEntity
  8
BORDER
100
AcDbLine
 10
510.727384
 20
58.280088
 30
0.0
 11
510.727384
 21
58.136246
 31
0.0
  0
LINE
  5
2E7E
100
AcDbEntity
  8
BORDER
100
AcDbLine
 10
510.253509
 20
61.057023
 30
0.0
 11
510.253509
 21
59.588364
 31
0.0
  0
LINE
  5
2E7F
100
AcDbEntity
  8
BORDER
100
AcDbLine
 10
510.253509
 20
60.315616
 30
0.0
 11
510.787719
 21
60.315616
 31
0.0
  0
LINE
  5
2E80
100
AcDbEntity
  8
BORDER
100
AcDbLine
 10
510.787719
 20
61.057023
 30
0.0
 11
510.253509
 21
61.057023
 31
0.0
  0
LINE
  5
2E81
102
{ACAD_REACTORS
330
2E73
102
}
100
AcDbEntity
  8
BORDER
100
AcDbLine
 10
512.206525
 20
57.893019
 30
0.0
 11
512.206525
 21
55.694868
 31
0.0
  0
ARC
  5
2E82
102
{ACAD_REACTORS
330
2E73
102
}
100
AcDbEntity
  8
BORDER
100
AcDbCircle
 10
512.629002
 20
56.773485
 30
0.0
 40
1.196597
100
AcDbArc
 50
359.205673
 51
110.674935
  0
ARC
  5
2E83
102
{ACAD_REACTORS
330
2E73
102
}
100
AcDbEntity
  8
BORDER
100
AcDbCircle
 10
513.132728
 20
56.705865
 30
0.0
 40
1.574252
100
AcDbArc
 50
4.10812
 51
90.34444
  0
ARC
  5
2E84
102
{ACAD_REACTORS
330
2E73
102
}
100
AcDbEntity
  8
BORDER
100
AcDbCircle
 10
513.225003
 20
56.86007
 30
0.0
 40
1.478513
100
AcDbArc
 50
265.488062
 51
358.394374
  0
ARC
  5
2E85
102
{ACAD_REACTORS
330
2E73
102
}
100
AcDbEntity
  8
BORDER
100
AcDbCircle
 10
512.672286
 20
56.749847
 30
0.0
 40
1.153219
100
AcDbArc
 50
246.179097
 51
0.350223
  0
LINE
  5
2E86
102
{ACAD_REACTORS
330
2E73
102
}
100
AcDbEntity
  8
BORDER
100
AcDbLine
 10
512.206525
 20
55.497281
 30
0.0
 11
512.206525
 21
53.691008
 31
0.0
  0
ARC
  5
2E87
102
{ACAD_REACTORS
330
2E73
102
}
100
AcDbEntity
  8
BORDER
100
AcDbCircle
 10
513.112077
 20
59.130739
 30
0.0
 40
3.744602
100
AcDbArc
 50
256.005504
 51
269.948223
  0
LINE
  5
2E88
102
{ACAD_REACTORS
330
2E73
102
}
100
AcDbEntity
  8
BORDER
100
AcDbLine
 10
512.960391
 20
53.175639
 30
0.0
 11
512.960391
 21
53.039798
 31
0.0
  0
LINE
  5
2E89
102
{ACAD_REACTORS
330
2E73
102
}
100
AcDbEntity
  8
BORDER
100
AcDbLine
 10
512.721894
 20
53.175639
 30
0.0
 11
512.960391
 21
53.175639
 31
0.0
  0
ARC
  5
2E8A
102
{ACAD_REACTORS
330
2E73
102
}
100
AcDbEntity
  8
BORDER
100
AcDbCircle
 10
512.721894
 20
53.691008
 30
0.0
 40
0.515369
100
AcDbArc
 50
180.0
 51
270.0
  0
LINE
  5
2E8B
100
AcDbEntity
  8
BORDER
100
AcDbLine
 10
513.400849
 20
59.588364
 30
0.0
 11
512.516802
 21
59.588364
 31
0.0
  0
LINE
  5
2E8C
100
AcDbEntity
  8
BORDER
100
AcDbLine
 10
512.516802
 20
61.057023
 30
0.0
 11
513.400849
 21
61.057023
 31
0.0
  0
LINE
  5
2E8D
100
AcDbEntity
  8
BORDER
100
AcDbLine
 10
512.516802
 20
59.588364
 30
0.0
 11
512.516802
 21
61.057023
 31
0.0
  0
LINE
  5
2E8E
100
AcDbEntity
  8
BORDER
100
AcDbLine
 10
511.836129
 20
61.057023
 30
0.0
 11
511.836129
 21
59.588364
 31
0.0
  0
LINE
  5
2E8F
100
AcDbEntity
  8
BORDER
100
AcDbLine
 10
511.610037
 20
59.588364
 30
0.0
 11
512.06222
 21
59.588364
 31
0.0
  0
LINE
  5
2E90
100
AcDbEntity
  8
BORDER
100
AcDbLine
 10
511.610037
 20
61.057023
 30
0.0
 11
512.06222
 21
61.057023
 31
0.0
  0
LINE
  5
2E91
100
AcDbEntity
  8
BORDER
100
AcDbLine
 10
512.516802
 20
60.322693
 30
0.0
 11
513.208087
 21
60.322693
 31
0.0
  0
ARC
  5
2E92
100
AcDbEntity
  8
BORDER
100
AcDbCircle
 10
514.165047
 20
60.054092
 30
0.0
 40
0.464994
100
AcDbArc
 50
200.502447
 51
334.026213
  0
ARC
  5
2E93
100
AcDbEntity
  8
BORDER
100
AcDbCircle
 10
514.105925
 20
60.603102
 30
0.0
 40
0.45555
100
AcDbArc
 50
25.379638
 51
143.047804
  0
ARC
  5
2E94
100
AcDbEntity
  8
BORDER
100
AcDbCircle
 10
514.400589
 20
59.948986
 30
0.0
 40
0.207392
100
AcDbArc
 50
331.630608
 51
60.315223
  0
ARC
  5
2E95
100
AcDbEntity
  8
BORDER
100
AcDbCircle
 10
520.583494
 20
70.795466
 30
0.0
 40
12.277577
100
AcDbArc
 50
236.383068
 51
240.315223
  0
ARC
  5
2E96
100
AcDbEntity
  8
BORDER
100
AcDbCircle
 10
513.900985
 20
60.743928
 30
0.0
 40
0.207392
100
AcDbArc
 50
140.101426
 51
236.383068
  0
TEXT
  5
2EB9
100
AcDbEntity
  8
BORDER
 62
     6
100
AcDbText
 10
543.616759
 20
55.685557
 30
0.0
 40
1.097562
  1
CFM32x30x25A
  7
ROMANC
100
AcDbText
  0
TEXT
  5
2EBA
100
AcDbEntity
  8
BORDER
 62
     6
100
AcDbText
 10
536.073825
 20
49.751875
 30
0.0
 40
0.932928
  1
Rochester, IN  46975
  7
ROMANC
100
AcDbText
  0
TEXT
  5
2EBB
100
AcDbEntity
  8
BORDER
 62
     6
100
AcDbText
 10
532.056374
 20
51.40867
 30
0.0
 40
0.932928
  1
Highway 25 North P.O. Box 420
  7
ROMANC
100
AcDbText
  0
TEXT
  5
2EBC
100
AcDbEntity
  8
BORDER
 62
     6
100
AcDbText
 10
527.187166
 20
62.504152
 30
0.0
 40
0.946648
  1
32"x30"x25" Rectangular Fiberglass Valvebox
  7
ROMANC
100
AcDbText
  0
LINE
  5
2EBD
100
AcDbEntity
  8
BORDER
100
AcDbLine
 10
525.930982
 20
58.943491
 30
0.0
 11
563.21737
 21
58.943491
 31
0.0
  0
TEXT
  5
2EBE
100
AcDbEntity
  8
BORDER
 62
     6
100
AcDbText
 10
527.650728
 20
47.875566
 30
0.0
 40
0.932928
  1
Phone: 800/354-4534  Fax: 574/223-6106
  7
ROMANC
100
AcDbText
  0
TEXT
  5
2EBF
100
AcDbEntity
  8
BORDER
 62
     6
100
AcDbText
 10
526.285433
 20
57.313817
 30
0.0
 40
1.097562
  1
Reference:
  7
ROMANC
100
AcDbText
  0
ARC
  5
2EC0
100
AcDbEntity
  8
BORDER
100
AcDbCircle
 10
516.146085
 20
62.146545
 30
0.0
 40
2.446224
100
AcDbArc
 50
0.0
 51
90.0
  0
LWPOLYLINE
  5
2EC1
100
AcDbEntity
  8
BORDER
 62
     5
100
AcDbPolyline
 90
        2
 70
     0
 43
1.223112
 10
516.146085
 20
67.038994
 42
-0.414214
 10
521.038533
 20
62.146545
 42
0.560527
  0
LWPOLYLINE
  5
2EC2
100
AcDbEntity
  8
BORDER
 62
     5
100
AcDbPolyline
 90
        2
 70
     0
 43
1.223112
 10
528.377206
 20
67.038994
 42
0.414214
 10
523.484758
 20
62.146545
 42
-0.560527
  0
ARC
  5
2EC3
100
AcDbEntity
  8
BORDER
100
AcDbCircle
 10
528.377206
 20
62.146545
 30
0.0
 40
2.446224
100
AcDbArc
 50
90.0
 51
180.0
  0
LWPOLYLINE
  5
2EC4
100
AcDbEntity
  8
BORDER
 62
     5
100
AcDbPolyline
 90
        2
 70
     0
 43
1.223112
 10
521.038533
 20
47.4692
 10
521.038533
 20
62.146545
  0
LINE
  5
2EC5
100
AcDbEntity
  8
BORDER
100
AcDbLine
 10
518.592309
 20
47.4692
 30
0.0
 11
518.592309
 21
62.146545
 31
0.0
  0
LINE
  5
2EC6
100
AcDbEntity
  8
BORDER
100
AcDbLine
 10
525.930982
 20
47.4692
 30
0.0
 11
525.930982
 21
53.05062
 31
0.0
  0
LWPOLYLINE
  5
2EC7
100
AcDbEntity
  8
BORDER
 62
     5
100
AcDbPolyline
 90
        2
 70
     0
 43
1.223112
 10
523.484758
 20
62.146545
 10
523.484758
 20
47.4692
  0
LINE
  5
2EC8
100
AcDbEntity
  8
BORDER
100
AcDbLine
 10
525.930982
 20
54.807873
 30
0.0
 11
525.930982
 21
62.146545
 31
0.0
  0
LINE
  5
2ECB
100
AcDbEntity
  8
BORDER
100
AcDbLine
 10
563.21737
 20
54.807873
 30
0.0
 11
563.21737
 21
64.59277
 31
0.0
  0
TEXT
  5
2ECC
100
AcDbEntity
  8
BORDER
 62
     6
100
AcDbText
 10
563.718756
 20
60.358445
 30
0.0
 40
1.097562
  1
Drawn By:
  7
ROMANC
100
AcDbText
  0
TEXT
  5
2ECD
100
AcDbEntity
  8
BORDER
 62
     6
100
AcDbText
 10
563.781322
 20
49.3638
 30
0.0
 40
1.097562
  1
Prior To:
  7
ROMANC
100
AcDbText
  0
LINE
  5
2ECE
100
AcDbEntity
  8
BORDER
100
AcDbLine
 10
563.21737
 20
47.4692
 30
0.0
 11
563.21737
 21
53.05062
 31
0.0
  0
LINE
  5
2F3E
100
AcDbEntity
  8
LIMITS
100
AcDbLine
 10
665.669273
 20
40.130527
 30
0.0
 11
665.669273
 21
274.96806
 31
0.0
  0
LINE
  5
2F3F
100
AcDbEntity
  8
LIMITS
100
AcDbLine
 10
665.669273
 20
274.96806
 30
0.0
 11
665.669273
 21
40.130527
 31
0.0
  0
LINE
  5
2F40
100
AcDbEntity
  8
LIMITS
 62
     7
100
AcDbLine
 10
665.669273
 20
40.130527
 30
0.0
 11
665.669273
 21
279.850373
 31
0.0
  0
LWPOLYLINE
  5
2F41
100
AcDbEntity
  8
BORDER
 62
     5
100
AcDbPolyline
 90
        2
 70
     0
 43
0.489245
 10
661.755314
 20
67.972345
 10
661.755314
 20
273.979435
  0
TEXT
  5
2F44
100
AcDbEntity
  8
BORDER
 62
     6
100
AcDbText
 10
630.596253
 20
58.394617
 30
0.0
 40
1.223112
  1
1
  7
ROMAND
100
AcDbText
  0
LWPOLYLINE
  5
2F45
100
AcDbEntity
  8
BORDER
100
AcDbPolyline
 90
        6
 70
     1
 43
0.0
 10
631.698307
 20
58.097027
 10
632.219476
 20
58.999718
 10
631.698307
 20
59.90241
 10
630.655969
 20
59.90241
 10
630.134799
 20
58.999718
 10
630.655969
 20
58.097027
  0
LWPOLYLINE
  5
2F46
100
AcDbEntity
  8
BORDER
 62
     5
100
AcDbPolyline
 90
        2
 70
     0
 43
1.223112
 10
656.862865
 20
67.038994
 10
629.954398
 20
67.038994
  0
LINE
  5
2F47
100
AcDbEntity
  8
BORDER
100
AcDbLine
 10
656.862865
 20
64.59277
 30
0.0
 11
629.954398
 21
64.59277
 31
0.0
  0
LINE
  5
2F48
100
AcDbEntity
  8
BORDER
100
AcDbLine
 10
656.862865
 20
60.227199
 30
0.0
 11
629.954398
 21
60.227199
 31
0.0
  0
LINE
  5
2F49
100
AcDbEntity
  8
BORDER
100
AcDbLine
 10
656.862865
 20
57.780975
 30
0.0
 11
629.954398
 21
57.780975
 31
0.0
  0
LINE
  5
2F4A
100
AcDbEntity
  8
BORDER
100
AcDbLine
 10
656.862865
 20
55.334751
 30
0.0
 11
629.954398
 21
55.334751
 31
0.0
  0
LINE
  5
2F4B
100
AcDbEntity
  8
BORDER
100
AcDbLine
 10
656.862865
 20
52.888526
 30
0.0
 11
629.954398
 21
52.888526
 31
0.0
  0
LINE
  5
2F4C
100
AcDbEntity
  8
BORDER
100
AcDbLine
 10
656.862865
 20
50.442302
 30
0.0
 11
629.954398
 21
50.442302
 31
0.0
  0
LINE
  5
2F4D
100
AcDbEntity
  8
BORDER
100
AcDbLine
 10
656.862865
 20
47.4692
 30
0.0
 11
627.508174
 21
47.4692
 31
0.0
  0
LINE
  5
2F51
100
AcDbEntity
  8
BORDER
100
AcDbLine
 10
592.572062
 20
53.05062
 30
0.0
 11
620.169501
 21
53.05062
 31
0.0
  0
LINE
  5
2F52
100
AcDbEntity
  8
BORDER
100
AcDbLine
 10
592.572062
 20
47.4692
 30
0.0
 11
620.169501
 21
47.4692
 31
0.0
  0
TEXT
  5
2F53
100
AcDbEntity
  8
BORDER
 62
     6
100
AcDbText
 10
581.677558
 20
62.911524
 30
0.0
 40
0.918144
  1
This print is and contains confidential proprietary information owned exclusively
 41
0.656934
  7
ROMANS
 72
     5
 11
619.504289
 21
62.911524
 31
0.0
100
AcDbText
  0
TEXT
  5
2F54
100
AcDbEntity
  8
BORDER
 62
     6
100
AcDbText
 10
581.677558
 20
61.425006
 30
0.0
 40
0.918144
  1
by TOPP INDUSTRIES, INC. It is furnished on a strictly confidential basis.  This
 41
0.659437
  7
ROMANS
 72
     5
 11
619.504289
 21
61.425006
 31
0.0
100
AcDbText
  0
TEXT
  5
2F55
100
AcDbEntity
  8
BORDER
 62
     6
100
AcDbText
 10
581.677558
 20
59.938488
 30
0.0
 40
0.918144
  1
restriction includes, but is not limited to the condition that this print will not only
 41
0.626489
  7
ROMANS
 72
     5
 11
619.504289
 21
59.938488
 31
0.0
100
AcDbText
  0
TEXT
  5
2F56
100
AcDbEntity
  8
BORDER
 62
     6
100
AcDbText
 10
581.677558
 20
58.451969
 30
0.0
 40
0.918144
  1
be used as a record or to identify or inspect parts or for other information purposes
 41
0.596266
  7
ROMANS
 72
     5
 11
619.504289
 21
58.451969
 31
0.0
100
AcDbText
  0
TEXT
  5
2F57
100
AcDbEntity
  8
BORDER
 62
     6
100
AcDbText
 10
581.677558
 20
56.965451
 30
0.0
 40
0.918144
  1
and will not be used to manufacture or procure the manufacture of the items shown
 41
0.600404
  7
ROMANS
 72
     5
 11
619.504289
 21
56.965451
 31
0.0
100
AcDbText
  0
TEXT
  5
2F58
100
AcDbEntity
  8
BORDER
 62
     6
100
AcDbText
 10
581.677558
 20
55.478932
 30
0.0
 40
0.918144
  1
in this print by any other source than TOPP INDUSTRIES, INC.
 41
0.839168
  7
ROMANS
 72
     5
 11
619.504289
 21
55.478932
 31
0.0
100
AcDbText
  0
TEXT
  5
2F59
100
AcDbEntity
  8
BORDER
 62
     6
100
AcDbText
 10
575.584898
 20
48.452033
 30
0.0
 40
1.406579
  1
06/26/03
  7
ROMAND
100
AcDbText
  0
TEXT
  5
2F5A
100
AcDbEntity
  8
BORDER
 62
     6
100
AcDbText
 10
573.791346
 20
60.241555
 30
0.0
 40
1.496975
  1
RM
  7
COUNTRYBLUEPRINT
100
AcDbText
  0
TEXT
  5
2F5B
100
AcDbEntity
  8
BORDER
 62
     6
100
AcDbText
 10
593.149686
 20
49.485424
 30
0.0
 40
1.097562
  1
No:
  7
ROMANC
100
AcDbText
  0
TEXT
  5
2F5C
100
AcDbEntity
  8
BORDER
 62
     6
100
AcDbText
 10
593.149686
 20
51.26243
 30
0.0
 40
1.097562
  1
Reference
  7
ROMANC
100
AcDbText
  0
LINE
  5
2F5D
100
AcDbEntity
  8
BORDER
100
AcDbLine
 10
590.814809
 20
53.05062
 30
0.0
 11
590.814809
 21
47.4692
 31
0.0
  0
LINE
  5
2F5E
100
AcDbEntity
  8
BORDER
100
AcDbLine
 10
592.572062
 20
53.05062
 30
0.0
 11
592.572062
 21
47.4692
 31
0.0
  0
TEXT
  5
2F5F
100
AcDbEntity
  8
BORDER
 62
     6
100
AcDbText
 10
602.537232
 20
48.716937
 30
0.0
 40
3.292687
  1
16074
  7
ROMANC
100
AcDbText
  0
ARC
  5
2F60
100
AcDbEntity
  8
BORDER
100
AcDbCircle
 10
629.954398
 20
62.146545
 30
0.0
 40
2.446224
100
AcDbArc
 50
90.0
 51
180.0
  0
LWPOLYLINE
  5
2F61
100
AcDbEntity
  8
BORDER
 62
     5
100
AcDbPolyline
 90
        2
 70
     0
 43
1.223112
 10
629.954398
 20
67.038994
 42
0.414214
 10
625.06195
 20
62.146545
 42
-0.560527
  0
LWPOLYLINE
  5
2F62
100
AcDbEntity
  8
BORDER
 62
     5
100
AcDbPolyline
 90
        2
 70
     0
 43
1.223112
 10
617.723277
 20
67.038994
 42
-0.414214
 10
622.615725
 20
62.146545
 42
0.560527
  0
ARC
  5
2F63
100
AcDbEntity
  8
BORDER
100
AcDbCircle
 10
617.723277
 20
62.146545
 30
0.0
 40
2.446224
100
AcDbArc
 50
0.0
 51
90.0
  0
LINE
  5
2F64
100
AcDbEntity
  8
BORDER
100
AcDbLine
 10
620.169501
 20
53.05062
 30
0.0
 11
620.169501
 21
47.4692
 31
0.0
  0
LWPOLYLINE
  5
2F65
100
AcDbEntity
  8
BORDER
 62
     5
100
AcDbPolyline
 90
        2
 70
     0
 43
1.223112
 10
622.615725
 20
47.4692
 10
622.615725
 20
62.146545
  0
LINE
  5
2F66
100
AcDbEntity
  8
BORDER
100
AcDbLine
 10
620.169501
 20
62.146545
 30
0.0
 11
620.169501
 21
54.807873
 31
0.0
  0
LWPOLYLINE
  5
2F67
100
AcDbEntity
  8
BORDER
 62
     5
100
AcDbPolyline
 90
        2
 70
     0
 43
1.223112
 10
625.06195
 20
47.4692
 10
625.06195
 20
62.146545
  0
LINE
  5
2F68
100
AcDbEntity
  8
BORDER
100
AcDbLine
 10
627.508174
 20
47.4692
 30
0.0
 11
627.508174
 21
62.146545
 31
0.0
  0
LINE
  5
2F69
100
AcDbEntity
  8
BORDER
100
AcDbLine
 10
629.954398
 20
60.227199
 30
0.0
 11
629.954398
 21
50.442302
 31
0.0
  0
LWPOLYLINE
  5
2F9E
100
AcDbEntity
  8
BORDER
 62
     5
100
AcDbPolyline
 90
        2
 70
     0
 43
1.223112
 10
656.862865
 20
67.038994
 42
-0.414214
 10
661.755314
 20
62.146545
 42
0.560527
  0
LWPOLYLINE
  5
2F9F
100
AcDbEntity
  8
BORDER
 62
     5
100
AcDbPolyline
 90
        2
 70
     0
 43
1.223112
 10
656.862865
 20
45.022975
 42
0.414214
 10
661.755314
 20
49.915424
 42
-0.560527
  0
TEXT
  5
2FA0
100
AcDbEntity
  8
BORDER
 62
     6
100
AcDbText
 10
632.610824
 20
58.394617
 30
0.0
 40
1.223112
  1
First Released 06/27/03
  7
ROMAND
100
AcDbText
  0
TEXT
  5
2FA1
100
AcDbEntity
  8
BORDER
 62
     6
100
AcDbText
 10
636.884357
 20
61.322771
 30
0.0
 40
1.646344
  1
Revisions
  7
ROMANC
100
AcDbText
  0
LINE
  5
2FA2
100
AcDbEntity
  8
BORDER
100
AcDbLine
 10
632.400622
 20
60.227199
 30
0.0
 11
632.400622
 21
50.442302
 31
0.0
  0
ARC
  5
2FA3
100
AcDbEntity
  8
BORDER
100
AcDbCircle
 10
656.862865
 20
62.146545
 30
0.0
 40
2.446224
100
AcDbArc
 50
0.0
 51
90.0
  0
LINE
  5
2FA4
100
AcDbEntity
  8
BORDER
100
AcDbLine
 10
659.30909
 20
49.915424
 30
0.0
 11
659.30909
 21
62.146545
 31
0.0
  0
LINE
  5
2FA5
100
AcDbEntity
  8
BORDER
100
AcDbLine
 10
656.862865
 20
60.227199
 30
0.0
 11
656.862865
 21
50.442302
 31
0.0
  0
ARC
  5
2FA6
100
AcDbEntity
  8
BORDER
100
AcDbCircle
 10
656.862865
 20
49.915424
 30
0.0
 40
2.446224
100
AcDbArc
 50
270.0
 51
0.0
  0
LWPOLYLINE
  5
2FA7
100
AcDbEntity
  8
BORDER
 62
     5
100
AcDbPolyline
 90
        2
 70
     0
 43
1.223112
 10
661.755314
 20
62.146545
 10
661.755314
 20
49.915424
  0
TEXT
  5
31F3
100
AcDbEntity
  8
BORDER
 62
     6
100
AcDbText
 10
534.662146
 20
60.066387
 30
0.0
 40
0.946648
  1
Frogmouth Alum. Cover 
  7
ROMANC
100
AcDbText
  0
LINE
  5
3397
100
AcDbEntity
  8
DIM
 62
     2
100
AcDbLine
 39
20.0
 10
587.248994
 20
118.245933
 30
0.0
 11
587.248994
 21
114.245933
 31
0.0
  0
LINE
  5
3398
100
AcDbEntity
  8
DIM
 62
     2
100
AcDbLine
 39
20.0
 10
585.373994
 20
114.245933
 30
0.0
 11
585.123994
 21
114.245933
 31
0.0
  0
LINE
  5
3399
100
AcDbEntity
  8
DIM
 62
     2
100
AcDbLine
 39
20.0
 10
585.373994
 20
118.245933
 30
0.0
 11
585.123994
 21
118.245933
 31
0.0
  0
LINE
  5
339A
100
AcDbEntity
  8
DIM
 62
     2
100
AcDbLine
 39
20.0
 10
585.123994
 20
114.245933
 30
0.0
 11
585.123994
 21
118.245933
 31
0.0
  0
LINE
  5
339B
100
AcDbEntity
  8
DIM
 62
     2
100
AcDbLine
 39
20.0
 10
585.373994
 20
114.245933
 30
0.0
 11
585.373994
 21
118.245933
 31
0.0
  0
LINE
  5
339C
100
AcDbEntity
  8
DIM
 62
     2
100
AcDbLine
 39
20.0
 10
583.248994
 20
118.245933
 30
0.0
 11
583.248994
 21
114.245933
 31
0.0
  0
LINE
  5
339D
100
AcDbEntity
  8
15
 62
     2
100
AcDbLine
 10
585.373994
 20
116.621644
 30
0.0
 11
585.123994
 21
116.621644
 31
0.0
  0
LINE
  5
339E
100
AcDbEntity
  8
15
 62
     2
100
AcDbLine
 10
585.373994
 20
116.559144
 30
0.0
 11
585.123994
 21
116.559144
 31
0.0
  0
LINE
  5
339F
100
AcDbEntity
  8
15
 62
     2
100
AcDbLine
 10
585.373994
 20
117.373137
 30
0.0
 11
585.123994
 21
117.373137
 31
0.0
  0
LINE
  5
33A0
100
AcDbEntity
  8
15
 62
     2
100
AcDbLine
 10
585.373994
 20
117.435637
 30
0.0
 11
585.123994
 21
117.435637
 31
0.0
  0
LINE
  5
33A1
100
AcDbEntity
  8
15
 62
     2
100
AcDbLine
 10
585.373994
 20
115.056229
 30
0.0
 11
585.123994
 21
115.056229
 31
0.0
  0
LINE
  5
33A2
100
AcDbEntity
  8
15
 62
     2
100
AcDbLine
 10
585.373994
 20
115.118729
 30
0.0
 11
585.123994
 21
115.118729
 31
0.0
  0
LINE
  5
33A3
100
AcDbEntity
  8
15
 62
     2
100
AcDbLine
 10
585.373994
 20
115.934144
 30
0.0
 11
585.123994
 21
115.934144
 31
0.0
  0
LINE
  5
33A4
100
AcDbEntity
  8
15
 62
     2
100
AcDbLine
 10
585.373994
 20
115.871644
 30
0.0
 11
585.123994
 21
115.871644
 31
0.0
  0
LINE
  5
33A5
100
AcDbEntity
  8
OBJECT
100
AcDbLine
 10
585.373994
 20
118.245933
 30
0.0
 11
587.248994
 21
118.245933
 31
0.0
  0
LINE
  5
33A6
100
AcDbEntity
  8
OBJECT
100
AcDbLine
 10
583.248994
 20
118.245933
 30
0.0
 11
585.123994
 21
118.245933
 31
0.0
  0
LINE
  5
33A7
100
AcDbEntity
  8
OBJECT
100
AcDbLine
 10
585.373994
 20
114.245933
 30
0.0
 11
587.248994
 21
114.245933
 31
0.0
  0
LINE
  5
33A8
100
AcDbEntity
  8
OBJECT
100
AcDbLine
 10
583.248994
 20
114.245933
 30
0.0
 11
585.123994
 21
114.245933
 31
0.0
  0
LINE
  5
33A9
100
AcDbEntity
  8
DIM
 62
     2
100
AcDbLine
 39
20.0
 10
583.248994
 20
91.684202
 30
0.0
 11
583.248994
 21
95.684202
 31
0.0
  0
LINE
  5
33AA
100
AcDbEntity
  8
DIM
 62
     2
100
AcDbLine
 39
20.0
 10
585.373994
 20
95.684202
 30
0.0
 11
585.373994
 21
91.684202
 31
0.0
  0
LINE
  5
33AB
100
AcDbEntity
  8
DIM
 62
     2
100
AcDbLine
 39
20.0
 10
585.123994
 20
95.684202
 30
0.0
 11
585.123994
 21
91.684202
 31
0.0
  0
LINE
  5
33AC
100
AcDbEntity
  8
DIM
 62
     2
100
AcDbLine
 39
20.0
 10
585.373994
 20
91.684202
 30
0.0
 11
585.123994
 21
91.684202
 31
0.0
  0
LINE
  5
33AD
100
AcDbEntity
  8
DIM
 62
     2
100
AcDbLine
 39
20.0
 10
585.373994
 20
95.684202
 30
0.0
 11
585.123994
 21
95.684202
 31
0.0
  0
LINE
  5
33AE
100
AcDbEntity
  8
DIM
 62
     2
100
AcDbLine
 39
20.0
 10
587.248994
 20
91.684202
 30
0.0
 11
587.248994
 21
95.684202
 31
0.0
  0
LINE
  5
33AF
100
AcDbEntity
  8
DIM
 62
     2
100
AcDbLine
 39
20.0
 10
585.123994
 20
91.684202
 30
0.0
 11
584.873994
 21
91.684202
 31
0.0
  0
LINE
  5
33B0
100
AcDbEntity
  8
DIM
 62
     2
100
AcDbLine
 39
20.0
 10
585.123994
 20
95.684202
 30
0.0
 11
584.873994
 21
95.684202
 31
0.0
  0
LINE
  5
33B1
100
AcDbEntity
  8
DIM
 62
     2
100
AcDbLine
 39
20.0
 10
584.873994
 20
91.684202
 30
0.0
 11
584.873994
 21
95.684202
 31
0.0
  0
LINE
  5
33B2
100
AcDbEntity
  8
DIM
 62
     2
100
AcDbLine
 39
20.0
 10
585.123994
 20
91.684202
 30
0.0
 11
585.123994
 21
95.684202
 31
0.0
  0
LINE
  5
33B3
100
AcDbEntity
  8
OBJECT
100
AcDbLine
 10
583.248994
 20
95.684202
 30
0.0
 11
585.123994
 21
95.684202
 31
0.0
  0
LINE
  5
33B4
100
AcDbEntity
  8
OBJECT
100
AcDbLine
 10
585.373994
 20
95.684202
 30
0.0
 11
587.248994
 21
95.684202
 31
0.0
  0
LINE
  5
33B5
100
AcDbEntity
  8
15
 62
     2
100
AcDbLine
 10
585.373994
 20
94.05849
 30
0.0
 11
585.123994
 21
94.05849
 31
0.0
  0
LINE
  5
33B6
100
AcDbEntity
  8
15
 62
     2
100
AcDbLine
 10
585.373994
 20
93.99599
 30
0.0
 11
585.123994
 21
93.99599
 31
0.0
  0
LINE
  5
33B7
100
AcDbEntity
  8
15
 62
     2
100
AcDbLine
 10
585.373994
 20
94.811406
 30
0.0
 11
585.123994
 21
94.811406
 31
0.0
  0
LINE
  5
33B8
100
AcDbEntity
  8
15
 62
     2
100
AcDbLine
 10
585.373994
 20
94.873906
 30
0.0
 11
585.123994
 21
94.873906
 31
0.0
  0
LINE
  5
33B9
100
AcDbEntity
  8
15
 62
     2
100
AcDbLine
 10
585.373994
 20
93.37099
 30
0.0
 11
585.123994
 21
93.37099
 31
0.0
  0
LINE
  5
33BA
100
AcDbEntity
  8
15
 62
     2
100
AcDbLine
 10
585.373994
 20
93.30849
 30
0.0
 11
585.123994
 21
93.30849
 31
0.0
  0
LINE
  5
33BB
100
AcDbEntity
  8
15
 62
     2
100
AcDbLine
 10
585.123994
 20
94.811406
 30
0.0
 11
584.873994
 21
94.811406
 31
0.0
  0
LINE
  5
33BC
100
AcDbEntity
  8
15
 62
     2
100
AcDbLine
 10
585.123994
 20
94.873906
 30
0.0
 11
584.873994
 21
94.873906
 31
0.0
  0
LINE
  5
33BD
100
AcDbEntity
  8
15
 62
     2
100
AcDbLine
 10
585.123994
 20
94.059913
 30
0.0
 11
584.873994
 21
94.059913
 31
0.0
  0
LINE
  5
33BE
100
AcDbEntity
  8
15
 62
     2
100
AcDbLine
 10
585.123994
 20
93.997413
 30
0.0
 11
584.873994
 21
93.997413
 31
0.0
  0
LINE
  5
33BF
100
AcDbEntity
  8
15
 62
     2
100
AcDbLine
 10
585.123994
 20
93.372413
 30
0.0
 11
584.873994
 21
93.372413
 31
0.0
  0
LINE
  5
33C0
100
AcDbEntity
  8
15
 62
     2
100
AcDbLine
 10
585.123994
 20
93.309913
 30
0.0
 11
584.873994
 21
93.309913
 31
0.0
  0
LINE
  5
33C1
100
AcDbEntity
  8
OBJECT
100
AcDbLine
 10
583.248994
 20
91.684202
 30
0.0
 11
585.123994
 21
91.684202
 31
0.0
  0
LINE
  5
33C2
100
AcDbEntity
  8
OBJECT
100
AcDbLine
 10
585.373994
 20
91.684202
 30
0.0
 11
587.248994
 21
91.684202
 31
0.0
  0
LINE
  5
33C3
100
AcDbEntity
  8
15
 62
     2
100
AcDbLine
 10
585.373994
 20
92.494497
 30
0.0
 11
585.123994
 21
92.494497
 31
0.0
  0
LINE
  5
33C4
100
AcDbEntity
  8
15
 62
     2
100
AcDbLine
 10
585.373994
 20
92.556997
 30
0.0
 11
585.123994
 21
92.556997
 31
0.0
  0
LINE
  5
33C5
100
AcDbEntity
  8
15
 62
     2
100
AcDbLine
 10
585.123994
 20
92.494497
 30
0.0
 11
584.873994
 21
92.494497
 31
0.0
  0
LINE
  5
33C6
100
AcDbEntity
  8
15
 62
     2
100
AcDbLine
 10
585.123994
 20
92.556997
 30
0.0
 11
584.873994
 21
92.556997
 31
0.0
  0
LINE
  5
3428
100
AcDbEntity
  8
CENTER
100
AcDbLine
 10
589.373994
 20
95.577678
 30
0.0
 11
589.373994
 21
95.965067
 31
0.0
  0
LINE
  5
3429
100
AcDbEntity
  8
CENTER
100
AcDbLine
 10
589.373994
 20
96.352456
 30
0.0
 11
589.373994
 21
95.965067
 31
0.0
  0
CIRCLE
  5
342A
100
AcDbEntity
  8
OBJECT
100
AcDbCircle
 10
589.373994
 20
95.965067
 30
0.0
 40
0.19
  0
LINE
  5
342B
100
AcDbEntity
  8
CENTER
100
AcDbLine
 10
588.986605
 20
95.965067
 30
0.0
 11
589.373994
 21
95.965067
 31
0.0
  0
LINE
  5
342C
100
AcDbEntity
  8
CENTER
100
AcDbLine
 10
589.761383
 20
95.965067
 30
0.0
 11
589.373994
 21
95.965067
 31
0.0
  0
LEADER
  5
342D
100
AcDbEntity
  8
DIM
100
AcDbLeader
  3
STANDARD
 76
     2
 10
589.561527
 20
113.934545
 30
0.0
 10
607.028296
 20
106.27772
 30
0.0
 77
   256
1001
ACAD
1000
DSTYLE
1002
{
1070
    78
1070
     8
1070
   270
1070
     7
1070
   140
1040
1.5
1070
    74
1070
     0
1070
   172
1070
     1
1070
    73
1070
     0
1070
   147
1040
1.5
1070
    41
1040
2.0
1002
}
  0
TEXT
  5
3455
100
AcDbEntity
  8
BORDER
 62
     6
100
AcDbText
 10
543.616759
 20
57.215748
 30
0.0
 40
1.097562
  1
FRVB32X30X25
  7
ROMANC
100
AcDbText
  0
CIRCLE
  5
7F20
100
AcDbEntity
  8
OBJECT
100
AcDbCircle
 10
554.69952
 20
104.965067
 30
0.0
 40
0.4375
  0
LEADER
  5
7F21
100
AcDbEntity
  8
DIM
100
AcDbLeader
  3
STANDARD
 73
     0
 75
     1
 40
1.5
 41
13.0
 76
     3
 10
554.412813
 20
105.295529
 30
0.0
 10
547.075454
 20
128.723465
 30
0.0
 10
545.075454
 20
128.723465
 30
0.0
 77
   256
340
7F22
1001
ACAD
1000
DSTYLE
1002
{
1070
    78
1070
     8
1070
   270
1070
     7
1070
   140
1040
1.5
1070
    74
1070
     0
1070
   172
1070
     1
1070
    73
1070
     0
1070
   147
1040
1.5
1070
    41
1040
2.0
1002
}
  0
MTEXT
  5
7F22
102
{ACAD_REACTORS
330
7F21
102
}
100
AcDbEntity
  8
DIM
100
AcDbMText
 10
543.575454
 20
128.723465
 30
0.0
 40
1.5
 41
0.0
 71
     6
 72
     1
  1
\A1;%%C7/8 HOLE
  0
LINE
  5
7F27
100
AcDbEntity
  8
CENTER
100
AcDbLine
 10
587.486605
 20
88.965067
 30
0.0
 11
587.873994
 21
88.965067
 31
0.0
  0
LINE
  5
7F28
100
AcDbEntity
  8
CENTER
100
AcDbLine
 10
587.873994
 20
89.352456
 30
0.0
 11
587.873994
 21
88.965067
 31
0.0
  0
LINE
  5
7F29
100
AcDbEntity
  8
CENTER
100
AcDbLine
 10
588.261383
 20
88.965067
 30
0.0
 11
587.873994
 21
88.965067
 31
0.0
  0
CIRCLE
  5
7F2A
100
AcDbEntity
  8
OBJECT
100
AcDbCircle
 10
587.873994
 20
88.965067
 30
0.0
 40
0.19
  0
LINE
  5
7F2B
100
AcDbEntity
  8
CENTER
100
AcDbLine
 10
587.873994
 20
88.577678
 30
0.0
 11
587.873994
 21
88.965067
 31
0.0
  0
DIMENSION
  5
7F3B
100
AcDbEntity
  8
DIM
100
AcDbDimension
  2
*D10
 10
590.873994
 20
125.35433
 30
0.0
 11
596.873994
 21
125.35433
 31
0.0
 70
    32
  3
STANDARD
100
AcDbAlignedDimension
 13
587.873994
 23
121.352456
 33
0.0
 14
590.873994
 24
122.965067
 34
0.0
100
AcDbRotatedDimension
1001
ACAD
1000
DSTYLE
1002
{
1070
    78
1070
     8
1070
   270
1070
     7
1070
   140
1040
1.5
1070
    74
1070
     0
1070
   172
1070
     1
1070
    73
1070
     0
1070
   147
1040
1.5
1070
    41
1040
2.0
1002
}
  0
DIMENSION
  5
7F56
100
AcDbEntity
  8
DIM
100
AcDbDimension
  2
*D11
 10
587.873994
 20
80.604683
 30
0.0
 11
579.873994
 21
80.604683
 31
0.0
 70
    32
  3
STANDARD
100
AcDbAlignedDimension
 13
571.873994
 23
84.73716
 33
0.0
 14
587.873994
 24
88.577678
 34
0.0
100
AcDbRotatedDimension
1001
ACAD
1000
DSTYLE
1002
{
1070
    78
1070
     8
1070
   270
1070
     7
1070
   140
1040
1.5
1070
    74
1070
     0
1070
   172
1070
     1
1070
    73
1070
     0
1070
   147
1040
1.5
1070
    41
1040
2.0
1002
}
  0
DIMENSION
  5
7F6E
100
AcDbEntity
  8
DIM
100
AcDbDimension
  2
*D12
 10
546.091725
 20
219.13151
 30
0.0
 11
546.091725
 21
234.13151
 31
0.0
 70
    32
  1
<>"
  3
STANDARD
100
AcDbAlignedDimension
 13
558.150059
 23
249.13151
 33
0.0
 14
558.150098
 24
219.13151
 34
0.0
 50
90.0
100
AcDbRotatedDimension
1001
ACAD
1000
DSTYLE
1002
{
1070
    78
1070
     8
1070
   270
1070
     7
1070
   140
1040
1.5
1070
   172
1070
     1
1070
   147
1040
1.5
1070
    41
1040
2.0
1002
}
  0
DIMENSION
  5
7F88
100
AcDbEntity
  8
DIM
100
AcDbDimension
  2
*D13
 10
597.571475
 20
181.286487
 30
0.0
 11
597.571475
 21
168.786487
 31
0.0
 70
    32
  1
<>"
  3
STANDARD
100
AcDbAlignedDimension
 13
589.837527
 23
156.286487
 33
0.0
 14
593.150059
 24
181.286487
 34
0.0
 50
90.0
100
AcDbRotatedDimension
1001
ACAD
1000
DSTYLE
1002
{
1070
    78
1070
     8
1070
   270
1070
     7
1070
   140
1040
1.5
1070
   172
1070
     1
1070
   147
1040
1.5
1070
    41
1040
2.0
1002
}
  0
DIMENSION
  5
7FA2
100
AcDbEntity
  8
DIM
100
AcDbDimension
  2
*D14
 10
590.150027
 20
151.624016
 30
0.0
 11
574.150079
 21
151.624016
 31
0.0
 70
    32
  1
<>"
  3
STANDARD
100
AcDbAlignedDimension
 13
558.150131
 23
156.598987
 33
0.0
 14
590.150027
 24
156.598987
 34
0.0
100
AcDbRotatedDimension
1001
ACAD
1000
DSTYLE
1002
{
1070
    78
1070
     8
1070
   270
1070
     7
1070
   140
1040
1.5
1070
   172
1070
     1
1070
   147
1040
1.5
1070
    41
1040
2.0
1002
}
  0
ENDSEC
  0
SECTION
  2
OBJECTS
  0
DICTIONARY
  5
2999
100
AcDbDictionary
  3
ACAD_GROUP
350
299A
  3
ACAD_MLINESTYLE
350
29A8
  0
DICTIONARY
  5
299A
102
{ACAD_REACTORS
330
2999
102
}
100
AcDbDictionary
  0
DICTIONARY
  5
29A8
102
{ACAD_REACTORS
330
2999
102
}
100
AcDbDictionary
  3
STANDARD
350
29A9
  0
MLINESTYLE
  5
29A9
102
{ACAD_REACTORS
330
29A8
102
}
100
AcDbMlineStyle
  2
STANDARD
 70
     0
  3

 62
   256
 51
90.0
 52
90.0
 71
     2
 49
0.5
 62
   256
  6
BYLAYER
 49
-0.5
 62
   256
  6
BYLAYER
  0
ENDSEC
  0
EOF
