  0
SECTION
  2
HEADER
  9
$ACADVER
  1
AC1014
  9
$ACADMAINTVER
 70
     0
  9
$DWGCODEPAGE
  3
ANSI_1252
  9
$INSBASE
 10
0.0
 20
0.0
 30
0.0
  9
$EXTMIN
 10
-590.329437
 20
65.389534
 30
-0.002384
  9
$EXTMAX
 10
-370.83904
 20
349.409032
 30
78.127384
  9
$LIMMIN
 10
-17.551873
 20
34.023232
  9
$LIMMAX
 10
207.948127
 20
328.273232
  9
$ORTHOMODE
 70
     1
  9
$REGENMODE
 70
     1
  9
$FILLMODE
 70
     1
  9
$QTEXTMODE
 70
     0
  9
$MIRRTEXT
 70
     1
  9
$DRAGMODE
 70
     2
  9
$LTSCALE
 40
4.0
  9
$OSMODE
 70
   675
  9
$ATTMODE
 70
     1
  9
$TEXTSIZE
 40
1.85
  9
$TRACEWID
 40
0.05
  9
$TEXTSTYLE
  7
ROMANS
  9
$CLAYER
  8
DIM
  9
$CELTYPE
  6
BYLAYER
  9
$CECOLOR
 62
   256
  9
$CELTSCALE
 40
1.0
  9
$DELOBJ
 70
     1
  9
$DISPSILH
 70
     0
  9
$DIMSCALE
 40
0.0
  9
$DIMASZ
 40
1.5
  9
$DIMEXO
 40
0.0625
  9
$DIMDLI
 40
0.38
  9
$DIMRND
 40
0.0
  9
$DIMDLE
 40
0.0
  9
$DIMEXE
 40
1.85
  9
$DIMTP
 40
0.0
  9
$DIMTM
 40
0.0
  9
$DIMTXT
 40
2.5
  9
$DIMCEN
 40
0.09
  9
$DIMTSZ
 40
0.0
  9
$DIMTOL
 70
     0
  9
$DIMLIM
 70
     0
  9
$DIMTIH
 70
     1
  9
$DIMTOH
 70
     1
  9
$DIMSE1
 70
     0
  9
$DIMSE2
 70
     0
  9
$DIMTAD
 70
     0
  9
$DIMZIN
 70
    12
  9
$DIMBLK
  1

  9
$DIMASO
 70
     0
  9
$DIMSHO
 70
     1
  9
$DIMPOST
  1

  9
$DIMAPOST
  1

  9
$DIMALT
 70
     0
  9
$DIMALTD
 70
     2
  9
$DIMALTF
 40
25.4
  9
$DIMLFAC
 40
1.0
  9
$DIMTOFL
 70
     0
  9
$DIMTVP
 40
0.0
  9
$DIMTIX
 70
     0
  9
$DIMSOXD
 70
     0
  9
$DIMSAH
 70
     0
  9
$DIMBLK1
  1

  9
$DIMBLK2
  1

  9
$DIMSTYLE
  2
STANDARD
  9
$DIMCLRD
 70
     0
  9
$DIMCLRE
 70
     0
  9
$DIMCLRT
 70
     0
  9
$DIMTFAC
 40
1.0
  9
$DIMGAP
 40
1.5
  9
$DIMJUST
 70
     0
  9
$DIMSD1
 70
     0
  9
$DIMSD2
 70
     0
  9
$DIMTOLJ
 70
     1
  9
$DIMTZIN
 70
    12
  9
$DIMALTZ
 70
     0
  9
$DIMALTTZ
 70
     0
  9
$DIMFIT
 70
     5
  9
$DIMUPT
 70
     0
  9
$DIMUNIT
 70
     2
  9
$DIMDEC
 70
     4
  9
$DIMTDEC
 70
     0
  9
$DIMALTU
 70
     2
  9
$DIMALTTD
 70
     2
  9
$DIMTXSTY
  7
ROMANS
  9
$DIMAUNIT
 70
     0
  9
$LUNITS
 70
     2
  9
$LUPREC
 70
     4
  9
$SKETCHINC
 40
0.1
  9
$FILLETRAD
 40
0.0
  9
$AUNITS
 70
     0
  9
$AUPREC
 70
     0
  9
$MENU
  1
acad
  9
$ELEVATION
 40
0.0
  9
$PELEVATION
 40
0.0
  9
$THICKNESS
 40
0.0
  9
$LIMCHECK
 70
     0
  9
$BLIPMODE
 70
     0
  9
$CHAMFERA
 40
0.0
  9
$CHAMFERB
 40
0.0
  9
$CHAMFERC
 40
0.0
  9
$CHAMFERD
 40
0.0
  9
$SKPOLY
 70
     0
  9
$TDCREATE
 40
2449638.555137152
  9
$TDUPDATE
 40
2453133.575794711
  9
$TDINDWG
 40
0.3565420486
  9
$TDUSRTIMER
 40
0.3565420486
  9
$USRTIMER
 70
     1
  9
$ANGBASE
 50
0.0
  9
$ANGDIR
 70
     0
  9
$PDMODE
 70
     3
  9
$PDSIZE
 40
0.0
  9
$PLINEWID
 40
0.0
  9
$COORDS
 70
     1
  9
$SPLFRAME
 70
     0
  9
$SPLINETYPE
 70
     6
  9
$SPLINESEGS
 70
     8
  9
$ATTDIA
 70
     0
  9
$ATTREQ
 70
     1
  9
$HANDLING
 70
     1
  9
$HANDSEED
  5
A023
  9
$SURFTAB1
 70
     6
  9
$SURFTAB2
 70
     6
  9
$SURFTYPE
 70
     6
  9
$SURFU
 70
     6
  9
$SURFV
 70
     6
  9
$UCSNAME
  2

  9
$UCSORG
 10
0.0
 20
0.0
 30
0.0
  9
$UCSXDIR
 10
1.0
 20
0.0
 30
0.0
  9
$UCSYDIR
 10
0.0
 20
1.0
 30
0.0
  9
$PUCSNAME
  2

  9
$PUCSORG
 10
0.0
 20
0.0
 30
0.0
  9
$PUCSXDIR
 10
1.0
 20
0.0
 30
0.0
  9
$PUCSYDIR
 10
0.0
 20
1.0
 30
0.0
  9
$USERI1
 70
     0
  9
$USERI2
 70
     0
  9
$USERI3
 70
     0
  9
$USERI4
 70
     0
  9
$USERI5
 70
     0
  9
$USERR1
 40
0.0
  9
$USERR2
 40
0.0
  9
$USERR3
 40
0.0
  9
$USERR4
 40
0.0
  9
$USERR5
 40
0.0
  9
$WORLDVIEW
 70
     1
  9
$SHADEDGE
 70
     3
  9
$SHADEDIF
 70
    70
  9
$TILEMODE
 70
     1
  9
$MAXACTVP
 70
    16
  9
$PINSBASE
 10
0.0
 20
0.0
 30
0.0
  9
$PLIMCHECK
 70
     0
  9
$PEXTMIN
 10
1.000000E+20
 20
1.000000E+20
 30
1.000000E+20
  9
$PEXTMAX
 10
-1.000000E+20
 20
-1.000000E+20
 30
-1.000000E+20
  9
$PLIMMIN
 10
0.0
 20
0.0
  9
$PLIMMAX
 10
12.0
 20
9.0
  9
$UNITMODE
 70
     0
  9
$VISRETAIN
 70
     0
  9
$PLINEGEN
 70
     0
  9
$PSLTSCALE
 70
     1
  9
$TREEDEPTH
 70
  3020
  9
$PICKSTYLE
 70
     1
  9
$CMLSTYLE
  2
STANDARD
  9
$CMLJUST
 70
     0
  9
$CMLSCALE
 40
1.0
  9
$PROXYGRAPHICS
 70
     1
  9
$MEASUREMENT
 70
     0
  0
ENDSEC
  0
SECTION
  2
CLASSES
  0
CLASS
  1
DICTIONARYVAR
  2
AcDbDictionaryVar
  3
"AutoCAD"
 90
        0
280
     0
281
     0
  0
CLASS
  1
LWPOLYLINE
  2
AcDbPolyline
  3
"AutoCAD"
 90
        0
280
     0
281
     1
  0
CLASS
  1
HATCH
  2
AcDbHatch
  3
"ACAD_SEDONA"
 90
        0
280
     0
281
     1
  0
ENDSEC
  0
SECTION
  2
TABLES
  0
TABLE
  2
VPORT
  5
8
100
AcDbSymbolTable
 70
     3
  0
VPORT
  5
A022
100
AcDbSymbolTableRecord
100
AcDbViewportTableRecord
  2
*ACTIVE
 70
     0
 10
0.0
 20
0.0
 11
1.0
 21
1.0
 12
-480.584238
 22
207.399283
 13
0.0
 23
0.0
 14
1.0
 24
1.0
 15
0.0
 25
0.0
 16
0.0
 26
0.0
 36
1.0
 17
0.0
 27
0.0
 37
0.0
 40
287.112269
 41
1.750909
 42
50.0
 43
0.0
 44
0.0
 50
0.0
 51
0.0
 71
     0
 72
   100
 73
     1
 74
     0
 75
     0
 76
     0
 77
     0
 78
     0
  0
ENDTAB
  0
TABLE
  2
LTYPE
  5
5
100
AcDbSymbolTable
 70
     4
  0
LTYPE
  5
11
100
AcDbSymbolTableRecord
100
AcDbLinetypeTableRecord
  2
BYBLOCK
 70
     0
  3

 72
    65
 73
     0
 40
0.0
  0
LTYPE
  5
12
100
AcDbSymbolTableRecord
100
AcDbLinetypeTableRecord
  2
BYLAYER
 70
     0
  3

 72
    65
 73
     0
 40
0.0
  0
LTYPE
  5
13
100
AcDbSymbolTableRecord
100
AcDbLinetypeTableRecord
  2
CONTINUOUS
 70
     0
  3
Solid line
 72
    65
 73
     0
 40
0.0
  0
LTYPE
  5
32
100
AcDbSymbolTableRecord
100
AcDbLinetypeTableRecord
  2
CENTER
 70
     0
  3
____ _ ____ _ ____ _ ____ _ ____ _ ____ _ ____ 
 72
    65
 73
     4
 40
2.0
 49
1.25
 74
     0
 49
-0.25
 74
     0
 49
0.25
 74
     0
 49
-0.25
 74
     0
  0
LTYPE
  5
33
100
AcDbSymbolTableRecord
100
AcDbLinetypeTableRecord
  2
HIDDEN
 70
     0
  3
__ __ __ __ __ __ __ __ __ __ __ __ __ __ __ __
 72
    65
 73
     2
 40
0.375
 49
0.25
 74
     0
 49
-0.125
 74
     0
  0
LTYPE
  5
34
100
AcDbSymbolTableRecord
100
AcDbLinetypeTableRecord
  2
PHANTOM
 70
     0
  3
______  __  __  ______  __  __  ______  __  __ 
 72
    65
 73
     6
 40
2.5
 49
1.25
 74
     0
 49
-0.25
 74
     0
 49
0.25
 74
     0
 49
-0.25
 74
     0
 49
0.25
 74
     0
 49
-0.25
 74
     0
  0
ENDTAB
  0
TABLE
  2
LAYER
  5
2
100
AcDbSymbolTable
 70
    12
  0
LAYER
  5
E
100
AcDbSymbolTableRecord
100
AcDbLayerTableRecord
  2
0
 70
     0
 62
     7
  6
CONTINUOUS
  0
LAYER
  5
37
100
AcDbSymbolTableRecord
100
AcDbLayerTableRecord
  2
OBJECT
 70
     0
 62
     2
  6
CONTINUOUS
  0
LAYER
  5
38
100
AcDbSymbolTableRecord
100
AcDbLayerTableRecord
  2
DIM
 70
     0
 62
     6
  6
CONTINUOUS
  0
LAYER
  5
39
100
AcDbSymbolTableRecord
100
AcDbLayerTableRecord
  2
HIDDEN
 70
     0
 62
     1
  6
HIDDEN
  0
LAYER
  5
3A
100
AcDbSymbolTableRecord
100
AcDbLayerTableRecord
  2
15
 70
     0
 62
     4
  6
CONTINUOUS
  0
LAYER
  5
3B
100
AcDbSymbolTableRecord
100
AcDbLayerTableRecord
  2
DEFPOINTS
 70
     0
 62
     7
  6
CONTINUOUS
  0
LAYER
  5
3C
100
AcDbSymbolTableRecord
100
AcDbLayerTableRecord
  2
BORDER
 70
     0
 62
     5
  6
CONTINUOUS
  0
LAYER
  5
3D
100
AcDbSymbolTableRecord
100
AcDbLayerTableRecord
  2
ELEV
 70
     0
 62
     3
  6
CONTINUOUS
  0
LAYER
  5
3E
100
AcDbSymbolTableRecord
100
AcDbLayerTableRecord
  2
CENTER
 70
     0
 62
     3
  6
CENTER
  0
LAYER
  5
3F
100
AcDbSymbolTableRecord
100
AcDbLayerTableRecord
  2
HATCH
 70
     0
 62
     4
  6
CONTINUOUS
  0
LAYER
  5
41
100
AcDbSymbolTableRecord
100
AcDbLayerTableRecord
  2
PUMP
 70
     0
 62
     4
  6
CONTINUOUS
  0
LAYER
  5
1C60
100
AcDbSymbolTableRecord
100
AcDbLayerTableRecord
  2
LIMITS
 70
     0
 62
     7
  6
CONTINUOUS
  0
ENDTAB
  0
TABLE
  2
STYLE
  5
3
100
AcDbSymbolTable
 70
     8
  0
STYLE
  5
F
100
AcDbSymbolTableRecord
100
AcDbTextStyleTableRecord
  2
STANDARD
 70
     0
 40
0.0
 41
1.0
 50
0.0
 71
     0
 42
0.2
  3
txt
  4

  0
STYLE
  5
2B
100
AcDbSymbolTableRecord
100
AcDbTextStyleTableRecord
  2
ROMANS
 70
     0
 40
1.5
 41
1.0
 50
0.0
 71
     0
 42
1.5
  3
romans
  4

  0
STYLE
  5
2C
100
AcDbSymbolTableRecord
100
AcDbTextStyleTableRecord
  2
ROMANC
 70
     0
 40
0.0531
 41
1.0
 50
0.0
 71
     0
 42
0.0531
  3
romanc
  4

  0
STYLE
  5
2D
100
AcDbSymbolTableRecord
100
AcDbTextStyleTableRecord
  2
ROMANT
 70
     0
 40
0.054
 41
1.0
 50
0.0
 71
     0
 42
0.349156
  3
romant
  4

  0
STYLE
  5
2E
100
AcDbSymbolTableRecord
100
AcDbTextStyleTableRecord
  2
ROMAND
 70
     0
 40
1.85
 41
1.0
 50
0.0
 71
     0
 42
1.85
  3
romand
  4

  0
STYLE
  5
30
100
AcDbSymbolTableRecord
100
AcDbTextStyleTableRecord
  2
ITALICT
 70
     0
 40
2.0
 41
1.0
 50
0.0
 71
     0
 42
2.0
  3
italict
  4

  0
STYLE
  5
31
100
AcDbSymbolTableRecord
100
AcDbTextStyleTableRecord
  2
SCRIPTC
 70
     0
 40
2.5
 41
1.0
 50
0.0
 71
     0
 42
1.85
  3
scriptc.shx
  4

  0
STYLE
  5
1C61
100
AcDbSymbolTableRecord
100
AcDbTextStyleTableRecord
  2
COUNTRYBLUEPRINT
 70
     0
 40
0.061059
 41
1.0
 50
0.0
 71
     0
 42
0.061059
  3
cobt____.pfb
  4

  0
ENDTAB
  0
TABLE
  2
VIEW
  5
6
100
AcDbSymbolTable
 70
     0
  0
ENDTAB
  0
TABLE
  2
UCS
  5
7
100
AcDbSymbolTable
 70
     0
  0
ENDTAB
  0
TABLE
  2
APPID
  5
9
100
AcDbSymbolTable
 70
     6
  0
APPID
  5
10
100
AcDbSymbolTableRecord
100
AcDbRegAppTableRecord
  2
ACAD
 70
     0
  0
APPID
  5
13AA
100
AcDbSymbolTableRecord
100
AcDbRegAppTableRecord
  2
DRAWINGVARIABLESXDATA
 70
     0
  0
APPID
  5
14D9
100
AcDbSymbolTableRecord
100
AcDbRegAppTableRecord
  2
CONTENTTABDATA
 70
     0
  0
APPID
  5
14DA
100
AcDbSymbolTableRecord
100
AcDbRegAppTableRecord
  2
CONTENTCURRENTTAB
 70
     0
  0
APPID
  5
14DF
100
AcDbSymbolTableRecord
100
AcDbRegAppTableRecord
  2
CONTENTBLOCKDESCRIPTION
 70
     0
  0
APPID
  5
1639
100
AcDbSymbolTableRecord
100
AcDbRegAppTableRecord
  2
CONTENTBLOCKICON
 70
     0
  0
ENDTAB
  0
TABLE
  2
DIMSTYLE
  5
A
100
AcDbSymbolTable
 70
     1
  0
DIMSTYLE
105
1381
100
AcDbSymbolTableRecord
100
AcDbDimStyleTableRecord
  2
STANDARD
 70
     0
  3

  4

  5

  6

  7

 40
1.0
 41
0.18
 42
0.0625
 43
0.38
 44
0.18
 45
0.0
 46
0.0
 47
0.0
 48
0.0
140
0.18
141
0.09
142
0.0
143
25.4
144
1.0
145
0.0
146
1.0
147
0.09
 71
     0
 72
     0
 73
     1
 74
     1
 75
     0
 76
     0
 77
     0
 78
     0
170
     0
171
     2
172
     0
173
     0
174
     0
175
     0
176
     0
177
     0
178
     0
270
     2
271
     4
272
     4
273
     2
274
     2
340
F
275
     0
280
     0
281
     0
282
     0
283
     1
284
     0
285
     0
286
     0
287
     3
288
     0
  0
ENDTAB
  0
TABLE
  2
BLOCK_RECORD
  5
1
100
AcDbSymbolTable
 70
     9
  0
BLOCK_RECORD
  5
17
100
AcDbSymbolTableRecord
100
AcDbBlockTableRecord
  2
*MODEL_SPACE
  0
BLOCK_RECORD
  5
14
100
AcDbSymbolTableRecord
100
AcDbBlockTableRecord
  2
*PAPER_SPACE
  0
BLOCK_RECORD
  5
1C
100
AcDbSymbolTableRecord
100
AcDbBlockTableRecord
  2
*X0
  0
BLOCK_RECORD
  5
1D
100
AcDbSymbolTableRecord
100
AcDbBlockTableRecord
  2
*X1
  0
BLOCK_RECORD
  5
1E
100
AcDbSymbolTableRecord
100
AcDbBlockTableRecord
  2
*X2
  0
BLOCK_RECORD
  5
1F
100
AcDbSymbolTableRecord
100
AcDbBlockTableRecord
  2
*X3
  0
BLOCK_RECORD
  5
20
100
AcDbSymbolTableRecord
100
AcDbBlockTableRecord
  2
*X4
  0
BLOCK_RECORD
  5
2594
100
AcDbSymbolTableRecord
100
AcDbBlockTableRecord
  2
*D5
  0
BLOCK_RECORD
  5
25A2
100
AcDbSymbolTableRecord
100
AcDbBlockTableRecord
  2
*D6
  0
BLOCK_RECORD
  5
267F
100
AcDbSymbolTableRecord
100
AcDbBlockTableRecord
  2
150PF
1001
CONTENTBLOCKICON
1071
        0
1004
280000002000000020000000010004000000000000020000000000000000000000000000000000000000000000008000008000000080800080000000800080008080000080808000C0C0C0000000FF0000FF000000FFFF00FF000000FF00FF00FFFF0000FFFFFF00FFFFFFFFFFFFFFFFFFFFFFFFFFFFFFFF
1004
FFFFFFFFFFFFFFFFFFFFFFFFFFFFFFFFFFFFFFFFFFFFFFFFFFFFFFFFFFFFFFFFFFFFFFFFFFFFFFFFFFFFFFFFFFFFFFFFFFFFFFFFFFFFFFFFFFFFFFFFFFFFFFFFFFFFFFFFFFFFFFFFFFFFFFFFFFFFFFFFFFFFFFFFFFFFFFFBABFFFFFFFFFFFFFFFFFFFFFFFFFFFFBBABFFFFFFFFFFFFFFFFFFFFFFFFFFFBAA
1004
AAABFFFFFFFFFFFFFFFFFFFFFFFBBBFFAFFBBBFFFFFFFFFFFFFFFFFFFFBBFFFBABFFFBFFFFFFFFFFFFFFFFFFFFBFFBBBABBBFFBFFFFFFFFFFFFFFFFFFBBFBBBBABFBBFBBFFFFFFFFFFFFFFFFFBFFBBBFAFBBBFFBFFFFFFFFFFFFFFFFFBFBBBFFAFFBBFFBFFFFFFFFFFFFFFFFAAAAAAAAAAAAAAAAAFFFFFFF
1004
FFFFFFFFFBFBFBFFAFFBBBFBFFFFFFFFFFFFFFFFFBFFBBBFAFBBBFFBFFFFFFFFFFFFFFFFFBBFBBBBABBBBFBBFFFFFFFFFFFFFFFFFFBFFBBFABBBFFBFFFFFFFFFFFFFFFFFFFBBFFFBABFFFBBFFFFFFFFFFFFFFFFFFFFBBFFFAFFFBBFFFFFFFFFFFFFFFFFFFFFFBBBBABBBFFFFFFFFFFFFFFFFFFFFFFFFFFAA
1004
AAAFFFFFFFFFFFFFFFFFFFFFFFFFFFFBABFFFFFFFFFFFFFFFFFFFFFFFFFFFFFFAFFFFFFFFFFFFFFFFFFFFFFFFFFFFFFFFFFFFFFFFFFFFFFFFFFFFFFFFFFFFFFFFFFFFFFFFFFFFFFFFFFFFFFFFFFFFFFFFFFFFFFFFFFFFFFFFFFFFFFFFFFFFFFFFFFFFFFFFFFFFFFFFFFFFFFFFFFFFFFFFFFFFFFFFFFFFFFF
1004
FFFFFFFFFFFFFFFFFFFFFFFFFFFFFFFF
  0
ENDTAB
  0
ENDSEC
  0
SECTION
  2
BLOCKS
  0
BLOCK
  5
44
100
AcDbEntity
  8
0
100
AcDbBlockBegin
  2
*MODEL_SPACE
 70
     0
 10
0.0
 20
0.0
 30
0.0
  3
*MODEL_SPACE
  1

  0
ENDBLK
  5
45
100
AcDbEntity
  8
0
100
AcDbBlockEnd
  0
BLOCK
  5
42
100
AcDbEntity
 67
     1
  8
0
100
AcDbBlockBegin
  2
*PAPER_SPACE
 70
     0
 10
0.0
 20
0.0
 30
0.0
  3
*PAPER_SPACE
  1

  0
ENDBLK
  5
43
100
AcDbEntity
 67
     1
  8
0
100
AcDbBlockEnd
  0
BLOCK
  5
48
100
AcDbEntity
  8
0
100
AcDbBlockBegin
  2
*X0
 70
     1
 10
0.0
 20
0.0
 30
0.0
  3
*X0
  1

  0
LINE
  5
49
100
AcDbEntity
  8
0
 62
     0
100
AcDbLine
 10
112.198979
 20
89.394785
 30
0.0
 11
114.86671
 21
92.062516
 31
0.0
  0
LINE
  5
4A
100
AcDbEntity
  8
0
 62
     0
100
AcDbLine
 10
112.198979
 20
89.527368
 30
0.0
 11
114.734127
 21
92.062516
 31
0.0
  0
LINE
  5
4B
100
AcDbEntity
  8
0
 62
     0
100
AcDbLine
 10
112.198979
 20
89.65995
 30
0.0
 11
114.601545
 21
92.062516
 31
0.0
  0
LINE
  5
4C
100
AcDbEntity
  8
0
 62
     0
100
AcDbLine
 10
112.198979
 20
89.792533
 30
0.0
 11
114.468962
 21
92.062516
 31
0.0
  0
LINE
  5
4D
100
AcDbEntity
  8
0
 62
     0
100
AcDbLine
 10
112.198979
 20
89.925115
 30
0.0
 11
114.33638
 21
92.062516
 31
0.0
  0
LINE
  5
4E
100
AcDbEntity
  8
0
 62
     0
100
AcDbLine
 10
112.198979
 20
90.057698
 30
0.0
 11
114.203797
 21
92.062516
 31
0.0
  0
LINE
  5
4F
100
AcDbEntity
  8
0
 62
     0
100
AcDbLine
 10
112.198979
 20
90.19028
 30
0.0
 11
114.071215
 21
92.062516
 31
0.0
  0
LINE
  5
50
100
AcDbEntity
  8
0
 62
     0
100
AcDbLine
 10
112.198979
 20
90.322863
 30
0.0
 11
113.938632
 21
92.062516
 31
0.0
  0
LINE
  5
51
100
AcDbEntity
  8
0
 62
     0
100
AcDbLine
 10
112.198979
 20
90.455445
 30
0.0
 11
113.80605
 21
92.062516
 31
0.0
  0
LINE
  5
52
100
AcDbEntity
  8
0
 62
     0
100
AcDbLine
 10
112.198979
 20
90.588028
 30
0.0
 11
113.673467
 21
92.062516
 31
0.0
  0
LINE
  5
53
100
AcDbEntity
  8
0
 62
     0
100
AcDbLine
 10
112.198979
 20
90.72061
 30
0.0
 11
113.540885
 21
92.062516
 31
0.0
  0
LINE
  5
54
100
AcDbEntity
  8
0
 62
     0
100
AcDbLine
 10
112.198979
 20
90.853193
 30
0.0
 11
113.408302
 21
92.062516
 31
0.0
  0
LINE
  5
55
100
AcDbEntity
  8
0
 62
     0
100
AcDbLine
 10
112.198979
 20
90.985775
 30
0.0
 11
113.27572
 21
92.062516
 31
0.0
  0
LINE
  5
56
100
AcDbEntity
  8
0
 62
     0
100
AcDbLine
 10
112.198979
 20
91.118358
 30
0.0
 11
113.143137
 21
92.062516
 31
0.0
  0
LINE
  5
57
100
AcDbEntity
  8
0
 62
     0
100
AcDbLine
 10
112.198979
 20
91.25094
 30
0.0
 11
113.010555
 21
92.062516
 31
0.0
  0
LINE
  5
58
100
AcDbEntity
  8
0
 62
     0
100
AcDbLine
 10
112.198979
 20
91.383523
 30
0.0
 11
112.877972
 21
92.062516
 31
0.0
  0
LINE
  5
59
100
AcDbEntity
  8
0
 62
     0
100
AcDbLine
 10
112.198979
 20
91.516105
 30
0.0
 11
112.74539
 21
92.062516
 31
0.0
  0
LINE
  5
5A
100
AcDbEntity
  8
0
 62
     0
100
AcDbLine
 10
112.198979
 20
91.648688
 30
0.0
 11
112.612807
 21
92.062516
 31
0.0
  0
LINE
  5
5B
100
AcDbEntity
  8
0
 62
     0
100
AcDbLine
 10
112.198979
 20
91.78127
 30
0.0
 11
112.480225
 21
92.062516
 31
0.0
  0
LINE
  5
5C
100
AcDbEntity
  8
0
 62
     0
100
AcDbLine
 10
112.198979
 20
91.913853
 30
0.0
 11
112.347642
 21
92.062516
 31
0.0
  0
LINE
  5
5D
100
AcDbEntity
  8
0
 62
     0
100
AcDbLine
 10
112.198979
 20
92.046436
 30
0.0
 11
112.21506
 21
92.062516
 31
0.0
  0
LINE
  5
5E
100
AcDbEntity
  8
0
 62
     0
100
AcDbLine
 10
112.252751
 20
89.315975
 30
0.0
 11
114.94552
 21
92.008744
 31
0.0
  0
LINE
  5
5F
100
AcDbEntity
  8
0
 62
     0
100
AcDbLine
 10
112.391567
 20
89.322208
 30
0.0
 11
114.939287
 21
91.869928
 31
0.0
  0
LINE
  5
60
100
AcDbEntity
  8
0
 62
     0
100
AcDbLine
 10
112.538445
 20
89.336504
 30
0.0
 11
114.924991
 21
91.72305
 31
0.0
  0
LINE
  5
61
100
AcDbEntity
  8
0
 62
     0
100
AcDbLine
 10
112.695154
 20
89.36063
 30
0.0
 11
114.900865
 21
91.566341
 31
0.0
  0
LINE
  5
62
100
AcDbEntity
  8
0
 62
     0
100
AcDbLine
 10
112.864354
 20
89.397248
 30
0.0
 11
114.864247
 21
91.397141
 31
0.0
  0
LINE
  5
63
100
AcDbEntity
  8
0
 62
     0
100
AcDbLine
 10
113.050418
 20
89.45073
 30
0.0
 11
114.810765
 21
91.211077
 31
0.0
  0
LINE
  5
64
100
AcDbEntity
  8
0
 62
     0
100
AcDbLine
 10
113.26154
 20
89.529269
 30
0.0
 11
114.732226
 21
90.999955
 31
0.0
  0
LINE
  5
65
100
AcDbEntity
  8
0
 62
     0
100
AcDbLine
 10
113.517314
 20
89.65246
 30
0.0
 11
114.609035
 21
90.744181
 31
0.0
  0
LINE
  5
66
100
AcDbEntity
  8
0
 62
     0
100
AcDbLine
 10
113.914036
 20
89.9166
 30
0.0
 11
114.344895
 21
90.347459
 31
0.0
  0
LINE
  5
67
100
AcDbEntity
  8
0
 62
     0
100
AcDbLine
 10
114.098784
 20
90.078299
 30
0.0
 11
112.198979
 21
91.978104
 31
0.0
  0
LINE
  5
68
100
AcDbEntity
  8
0
 62
     0
100
AcDbLine
 10
114.029919
 20
90.014581
 30
0.0
 11
112.198979
 21
91.845522
 31
0.0
  0
LINE
  5
69
100
AcDbEntity
  8
0
 62
     0
100
AcDbLine
 10
113.95878
 20
89.953138
 30
0.0
 11
112.198979
 21
91.712939
 31
0.0
  0
LINE
  5
6A
100
AcDbEntity
  8
0
 62
     0
100
AcDbLine
 10
113.885351
 20
89.893985
 30
0.0
 11
112.198979
 21
91.580357
 31
0.0
  0
LINE
  5
6B
100
AcDbEntity
  8
0
 62
     0
100
AcDbLine
 10
113.809605
 20
89.837148
 30
0.0
 11
112.198979
 21
91.447774
 31
0.0
  0
LINE
  5
6C
100
AcDbEntity
  8
0
 62
     0
100
AcDbLine
 10
113.731508
 20
89.782662
 30
0.0
 11
112.198979
 21
91.315192
 31
0.0
  0
LINE
  5
6D
100
AcDbEntity
  8
0
 62
     0
100
AcDbLine
 10
113.651016
 20
89.730572
 30
0.0
 11
112.198979
 21
91.182609
 31
0.0
  0
LINE
  5
6E
100
AcDbEntity
  8
0
 62
     0
100
AcDbLine
 10
113.568075
 20
89.68093
 30
0.0
 11
112.198979
 21
91.050027
 31
0.0
  0
LINE
  5
6F
100
AcDbEntity
  8
0
 62
     0
100
AcDbLine
 10
113.482619
 20
89.633803
 30
0.0
 11
112.198979
 21
90.917444
 31
0.0
  0
LINE
  5
70
100
AcDbEntity
  8
0
 62
     0
100
AcDbLine
 10
113.394569
 20
89.589271
 30
0.0
 11
112.198979
 21
90.784862
 31
0.0
  0
LINE
  5
71
100
AcDbEntity
  8
0
 62
     0
100
AcDbLine
 10
113.303832
 20
89.547426
 30
0.0
 11
112.198979
 21
90.652279
 31
0.0
  0
LINE
  5
72
100
AcDbEntity
  8
0
 62
     0
100
AcDbLine
 10
113.210296
 20
89.508379
 30
0.0
 11
112.198979
 21
90.519697
 31
0.0
  0
LINE
  5
73
100
AcDbEntity
  8
0
 62
     0
100
AcDbLine
 10
113.113832
 20
89.472261
 30
0.0
 11
112.198979
 21
90.387114
 31
0.0
  0
LINE
  5
74
100
AcDbEntity
  8
0
 62
     0
100
AcDbLine
 10
113.014285
 20
89.439225
 30
0.0
 11
112.198979
 21
90.254532
 31
0.0
  0
LINE
  5
75
100
AcDbEntity
  8
0
 62
     0
100
AcDbLine
 10
112.911472
 20
89.409455
 30
0.0
 11
112.198979
 21
90.121949
 31
0.0
  0
LINE
  5
76
100
AcDbEntity
  8
0
 62
     0
100
AcDbLine
 10
112.805177
 20
89.383169
 30
0.0
 11
112.198979
 21
89.989366
 31
0.0
  0
LINE
  5
77
100
AcDbEntity
  8
0
 62
     0
100
AcDbLine
 10
112.695136
 20
89.360627
 30
0.0
 11
112.198979
 21
89.856784
 31
0.0
  0
LINE
  5
78
100
AcDbEntity
  8
0
 62
     0
100
AcDbLine
 10
112.581034
 20
89.342146
 30
0.0
 11
112.198979
 21
89.724201
 31
0.0
  0
LINE
  5
79
100
AcDbEntity
  8
0
 62
     0
100
AcDbLine
 10
112.462482
 20
89.328116
 30
0.0
 11
112.198979
 21
89.591619
 31
0.0
  0
LINE
  5
7A
100
AcDbEntity
  8
0
 62
     0
100
AcDbLine
 10
112.338996
 20
89.319019
 30
0.0
 11
112.198979
 21
89.459036
 31
0.0
  0
LINE
  5
7B
100
AcDbEntity
  8
0
 62
     0
100
AcDbLine
 10
112.209962
 20
89.315471
 30
0.0
 11
112.198979
 21
89.326454
 31
0.0
  0
LINE
  5
7C
100
AcDbEntity
  8
0
 62
     0
100
AcDbLine
 10
114.165385
 20
90.144281
 30
0.0
 11
112.247149
 21
92.062516
 31
0.0
  0
LINE
  5
7D
100
AcDbEntity
  8
0
 62
     0
100
AcDbLine
 10
114.229722
 20
90.212526
 30
0.0
 11
112.379732
 21
92.062516
 31
0.0
  0
LINE
  5
7E
100
AcDbEntity
  8
0
 62
     0
100
AcDbLine
 10
114.291788
 20
90.283042
 30
0.0
 11
112.512314
 21
92.062516
 31
0.0
  0
LINE
  5
7F
100
AcDbEntity
  8
0
 62
     0
100
AcDbLine
 10
114.35157
 20
90.355844
 30
0.0
 11
112.644897
 21
92.062516
 31
0.0
  0
LINE
  5
80
100
AcDbEntity
  8
0
 62
     0
100
AcDbLine
 10
114.409042
 20
90.430953
 30
0.0
 11
112.777479
 21
92.062516
 31
0.0
  0
LINE
  5
81
100
AcDbEntity
  8
0
 62
     0
100
AcDbLine
 10
114.464175
 20
90.508403
 30
0.0
 11
112.910062
 21
92.062516
 31
0.0
  0
LINE
  5
82
100
AcDbEntity
  8
0
 62
     0
100
AcDbLine
 10
114.516925
 20
90.588236
 30
0.0
 11
113.042644
 21
92.062516
 31
0.0
  0
LINE
  5
83
100
AcDbEntity
  8
0
 62
     0
100
AcDbLine
 10
114.567242
 20
90.670501
 30
0.0
 11
113.175227
 21
92.062516
 31
0.0
  0
LINE
  5
84
100
AcDbEntity
  8
0
 62
     0
100
AcDbLine
 10
114.615064
 20
90.755262
 30
0.0
 11
113.30781
 21
92.062516
 31
0.0
  0
LINE
  5
85
100
AcDbEntity
  8
0
 62
     0
100
AcDbLine
 10
114.660314
 20
90.842594
 30
0.0
 11
113.440392
 21
92.062516
 31
0.0
  0
LINE
  5
86
100
AcDbEntity
  8
0
 62
     0
100
AcDbLine
 10
114.702904
 20
90.932587
 30
0.0
 11
113.572975
 21
92.062516
 31
0.0
  0
LINE
  5
87
100
AcDbEntity
  8
0
 62
     0
100
AcDbLine
 10
114.742727
 20
91.025346
 30
0.0
 11
113.705557
 21
92.062516
 31
0.0
  0
LINE
  5
88
100
AcDbEntity
  8
0
 62
     0
100
AcDbLine
 10
114.77966
 20
91.120995
 30
0.0
 11
113.83814
 21
92.062516
 31
0.0
  0
LINE
  5
89
100
AcDbEntity
  8
0
 62
     0
100
AcDbLine
 10
114.813555
 20
91.219683
 30
0.0
 11
113.970722
 21
92.062516
 31
0.0
  0
LINE
  5
8A
100
AcDbEntity
  8
0
 62
     0
100
AcDbLine
 10
114.844238
 20
91.321583
 30
0.0
 11
114.103305
 21
92.062516
 31
0.0
  0
LINE
  5
8B
100
AcDbEntity
  8
0
 62
     0
100
AcDbLine
 10
114.871501
 20
91.426903
 30
0.0
 11
114.235887
 21
92.062516
 31
0.0
  0
LINE
  5
8C
100
AcDbEntity
  8
0
 62
     0
100
AcDbLine
 10
114.895095
 20
91.535891
 30
0.0
 11
114.36847
 21
92.062516
 31
0.0
  0
LINE
  5
8D
100
AcDbEntity
  8
0
 62
     0
100
AcDbLine
 10
114.914721
 20
91.648847
 30
0.0
 11
114.501052
 21
92.062516
 31
0.0
  0
LINE
  5
8E
100
AcDbEntity
  8
0
 62
     0
100
AcDbLine
 10
114.930012
 20
91.766139
 30
0.0
 11
114.633635
 21
92.062516
 31
0.0
  0
LINE
  5
8F
100
AcDbEntity
  8
0
 62
     0
100
AcDbLine
 10
114.940511
 20
91.888222
 30
0.0
 11
114.766217
 21
92.062516
 31
0.0
  0
LINE
  5
90
100
AcDbEntity
  8
0
 62
     0
100
AcDbLine
 10
114.945647
 20
92.015669
 30
0.0
 11
114.8988
 21
92.062516
 31
0.0
  0
ENDBLK
  5
91
100
AcDbEntity
  8
0
100
AcDbBlockEnd
  0
BLOCK
  5
92
100
AcDbEntity
  8
0
100
AcDbBlockBegin
  2
*X1
 70
     1
 10
0.0
 20
0.0
 30
0.0
  3
*X1
  1

  0
LINE
  5
93
100
AcDbEntity
  8
0
 62
     0
100
AcDbLine
 10
109.451993
 20
92.083683
 30
0.0
 11
112.177812
 21
94.809502
 31
0.0
  0
LINE
  5
94
100
AcDbEntity
  8
0
 62
     0
100
AcDbLine
 10
109.456472
 20
92.220744
 30
0.0
 11
112.040751
 21
94.805023
 31
0.0
  0
LINE
  5
95
100
AcDbEntity
  8
0
 62
     0
100
AcDbLine
 10
109.468674
 20
92.365529
 30
0.0
 11
111.895966
 21
94.792821
 31
0.0
  0
LINE
  5
96
100
AcDbEntity
  8
0
 62
     0
100
AcDbLine
 10
109.490214
 20
92.519651
 30
0.0
 11
111.741844
 21
94.771281
 31
0.0
  0
LINE
  5
97
100
AcDbEntity
  8
0
 62
     0
100
AcDbLine
 10
109.523486
 20
92.685505
 30
0.0
 11
111.57599
 21
94.738009
 31
0.0
  0
LINE
  5
98
100
AcDbEntity
  8
0
 62
     0
100
AcDbLine
 10
109.572327
 20
92.86693
 30
0.0
 11
111.394566
 21
94.689168
 31
0.0
  0
LINE
  5
99
100
AcDbEntity
  8
0
 62
     0
100
AcDbLine
 10
109.64366
 20
93.070845
 30
0.0
 11
111.19065
 21
94.617835
 31
0.0
  0
LINE
  5
9A
100
AcDbEntity
  8
0
 62
     0
100
AcDbLine
 10
109.752816
 20
93.312584
 30
0.0
 11
110.948911
 21
94.508679
 31
0.0
  0
LINE
  5
9B
100
AcDbEntity
  8
0
 62
     0
100
AcDbLine
 10
109.955576
 20
93.647926
 30
0.0
 11
110.613569
 21
94.305919
 31
0.0
  0
LINE
  5
9C
100
AcDbEntity
  8
0
 62
     0
100
AcDbLine
 10
109.563409
 20
92.062516
 30
0.0
 11
112.198979
 21
94.698086
 31
0.0
  0
LINE
  5
9D
100
AcDbEntity
  8
0
 62
     0
100
AcDbLine
 10
109.695992
 20
92.062516
 30
0.0
 11
112.198979
 21
94.565503
 31
0.0
  0
LINE
  5
9E
100
AcDbEntity
  8
0
 62
     0
100
AcDbLine
 10
109.828574
 20
92.062516
 30
0.0
 11
112.198979
 21
94.432921
 31
0.0
  0
LINE
  5
9F
100
AcDbEntity
  8
0
 62
     0
100
AcDbLine
 10
109.961157
 20
92.062516
 30
0.0
 11
112.198979
 21
94.300338
 31
0.0
  0
LINE
  5
A0
100
AcDbEntity
  8
0
 62
     0
100
AcDbLine
 10
110.093739
 20
92.062516
 30
0.0
 11
112.198979
 21
94.167756
 31
0.0
  0
LINE
  5
A1
100
AcDbEntity
  8
0
 62
     0
100
AcDbLine
 10
110.226322
 20
92.062516
 30
0.0
 11
112.198979
 21
94.035173
 31
0.0
  0
LINE
  5
A2
100
AcDbEntity
  8
0
 62
     0
100
AcDbLine
 10
110.358904
 20
92.062516
 30
0.0
 11
112.198979
 21
93.902591
 31
0.0
  0
LINE
  5
A3
100
AcDbEntity
  8
0
 62
     0
100
AcDbLine
 10
110.491487
 20
92.062516
 30
0.0
 11
112.198979
 21
93.770008
 31
0.0
  0
LINE
  5
A4
100
AcDbEntity
  8
0
 62
     0
100
AcDbLine
 10
110.624069
 20
92.062516
 30
0.0
 11
112.198979
 21
93.637426
 31
0.0
  0
LINE
  5
A5
100
AcDbEntity
  8
0
 62
     0
100
AcDbLine
 10
110.756652
 20
92.062516
 30
0.0
 11
112.198979
 21
93.504843
 31
0.0
  0
LINE
  5
A6
100
AcDbEntity
  8
0
 62
     0
100
AcDbLine
 10
110.889234
 20
92.062516
 30
0.0
 11
112.198979
 21
93.372261
 31
0.0
  0
LINE
  5
A7
100
AcDbEntity
  8
0
 62
     0
100
AcDbLine
 10
111.021817
 20
92.062516
 30
0.0
 11
112.198979
 21
93.239678
 31
0.0
  0
LINE
  5
A8
100
AcDbEntity
  8
0
 62
     0
100
AcDbLine
 10
111.154399
 20
92.062516
 30
0.0
 11
112.198979
 21
93.107096
 31
0.0
  0
LINE
  5
A9
100
AcDbEntity
  8
0
 62
     0
100
AcDbLine
 10
111.286982
 20
92.062516
 30
0.0
 11
112.198979
 21
92.974513
 31
0.0
  0
LINE
  5
AA
100
AcDbEntity
  8
0
 62
     0
100
AcDbLine
 10
111.419564
 20
92.062516
 30
0.0
 11
112.198979
 21
92.841931
 31
0.0
  0
LINE
  5
AB
100
AcDbEntity
  8
0
 62
     0
100
AcDbLine
 10
111.552147
 20
92.062516
 30
0.0
 11
112.198979
 21
92.709348
 31
0.0
  0
LINE
  5
AC
100
AcDbEntity
  8
0
 62
     0
100
AcDbLine
 10
111.684729
 20
92.062516
 30
0.0
 11
112.198979
 21
92.576766
 31
0.0
  0
LINE
  5
AD
100
AcDbEntity
  8
0
 62
     0
100
AcDbLine
 10
111.817312
 20
92.062516
 30
0.0
 11
112.198979
 21
92.444183
 31
0.0
  0
LINE
  5
AE
100
AcDbEntity
  8
0
 62
     0
100
AcDbLine
 10
111.949894
 20
92.062516
 30
0.0
 11
112.198979
 21
92.311601
 31
0.0
  0
LINE
  5
AF
100
AcDbEntity
  8
0
 62
     0
100
AcDbLine
 10
112.082477
 20
92.062516
 30
0.0
 11
112.198979
 21
92.179018
 31
0.0
  0
LINE
  5
B0
100
AcDbEntity
  8
0
 62
     0
100
AcDbLine
 10
112.114567
 20
92.062516
 30
0.0
 11
110.214761
 21
93.962322
 31
0.0
  0
LINE
  5
B1
100
AcDbEntity
  8
0
 62
     0
100
AcDbLine
 10
111.981984
 20
92.062516
 30
0.0
 11
110.151044
 21
93.893457
 31
0.0
  0
LINE
  5
B2
100
AcDbEntity
  8
0
 62
     0
100
AcDbLine
 10
111.849402
 20
92.062516
 30
0.0
 11
110.0896
 21
93.822318
 31
0.0
  0
LINE
  5
B3
100
AcDbEntity
  8
0
 62
     0
100
AcDbLine
 10
111.716819
 20
92.062516
 30
0.0
 11
110.030447
 21
93.748888
 31
0.0
  0
LINE
  5
B4
100
AcDbEntity
  8
0
 62
     0
100
AcDbLine
 10
111.584237
 20
92.062516
 30
0.0
 11
109.973611
 21
93.673142
 31
0.0
  0
LINE
  5
B5
100
AcDbEntity
  8
0
 62
     0
100
AcDbLine
 10
111.451654
 20
92.062516
 30
0.0
 11
109.919125
 21
93.595045
 31
0.0
  0
LINE
  5
B6
100
AcDbEntity
  8
0
 62
     0
100
AcDbLine
 10
111.319072
 20
92.062516
 30
0.0
 11
109.867034
 21
93.514554
 31
0.0
  0
LINE
  5
B7
100
AcDbEntity
  8
0
 62
     0
100
AcDbLine
 10
111.186489
 20
92.062516
 30
0.0
 11
109.817392
 21
93.431613
 31
0.0
  0
LINE
  5
B8
100
AcDbEntity
  8
0
 62
     0
100
AcDbLine
 10
111.053907
 20
92.062516
 30
0.0
 11
109.770266
 21
93.346157
 31
0.0
  0
LINE
  5
B9
100
AcDbEntity
  8
0
 62
     0
100
AcDbLine
 10
110.921324
 20
92.062516
 30
0.0
 11
109.725734
 21
93.258107
 31
0.0
  0
LINE
  5
BA
100
AcDbEntity
  8
0
 62
     0
100
AcDbLine
 10
110.788742
 20
92.062516
 30
0.0
 11
109.683889
 21
93.167369
 31
0.0
  0
LINE
  5
BB
100
AcDbEntity
  8
0
 62
     0
100
AcDbLine
 10
110.656159
 20
92.062516
 30
0.0
 11
109.644842
 21
93.073834
 31
0.0
  0
LINE
  5
BC
100
AcDbEntity
  8
0
 62
     0
100
AcDbLine
 10
110.523577
 20
92.062516
 30
0.0
 11
109.608723
 21
92.977369
 31
0.0
  0
LINE
  5
BD
100
AcDbEntity
  8
0
 62
     0
100
AcDbLine
 10
110.390994
 20
92.062516
 30
0.0
 11
109.575688
 21
92.877822
 31
0.0
  0
LINE
  5
BE
100
AcDbEntity
  8
0
 62
     0
100
AcDbLine
 10
110.258412
 20
92.062516
 30
0.0
 11
109.545918
 21
92.77501
 31
0.0
  0
LINE
  5
BF
100
AcDbEntity
  8
0
 62
     0
100
AcDbLine
 10
110.125829
 20
92.062516
 30
0.0
 11
109.519631
 21
92.668714
 31
0.0
  0
LINE
  5
C0
100
AcDbEntity
  8
0
 62
     0
100
AcDbLine
 10
109.993246
 20
92.062516
 30
0.0
 11
109.497089
 21
92.558673
 31
0.0
  0
LINE
  5
C1
100
AcDbEntity
  8
0
 62
     0
100
AcDbLine
 10
109.860664
 20
92.062516
 30
0.0
 11
109.478609
 21
92.444571
 31
0.0
  0
LINE
  5
C2
100
AcDbEntity
  8
0
 62
     0
100
AcDbLine
 10
109.728081
 20
92.062516
 30
0.0
 11
109.464578
 21
92.326019
 31
0.0
  0
LINE
  5
C3
100
AcDbEntity
  8
0
 62
     0
100
AcDbLine
 10
109.595499
 20
92.062516
 30
0.0
 11
109.455482
 21
92.202533
 31
0.0
  0
LINE
  5
C4
100
AcDbEntity
  8
0
 62
     0
100
AcDbLine
 10
109.462916
 20
92.062516
 30
0.0
 11
109.451933
 21
92.073499
 31
0.0
  0
LINE
  5
C5
100
AcDbEntity
  8
0
 62
     0
100
AcDbLine
 10
112.198979
 20
92.110687
 30
0.0
 11
110.280743
 21
94.028922
 31
0.0
  0
LINE
  5
C6
100
AcDbEntity
  8
0
 62
     0
100
AcDbLine
 10
112.198979
 20
92.243269
 30
0.0
 11
110.348989
 21
94.093259
 31
0.0
  0
LINE
  5
C7
100
AcDbEntity
  8
0
 62
     0
100
AcDbLine
 10
112.198979
 20
92.375852
 30
0.0
 11
110.419505
 21
94.155326
 31
0.0
  0
LINE
  5
C8
100
AcDbEntity
  8
0
 62
     0
100
AcDbLine
 10
112.198979
 20
92.508434
 30
0.0
 11
110.492306
 21
94.215107
 31
0.0
  0
LINE
  5
C9
100
AcDbEntity
  8
0
 62
     0
100
AcDbLine
 10
112.198979
 20
92.641017
 30
0.0
 11
110.567416
 21
94.27258
 31
0.0
  0
LINE
  5
CA
100
AcDbEntity
  8
0
 62
     0
100
AcDbLine
 10
112.198979
 20
92.773599
 30
0.0
 11
110.644866
 21
94.327712
 31
0.0
  0
LINE
  5
CB
100
AcDbEntity
  8
0
 62
     0
100
AcDbLine
 10
112.198979
 20
92.906182
 30
0.0
 11
110.724698
 21
94.380463
 31
0.0
  0
LINE
  5
CC
100
AcDbEntity
  8
0
 62
     0
100
AcDbLine
 10
112.198979
 20
93.038764
 30
0.0
 11
110.806963
 21
94.43078
 31
0.0
  0
LINE
  5
CD
100
AcDbEntity
  8
0
 62
     0
100
AcDbLine
 10
112.198979
 20
93.171347
 30
0.0
 11
110.891725
 21
94.478601
 31
0.0
  0
LINE
  5
CE
100
AcDbEntity
  8
0
 62
     0
100
AcDbLine
 10
112.198979
 20
93.303929
 30
0.0
 11
110.979057
 21
94.523851
 31
0.0
  0
LINE
  5
CF
100
AcDbEntity
  8
0
 62
     0
100
AcDbLine
 10
112.198979
 20
93.436512
 30
0.0
 11
111.06905
 21
94.566441
 31
0.0
  0
LINE
  5
D0
100
AcDbEntity
  8
0
 62
     0
100
AcDbLine
 10
112.198979
 20
93.569095
 30
0.0
 11
111.161808
 21
94.606265
 31
0.0
  0
LINE
  5
D1
100
AcDbEntity
  8
0
 62
     0
100
AcDbLine
 10
112.198979
 20
93.701677
 30
0.0
 11
111.257458
 21
94.643198
 31
0.0
  0
LINE
  5
D2
100
AcDbEntity
  8
0
 62
     0
100
AcDbLine
 10
112.198979
 20
93.83426
 30
0.0
 11
111.356145
 21
94.677093
 31
0.0
  0
LINE
  5
D3
100
AcDbEntity
  8
0
 62
     0
100
AcDbLine
 10
112.198979
 20
93.966842
 30
0.0
 11
111.458045
 21
94.707776
 31
0.0
  0
LINE
  5
D4
100
AcDbEntity
  8
0
 62
     0
100
AcDbLine
 10
112.198979
 20
94.099425
 30
0.0
 11
111.563365
 21
94.735038
 31
0.0
  0
LINE
  5
D5
100
AcDbEntity
  8
0
 62
     0
100
AcDbLine
 10
112.198979
 20
94.232007
 30
0.0
 11
111.672353
 21
94.758633
 31
0.0
  0
LINE
  5
D6
100
AcDbEntity
  8
0
 62
     0
100
AcDbLine
 10
112.198979
 20
94.36459
 30
0.0
 11
111.78531
 21
94.778259
 31
0.0
  0
LINE
  5
D7
100
AcDbEntity
  8
0
 62
     0
100
AcDbLine
 10
112.198979
 20
94.497172
 30
0.0
 11
111.902602
 21
94.793549
 31
0.0
  0
LINE
  5
D8
100
AcDbEntity
  8
0
 62
     0
100
AcDbLine
 10
112.198979
 20
94.629755
 30
0.0
 11
112.024685
 21
94.804049
 31
0.0
  0
LINE
  5
D9
100
AcDbEntity
  8
0
 62
     0
100
AcDbLine
 10
112.198979
 20
94.762337
 30
0.0
 11
112.152132
 21
94.809184
 31
0.0
  0
ENDBLK
  5
DA
100
AcDbEntity
  8
0
100
AcDbBlockEnd
  0
BLOCK
  5
DB
100
AcDbEntity
  8
0
100
AcDbBlockBegin
  2
*X2
 70
     1
 10
0.0
 20
0.0
 30
0.0
  3
*X2
  1

  0
LINE
  5
DC
100
AcDbEntity
  8
0
 62
     0
100
AcDbLine
 10
164.634173
 20
97.193864
 30
0.0
 11
165.570452
 21
98.130143
 31
0.0
  0
LINE
  5
DD
100
AcDbEntity
  8
0
 62
     0
100
AcDbLine
 10
164.545785
 20
97.193864
 30
0.0
 11
165.482064
 21
98.130143
 31
0.0
  0
LINE
  5
DE
100
AcDbEntity
  8
0
 62
     0
100
AcDbLine
 10
164.457396
 20
97.193864
 30
0.0
 11
165.393676
 21
98.130143
 31
0.0
  0
LINE
  5
DF
100
AcDbEntity
  8
0
 62
     0
100
AcDbLine
 10
164.369008
 20
97.193864
 30
0.0
 11
165.305287
 21
98.130143
 31
0.0
  0
LINE
  5
E0
100
AcDbEntity
  8
0
 62
     0
100
AcDbLine
 10
164.28062
 20
97.193864
 30
0.0
 11
165.216899
 21
98.130143
 31
0.0
  0
LINE
  5
E1
100
AcDbEntity
  8
0
 62
     0
100
AcDbLine
 10
164.192231
 20
97.193864
 30
0.0
 11
165.128511
 21
98.130143
 31
0.0
  0
LINE
  5
E2
100
AcDbEntity
  8
0
 62
     0
100
AcDbLine
 10
164.177907
 20
97.267928
 30
0.0
 11
165.040122
 21
98.130143
 31
0.0
  0
LINE
  5
E3
100
AcDbEntity
  8
0
 62
     0
100
AcDbLine
 10
164.177907
 20
97.356316
 30
0.0
 11
164.951734
 21
98.130143
 31
0.0
  0
LINE
  5
E4
100
AcDbEntity
  8
0
 62
     0
100
AcDbLine
 10
164.177907
 20
97.444705
 30
0.0
 11
164.863346
 21
98.130143
 31
0.0
  0
LINE
  5
E5
100
AcDbEntity
  8
0
 62
     0
100
AcDbLine
 10
164.177907
 20
97.533093
 30
0.0
 11
164.774957
 21
98.130143
 31
0.0
  0
LINE
  5
E6
100
AcDbEntity
  8
0
 62
     0
100
AcDbLine
 10
164.177907
 20
97.621481
 30
0.0
 11
164.686569
 21
98.130143
 31
0.0
  0
LINE
  5
E7
100
AcDbEntity
  8
0
 62
     0
100
AcDbLine
 10
164.177907
 20
97.70987
 30
0.0
 11
164.598181
 21
98.130143
 31
0.0
  0
LINE
  5
E8
100
AcDbEntity
  8
0
 62
     0
100
AcDbLine
 10
164.177907
 20
97.798258
 30
0.0
 11
164.509792
 21
98.130143
 31
0.0
  0
LINE
  5
E9
100
AcDbEntity
  8
0
 62
     0
100
AcDbLine
 10
164.177907
 20
97.886646
 30
0.0
 11
164.421404
 21
98.130143
 31
0.0
  0
LINE
  5
EA
100
AcDbEntity
  8
0
 62
     0
100
AcDbLine
 10
164.177907
 20
97.975035
 30
0.0
 11
164.333016
 21
98.130143
 31
0.0
  0
LINE
  5
EB
100
AcDbEntity
  8
0
 62
     0
100
AcDbLine
 10
164.177907
 20
98.063423
 30
0.0
 11
164.244627
 21
98.130143
 31
0.0
  0
LINE
  5
EC
100
AcDbEntity
  8
0
 62
     0
100
AcDbLine
 10
164.722561
 20
97.193864
 30
0.0
 11
165.658841
 21
98.130143
 31
0.0
  0
LINE
  5
ED
100
AcDbEntity
  8
0
 62
     0
100
AcDbLine
 10
164.81095
 20
97.193864
 30
0.0
 11
165.747229
 21
98.130143
 31
0.0
  0
LINE
  5
EE
100
AcDbEntity
  8
0
 62
     0
100
AcDbLine
 10
164.899338
 20
97.193864
 30
0.0
 11
165.835617
 21
98.130143
 31
0.0
  0
LINE
  5
EF
100
AcDbEntity
  8
0
 62
     0
100
AcDbLine
 10
164.987727
 20
97.193864
 30
0.0
 11
165.924006
 21
98.130143
 31
0.0
  0
LINE
  5
F0
100
AcDbEntity
  8
0
 62
     0
100
AcDbLine
 10
165.076115
 20
97.193864
 30
0.0
 11
166.012394
 21
98.130143
 31
0.0
  0
LINE
  5
F1
100
AcDbEntity
  8
0
 62
     0
100
AcDbLine
 10
165.164503
 20
97.193864
 30
0.0
 11
166.100783
 21
98.130143
 31
0.0
  0
LINE
  5
F2
100
AcDbEntity
  8
0
 62
     0
100
AcDbLine
 10
165.252892
 20
97.193864
 30
0.0
 11
166.177907
 21
98.118879
 31
0.0
  0
LINE
  5
F3
100
AcDbEntity
  8
0
 62
     0
100
AcDbLine
 10
165.34128
 20
97.193864
 30
0.0
 11
166.177907
 21
98.030491
 31
0.0
  0
LINE
  5
F4
100
AcDbEntity
  8
0
 62
     0
100
AcDbLine
 10
165.429668
 20
97.193864
 30
0.0
 11
166.177907
 21
97.942103
 31
0.0
  0
LINE
  5
F5
100
AcDbEntity
  8
0
 62
     0
100
AcDbLine
 10
165.518057
 20
97.193864
 30
0.0
 11
166.177907
 21
97.853714
 31
0.0
  0
LINE
  5
F6
100
AcDbEntity
  8
0
 62
     0
100
AcDbLine
 10
165.606445
 20
97.193864
 30
0.0
 11
166.177907
 21
97.765326
 31
0.0
  0
LINE
  5
F7
100
AcDbEntity
  8
0
 62
     0
100
AcDbLine
 10
165.694833
 20
97.193864
 30
0.0
 11
166.177907
 21
97.676938
 31
0.0
  0
LINE
  5
F8
100
AcDbEntity
  8
0
 62
     0
100
AcDbLine
 10
165.783222
 20
97.193864
 30
0.0
 11
166.177907
 21
97.588549
 31
0.0
  0
LINE
  5
F9
100
AcDbEntity
  8
0
 62
     0
100
AcDbLine
 10
165.87161
 20
97.193864
 30
0.0
 11
166.177907
 21
97.500161
 31
0.0
  0
LINE
  5
FA
100
AcDbEntity
  8
0
 62
     0
100
AcDbLine
 10
165.959998
 20
97.193864
 30
0.0
 11
166.177907
 21
97.411773
 31
0.0
  0
LINE
  5
FB
100
AcDbEntity
  8
0
 62
     0
100
AcDbLine
 10
166.048387
 20
97.193864
 30
0.0
 11
166.177907
 21
97.323384
 31
0.0
  0
LINE
  5
FC
100
AcDbEntity
  8
0
 62
     0
100
AcDbLine
 10
166.136775
 20
97.193864
 30
0.0
 11
166.177907
 21
97.234996
 31
0.0
  0
LINE
  5
FD
100
AcDbEntity
  8
0
 62
     0
100
AcDbLine
 10
165.584694
 20
97.193864
 30
0.0
 11
164.648414
 21
98.130143
 31
0.0
  0
LINE
  5
FE
100
AcDbEntity
  8
0
 62
     0
100
AcDbLine
 10
165.496305
 20
97.193864
 30
0.0
 11
164.560026
 21
98.130143
 31
0.0
  0
LINE
  5
FF
100
AcDbEntity
  8
0
 62
     0
100
AcDbLine
 10
165.407917
 20
97.193864
 30
0.0
 11
164.471638
 21
98.130143
 31
0.0
  0
LINE
  5
100
100
AcDbEntity
  8
0
 62
     0
100
AcDbLine
 10
165.319529
 20
97.193864
 30
0.0
 11
164.383249
 21
98.130143
 31
0.0
  0
LINE
  5
101
100
AcDbEntity
  8
0
 62
     0
100
AcDbLine
 10
165.23114
 20
97.193864
 30
0.0
 11
164.294861
 21
98.130143
 31
0.0
  0
LINE
  5
102
100
AcDbEntity
  8
0
 62
     0
100
AcDbLine
 10
165.142752
 20
97.193864
 30
0.0
 11
164.206473
 21
98.130143
 31
0.0
  0
LINE
  5
103
100
AcDbEntity
  8
0
 62
     0
100
AcDbLine
 10
165.054364
 20
97.193864
 30
0.0
 11
164.177907
 21
98.07032
 31
0.0
  0
LINE
  5
104
100
AcDbEntity
  8
0
 62
     0
100
AcDbLine
 10
164.965975
 20
97.193864
 30
0.0
 11
164.177907
 21
97.981932
 31
0.0
  0
LINE
  5
105
100
AcDbEntity
  8
0
 62
     0
100
AcDbLine
 10
164.877587
 20
97.193864
 30
0.0
 11
164.177907
 21
97.893544
 31
0.0
  0
LINE
  5
106
100
AcDbEntity
  8
0
 62
     0
100
AcDbLine
 10
164.789199
 20
97.193864
 30
0.0
 11
164.177907
 21
97.805155
 31
0.0
  0
LINE
  5
107
100
AcDbEntity
  8
0
 62
     0
100
AcDbLine
 10
164.70081
 20
97.193864
 30
0.0
 11
164.177907
 21
97.716767
 31
0.0
  0
LINE
  5
108
100
AcDbEntity
  8
0
 62
     0
100
AcDbLine
 10
164.612422
 20
97.193864
 30
0.0
 11
164.177907
 21
97.628379
 31
0.0
  0
LINE
  5
109
100
AcDbEntity
  8
0
 62
     0
100
AcDbLine
 10
164.524033
 20
97.193864
 30
0.0
 11
164.177907
 21
97.53999
 31
0.0
  0
LINE
  5
10A
100
AcDbEntity
  8
0
 62
     0
100
AcDbLine
 10
164.435645
 20
97.193864
 30
0.0
 11
164.177907
 21
97.451602
 31
0.0
  0
LINE
  5
10B
100
AcDbEntity
  8
0
 62
     0
100
AcDbLine
 10
164.347257
 20
97.193864
 30
0.0
 11
164.177907
 21
97.363214
 31
0.0
  0
LINE
  5
10C
100
AcDbEntity
  8
0
 62
     0
100
AcDbLine
 10
164.258868
 20
97.193864
 30
0.0
 11
164.177907
 21
97.274825
 31
0.0
  0
LINE
  5
10D
100
AcDbEntity
  8
0
 62
     0
100
AcDbLine
 10
165.673082
 20
97.193864
 30
0.0
 11
164.736803
 21
98.130143
 31
0.0
  0
LINE
  5
10E
100
AcDbEntity
  8
0
 62
     0
100
AcDbLine
 10
165.76147
 20
97.193864
 30
0.0
 11
164.825191
 21
98.130143
 31
0.0
  0
LINE
  5
10F
100
AcDbEntity
  8
0
 62
     0
100
AcDbLine
 10
165.849859
 20
97.193864
 30
0.0
 11
164.913579
 21
98.130143
 31
0.0
  0
LINE
  5
110
100
AcDbEntity
  8
0
 62
     0
100
AcDbLine
 10
165.938247
 20
97.193864
 30
0.0
 11
165.001968
 21
98.130143
 31
0.0
  0
LINE
  5
111
100
AcDbEntity
  8
0
 62
     0
100
AcDbLine
 10
166.026635
 20
97.193864
 30
0.0
 11
165.090356
 21
98.130143
 31
0.0
  0
LINE
  5
112
100
AcDbEntity
  8
0
 62
     0
100
AcDbLine
 10
166.115024
 20
97.193864
 30
0.0
 11
165.178744
 21
98.130143
 31
0.0
  0
LINE
  5
113
100
AcDbEntity
  8
0
 62
     0
100
AcDbLine
 10
166.177907
 20
97.219369
 30
0.0
 11
165.267133
 21
98.130143
 31
0.0
  0
LINE
  5
114
100
AcDbEntity
  8
0
 62
     0
100
AcDbLine
 10
166.177907
 20
97.307757
 30
0.0
 11
165.355521
 21
98.130143
 31
0.0
  0
LINE
  5
115
100
AcDbEntity
  8
0
 62
     0
100
AcDbLine
 10
166.177907
 20
97.396146
 30
0.0
 11
165.443909
 21
98.130143
 31
0.0
  0
LINE
  5
116
100
AcDbEntity
  8
0
 62
     0
100
AcDbLine
 10
166.177907
 20
97.484534
 30
0.0
 11
165.532298
 21
98.130143
 31
0.0
  0
LINE
  5
117
100
AcDbEntity
  8
0
 62
     0
100
AcDbLine
 10
166.177907
 20
97.572922
 30
0.0
 11
165.620686
 21
98.130143
 31
0.0
  0
LINE
  5
118
100
AcDbEntity
  8
0
 62
     0
100
AcDbLine
 10
166.177907
 20
97.661311
 30
0.0
 11
165.709075
 21
98.130143
 31
0.0
  0
LINE
  5
119
100
AcDbEntity
  8
0
 62
     0
100
AcDbLine
 10
166.177907
 20
97.749699
 30
0.0
 11
165.797463
 21
98.130143
 31
0.0
  0
LINE
  5
11A
100
AcDbEntity
  8
0
 62
     0
100
AcDbLine
 10
166.177907
 20
97.838087
 30
0.0
 11
165.885851
 21
98.130143
 31
0.0
  0
LINE
  5
11B
100
AcDbEntity
  8
0
 62
     0
100
AcDbLine
 10
166.177907
 20
97.926476
 30
0.0
 11
165.97424
 21
98.130143
 31
0.0
  0
LINE
  5
11C
100
AcDbEntity
  8
0
 62
     0
100
AcDbLine
 10
166.177907
 20
98.014864
 30
0.0
 11
166.062628
 21
98.130143
 31
0.0
  0
LINE
  5
11D
100
AcDbEntity
  8
0
 62
     0
100
AcDbLine
 10
166.177907
 20
98.103252
 30
0.0
 11
166.151016
 21
98.130143
 31
0.0
  0
ENDBLK
  5
11E
100
AcDbEntity
  8
0
100
AcDbBlockEnd
  0
BLOCK
  5
11F
100
AcDbEntity
  8
0
100
AcDbBlockBegin
  2
*X3
 70
     1
 10
0.0
 20
0.0
 30
0.0
  3
*X3
  1

  0
LINE
  5
120
100
AcDbEntity
  8
0
 62
     0
100
AcDbLine
 10
113.244857
 20
72.762994
 30
0.0
 11
115.254532
 21
74.772669
 31
0.0
  0
LINE
  5
121
100
AcDbEntity
  8
0
 62
     0
100
AcDbLine
 10
113.244857
 20
72.939771
 30
0.0
 11
115.077756
 21
74.772669
 31
0.0
  0
LINE
  5
122
100
AcDbEntity
  8
0
 62
     0
100
AcDbLine
 10
113.244857
 20
73.116547
 30
0.0
 11
114.900979
 21
74.772669
 31
0.0
  0
LINE
  5
123
100
AcDbEntity
  8
0
 62
     0
100
AcDbLine
 10
113.244857
 20
73.293324
 30
0.0
 11
114.724202
 21
74.772669
 31
0.0
  0
LINE
  5
124
100
AcDbEntity
  8
0
 62
     0
100
AcDbLine
 10
113.244857
 20
73.470101
 30
0.0
 11
114.547426
 21
74.772669
 31
0.0
  0
LINE
  5
125
100
AcDbEntity
  8
0
 62
     0
100
AcDbLine
 10
113.244857
 20
73.646878
 30
0.0
 11
114.370649
 21
74.772669
 31
0.0
  0
LINE
  5
126
100
AcDbEntity
  8
0
 62
     0
100
AcDbLine
 10
113.244857
 20
73.823654
 30
0.0
 11
114.193872
 21
74.772669
 31
0.0
  0
LINE
  5
127
100
AcDbEntity
  8
0
 62
     0
100
AcDbLine
 10
113.244857
 20
74.000431
 30
0.0
 11
114.017096
 21
74.772669
 31
0.0
  0
LINE
  5
128
100
AcDbEntity
  8
0
 62
     0
100
AcDbLine
 10
113.244857
 20
74.177208
 30
0.0
 11
113.840319
 21
74.772669
 31
0.0
  0
LINE
  5
129
100
AcDbEntity
  8
0
 62
     0
100
AcDbLine
 10
113.244857
 20
74.353984
 30
0.0
 11
113.663542
 21
74.772669
 31
0.0
  0
LINE
  5
12A
100
AcDbEntity
  8
0
 62
     0
100
AcDbLine
 10
113.244857
 20
74.530761
 30
0.0
 11
113.486765
 21
74.772669
 31
0.0
  0
LINE
  5
12B
100
AcDbEntity
  8
0
 62
     0
100
AcDbLine
 10
113.244857
 20
74.707538
 30
0.0
 11
113.309989
 21
74.772669
 31
0.0
  0
LINE
  5
12C
100
AcDbEntity
  8
0
 62
     0
100
AcDbLine
 10
113.375131
 20
72.716491
 30
0.0
 11
115.301035
 21
74.642395
 31
0.0
  0
LINE
  5
12D
100
AcDbEntity
  8
0
 62
     0
100
AcDbLine
 10
113.574294
 20
72.738877
 30
0.0
 11
115.278649
 21
74.443233
 31
0.0
  0
LINE
  5
12E
100
AcDbEntity
  8
0
 62
     0
100
AcDbLine
 10
113.801058
 20
72.788865
 30
0.0
 11
115.228661
 21
74.216468
 31
0.0
  0
LINE
  5
12F
100
AcDbEntity
  8
0
 62
     0
100
AcDbLine
 10
114.076757
 20
72.887787
 30
0.0
 11
115.12974
 21
73.94077
 31
0.0
  0
LINE
  5
130
100
AcDbEntity
  8
0
 62
     0
100
AcDbLine
 10
114.520614
 20
73.154867
 30
0.0
 11
114.862659
 21
73.496913
 31
0.0
  0
LINE
  5
131
100
AcDbEntity
  8
0
 62
     0
100
AcDbLine
 10
114.648834
 20
73.264794
 30
0.0
 11
113.244857
 21
74.66877
 31
0.0
  0
LINE
  5
132
100
AcDbEntity
  8
0
 62
     0
100
AcDbLine
 10
114.554597
 20
73.182254
 30
0.0
 11
113.244857
 21
74.491993
 31
0.0
  0
LINE
  5
133
100
AcDbEntity
  8
0
 62
     0
100
AcDbLine
 10
114.454916
 20
73.105157
 30
0.0
 11
113.244857
 21
74.315216
 31
0.0
  0
LINE
  5
134
100
AcDbEntity
  8
0
 62
     0
100
AcDbLine
 10
114.349663
 20
73.033634
 30
0.0
 11
113.244857
 21
74.13844
 31
0.0
  0
LINE
  5
135
100
AcDbEntity
  8
0
 62
     0
100
AcDbLine
 10
114.238635
 20
72.967885
 30
0.0
 11
113.244857
 21
73.961663
 31
0.0
  0
LINE
  5
136
100
AcDbEntity
  8
0
 62
     0
100
AcDbLine
 10
114.121546
 20
72.908197
 30
0.0
 11
113.244857
 21
73.784886
 31
0.0
  0
LINE
  5
137
100
AcDbEntity
  8
0
 62
     0
100
AcDbLine
 10
113.998006
 20
72.854961
 30
0.0
 11
113.244857
 21
73.60811
 31
0.0
  0
LINE
  5
138
100
AcDbEntity
  8
0
 62
     0
100
AcDbLine
 10
113.867489
 20
72.808702
 30
0.0
 11
113.244857
 21
73.431333
 31
0.0
  0
LINE
  5
139
100
AcDbEntity
  8
0
 62
     0
100
AcDbLine
 10
113.729285
 20
72.770129
 30
0.0
 11
113.244857
 21
73.254556
 31
0.0
  0
LINE
  5
13A
100
AcDbEntity
  8
0
 62
     0
100
AcDbLine
 10
113.582426
 20
72.740211
 30
0.0
 11
113.244857
 21
73.07778
 31
0.0
  0
LINE
  5
13B
100
AcDbEntity
  8
0
 62
     0
100
AcDbLine
 10
113.425552
 20
72.720308
 30
0.0
 11
113.244857
 21
72.901003
 31
0.0
  0
LINE
  5
13C
100
AcDbEntity
  8
0
 62
     0
100
AcDbLine
 10
113.256681
 20
72.712403
 30
0.0
 11
113.244857
 21
72.724226
 31
0.0
  0
LINE
  5
13D
100
AcDbEntity
  8
0
 62
     0
100
AcDbLine
 10
114.737693
 20
73.352711
 30
0.0
 11
113.317735
 21
74.772669
 31
0.0
  0
LINE
  5
13E
100
AcDbEntity
  8
0
 62
     0
100
AcDbLine
 10
114.821179
 20
73.446001
 30
0.0
 11
113.494511
 21
74.772669
 31
0.0
  0
LINE
  5
13F
100
AcDbEntity
  8
0
 62
     0
100
AcDbLine
 10
114.899238
 20
73.544719
 30
0.0
 11
113.671288
 21
74.772669
 31
0.0
  0
LINE
  5
140
100
AcDbEntity
  8
0
 62
     0
100
AcDbLine
 10
114.971752
 20
73.648982
 30
0.0
 11
113.848065
 21
74.772669
 31
0.0
  0
LINE
  5
141
100
AcDbEntity
  8
0
 62
     0
100
AcDbLine
 10
115.038532
 20
73.758978
 30
0.0
 11
114.024841
 21
74.772669
 31
0.0
  0
LINE
  5
142
100
AcDbEntity
  8
0
 62
     0
100
AcDbLine
 10
115.099309
 20
73.874979
 30
0.0
 11
114.201618
 21
74.772669
 31
0.0
  0
LINE
  5
143
100
AcDbEntity
  8
0
 62
     0
100
AcDbLine
 10
115.153711
 20
73.997353
 30
0.0
 11
114.378395
 21
74.772669
 31
0.0
  0
LINE
  5
144
100
AcDbEntity
  8
0
 62
     0
100
AcDbLine
 10
115.20124
 20
74.126601
 30
0.0
 11
114.555172
 21
74.772669
 31
0.0
  0
LINE
  5
145
100
AcDbEntity
  8
0
 62
     0
100
AcDbLine
 10
115.241223
 20
74.263394
 30
0.0
 11
114.731948
 21
74.772669
 31
0.0
  0
LINE
  5
146
100
AcDbEntity
  8
0
 62
     0
100
AcDbLine
 10
115.272745
 20
74.408649
 30
0.0
 11
114.908725
 21
74.772669
 31
0.0
  0
LINE
  5
147
100
AcDbEntity
  8
0
 62
     0
100
AcDbLine
 10
115.294527
 20
74.563644
 30
0.0
 11
115.085502
 21
74.772669
 31
0.0
  0
LINE
  5
148
100
AcDbEntity
  8
0
 62
     0
100
AcDbLine
 10
115.304721
 20
74.730227
 30
0.0
 11
115.262278
 21
74.772669
 31
0.0
  0
ENDBLK
  5
149
100
AcDbEntity
  8
0
100
AcDbBlockEnd
  0
BLOCK
  5
14A
100
AcDbEntity
  8
0
100
AcDbBlockBegin
  2
*X4
 70
     1
 10
0.0
 20
0.0
 30
0.0
  3
*X4
  1

  0
LINE
  5
14B
100
AcDbEntity
  8
0
 62
     0
100
AcDbLine
 10
111.192487
 20
74.953265
 30
0.0
 11
113.064262
 21
76.825039
 31
0.0
  0
LINE
  5
14C
100
AcDbEntity
  8
0
 62
     0
100
AcDbLine
 10
111.221021
 20
75.158575
 30
0.0
 11
112.858952
 21
76.796506
 31
0.0
  0
LINE
  5
14D
100
AcDbEntity
  8
0
 62
     0
100
AcDbLine
 10
111.280853
 20
75.395184
 30
0.0
 11
112.622343
 21
76.736674
 31
0.0
  0
LINE
  5
14E
100
AcDbEntity
  8
0
 62
     0
100
AcDbLine
 10
111.401183
 20
75.692291
 30
0.0
 11
112.325236
 21
76.616343
 31
0.0
  0
LINE
  5
14F
100
AcDbEntity
  8
0
 62
     0
100
AcDbLine
 10
111.188668
 20
74.772669
 30
0.0
 11
113.244857
 21
76.828858
 31
0.0
  0
LINE
  5
150
100
AcDbEntity
  8
0
 62
     0
100
AcDbLine
 10
111.365445
 20
74.772669
 30
0.0
 11
113.244857
 21
76.652081
 31
0.0
  0
LINE
  5
151
100
AcDbEntity
  8
0
 62
     0
100
AcDbLine
 10
111.542222
 20
74.772669
 30
0.0
 11
113.244857
 21
76.475305
 31
0.0
  0
LINE
  5
152
100
AcDbEntity
  8
0
 62
     0
100
AcDbLine
 10
111.718998
 20
74.772669
 30
0.0
 11
113.244857
 21
76.298528
 31
0.0
  0
LINE
  5
153
100
AcDbEntity
  8
0
 62
     0
100
AcDbLine
 10
111.895775
 20
74.772669
 30
0.0
 11
113.244857
 21
76.121751
 31
0.0
  0
LINE
  5
154
100
AcDbEntity
  8
0
 62
     0
100
AcDbLine
 10
112.072552
 20
74.772669
 30
0.0
 11
113.244857
 21
75.944975
 31
0.0
  0
LINE
  5
155
100
AcDbEntity
  8
0
 62
     0
100
AcDbLine
 10
112.249329
 20
74.772669
 30
0.0
 11
113.244857
 21
75.768198
 31
0.0
  0
LINE
  5
156
100
AcDbEntity
  8
0
 62
     0
100
AcDbLine
 10
112.426105
 20
74.772669
 30
0.0
 11
113.244857
 21
75.591421
 31
0.0
  0
LINE
  5
157
100
AcDbEntity
  8
0
 62
     0
100
AcDbLine
 10
112.602882
 20
74.772669
 30
0.0
 11
113.244857
 21
75.414644
 31
0.0
  0
LINE
  5
158
100
AcDbEntity
  8
0
 62
     0
100
AcDbLine
 10
112.779659
 20
74.772669
 30
0.0
 11
113.244857
 21
75.237868
 31
0.0
  0
LINE
  5
159
100
AcDbEntity
  8
0
 62
     0
100
AcDbLine
 10
112.956435
 20
74.772669
 30
0.0
 11
113.244857
 21
75.061091
 31
0.0
  0
LINE
  5
15A
100
AcDbEntity
  8
0
 62
     0
100
AcDbLine
 10
113.133212
 20
74.772669
 30
0.0
 11
113.244857
 21
74.884314
 31
0.0
  0
LINE
  5
15B
100
AcDbEntity
  8
0
 62
     0
100
AcDbLine
 10
113.140958
 20
74.772669
 30
0.0
 11
111.736982
 21
76.176645
 31
0.0
  0
LINE
  5
15C
100
AcDbEntity
  8
0
 62
     0
100
AcDbLine
 10
112.964181
 20
74.772669
 30
0.0
 11
111.654442
 21
76.082409
 31
0.0
  0
LINE
  5
15D
100
AcDbEntity
  8
0
 62
     0
100
AcDbLine
 10
112.787405
 20
74.772669
 30
0.0
 11
111.577346
 21
75.982728
 31
0.0
  0
LINE
  5
15E
100
AcDbEntity
  8
0
 62
     0
100
AcDbLine
 10
112.610628
 20
74.772669
 30
0.0
 11
111.505822
 21
75.877475
 31
0.0
  0
LINE
  5
15F
100
AcDbEntity
  8
0
 62
     0
100
AcDbLine
 10
112.433851
 20
74.772669
 30
0.0
 11
111.440074
 21
75.766447
 31
0.0
  0
LINE
  5
160
100
AcDbEntity
  8
0
 62
     0
100
AcDbLine
 10
112.257074
 20
74.772669
 30
0.0
 11
111.380386
 21
75.649358
 31
0.0
  0
LINE
  5
161
100
AcDbEntity
  8
0
 62
     0
100
AcDbLine
 10
112.080298
 20
74.772669
 30
0.0
 11
111.327149
 21
75.525818
 31
0.0
  0
LINE
  5
162
100
AcDbEntity
  8
0
 62
     0
100
AcDbLine
 10
111.903521
 20
74.772669
 30
0.0
 11
111.28089
 21
75.3953
 31
0.0
  0
LINE
  5
163
100
AcDbEntity
  8
0
 62
     0
100
AcDbLine
 10
111.726744
 20
74.772669
 30
0.0
 11
111.242317
 21
75.257097
 31
0.0
  0
LINE
  5
164
100
AcDbEntity
  8
0
 62
     0
100
AcDbLine
 10
111.549968
 20
74.772669
 30
0.0
 11
111.212399
 21
75.110238
 31
0.0
  0
LINE
  5
165
100
AcDbEntity
  8
0
 62
     0
100
AcDbLine
 10
111.373191
 20
74.772669
 30
0.0
 11
111.192496
 21
74.953364
 31
0.0
  0
LINE
  5
166
100
AcDbEntity
  8
0
 62
     0
100
AcDbLine
 10
111.196414
 20
74.772669
 30
0.0
 11
111.184591
 21
74.784493
 31
0.0
  0
LINE
  5
167
100
AcDbEntity
  8
0
 62
     0
100
AcDbLine
 10
113.244857
 20
74.845547
 30
0.0
 11
111.824899
 21
76.265505
 31
0.0
  0
LINE
  5
168
100
AcDbEntity
  8
0
 62
     0
100
AcDbLine
 10
113.244857
 20
75.022323
 30
0.0
 11
111.918189
 21
76.348991
 31
0.0
  0
LINE
  5
169
100
AcDbEntity
  8
0
 62
     0
100
AcDbLine
 10
113.244857
 20
75.1991
 30
0.0
 11
112.016907
 21
76.42705
 31
0.0
  0
LINE
  5
16A
100
AcDbEntity
  8
0
 62
     0
100
AcDbLine
 10
113.244857
 20
75.375877
 30
0.0
 11
112.12117
 21
76.499564
 31
0.0
  0
LINE
  5
16B
100
AcDbEntity
  8
0
 62
     0
100
AcDbLine
 10
113.244857
 20
75.552653
 30
0.0
 11
112.231167
 21
76.566344
 31
0.0
  0
LINE
  5
16C
100
AcDbEntity
  8
0
 62
     0
100
AcDbLine
 10
113.244857
 20
75.72943
 30
0.0
 11
112.347167
 21
76.627121
 31
0.0
  0
LINE
  5
16D
100
AcDbEntity
  8
0
 62
     0
100
AcDbLine
 10
113.244857
 20
75.906207
 30
0.0
 11
112.469541
 21
76.681523
 31
0.0
  0
LINE
  5
16E
100
AcDbEntity
  8
0
 62
     0
100
AcDbLine
 10
113.244857
 20
76.082983
 30
0.0
 11
112.598789
 21
76.729052
 31
0.0
  0
LINE
  5
16F
100
AcDbEntity
  8
0
 62
     0
100
AcDbLine
 10
113.244857
 20
76.25976
 30
0.0
 11
112.735582
 21
76.769035
 31
0.0
  0
LINE
  5
170
100
AcDbEntity
  8
0
 62
     0
100
AcDbLine
 10
113.244857
 20
76.436537
 30
0.0
 11
112.880837
 21
76.800557
 31
0.0
  0
LINE
  5
171
100
AcDbEntity
  8
0
 62
     0
100
AcDbLine
 10
113.244857
 20
76.613313
 30
0.0
 11
113.035832
 21
76.822339
 31
0.0
  0
LINE
  5
172
100
AcDbEntity
  8
0
 62
     0
100
AcDbLine
 10
113.244857
 20
76.79009
 30
0.0
 11
113.202415
 21
76.832532
 31
0.0
  0
ENDBLK
  5
173
100
AcDbEntity
  8
0
100
AcDbBlockEnd
  0
BLOCK
  5
2595
100
AcDbEntity
  8
0
100
AcDbBlockBegin
  2
*D5
 70
     1
 10
0.0
 20
0.0
 30
0.0
  3
*D5
  1

  0
LINE
  5
2596
100
AcDbEntity
  8
0
  6
BYBLOCK
 62
     0
100
AcDbLine
 10
-204.861104
 20
107.721568
 30
0.0
 11
-204.861104
 21
98.248966
 31
0.0
  0
LINE
  5
2597
100
AcDbEntity
  8
0
  6
BYBLOCK
 62
     0
100
AcDbLine
 10
-201.861104
 20
109.221568
 30
0.0
 11
-201.861104
 21
98.248966
 31
0.0
  0
LINE
  5
2598
100
AcDbEntity
  8
0
  6
BYBLOCK
 62
     0
100
AcDbLine
 10
-206.361104
 20
100.098966
 30
0.0
 11
-207.861104
 21
100.098966
 31
0.0
  0
LINE
  5
2599
100
AcDbEntity
  8
0
  6
BYBLOCK
 62
     0
100
AcDbLine
 10
-200.361104
 20
100.098966
 30
0.0
 11
-198.861104
 21
100.098966
 31
0.0
  0
MTEXT
  5
259A
100
AcDbEntity
  8
0
  6
BYBLOCK
 62
     0
100
AcDbMText
 10
-210.142209
 20
100.098966
 30
0.0
 40
1.5
 41
0.0
 71
     5
 72
     1
  1
\A1;3"
  7
ROMANS
  0
LINE
  5
259B
100
AcDbEntity
  8
0
  6
BYBLOCK
 62
     0
100
AcDbLine
 10
-204.861104
 20
100.098966
 30
0.0
 11
-201.861104
 21
100.098966
 31
0.0
  0
SOLID
  5
259C
100
AcDbEntity
  8
0
  6
BYBLOCK
 62
     0
100
AcDbTrace
 10
-206.361104
 20
100.348966
 30
0.0
 11
-206.361104
 21
99.848966
 31
0.0
 12
-204.861104
 22
100.098966
 32
0.0
 13
-204.861104
 23
100.098966
 33
0.0
  0
SOLID
  5
259D
100
AcDbEntity
  8
0
  6
BYBLOCK
 62
     0
100
AcDbTrace
 10
-200.361104
 20
100.348966
 30
0.0
 11
-200.361104
 21
99.848966
 31
0.0
 12
-201.861104
 22
100.098966
 32
0.0
 13
-201.861104
 23
100.098966
 33
0.0
  0
POINT
  5
259E
100
AcDbEntity
  8
DEFPOINTS
  6
BYBLOCK
 62
     0
100
AcDbPoint
 10
-204.861104
 20
107.784068
 30
0.0
  0
POINT
  5
259F
100
AcDbEntity
  8
DEFPOINTS
  6
BYBLOCK
 62
     0
100
AcDbPoint
 10
-201.861104
 20
109.284068
 30
0.0
  0
POINT
  5
25A0
100
AcDbEntity
  8
DEFPOINTS
  6
BYBLOCK
 62
     0
100
AcDbPoint
 10
-201.861104
 20
100.098966
 30
0.0
  0
ENDBLK
  5
25A1
100
AcDbEntity
  8
0
100
AcDbBlockEnd
  0
BLOCK
  5
3C26
100
AcDbEntity
  8
0
100
AcDbBlockBegin
  2
*D6
 70
     1
 10
0.0
 20
0.0
 30
0.0
  3
*D6
  1

  0
LINE
  5
3C27
100
AcDbEntity
  8
0
  6
BYBLOCK
 62
     0
100
AcDbLine
 10
-450.174535
 20
113.649339
 30
0.0
 11
-450.174535
 21
102.676737
 31
0.0
  0
LINE
  5
3C28
100
AcDbEntity
  8
0
  6
BYBLOCK
 62
     0
100
AcDbLine
 10
-447.174535
 20
112.149339
 30
0.0
 11
-447.174535
 21
102.676737
 31
0.0
  0
LINE
  5
3C29
100
AcDbEntity
  8
0
  6
BYBLOCK
 62
     0
100
AcDbLine
 10
-451.674535
 20
104.526737
 30
0.0
 11
-453.174535
 21
104.526737
 31
0.0
  0
LINE
  5
3C2A
100
AcDbEntity
  8
0
  6
BYBLOCK
 62
     0
100
AcDbLine
 10
-445.674535
 20
104.526737
 30
0.0
 11
-444.174535
 21
104.526737
 31
0.0
  0
MTEXT
  5
3C2B
100
AcDbEntity
  8
0
  6
BYBLOCK
 62
     0
100
AcDbMText
 10
-441.489882
 20
104.656109
 30
0.0
 40
1.5
 41
0.0
 71
     5
 72
     1
  1
\A1;3"
  7
ROMANS
  0
LINE
  5
3C2C
100
AcDbEntity
  8
0
  6
BYBLOCK
 62
     0
100
AcDbLine
 10
-450.174535
 20
104.526737
 30
0.0
 11
-447.174535
 21
104.526737
 31
0.0
  0
SOLID
  5
3C2D
100
AcDbEntity
  8
0
  6
BYBLOCK
 62
     0
100
AcDbTrace
 10
-451.674535
 20
104.776737
 30
0.0
 11
-451.674535
 21
104.276737
 31
0.0
 12
-450.174535
 22
104.526737
 32
0.0
 13
-450.174535
 23
104.526737
 33
0.0
  0
SOLID
  5
3C2E
100
AcDbEntity
  8
0
  6
BYBLOCK
 62
     0
100
AcDbTrace
 10
-445.674535
 20
104.776737
 30
0.0
 11
-445.674535
 21
104.276737
 31
0.0
 12
-447.174535
 22
104.526737
 32
0.0
 13
-447.174535
 23
104.526737
 33
0.0
  0
POINT
  5
3C2F
100
AcDbEntity
  8
DEFPOINTS
  6
BYBLOCK
 62
     0
100
AcDbPoint
 10
-450.174535
 20
113.711839
 30
0.0
  0
POINT
  5
3C30
100
AcDbEntity
  8
DEFPOINTS
  6
BYBLOCK
 62
     0
100
AcDbPoint
 10
-447.174535
 20
112.211839
 30
0.0
  0
POINT
  5
3C31
100
AcDbEntity
  8
DEFPOINTS
  6
BYBLOCK
 62
     0
100
AcDbPoint
 10
-447.174535
 20
104.526737
 30
0.0
  0
ENDBLK
  5
3C32
100
AcDbEntity
  8
0
100
AcDbBlockEnd
  0
BLOCK
  5
269A
100
AcDbEntity
  8
0
100
AcDbBlockBegin
  2
150PF
 70
     0
 10
0.0
 20
0.0
 30
0.0
  3
150PF
  1

  0
LINE
  5
2680
100
AcDbEntity
  8
CENTER
100
AcDbLine
 10
2.458143
 20
3.253993
 30
0.0
 11
4.995721
 21
3.253993
 31
0.0
  0
ARC
  5
2681
100
AcDbEntity
  8
OBJECT
100
AcDbCircle
 10
2.458143
 20
3.253993
 30
0.0
 40
2.25
100
AcDbArc
 50
284.940303
 51
75.059697
  0
LINE
  5
2682
100
AcDbEntity
  8
CENTER
100
AcDbLine
 10
2.458143
 20
3.253993
 30
0.0
 11
-0.079436
 21
3.253993
 31
0.0
  0
LINE
  5
2683
100
AcDbEntity
  8
CENTER
100
AcDbLine
 10
2.458143
 20
3.253993
 30
0.0
 11
2.458143
 21
5.791571
 31
0.0
  0
CIRCLE
  5
2684
100
AcDbEntity
  8
OBJECT
100
AcDbCircle
 10
2.458143
 20
3.253993
 30
0.0
 40
1.4375
  0
ARC
  5
2685
100
AcDbEntity
  8
OBJECT
100
AcDbCircle
 10
2.458143
 20
3.253993
 30
0.0
 40
2.25
100
AcDbArc
 50
104.940303
 51
255.059697
  0
LINE
  5
2686
100
AcDbEntity
  8
OBJECT
  6
CENTER
 62
     3
100
AcDbLine
 10
2.458143
 20
0.941493
 30
0.0
 11
1.797626
 21
0.941493
 31
0.0
  0
CIRCLE
  5
2687
100
AcDbEntity
  8
OBJECT
100
AcDbCircle
 10
2.458143
 20
0.941493
 30
0.0
 40
0.21875
  0
ARC
  5
2688
100
AcDbEntity
  8
OBJECT
100
AcDbCircle
 10
2.458143
 20
0.941493
 30
0.0
 40
0.46875
100
AcDbArc
 50
180.0
 51
0.0
  0
CIRCLE
  5
2689
100
AcDbEntity
  8
OBJECT
100
AcDbCircle
 10
2.458143
 20
3.253993
 30
0.0
 40
0.95
  0
LINE
  5
268A
100
AcDbEntity
  8
OBJECT
100
AcDbLine
 10
1.989393
 20
0.941493
 30
0.0
 11
1.989393
 21
0.935125
 31
0.0
  0
ARC
  5
268B
100
AcDbEntity
  8
OBJECT
100
AcDbCircle
 10
1.839393
 20
0.935125
 30
0.0
 40
0.15
100
AcDbArc
 50
0.0
 51
75.059697
  0
LINE
  5
268C
100
AcDbEntity
  8
CENTER
100
AcDbLine
 10
2.458143
 20
3.253993
 30
0.0
 11
2.458143
 21
0.716415
 31
0.0
  0
LINE
  5
268D
100
AcDbEntity
  8
OBJECT
100
AcDbLine
 10
2.926893
 20
0.941493
 30
0.0
 11
2.926893
 21
0.935125
 31
0.0
  0
ARC
  5
268E
100
AcDbEntity
  8
OBJECT
100
AcDbCircle
 10
3.076893
 20
0.935125
 30
0.0
 40
0.15
100
AcDbArc
 50
104.940303
 51
180.0
  0
LINE
  5
268F
100
AcDbEntity
  8
15
  6
CENTER
 62
     3
100
AcDbLine
 10
2.458143
 20
1.3321
 30
0.0
 11
2.458143
 21
0.262404
 31
0.0
  0
LINE
  5
2690
100
AcDbEntity
  8
OBJECT
  6
CENTER
 62
     3
100
AcDbLine
 10
2.458143
 20
0.941493
 30
0.0
 11
3.011616
 21
0.941493
 31
0.0
  0
LINE
  5
2691
100
AcDbEntity
  8
OBJECT
  6
CENTER
 62
     3
100
AcDbLine
 10
2.458143
 20
5.566493
 30
0.0
 11
1.797626
 21
5.566493
 31
0.0
  0
ARC
  5
2692
100
AcDbEntity
  8
OBJECT
100
AcDbCircle
 10
2.458143
 20
5.566493
 30
0.0
 40
0.46875
100
AcDbArc
 50
0.0
 51
180.0
  0
CIRCLE
  5
2693
100
AcDbEntity
  8
OBJECT
100
AcDbCircle
 10
2.458143
 20
5.566493
 30
0.0
 40
0.21875
  0
ARC
  5
2694
100
AcDbEntity
  8
OBJECT
100
AcDbCircle
 10
1.839393
 20
5.572861
 30
0.0
 40
0.15
100
AcDbArc
 50
284.940303
 51
0.0
  0
LINE
  5
2695
100
AcDbEntity
  8
OBJECT
100
AcDbLine
 10
1.989393
 20
5.566493
 30
0.0
 11
1.989393
 21
5.572861
 31
0.0
  0
ARC
  5
2696
100
AcDbEntity
  8
OBJECT
100
AcDbCircle
 10
3.076893
 20
5.572861
 30
0.0
 40
0.15
100
AcDbArc
 50
180.0
 51
255.059697
  0
LINE
  5
2697
100
AcDbEntity
  8
OBJECT
100
AcDbLine
 10
2.926893
 20
5.566493
 30
0.0
 11
2.926893
 21
5.572861
 31
0.0
  0
LINE
  5
2698
100
AcDbEntity
  8
15
  6
CENTER
 62
     3
100
AcDbLine
 10
2.458143
 20
5.175886
 30
0.0
 11
2.458143
 21
6.245582
 31
0.0
  0
LINE
  5
2699
100
AcDbEntity
  8
OBJECT
  6
CENTER
 62
     3
100
AcDbLine
 10
2.458143
 20
5.566493
 30
0.0
 11
3.011616
 21
5.566493
 31
0.0
  0
ENDBLK
  5
269B
100
AcDbEntity
  8
0
100
AcDbBlockEnd
  0
ENDSEC
  0
SECTION
  2
ENTITIES
  0
TEXT
  5
CA2
100
AcDbEntity
  8
0
  6
BYBLOCK
 62
     0
100
AcDbText
 10
4129.827418
 20
4328.185857
 30
0.0
 40
45.0
  1
   
  7
ROMANS
 72
     1
 11
4197.327418
 21
4350.685857
 31
0.0
100
AcDbText
 73
     2
  0
TEXT
  5
CA4
100
AcDbEntity
  8
0
  6
BYBLOCK
 62
     0
100
AcDbText
 10
3150.786777
 20
5881.726482
 30
0.0
 40
45.0
  1
  
  7
ROMANS
 72
     1
 11
3195.786777
 21
5904.226482
 31
0.0
100
AcDbText
 73
     2
  0
TEXT
  5
CA5
100
AcDbEntity
  8
0
  6
BYBLOCK
 62
     0
100
AcDbText
 10
3150.227697
 20
5611.726482
 30
0.0
 40
45.0
  1
  
  7
ROMANS
 72
     1
 11
3195.227697
 21
5634.226482
 31
0.0
100
AcDbText
 73
     2
  0
TEXT
  5
CA6
100
AcDbEntity
  8
0
  6
BYBLOCK
 62
     0
100
AcDbText
 10
1927.659083
 20
4757.215241
 30
0.0
 40
45.0
  1
  
  7
ROMANS
 72
     1
 11
1972.659083
 21
4779.715241
 31
0.0
100
AcDbText
 73
     2
  0
TEXT
  5
CA7
100
AcDbEntity
  8
BORDER
 62
     7
100
AcDbText
 10
172.477023
 20
-3.827941
 30
0.0
 40
2.063188
  1

  7
ROMANC
100
AcDbText
  0
TEXT
  5
CA9
100
AcDbEntity
  8
BORDER
 62
     7
100
AcDbText
 10
144.805921
 20
58.86025
 30
0.0
 40
2.740172
  1

  7
ROMANC
100
AcDbText
  0
TEXT
  5
E9C
100
AcDbEntity
  8
0
  6
BYBLOCK
 62
     0
100
AcDbText
 10
3780.776025
 20
4016.444326
 30
0.0
 40
41.25
  1
   
  7
ROMANS
 72
     1
 11
3842.651025
 21
4037.069326
 31
0.0
100
AcDbText
 73
     2
  0
TEXT
  5
E9D
100
AcDbEntity
  8
0
  6
BYBLOCK
 62
     0
100
AcDbText
 10
2883.322104
 20
5440.523232
 30
0.0
 40
41.25
  1
  
  7
ROMANS
 72
     1
 11
2924.572104
 21
5461.148232
 31
0.0
100
AcDbText
 73
     2
  0
TEXT
  5
E9E
100
AcDbEntity
  8
0
  6
BYBLOCK
 62
     0
100
AcDbText
 10
2882.809614
 20
5193.023232
 30
0.0
 40
41.25
  1
  
  7
ROMANS
 72
     1
 11
2924.059614
 21
5213.648232
 31
0.0
100
AcDbText
 73
     2
  0
TEXT
  5
E9F
100
AcDbEntity
  8
0
  6
BYBLOCK
 62
     0
100
AcDbText
 10
1762.121717
 20
4409.721262
 30
0.0
 40
41.25
  1
  
  7
ROMANS
 72
     1
 11
1803.371717
 21
4430.346262
 31
0.0
100
AcDbText
 73
     2
  0
TEXT
  5
13D1
100
AcDbEntity
  8
0
  6
BYBLOCK
 62
     0
100
AcDbText
 10
138.019579
 20
154.935084
 30
0.0
 40
1.85
  1
  
  7
ROMAND
 72
     1
 11
139.869579
 21
155.860084
 31
0.0
100
AcDbText
 73
     2
  0
TEXT
  5
13DB
100
AcDbEntity
  8
0
  6
BYBLOCK
 62
     0
100
AcDbText
 10
94.431104
 20
97.442703
 30
0.0
 40
1.85
  1
  
  7
ROMAND
 72
     1
 11
96.281104
 21
98.367703
 31
0.0
100
AcDbText
 73
     2
  0
TEXT
  5
13E5
100
AcDbEntity
  8
0
  6
BYBLOCK
 62
     0
100
AcDbText
 10
54.74712
 20
182.877317
 30
0.0
 40
1.85
  1
  
  7
ROMAND
 72
     1
 11
56.59712
 21
183.802317
 31
0.0
100
AcDbText
 73
     2
  0
LINE
  5
1F0F
100
AcDbEntity
  8
LIMITS
 62
     7
100
AcDbLine
 10
-370.845703
 20
349.399406
 30
0.0
 11
-590.305078
 21
349.399406
 31
0.0
  0
LWPOLYLINE
  5
1F10
100
AcDbEntity
  8
BORDER
 62
     5
100
AcDbPolyline
 90
        2
 70
     0
 43
1.449073
 10
-381.279027
 20
97.272757
 42
-0.414214
 10
-375.482736
 20
91.476466
 42
0.560527
  0
LWPOLYLINE
  5
1F11
100
AcDbEntity
  8
BORDER
 62
     5
100
AcDbPolyline
 90
        2
 70
     0
 43
1.449073
 10
-381.279027
 20
71.189447
 42
0.414214
 10
-375.482736
 20
76.985738
 42
-0.560527
  0
LWPOLYLINE
  5
1F12
100
AcDbEntity
  8
BORDER
 62
     5
100
AcDbPolyline
 90
        2
 70
     0
 43
1.449073
 10
-375.482736
 20
91.476466
 10
-375.482736
 20
76.985738
  0
LINE
  5
1F13
100
AcDbEntity
  8
LIMITS
 62
     7
100
AcDbLine
 10
-590.305078
 20
65.393156
 30
0.0
 11
-370.845703
 21
65.393156
 31
0.0
  0
LWPOLYLINE
  5
1F14
100
AcDbEntity
  8
BORDER
 62
     5
100
AcDbPolyline
 90
        6
 70
     0
 43
1.03275
 10
-585.668046
 20
98.378537
 10
-585.668046
 20
342.443857
 42
-0.414214
 10
-583.349529
 20
344.762374
 10
-377.801253
 20
344.762374
 42
-0.414214
 10
-375.482736
 20
342.443857
 10
-375.482736
 20
98.378537
  0
LINE
  5
1F19
100
AcDbEntity
  8
LIMITS
 62
     7
100
AcDbLine
 10
-590.305078
 20
349.399406
 30
0.0
 11
-590.305078
 21
65.393156
 31
0.0
  0
LWPOLYLINE
  5
1F1A
100
AcDbEntity
  8
BORDER
 62
     5
100
AcDbPolyline
 90
        2
 70
     0
 43
0.579629
 10
-375.482736
 20
98.378537
 10
-375.482736
 20
342.443857
  0
LWPOLYLINE
  5
1F1B
100
AcDbEntity
  8
BORDER
 62
     5
100
AcDbPolyline
 90
        2
 70
     0
 43
0.579629
 10
-585.668046
 20
98.378537
 10
-585.668046
 20
342.443857
  0
TEXT
  5
1F61
100
AcDbEntity
  8
BORDER
 62
     6
100
AcDbText
 10
-524.487249
 20
88.864202
 30
0.0
 40
1.495378
  1
Duplex Lift Station
  7
ROMANC
100
AcDbText
  0
TEXT
  5
1F62
100
AcDbEntity
  8
BORDER
 62
     6
100
AcDbText
 10
-528.371989
 20
91.40053
 30
0.0
 40
1.495378
  1
Prefabricated Fiberglass
  7
ROMANC
100
AcDbText
  0
TEXT
  5
1F63
100
AcDbEntity
  8
BORDER
 62
     6
100
AcDbText
 10
-524.382916
 20
76.791975
 30
0.0
 40
1.105279
  1
Rochester, IN  46975
  7
ROMANC
100
AcDbText
  0
TEXT
  5
1F64
100
AcDbEntity
  8
BORDER
 62
     6
100
AcDbText
 10
-534.362117
 20
74.569032
 30
0.0
 40
1.105279
  1
Phone: 800/354-4534  Fax: 574/223-6106
  7
ROMANC
100
AcDbText
  0
TEXT
  5
1F65
100
AcDbEntity
  8
BORDER
 62
     6
100
AcDbText
 10
-529.142561
 20
78.754851
 30
0.0
 40
1.105279
  1
Highway 25 North P.O. Box 420
  7
ROMANC
100
AcDbText
  0
LWPOLYLINE
  5
1F66
100
AcDbEntity
  8
BORDER
 62
     5
100
AcDbPolyline
 90
        2
 70
     0
 43
1.449073
 10
-533.501427
 20
97.272757
 10
-427.649355
 20
97.272757
  0
LINE
  5
1F67
100
AcDbEntity
  8
BORDER
100
AcDbLine
 10
-536.399572
 20
87.681672
 30
0.0
 11
-492.22481
 21
87.681672
 31
0.0
  0
LINE
  5
1F68
100
AcDbEntity
  8
BORDER
100
AcDbLine
 10
-536.399572
 20
80.700138
 30
0.0
 11
-468.033538
 21
80.700138
 31
0.0
  0
LINE
  5
1F69
100
AcDbEntity
  8
BORDER
100
AcDbLine
 10
-536.399572
 20
82.782029
 30
0.0
 11
-468.033538
 21
82.782029
 31
0.0
  0
LINE
  5
1F6A
100
AcDbEntity
  8
BORDER
100
AcDbLine
 10
-533.501427
 20
94.374611
 30
0.0
 11
-468.033538
 21
94.374611
 31
0.0
  0
LINE
  5
1F6B
100
AcDbEntity
  8
BORDER
100
AcDbLine
 10
-536.399572
 20
74.087593
 30
0.0
 11
-468.033538
 21
74.087593
 31
0.0
  0
LWPOLYLINE
  5
1F6C
100
AcDbEntity
  8
BORDER
 62
     5
100
AcDbPolyline
 90
        2
 70
     0
 43
1.449073
 10
-381.279027
 20
71.189447
 10
-579.871755
 20
71.189447
  0
LINE
  5
1F78
102
{ACAD_REACTORS
330
1F7B
102
}
100
AcDbEntity
  8
BORDER
100
AcDbLine
 10
-577.741841
 20
91.780151
 30
0.0
 11
-565.302683
 21
91.780151
 31
0.0
  0
ARC
  5
1F79
102
{ACAD_REACTORS
330
1F7B
102
}
100
AcDbEntity
  8
BORDER
100
AcDbCircle
 10
-574.269582
 20
87.8336
 30
0.0
 40
3.143484
100
AcDbArc
 50
90.0
 51
179.923004
  0
LINE
  5
1F7A
100
AcDbEntity
  8
BORDER
100
AcDbLine
 10
-574.938147
 20
76.622394
 30
0.0
 11
-576.88288
 21
79.160542
 31
0.0
  0
HATCH
  5
1F7B
100
AcDbEntity
  8
BORDER
100
AcDbHatch
 10
0.0
 20
0.0
 30
0.0
210
0.0
220
0.0
230
1.0
  2
ANSI37
 70
     0
 71
     1
 91
        1
 92
        7
 72
     1
 73
     1
 93
       18
 10
-572.883282092744
 20
82.30881343180682
 42
-0.4142135623730475
 10
-574.458294692744
 20
80.73380083180708
 42
0.0
 10
-574.9655216241007
 20
80.73380083180708
 42
0.0
 10
-574.9655216241007
 20
80.40527359105466
 42
0.0
 10
-568.0790020574741
 20
80.40527359105468
 42
0.0
 10
-568.0790020574741
 20
80.73380083180708
 42
0.0
 10
-568.5862289888318
 20
80.73380083180708
 42
-0.4142135623730554
 10
-570.1612415888316
 20
82.3088134318071
 42
0.0
 10
-570.1612415888316
 20
90.97708468159163
 42
0.0
 10
-568.7749414117319
 20
90.97708468159162
 42
-0.4138200196737716
 10
-565.6314598000899
 20
87.8378245256643
 42
0.0
 10
-565.3026826823309
 20
87.83782452566432
 42
0.0
 10
-565.3026826823301
 20
91.78015141468506
 42
0.0
 10
-577.7418409992448
 20
91.78015141468506
 42
0.0
 10
-577.7418409992448
 20
87.8378245256643
 42
0.0
 10
-577.4130638814851
 20
87.8378245256643
 42
-0.4138200196737718
 10
-574.2695822698431
 20
90.97708468159162
 42
0.0
 10
-572.883282092744
 20
90.9770846815916
 42
0.0
 97
       18
330
1FB2
330
1FAE
330
1FB6
330
1FB7
330
1F78
330
1F8D
330
1F8C
330
1F79
330
1FB1
330
1FB0
330
1F95
330
1F9F
330
1F9E
330
1F9B
330
1FA4
330
1F98
330
1F96
330
1FAF
 75
     0
 76
     1
 52
0.0
 41
0.047813
 77
     0
 78
     2
 53
45.0
 43
-588.939911
 44
-92.208074
 45
-0.0042260678719352
 46
0.0042260678719352
 79
     0
 53
135.0
 43
-588.939911
 44
-92.208074
 45
-0.0042260678719352
 46
-0.0042260678719352
 79
     0
 47
0.049862
 98
        1
 10
-571.856314
 20
86.474791
  0
LINE
  5
1F7C
100
AcDbEntity
  8
BORDER
100
AcDbLine
 10
-579.355181
 20
79.977072
 30
0.0
 11
-548.335477
 21
79.977072
 31
0.0
  0
LINE
  5
1F7D
100
AcDbEntity
  8
BORDER
100
AcDbLine
 10
-579.355181
 20
79.977072
 30
0.0
 11
-548.335477
 21
79.977072
 31
0.0
  0
LINE
  5
1F7E
100
AcDbEntity
  8
BORDER
100
AcDbLine
 10
-579.871755
 20
74.087593
 30
0.0
 11
-545.094009
 21
74.087593
 31
0.0
  0
LWPOLYLINE
  5
1F7F
100
AcDbEntity
  8
BORDER
 62
     5
100
AcDbPolyline
 90
        2
 70
     0
 43
1.449073
 10
-579.871755
 20
97.272757
 10
-547.992154
 20
97.272757
  0
LINE
  5
1F80
100
AcDbEntity
  8
BORDER
100
AcDbLine
 10
-579.871755
 20
94.374611
 30
0.0
 11
-547.992154
 21
94.374611
 31
0.0
  0
LWPOLYLINE
  5
1F81
100
AcDbEntity
  8
BORDER
 62
     5
100
AcDbPolyline
 90
        2
 70
     0
 43
1.449073
 10
-579.871755
 20
71.189447
 42
-0.414214
 10
-585.668046
 20
76.985738
 42
0.560527
  0
ARC
  5
1F82
100
AcDbEntity
  8
BORDER
100
AcDbCircle
 10
-579.871755
 20
91.476466
 30
0.0
 40
2.898145
100
AcDbArc
 50
90.0
 51
180.0
  0
LWPOLYLINE
  5
1F83
100
AcDbEntity
  8
BORDER
 62
     5
100
AcDbPolyline
 90
        2
 70
     0
 43
1.449073
 10
-579.871755
 20
97.272757
 42
0.414214
 10
-585.668046
 20
91.476466
 42
-0.560527
  0
LWPOLYLINE
  5
1F84
100
AcDbEntity
  8
BORDER
 62
     5
100
AcDbPolyline
 90
        2
 70
     0
 43
1.449073
 10
-585.668046
 20
91.476466
 10
-585.668046
 20
76.985738
  0
LINE
  5
1F85
100
AcDbEntity
  8
BORDER
100
AcDbLine
 10
-582.7699
 20
76.985738
 30
0.0
 11
-582.7699
 21
91.476466
 31
0.0
  0
ARC
  5
1F86
100
AcDbEntity
  8
BORDER
100
AcDbCircle
 10
-579.871755
 20
76.985738
 30
0.0
 40
2.898145
100
AcDbArc
 50
180.0
 51
270.0
  0
LINE
  5
1F87
100
AcDbEntity
  8
BORDER
100
AcDbLine
 10
-577.104128
 20
74.300879
 30
0.0
 11
-577.104128
 21
74.300879
 31
0.0
  0
LINE
  5
1F88
100
AcDbEntity
  8
BORDER
100
AcDbLine
 10
-576.88288
 20
79.160542
 30
0.0
 11
-576.88288
 21
76.622394
 31
0.0
  0
LINE
  5
1F89
100
AcDbEntity
  8
BORDER
100
AcDbLine
 10
-578.51388
 20
79.160542
 30
0.0
 11
-577.474432
 21
79.160542
 31
0.0
  0
LINE
  5
1F8A
100
AcDbEntity
  8
BORDER
100
AcDbLine
 10
-578.51388
 20
76.622394
 30
0.0
 11
-577.474432
 21
76.622394
 31
0.0
  0
LINE
  5
1F8B
100
AcDbEntity
  8
BORDER
100
AcDbLine
 10
-577.994156
 20
79.160542
 30
0.0
 11
-577.994156
 21
76.622394
 31
0.0
  0
LINE
  5
1F8C
102
{ACAD_REACTORS
330
1F7B
102
}
100
AcDbEntity
  8
BORDER
100
AcDbLine
 10
-577.741841
 20
87.837825
 30
0.0
 11
-577.413067
 21
87.837825
 31
0.0
  0
LINE
  5
1F8D
102
{ACAD_REACTORS
330
1F7B
102
}
100
AcDbEntity
  8
BORDER
100
AcDbLine
 10
-577.741841
 20
87.837825
 30
0.0
 11
-577.741841
 21
91.780151
 31
0.0
  0
LWPOLYLINE
  5
1F8E
100
AcDbEntity
  8
BORDER
 62
     5
100
AcDbPolyline
 90
        2
 70
     0
 43
1.449073
 10
-547.992154
 20
97.272757
 42
-0.414214
 10
-542.195863
 20
91.476466
 42
0.560527
  0
ARC
  5
1F8F
100
AcDbEntity
  8
BORDER
100
AcDbCircle
 10
-547.992154
 20
91.476466
 30
0.0
 40
2.898145
100
AcDbArc
 50
0.0
 51
90.0
  0
LINE
  5
1F90
100
AcDbEntity
  8
BORDER
100
AcDbLine
 10
-560.288495
 20
77.859113
 30
0.0
 11
-559.280851
 21
76.622394
 31
0.0
  0
ARC
  5
1F91
100
AcDbEntity
  8
BORDER
100
AcDbCircle
 10
-560.105762
 20
78.509827
 30
0.0
 40
0.650714
100
AcDbArc
 50
270.0
 51
90.0
  0
ELLIPSE
  5
1F92
102
{ACAD_REACTORS
330
1F94
102
}
100
AcDbEntity
  8
BORDER
100
AcDbEllipse
 10
-563.124113
 20
83.772379
 30
0.0
 11
0.0000000000000232
 21
3.447008254632347
 31
0.0
210
0.0
220
0.0
230
1.0
 40
0.93822
 41
0.0
 42
6.283185307179586
  0
LINE
  5
1F93
100
AcDbEntity
  8
BORDER
100
AcDbLine
 10
-564.879929
 20
87.865245
 30
0.0
 11
-549.065336
 21
87.865245
 31
0.0
  0
HATCH
  5
1F94
100
AcDbEntity
  8
BORDER
100
AcDbHatch
 10
0.0
 20
0.0
 30
0.0
210
0.0
220
0.0
230
1.0
  2
ANSI37
 70
     0
 71
     1
 91
        2
 92
        5
 93
        1
 72
     3
 10
-563.124113
 20
83.772379
 11
0.0
 21
3.447008
 40
0.93822
 50
0.0
 51
360.0
 73
     1
 97
        1
330
1F92
 92
       20
 93
        1
 72
     3
 10
-563.124113
 20
83.79202
 11
0.0
 21
3.093469
 40
0.683214
 50
0.0
 51
360.0
 73
     1
 97
        1
330
1F97
 75
     0
 76
     1
 52
0.0
 41
0.047813
 77
     0
 78
     2
 53
45.0
 43
-588.939911
 44
-92.208074
 45
-0.0042260678719352
 46
0.0042260678719352
 79
     0
 53
135.0
 43
-588.939911
 44
-92.208074
 45
-0.0042260678719352
 46
-0.0042260678719352
 79
     0
 47
0.027301
 98
        2
 10
-565.450121
 20
85.175372
 10
-565.450121
 20
85.175372
  0
ARC
  5
1F95
102
{ACAD_REACTORS
330
1F7B
102
}
100
AcDbEntity
  8
BORDER
100
AcDbCircle
 10
-574.458295
 20
82.308813
 30
0.0
 40
1.575013
100
AcDbArc
 50
270.0
 51
0.0
  0
ARC
  5
1F96
102
{ACAD_REACTORS
330
1F7B
102
}
100
AcDbEntity
  8
BORDER
100
AcDbCircle
 10
-568.586229
 20
82.308813
 30
0.0
 40
1.575013
100
AcDbArc
 50
180.0
 51
270.0
  0
ELLIPSE
  5
1F97
102
{ACAD_REACTORS
330
1F94
102
}
100
AcDbEntity
  8
BORDER
100
AcDbEllipse
 10
-563.124113
 20
83.79202
 30
0.0
 11
0.0000000000000232
 21
3.093469071589858
 31
0.0
210
0.0
220
0.0
230
1.0
 40
0.683214
 41
0.0
 42
6.283185307179586
  0
LINE
  5
1F98
102
{ACAD_REACTORS
330
1F7B
102
}
100
AcDbEntity
  8
BORDER
100
AcDbLine
 10
-568.079002
 20
80.733801
 30
0.0
 11
-568.586229
 21
80.733801
 31
0.0
  0
LINE
  5
1F99
100
AcDbEntity
  8
BORDER
100
AcDbLine
 10
-567.758801
 20
79.160542
 30
0.0
 11
-568.636249
 21
79.160542
 31
0.0
  0
LINE
  5
1F9A
100
AcDbEntity
  8
BORDER
100
AcDbLine
 10
-568.636249
 20
77.859113
 30
0.0
 11
-567.758801
 21
77.859113
 31
0.0
  0
LINE
  5
1F9B
102
{ACAD_REACTORS
330
1F7B
102
}
100
AcDbEntity
  8
BORDER
100
AcDbLine
 10
-574.965522
 20
80.405274
 30
0.0
 11
-568.079002
 21
80.405274
 31
0.0
  0
ARC
  5
1F9C
100
AcDbEntity
  8
BORDER
100
AcDbCircle
 10
-573.183762
 20
77.784716
 30
0.0
 40
1.163966
100
AcDbArc
 50
174.737783
 51
327.723969
  0
ARC
  5
1F9D
100
AcDbEntity
  8
BORDER
100
AcDbCircle
 10
-573.093539
 20
77.911422
 30
0.0
 40
1.249442
100
AcDbArc
 50
44.321228
 51
180.91508
  0
LINE
  5
1F9E
102
{ACAD_REACTORS
330
1F7B
102
}
100
AcDbEntity
  8
BORDER
100
AcDbLine
 10
-574.965522
 20
80.733801
 30
0.0
 11
-574.965522
 21
80.405274
 31
0.0
  0
LINE
  5
1F9F
102
{ACAD_REACTORS
330
1F7B
102
}
100
AcDbEntity
  8
BORDER
100
AcDbLine
 10
-574.965522
 20
80.733801
 30
0.0
 11
-574.458295
 21
80.733801
 31
0.0
  0
LINE
  5
1FA0
100
AcDbEntity
  8
BORDER
100
AcDbLine
 10
-574.938147
 20
79.160542
 30
0.0
 11
-574.938147
 21
76.622394
 31
0.0
  0
LINE
  5
1FA1
100
AcDbEntity
  8
BORDER
100
AcDbLine
 10
-568.636249
 20
79.160542
 30
0.0
 11
-568.636249
 21
76.622394
 31
0.0
  0
SPLINE
  5
1FA2
100
AcDbEntity
  8
BORDER
100
AcDbSpline
210
0.0
220
0.0
230
1.0
 70
    11
 71
     3
 72
    24
 73
    20
 74
     0
 42
0.0000001
 43
0.0000001
 40
0.0
 40
0.0
 40
0.0
 40
0.0
 40
0.474866629778075
 40
0.474866629778075
 40
1.277791044886493
 40
1.277791044886493
 40
2.080715459994911
 40
2.080715459994911
 40
2.883639875103329
 40
2.883639875103329
 40
3.686564290211747
 40
3.686564290211747
 40
4.489488705320165
 40
4.489488705320165
 40
5.292413120428583
 40
5.292413120428583
 40
6.095337535537001
 40
6.095337535537001
 40
6.283185307179586
 40
6.283185307179586
 40
6.283185307179586
 40
6.283185307179586
 10
-570.5352413200919
 20
79.1949665561244
 30
0.0
 10
-570.7409532647059
 20
79.1949665561244
 30
0.0
 10
-570.9464919281546
 20
79.14506766930599
 30
0.0
 10
-571.438757293654
 20
78.89119023179683
 30
0.0
 10
-571.6789153230202
 20
78.60191015173568
 30
0.0
 10
-571.8797949465385
 20
77.93394898741479
 30
0.0
 10
-571.839181068332
 20
77.55974313475471
 30
0.0
 10
-571.4996933747913
 20
76.95078092633185
 30
0.0
 10
-571.203081842875
 20
76.72011421455069
 30
0.0
 10
-570.5304563372142
 20
76.54209256026189
 30
0.0
 10
-570.1589736215558
 20
76.59594632275158
 30
0.0
 10
-569.5641320950218
 20
76.95768683923515
 30
0.0
 10
-569.3447676406162
 20
77.26312545351851
 30
0.0
 10
-569.1910240217487
 20
77.94355573929476
 30
0.0
 10
-569.2576664289674
 20
78.313991039434
 30
0.0
 10
-569.6388477157248
 20
78.8976108255512
 30
0.0
 10
-569.9508440546579
 20
79.10687210422046
 30
0.0
 10
-570.3724919262093
 20
79.18727672483743
 30
0.0
 10
-570.4538657759436
 20
79.1949665561244
 30
0.0
 10
-570.5352413200919
 20
79.1949665561244
 30
0.0
  0
SPLINE
  5
1FA3
100
AcDbEntity
  8
BORDER
100
AcDbSpline
210
0.0
220
0.0
230
1.0
 70
    11
 71
     3
 72
    24
 73
    20
 74
     0
 42
0.0000001
 43
0.0000001
 40
0.0
 40
0.0
 40
0.0
 40
0.0
 40
0.474866629778075
 40
0.474866629778075
 40
1.277791044886493
 40
1.277791044886493
 40
2.080715459994911
 40
2.080715459994911
 40
2.883639875103329
 40
2.883639875103329
 40
3.686564290211747
 40
3.686564290211747
 40
4.489488705320165
 40
4.489488705320165
 40
5.292413120428583
 40
5.292413120428583
 40
6.095337535537001
 40
6.095337535537001
 40
6.283185307179586
 40
6.283185307179586
 40
6.283185307179586
 40
6.283185307179586
 10
-562.9831060252834
 20
79.1949665561244
 30
0.0
 10
-563.1888179698981
 20
79.1949665561244
 30
0.0
 10
-563.3943566333467
 20
79.14506766930599
 30
0.0
 10
-563.8866219988463
 20
78.89119023179683
 30
0.0
 10
-564.1267800282117
 20
78.60191015173568
 30
0.0
 10
-564.32765965173
 20
77.93394898741479
 30
0.0
 10
-564.2870457735236
 20
77.55974313475471
 30
0.0
 10
-563.9475580799835
 20
76.95078092633185
 30
0.0
 10
-563.6509465480671
 20
76.72011421455069
 30
0.0
 10
-562.9783210424063
 20
76.54209256026189
 30
0.0
 10
-562.6068383267479
 20
76.59594632275158
 30
0.0
 10
-562.0119968002139
 20
76.95768683923515
 30
0.0
 10
-561.7926323458083
 20
77.26312545351851
 30
0.0
 10
-561.6388887269403
 20
77.94355573929476
 30
0.0
 10
-561.7055311341589
 20
78.313991039434
 30
0.0
 10
-562.0867124209163
 20
78.8976108255512
 30
0.0
 10
-562.3987087598501
 20
79.10687210422046
 30
0.0
 10
-562.8203566314016
 20
79.18727672483743
 30
0.0
 10
-562.9017304811351
 20
79.1949665561244
 30
0.0
 10
-562.9831060252834
 20
79.1949665561244
 30
0.0
  0
LINE
  5
1FA4
102
{ACAD_REACTORS
330
1F7B
102
}
100
AcDbEntity
  8
BORDER
100
AcDbLine
 10
-568.079002
 20
80.733801
 30
0.0
 11
-568.079002
 21
80.405274
 31
0.0
  0
LINE
  5
1FA5
100
AcDbEntity
  8
BORDER
100
AcDbLine
 10
-567.941533
 20
77.859113
 30
0.0
 11
-566.933889
 21
76.622394
 31
0.0
  0
LINE
  5
1FA6
100
AcDbEntity
  8
BORDER
100
AcDbLine
 10
-565.296251
 20
79.160542
 30
0.0
 11
-565.955015
 21
79.160542
 31
0.0
  0
LINE
  5
1FA7
100
AcDbEntity
  8
BORDER
100
AcDbLine
 10
-565.955015
 20
79.160542
 30
0.0
 11
-565.955015
 21
76.622394
 31
0.0
  0
LINE
  5
1FA8
100
AcDbEntity
  8
BORDER
100
AcDbLine
 10
-565.955015
 20
77.859113
 30
0.0
 11
-565.296251
 21
77.859113
 31
0.0
  0
ARC
  5
1FA9
100
AcDbEntity
  8
BORDER
100
AcDbCircle
 10
-567.758801
 20
78.509827
 30
0.0
 40
0.650714
100
AcDbArc
 50
270.0
 51
90.0
  0
ARC
  5
1FAA
100
AcDbEntity
  8
BORDER
100
AcDbCircle
 10
-565.296251
 20
78.509827
 30
0.0
 40
0.650714
100
AcDbArc
 50
270.0
 51
90.0
  0
LINE
  5
1FAB
100
AcDbEntity
  8
BORDER
100
AcDbLine
 10
-560.98321
 20
79.160542
 30
0.0
 11
-560.98321
 21
76.622394
 31
0.0
  0
LINE
  5
1FAC
100
AcDbEntity
  8
BORDER
100
AcDbLine
 10
-560.98321
 20
77.859113
 30
0.0
 11
-560.105762
 21
77.859113
 31
0.0
  0
LINE
  5
1FAD
100
AcDbEntity
  8
BORDER
100
AcDbLine
 10
-560.105762
 20
79.160542
 30
0.0
 11
-560.98321
 21
79.160542
 31
0.0
  0
ARC
  5
1FAE
102
{ACAD_REACTORS
330
1F7B
102
}
100
AcDbEntity
  8
BORDER
100
AcDbCircle
 10
-568.774941
 20
87.8336
 30
0.0
 40
3.143484
100
AcDbArc
 50
0.076996
 51
90.0
  0
LINE
  5
1FAF
102
{ACAD_REACTORS
330
1F7B
102
}
100
AcDbEntity
  8
BORDER
100
AcDbLine
 10
-570.161242
 20
82.308813
 30
0.0
 11
-570.161242
 21
90.977085
 31
0.0
  0
LINE
  5
1FB0
102
{ACAD_REACTORS
330
1F7B
102
}
100
AcDbEntity
  8
BORDER
100
AcDbLine
 10
-572.883282
 20
82.308813
 30
0.0
 11
-572.883282
 21
90.977085
 31
0.0
  0
LINE
  5
1FB1
102
{ACAD_REACTORS
330
1F7B
102
}
100
AcDbEntity
  8
BORDER
100
AcDbLine
 10
-574.269582
 20
90.977085
 30
0.0
 11
-572.883282
 21
90.977085
 31
0.0
  0
LINE
  5
1FB2
102
{ACAD_REACTORS
330
1F7B
102
}
100
AcDbEntity
  8
BORDER
100
AcDbLine
 10
-568.774941
 20
90.977085
 30
0.0
 11
-570.161242
 21
90.977085
 31
0.0
  0
LINE
  5
1FB3
100
AcDbEntity
  8
BORDER
100
AcDbLine
 10
-564.441591
 20
90.571505
 30
0.0
 11
-564.156371
 21
90.571505
 31
0.0
  0
LINE
  5
1FB4
100
AcDbEntity
  8
BORDER
100
AcDbLine
 10
-564.726811
 20
88.718757
 30
0.0
 11
-564.156371
 21
88.718757
 31
0.0
  0
LINE
  5
1FB5
100
AcDbEntity
  8
BORDER
100
AcDbLine
 10
-564.441591
 20
90.571505
 30
0.0
 11
-564.441591
 21
88.718757
 31
0.0
  0
LINE
  5
1FB6
102
{ACAD_REACTORS
330
1F7B
102
}
100
AcDbEntity
  8
BORDER
100
AcDbLine
 10
-565.302683
 20
87.837825
 30
0.0
 11
-565.631457
 21
87.837825
 31
0.0
  0
LINE
  5
1FB7
102
{ACAD_REACTORS
330
1F7B
102
}
100
AcDbEntity
  8
BORDER
100
AcDbLine
 10
-565.302683
 20
87.837825
 30
0.0
 11
-565.302683
 21
91.780151
 31
0.0
  0
LINE
  5
1FB8
100
AcDbEntity
  8
BORDER
100
AcDbLine
 10
-564.726811
 20
90.571505
 30
0.0
 11
-564.441591
 21
90.571505
 31
0.0
  0
LINE
  5
1FB9
100
AcDbEntity
  8
BORDER
100
AcDbLine
 10
-561.151693
 20
90.571505
 30
0.0
 11
-561.546079
 21
90.571505
 31
0.0
  0
LINE
  5
1FBA
100
AcDbEntity
  8
BORDER
100
AcDbLine
 10
-561.546079
 20
88.718757
 30
0.0
 11
-561.151693
 21
88.718757
 31
0.0
  0
LINE
  5
1FBB
100
AcDbEntity
  8
BORDER
100
AcDbLine
 10
-562.333455
 20
90.571505
 30
0.0
 11
-562.333455
 21
88.718757
 31
0.0
  0
LINE
  5
1FBC
100
AcDbEntity
  8
BORDER
100
AcDbLine
 10
-562.333455
 20
88.718757
 30
0.0
 11
-563.603417
 21
90.61024
 31
0.0
  0
LINE
  5
1FBD
100
AcDbEntity
  8
BORDER
100
AcDbLine
 10
-563.603417
 20
90.61024
 30
0.0
 11
-563.603417
 21
88.718757
 31
0.0
  0
LINE
  5
1FBE
100
AcDbEntity
  8
BORDER
100
AcDbLine
 10
-561.546079
 20
90.571505
 30
0.0
 11
-561.546079
 21
88.718757
 31
0.0
  0
ARC
  5
1FBF
100
AcDbEntity
  8
BORDER
100
AcDbCircle
 10
-561.151693
 20
89.645131
 30
0.0
 40
0.926374
100
AcDbArc
 50
270.0
 51
90.0
  0
ARC
  5
1FC0
102
{ACAD_REACTORS
330
1FC4
102
}
100
AcDbEntity
  8
BORDER
100
AcDbCircle
 10
-551.278699
 20
81.279102
 30
0.0
 40
0.650151
100
AcDbArc
 50
180.0
 51
270.0
  0
ARC
  5
1FC1
102
{ACAD_REACTORS
330
1FC4
102
}
100
AcDbEntity
  8
BORDER
100
AcDbCircle
 10
-553.498839
 20
81.279102
 30
0.0
 40
0.650151
100
AcDbArc
 50
270.0
 51
360.0
  0
LWPOLYLINE
  5
1FC2
102
{ACAD_REACTORS
330
1FC5
102
}
100
AcDbEntity
  8
BORDER
100
AcDbPolyline
 90
       17
 70
     0
 43
0.0
 10
-556.341538
 20
83.442595
 42
-0.060912
 10
-557.479644
 20
83.582803
 10
-557.479644
 20
81.304147
 42
0.414214
 10
-556.829494
 20
80.653996
 10
-556.528624
 20
80.653996
 10
-556.528624
 20
80.482629
 10
-559.350504
 20
80.482629
 10
-559.350504
 20
80.653996
 10
-559.049634
 20
80.653996
 42
0.414214
 10
-558.399483
 20
81.304147
 10
-558.399483
 20
86.261769
 42
0.414214
 10
-559.049634
 20
86.911919
 10
-559.345616
 20
86.911919
 10
-559.345616
 20
87.09338
 10
-556.323155
 20
87.09338
 42
-0.395102
 10
-554.330363
 20
85.249731
 42
-0.42915
 10
-556.341538
 20
83.442595
  0
LINE
  5
1FC3
100
AcDbEntity
  8
BORDER
100
AcDbLine
 10
-545.094009
 20
74.087593
 30
0.0
 11
-545.094009
 21
91.476466
 31
0.0
  0
HATCH
  5
1FC4
100
AcDbEntity
  8
BORDER
100
AcDbHatch
 10
0.0
 20
0.0
 30
0.0
210
0.0
220
0.0
230
1.0
  2
ANSI37
 70
     0
 71
     1
 91
        2
 92
        7
 72
     1
 73
     1
 93
       16
 10
-552.8486888741919
 20
81.27910247007203
 42
-0.4142135623729467
 10
-553.4988394241919
 20
80.62895192007236
 42
0.0
 10
-553.7997095854645
 20
80.62895192007237
 42
0.0
 10
-553.7997095854645
 20
80.45758515923671
 42
0.0
 10
-550.9778291410506
 20
80.45758515923671
 42
0.0
 10
-550.9778291410506
 20
80.62895192007236
 42
0.0
 10
-551.2786993023223
 20
80.62895192007236
 42
-0.4142135623735625
 10
-551.9288498523234
 20
81.27910247007237
 42
0.0
 10
-551.9288498523234
 20
83.55775884847487
 42
0.0609117558027777
 10
-550.7907431677284
 20
83.41755039031779
 42
0.429149743435315
 10
-548.779568954609
 20
85.22468705086273
 42
0.391631177149733
 10
-550.7484834829222
 20
87.06833555807984
 42
0.0
 10
-553.7948210542518
 20
87.06833555807985
 42
0.0
 10
-553.7948210542518
 20
86.8868752717366
 42
0.0
 10
-553.4988394241914
 20
86.8868752717366
 42
-0.4142135623728965
 10
-552.8486888741919
 20
86.23672472173657
 42
0.0
 97
       16
330
1FF5
330
1FD9
330
1FEE
330
1FED
330
1FDC
330
1FE0
330
1FC1
330
1FCD
330
1FCC
330
1FC6
330
1FD3
330
1FD2
330
1FC0
330
1FDE
330
1FDA
330
1FF6
 92
       22
 72
     1
 73
     1
 93
        3
 10
-551.9288498523234
 20
86.58003903716275
 42
-0.528742588942432
 10
-549.8864949905695
 20
85.14679324613885
 42
-0.543922889926702
 10
-551.9288498523234
 20
83.80701941405858
 42
0.0
 97
        3
330
1FD8
330
1FDB
330
1FDF
 75
     0
 76
     1
 52
0.0
 41
0.047813
 77
     0
 78
     2
 53
45.0
 43
-588.939911
 44
-92.208074
 45
-0.0042260678719352
 46
0.0042260678719352
 79
     0
 53
135.0
 43
-588.939911
 44
-92.208074
 45
-0.0042260678719352
 46
-0.0042260678719352
 79
     0
 47
0.027301
 98
        2
 10
-552.46544
 20
84.835985
 10
-552.46544
 20
84.835985
  0
HATCH
  5
1FC5
100
AcDbEntity
  8
BORDER
100
AcDbHatch
 10
0.0
 20
0.0
 30
0.0
210
0.0
220
0.0
230
1.0
  2
ANSI37
 70
     0
 71
     1
 91
        2
 92
        7
 72
     1
 73
     1
 93
       16
 10
-558.3994833670151
 20
81.30414661951295
 42
-0.414213562373094
 10
-559.0496339170148
 20
80.65399606951329
 42
0.0
 10
-559.3505040782879
 20
80.65399606951329
 42
0.0
 10
-559.3505040782879
 20
80.48262930867634
 42
0.0
 10
-556.5286236338732
 20
80.48262930867634
 42
0.0
 10
-556.5286236338732
 20
80.65399606951329
 42
0.0
 10
-556.8294937951463
 20
80.65399606951329
 42
-0.4142135623731015
 10
-557.479644345146
 20
81.30414661951297
 42
0.0
 10
-557.479644345146
 20
83.58280299791468
 42
0.0609117558023489
 10
-556.3415376605589
 20
83.44259453975771
 42
0.4291497434370804
 10
-554.3303634474328
 20
85.24973120030651
 42
0.3951020987305651
 10
-556.3231554510054
 20
87.09337970751947
 42
0.0
 10
-559.3456155470751
 20
87.09337970751947
 42
0.0
 10
-559.3456155470751
 20
86.91191942117754
 42
0.0
 10
-559.0496339170148
 20
86.91191942117754
 42
-0.4142135623731014
 10
-558.3994833670151
 20
86.26176887117786
 42
0.0
 97
        1
330
1FC2
 92
       22
 72
     1
 73
     1
 93
        3
 10
-557.479644345146
 20
86.60508318660204
 42
-0.5287425889459147
 10
-555.4372894833924
 20
85.17183739556156
 42
-0.5439228899225689
 10
-557.479644345146
 20
83.83206356349916
 42
0.0
 97
        1
330
1FDD
 75
     0
 76
     1
 52
0.0
 41
0.047813
 77
     0
 78
     2
 53
45.0
 43
-588.939911
 44
-92.208074
 45
-0.0042260678719352
 46
0.0042260678719352
 79
     0
 53
135.0
 43
-588.939911
 44
-92.208074
 45
-0.0042260678719352
 46
-0.0042260678719352
 79
     0
 47
0.027301
 98
        2
 10
-558.030304
 20
85.410332
 10
-558.030304
 20
85.410332
  0
LINE
  5
1FC6
102
{ACAD_REACTORS
330
1FC4
102
}
100
AcDbEntity
  8
BORDER
100
AcDbLine
 10
-553.79971
 20
80.457585
 30
0.0
 11
-550.977829
 21
80.457585
 31
0.0
  0
LINE
  5
1FC7
100
AcDbEntity
  8
BORDER
100
AcDbLine
 10
-556.089268
 20
79.160542
 30
0.0
 11
-553.93856
 21
79.160542
 31
0.0
  0
LINE
  5
1FC8
100
AcDbEntity
  8
BORDER
100
AcDbLine
 10
-557.612075
 20
79.160542
 30
0.0
 11
-558.584223
 21
76.622394
 31
0.0
  0
LINE
  5
1FC9
100
AcDbEntity
  8
BORDER
100
AcDbLine
 10
-558.229754
 20
77.547865
 30
0.0
 11
-556.972491
 21
77.547865
 31
0.0
  0
LINE
  5
1FCA
100
AcDbEntity
  8
BORDER
100
AcDbLine
 10
-556.605451
 20
76.622394
 30
0.0
 11
-557.612075
 21
79.160542
 31
0.0
  0
LINE
  5
1FCB
100
AcDbEntity
  8
BORDER
100
AcDbLine
 10
-553.377506
 20
77.891468
 30
0.0
 11
-552.288525
 21
77.891468
 31
0.0
  0
LINE
  5
1FCC
102
{ACAD_REACTORS
330
1FC4
102
}
100
AcDbEntity
  8
BORDER
100
AcDbLine
 10
-553.79971
 20
80.628952
 30
0.0
 11
-553.79971
 21
80.457585
 31
0.0
  0
LINE
  5
1FCD
102
{ACAD_REACTORS
330
1FC4
102
}
100
AcDbEntity
  8
BORDER
100
AcDbLine
 10
-553.79971
 20
80.628952
 30
0.0
 11
-553.498839
 21
80.628952
 31
0.0
  0
LINE
  5
1FCE
100
AcDbEntity
  8
BORDER
100
AcDbLine
 10
-553.377506
 20
76.622394
 30
0.0
 11
-553.377506
 21
79.160542
 31
0.0
  0
LINE
  5
1FCF
100
AcDbEntity
  8
BORDER
100
AcDbLine
 10
-555.013914
 20
79.160542
 30
0.0
 11
-555.013914
 21
76.622394
 31
0.0
  0
LINE
  5
1FD0
100
AcDbEntity
  8
BORDER
100
AcDbLine
 10
-551.739968
 20
76.622394
 30
0.0
 11
-553.377506
 21
76.622394
 31
0.0
  0
LINE
  5
1FD1
100
AcDbEntity
  8
BORDER
100
AcDbLine
 10
-553.377506
 20
79.160542
 30
0.0
 11
-551.739968
 21
79.160542
 31
0.0
  0
LINE
  5
1FD2
102
{ACAD_REACTORS
330
1FC4
102
}
100
AcDbEntity
  8
BORDER
100
AcDbLine
 10
-551.278699
 20
80.628952
 30
0.0
 11
-550.977829
 21
80.628952
 31
0.0
  0
LINE
  5
1FD3
102
{ACAD_REACTORS
330
1FC4
102
}
100
AcDbEntity
  8
BORDER
100
AcDbLine
 10
-550.977829
 20
80.628952
 30
0.0
 11
-550.977829
 21
80.457585
 31
0.0
  0
LINE
  5
1FD4
100
AcDbEntity
  8
BORDER
100
AcDbLine
 10
-551.032618
 20
79.160542
 30
0.0
 11
-551.032618
 21
76.622394
 31
0.0
  0
LINE
  5
1FD5
100
AcDbEntity
  8
BORDER
100
AcDbLine
 10
-551.032618
 20
76.622394
 30
0.0
 11
-550.074683
 21
76.622394
 31
0.0
  0
ARC
  5
1FD6
100
AcDbEntity
  8
BORDER
100
AcDbCircle
 10
-550.074683
 20
77.891468
 30
0.0
 40
1.269074
100
AcDbArc
 50
270.0
 51
90.0
  0
LINE
  5
1FD7
100
AcDbEntity
  8
BORDER
100
AcDbLine
 10
-550.074683
 20
79.160542
 30
0.0
 11
-551.032618
 21
79.160542
 31
0.0
  0
ARC
  5
1FD8
102
{ACAD_REACTORS
330
1FC4
102
}
100
AcDbEntity
  8
BORDER
100
AcDbCircle
 10
-551.395885
 20
85.16772
 30
0.0
 40
1.509535
100
AcDbArc
 50
359.205673
 51
110.674935
  0
LINE
  5
1FD9
102
{ACAD_REACTORS
330
1FC4
102
}
100
AcDbEntity
  8
BORDER
100
AcDbLine
 10
-553.794821
 20
87.068336
 30
0.0
 11
-550.748483
 21
87.068336
 31
0.0
  0
ARC
  5
1FDA
102
{ACAD_REACTORS
330
1FC4
102
}
100
AcDbEntity
  8
BORDER
100
AcDbCircle
 10
-550.786474
 20
88.141453
 30
0.0
 40
4.723904
100
AcDbArc
 50
256.005504
 51
269.948223
  0
ARC
  5
1FDB
102
{ACAD_REACTORS
330
1FC4
102
}
100
AcDbEntity
  8
BORDER
100
AcDbCircle
 10
-551.341281
 20
85.137901
 30
0.0
 40
1.454813
100
AcDbArc
 50
246.179097
 51
0.350223
  0
ARC
  5
1FDC
102
{ACAD_REACTORS
330
1FC4
102
}
100
AcDbEntity
  8
BORDER
100
AcDbCircle
 10
-553.498839
 20
86.236725
 30
0.0
 40
0.650151
100
AcDbArc
 50
0.0
 51
90.0
  0
LWPOLYLINE
  5
1FDD
102
{ACAD_REACTORS
330
1FC5
102
}
100
AcDbEntity
  8
BORDER
100
AcDbPolyline
 90
        3
 70
     1
 43
0.0
 10
-557.479644
 20
83.832064
 42
0.543923
 10
-555.437289
 20
85.171837
 42
0.528743
 10
-557.479644
 20
86.605083
  0
LINE
  5
1FDE
102
{ACAD_REACTORS
330
1FC4
102
}
100
AcDbEntity
  8
BORDER
100
AcDbLine
 10
-551.92885
 20
83.557759
 30
0.0
 11
-551.92885
 21
81.279102
 31
0.0
  0
LINE
  5
1FDF
102
{ACAD_REACTORS
330
1FC4
102
}
100
AcDbEntity
  8
BORDER
100
AcDbLine
 10
-551.92885
 20
86.580039
 30
0.0
 11
-551.92885
 21
83.807019
 31
0.0
  0
LINE
  5
1FE0
102
{ACAD_REACTORS
330
1FC4
102
}
100
AcDbEntity
  8
BORDER
100
AcDbLine
 10
-552.848689
 20
81.279102
 30
0.0
 11
-552.848689
 21
86.236725
 31
0.0
  0
LINE
  5
1FE1
100
AcDbEntity
  8
BORDER
100
AcDbLine
 10
-556.308225
 20
90.571505
 30
0.0
 11
-554.785893
 21
90.571505
 31
0.0
  0
ARC
  5
1FE2
100
AcDbEntity
  8
BORDER
100
AcDbCircle
 10
-556.86772
 20
89.17369
 30
0.0
 40
0.26163
100
AcDbArc
 50
331.630608
 51
60.315223
  0
ARC
  5
1FE3
100
AcDbEntity
  8
BORDER
100
AcDbCircle
 10
-558.942657
 20
89.341038
 30
0.0
 40
0.622281
100
AcDbArc
 50
180.0
 51
0.0
  0
ARC
  5
1FE4
100
AcDbEntity
  8
BORDER
100
AcDbCircle
 10
-557.497983
 20
90.176528
 30
0.0
 40
0.26163
100
AcDbArc
 50
140.101426
 51
236.383068
  0
ARC
  5
1FE5
100
AcDbEntity
  8
BORDER
100
AcDbCircle
 10
-549.06784
 20
102.856783
 30
0.0
 40
15.488455
100
AcDbArc
 50
236.383068
 51
240.315223
  0
ARC
  5
1FE6
100
AcDbEntity
  8
BORDER
100
AcDbCircle
 10
-557.164863
 20
89.306284
 30
0.0
 40
0.586601
100
AcDbArc
 50
200.502447
 51
334.026213
  0
LINE
  5
1FE7
100
AcDbEntity
  8
BORDER
100
AcDbLine
 10
-558.320376
 20
90.571505
 30
0.0
 11
-558.320376
 21
89.341038
 31
0.0
  0
LINE
  5
1FE8
100
AcDbEntity
  8
BORDER
100
AcDbLine
 10
-559.564939
 20
89.341038
 30
0.0
 11
-559.564939
 21
90.571505
 31
0.0
  0
ARC
  5
1FE9
100
AcDbEntity
  8
BORDER
100
AcDbCircle
 10
-557.239447
 20
89.998873
 30
0.0
 40
0.574687
100
AcDbArc
 50
25.379638
 51
143.047804
  0
LINE
  5
1FEA
100
AcDbEntity
  8
BORDER
100
AcDbLine
 10
-553.718707
 20
90.571505
 30
0.0
 11
-554.392626
 21
90.571505
 31
0.0
  0
LINE
  5
1FEB
100
AcDbEntity
  8
BORDER
100
AcDbLine
 10
-553.847891
 20
89.636203
 30
0.0
 11
-553.260282
 21
88.718757
 31
0.0
  0
LINE
  5
1FEC
100
AcDbEntity
  8
BORDER
100
AcDbLine
 10
-554.392626
 20
89.636203
 30
0.0
 11
-553.718707
 21
89.636203
 31
0.0
  0
LINE
  5
1FED
102
{ACAD_REACTORS
330
1FC4
102
}
100
AcDbEntity
  8
BORDER
100
AcDbLine
 10
-553.794821
 20
86.886875
 30
0.0
 11
-553.498839
 21
86.886875
 31
0.0
  0
LINE
  5
1FEE
102
{ACAD_REACTORS
330
1FC4
102
}
100
AcDbEntity
  8
BORDER
100
AcDbLine
 10
-553.794821
 20
87.068336
 30
0.0
 11
-553.794821
 21
86.886875
 31
0.0
  0
LINE
  5
1FEF
100
AcDbEntity
  8
BORDER
100
AcDbLine
 10
-552.396113
 20
90.571505
 30
0.0
 11
-552.396113
 21
88.718757
 31
0.0
  0
LINE
  5
1FF0
100
AcDbEntity
  8
BORDER
100
AcDbLine
 10
-555.547059
 20
90.571505
 30
0.0
 11
-555.547059
 21
88.718757
 31
0.0
  0
LINE
  5
1FF1
100
AcDbEntity
  8
BORDER
100
AcDbLine
 10
-554.392626
 20
90.571505
 30
0.0
 11
-554.392626
 21
88.718757
 31
0.0
  0
ARC
  5
1FF2
100
AcDbEntity
  8
BORDER
100
AcDbCircle
 10
-553.718707
 20
90.103854
 30
0.0
 40
0.467651
100
AcDbArc
 50
270.0
 51
90.0
  0
LINE
  5
1FF3
100
AcDbEntity
  8
BORDER
100
AcDbLine
 10
-552.681333
 20
90.571505
 30
0.0
 11
-552.110893
 21
90.571505
 31
0.0
  0
LINE
  5
1FF4
100
AcDbEntity
  8
BORDER
100
AcDbLine
 10
-552.681333
 20
88.718757
 30
0.0
 11
-552.110893
 21
88.718757
 31
0.0
  0
ARC
  5
1FF5
102
{ACAD_REACTORS
330
1FC4
102
}
100
AcDbEntity
  8
BORDER
100
AcDbCircle
 10
-550.760422
 20
85.082416
 30
0.0
 40
1.985956
100
AcDbArc
 50
4.10812
 51
90.34444
  0
ARC
  5
1FF6
102
{ACAD_REACTORS
330
1FC4
102
}
100
AcDbEntity
  8
BORDER
100
AcDbCircle
 10
-550.644015
 20
85.276949
 30
0.0
 40
1.865179
100
AcDbArc
 50
265.488062
 51
358.394374
  0
LINE
  5
1FF7
100
AcDbEntity
  8
BORDER
100
AcDbLine
 10
-551.537428
 20
90.571505
 30
0.0
 11
-550.422181
 21
90.571505
 31
0.0
  0
ARC
  5
1FF8
100
AcDbEntity
  8
BORDER
100
AcDbCircle
 10
-549.791248
 20
90.176528
 30
0.0
 40
0.26163
100
AcDbArc
 50
140.101426
 51
236.383068
  0
ARC
  5
1FF9
100
AcDbEntity
  8
BORDER
100
AcDbCircle
 10
-541.361104
 20
102.856783
 30
0.0
 40
15.488455
100
AcDbArc
 50
236.383068
 51
240.315223
  0
ARC
  5
1FFA
100
AcDbEntity
  8
BORDER
100
AcDbCircle
 10
-549.160985
 20
89.17369
 30
0.0
 40
0.26163
100
AcDbArc
 50
331.630608
 51
60.315223
  0
ARC
  5
1FFB
100
AcDbEntity
  8
BORDER
100
AcDbCircle
 10
-549.458127
 20
89.306284
 30
0.0
 40
0.586601
100
AcDbArc
 50
200.502447
 51
334.026213
  0
LINE
  5
1FFC
100
AcDbEntity
  8
BORDER
100
AcDbLine
 10
-551.537428
 20
89.645131
 30
0.0
 11
-550.665356
 21
89.645131
 31
0.0
  0
LINE
  5
1FFD
100
AcDbEntity
  8
BORDER
100
AcDbLine
 10
-550.422181
 20
88.718757
 30
0.0
 11
-551.537428
 21
88.718757
 31
0.0
  0
ARC
  5
1FFE
100
AcDbEntity
  8
BORDER
100
AcDbCircle
 10
-549.532712
 20
89.998873
 30
0.0
 40
0.574687
100
AcDbArc
 50
25.379638
 51
143.047804
  0
LINE
  5
1FFF
100
AcDbEntity
  8
BORDER
100
AcDbLine
 10
-551.537428
 20
88.718757
 30
0.0
 11
-551.537428
 21
90.571505
 31
0.0
  0
LWPOLYLINE
  5
2000
100
AcDbEntity
  8
BORDER
 62
     5
100
AcDbPolyline
 90
        2
 70
     0
 43
1.449073
 10
-533.501427
 20
97.272757
 42
0.414214
 10
-539.297718
 20
91.476466
 42
-0.560527
  0
ARC
  5
2001
100
AcDbEntity
  8
BORDER
100
AcDbCircle
 10
-533.501427
 20
91.476466
 30
0.0
 40
2.898145
100
AcDbArc
 50
90.0
 51
180.0
  0
TEXT
  5
2002
100
AcDbEntity
  8
BORDER
 62
     6
100
AcDbText
 10
-535.979639
 20
85.750927
 30
0.0
 40
1.300329
  1
Reference:
  7
ROMANC
100
AcDbText
  0
LWPOLYLINE
  5
2003
100
AcDbEntity
  8
BORDER
 62
     5
100
AcDbPolyline
 90
        2
 70
     0
 43
1.449073
 10
-542.195863
 20
74.087593
 10
-542.195863
 20
91.476466
  0
LWPOLYLINE
  5
2004
100
AcDbEntity
  8
BORDER
 62
     5
100
AcDbPolyline
 90
        2
 70
     0
 43
1.449073
 10
-539.297718
 20
91.476466
 10
-539.297718
 20
74.087593
  0
LINE
  5
2005
100
AcDbEntity
  8
BORDER
100
AcDbLine
 10
-536.399572
 20
74.087593
 30
0.0
 11
-536.399572
 21
80.700138
 31
0.0
  0
LINE
  5
2006
100
AcDbEntity
  8
BORDER
100
AcDbLine
 10
-536.399572
 20
82.782029
 30
0.0
 11
-536.399572
 21
91.476466
 31
0.0
  0
TEXT
  5
2007
100
AcDbEntity
  8
BORDER
 62
     6
100
AcDbText
 10
-523.306514
 20
85.873335
 30
0.0
 40
1.300329
  1
Duplex Base Elbow Flanged
  7
ROMANC
100
AcDbText
  0
LINE
  5
2062
100
AcDbEntity
  8
BORDER
100
AcDbLine
 10
-492.22481
 20
94.374611
 30
0.0
 11
-427.649355
 21
94.374611
 31
0.0
  0
TEXT
  5
2063
100
AcDbEntity
  8
BORDER
 62
     6
100
AcDbText
 10
-445.640905
 20
75.565841
 30
0.0
 40
3.900986
  1
16844
  7
ROMANC
100
AcDbText
  0
TEXT
  5
2064
100
AcDbEntity
  8
BORDER
 62
     6
100
AcDbText
 10
-470.354244
 20
83.577062
 30
0.0
 40
1.087764
  1
in this print by any other source than TOPP INDUSTRIES, INC.
 41
0.839168
  7
ROMANS
 72
     5
 11
-425.539314
 21
83.577062
 31
0.0
100
AcDbText
  0
TEXT
  5
2065
100
AcDbEntity
  8
BORDER
 62
     6
100
AcDbText
 10
-470.354244
 20
85.338203
 30
0.0
 40
1.087764
  1
and will not be used to manufacture or procure the manufacture of the items shown
 41
0.600404
  7
ROMANS
 72
     5
 11
-425.539314
 21
85.338203
 31
0.0
100
AcDbText
  0
TEXT
  5
2066
100
AcDbEntity
  8
BORDER
 62
     6
100
AcDbText
 10
-470.354244
 20
87.099345
 30
0.0
 40
1.087764
  1
be used as a record or to identify or inspect parts or for other information purposes
 41
0.596266
  7
ROMANS
 72
     5
 11
-425.539314
 21
87.099345
 31
0.0
100
AcDbText
  0
TEXT
  5
2067
100
AcDbEntity
  8
BORDER
 62
     6
100
AcDbText
 10
-470.354244
 20
88.860486
 30
0.0
 40
1.087764
  1
restriction includes, but is not limited to the condition that this print will not only
 41
0.626489
  7
ROMANS
 72
     5
 11
-425.539314
 21
88.860486
 31
0.0
100
AcDbText
  0
TEXT
  5
2068
100
AcDbEntity
  8
BORDER
 62
     6
100
AcDbText
 10
-470.354244
 20
90.621627
 30
0.0
 40
1.087764
  1
by TOPP INDUSTRIES, INC. It is furnished on a strictly confidential basis.  This
 41
0.659437
  7
ROMANS
 72
     5
 11
-425.539314
 21
90.621627
 31
0.0
100
AcDbText
  0
TEXT
  5
2069
100
AcDbEntity
  8
BORDER
 62
     6
100
AcDbText
 10
-470.354244
 20
92.382769
 30
0.0
 40
1.087764
  1
This print is and contains confidential proprietary information owned exclusively
 41
0.656934
  7
ROMANS
 72
     5
 11
-425.539314
 21
92.382769
 31
0.0
100
AcDbText
  0
LINE
  5
206A
100
AcDbEntity
  8
BORDER
100
AcDbLine
 10
-457.447064
 20
74.087593
 30
0.0
 11
-424.75121
 21
74.087593
 31
0.0
  0
LINE
  5
206B
100
AcDbEntity
  8
BORDER
100
AcDbLine
 10
-457.447064
 20
80.700138
 30
0.0
 11
-424.75121
 21
80.700138
 31
0.0
  0
LINE
  5
206C
100
AcDbEntity
  8
BORDER
100
AcDbLine
 10
-492.22481
 20
82.782029
 30
0.0
 11
-424.75121
 21
82.782029
 31
0.0
  0
TEXT
  5
206D
100
AcDbEntity
  8
BORDER
 62
     6
100
AcDbText
 10
-491.630797
 20
83.161527
 30
0.0
 40
1.300329
  1
Date: 06/03/03
  7
ROMANC
100
AcDbText
  0
TEXT
  5
206E
100
AcDbEntity
  8
BORDER
 62
     6
100
AcDbText
 10
-491.556673
 20
78.4375
 30
0.0
 40
1.300329
  1
Supersedes Prints
  7
ROMANC
100
AcDbText
  0
TEXT
  5
206F
100
AcDbEntity
  8
BORDER
 62
     6
100
AcDbText
 10
-477.572477
 20
75.251997
 30
0.0
 40
1.666434
  1
06/03/03
  7
ROMAND
100
AcDbText
  0
LINE
  5
2070
100
AcDbEntity
  8
BORDER
100
AcDbLine
 10
-492.22481
 20
74.087593
 30
0.0
 11
-459.528955
 21
74.087593
 31
0.0
  0
LINE
  5
2071
100
AcDbEntity
  8
BORDER
100
AcDbLine
 10
-492.22481
 20
80.700138
 30
0.0
 11
-459.528955
 21
80.700138
 31
0.0
  0
LINE
  5
2072
100
AcDbEntity
  8
BORDER
100
AcDbLine
 10
-492.22481
 20
82.782029
 30
0.0
 11
-492.22481
 21
94.374611
 31
0.0
  0
TEXT
  5
2073
100
AcDbEntity
  8
BORDER
 62
     6
100
AcDbText
 10
-491.556673
 20
76.332206
 30
0.0
 40
1.300329
  1
Prior To:
  7
ROMANC
100
AcDbText
  0
LINE
  5
2074
100
AcDbEntity
  8
BORDER
100
AcDbLine
 10
-492.22481
 20
74.087593
 30
0.0
 11
-492.22481
 21
80.700138
 31
0.0
  0
TEXT
  5
2075
100
AcDbEntity
  8
BORDER
 62
     6
100
AcDbText
 10
-491.630797
 20
86.259777
 30
0.0
 40
1.300329
  1
Appv'd By: .
  7
ROMANC
100
AcDbText
  0
TEXT
  5
2076
100
AcDbEntity
  8
BORDER
 62
     6
100
AcDbText
 10
-491.630797
 20
89.358027
 30
0.0
 40
1.300329
  1
Drawn By:
  7
ROMANC
100
AcDbText
  0
TEXT
  5
2077
100
AcDbEntity
  8
BORDER
 62
     6
100
AcDbText
 10
-479.697374
 20
89.219543
 30
0.0
 40
1.77353
  1
RM
  7
COUNTRYBLUEPRINT
100
AcDbText
  0
TEXT
  5
2078
100
AcDbEntity
  8
BORDER
 62
     6
100
AcDbText
 10
-491.630797
 20
92.456277
 30
0.0
 40
1.300329
  1
Scale: None
  7
ROMANC
100
AcDbText
  0
LINE
  5
2079
100
AcDbEntity
  8
BORDER
100
AcDbLine
 10
-459.528955
 20
80.700138
 30
0.0
 11
-459.528955
 21
74.087593
 31
0.0
  0
TEXT
  5
207A
100
AcDbEntity
  8
BORDER
 62
     6
100
AcDbText
 10
-456.762728
 20
78.581594
 30
0.0
 40
1.300329
  1
Reference
  7
ROMANC
100
AcDbText
  0
LINE
  5
207B
100
AcDbEntity
  8
BORDER
100
AcDbLine
 10
-457.447064
 20
80.700138
 30
0.0
 11
-457.447064
 21
74.087593
 31
0.0
  0
TEXT
  5
207C
100
AcDbEntity
  8
BORDER
 62
     6
100
AcDbText
 10
-456.762728
 20
76.4763
 30
0.0
 40
1.300329
  1
No:
  7
ROMANC
100
AcDbText
  0
LINE
  5
207D
100
AcDbEntity
  8
BORDER
100
AcDbLine
 10
-381.279027
 20
86.30439
 30
0.0
 11
-413.158628
 21
86.30439
 31
0.0
  0
LINE
  5
207E
100
AcDbEntity
  8
BORDER
100
AcDbLine
 10
-381.279027
 20
89.202535
 30
0.0
 11
-413.158628
 21
89.202535
 31
0.0
  0
LINE
  5
207F
100
AcDbEntity
  8
BORDER
100
AcDbLine
 10
-381.279027
 20
94.374611
 30
0.0
 11
-413.158628
 21
94.374611
 31
0.0
  0
LWPOLYLINE
  5
2080
100
AcDbEntity
  8
BORDER
 62
     5
100
AcDbPolyline
 90
        2
 70
     0
 43
1.449073
 10
-381.279027
 20
97.272757
 10
-413.158628
 20
97.272757
  0
LINE
  5
2081
100
AcDbEntity
  8
BORDER
100
AcDbLine
 10
-381.279027
 20
77.609953
 30
0.0
 11
-413.158628
 21
77.609953
 31
0.0
  0
LINE
  5
2082
100
AcDbEntity
  8
BORDER
100
AcDbLine
 10
-381.279027
 20
80.508099
 30
0.0
 11
-413.158628
 21
80.508099
 31
0.0
  0
LINE
  5
2083
100
AcDbEntity
  8
BORDER
100
AcDbLine
 10
-381.279027
 20
83.406244
 30
0.0
 11
-413.158628
 21
83.406244
 31
0.0
  0
LINE
  5
2084
100
AcDbEntity
  8
BORDER
100
AcDbLine
 10
-381.279027
 20
74.087593
 30
0.0
 11
-416.056773
 21
74.087593
 31
0.0
  0
ARC
  5
2085
100
AcDbEntity
  8
BORDER
100
AcDbCircle
 10
-413.158628
 20
91.476466
 30
0.0
 40
2.898145
100
AcDbArc
 50
90.0
 51
180.0
  0
LWPOLYLINE
  5
2086
100
AcDbEntity
  8
BORDER
 62
     5
100
AcDbPolyline
 90
        2
 70
     0
 43
1.449073
 10
-413.158628
 20
97.272757
 42
0.414214
 10
-418.954919
 20
91.476466
 42
-0.560527
  0
ARC
  5
2087
100
AcDbEntity
  8
BORDER
100
AcDbCircle
 10
-427.649355
 20
91.476466
 30
0.0
 40
2.898145
100
AcDbArc
 50
0.0
 51
90.0
  0
LWPOLYLINE
  5
2088
100
AcDbEntity
  8
BORDER
 62
     5
100
AcDbPolyline
 90
        2
 70
     0
 43
1.449073
 10
-427.649355
 20
97.272757
 42
-0.414214
 10
-421.853064
 20
91.476466
 42
0.560527
  0
LINE
  5
208A
100
AcDbEntity
  8
BORDER
100
AcDbLine
 10
-410.260482
 20
89.202535
 30
0.0
 11
-410.260482
 21
77.609953
 31
0.0
  0
LINE
  5
208B
100
AcDbEntity
  8
BORDER
100
AcDbLine
 10
-413.158628
 20
89.202535
 30
0.0
 11
-413.158628
 21
77.609953
 31
0.0
  0
LINE
  5
208C
100
AcDbEntity
  8
BORDER
100
AcDbLine
 10
-416.056773
 20
74.087593
 30
0.0
 11
-416.056773
 21
91.476466
 31
0.0
  0
LWPOLYLINE
  5
208D
100
AcDbEntity
  8
BORDER
 62
     5
100
AcDbPolyline
 90
        2
 70
     0
 43
1.449073
 10
-418.954919
 20
74.087593
 10
-418.954919
 20
91.476466
  0
LWPOLYLINE
  5
208E
100
AcDbEntity
  8
BORDER
 62
     5
100
AcDbPolyline
 90
        2
 70
     0
 43
1.449073
 10
-421.853064
 20
74.087593
 10
-421.853064
 20
91.476466
  0
LINE
  5
208F
100
AcDbEntity
  8
BORDER
100
AcDbLine
 10
-424.75121
 20
80.700138
 30
0.0
 11
-424.75121
 21
74.087593
 31
0.0
  0
LINE
  5
2090
100
AcDbEntity
  8
BORDER
100
AcDbLine
 10
-424.75121
 20
91.476466
 30
0.0
 11
-424.75121
 21
82.782029
 31
0.0
  0
LWPOLYLINE
  5
2091
100
AcDbEntity
  8
BORDER
100
AcDbPolyline
 90
        6
 70
     1
 43
0.0
 10
-411.092545
 20
86.67883
 10
-410.475094
 20
87.748287
 10
-411.092545
 20
88.817743
 10
-412.327447
 20
88.817743
 10
-412.944899
 20
87.748287
 10
-412.327447
 20
86.67883
  0
TEXT
  5
2095
100
AcDbEntity
  8
BORDER
 62
     6
100
AcDbText
 10
-412.398195
 20
87.031398
 30
0.0
 40
1.449073
  1
A
  7
ROMAND
100
AcDbText
  0
ARC
  5
2096
100
AcDbEntity
  8
BORDER
100
AcDbCircle
 10
-381.279027
 20
91.476466
 30
0.0
 40
2.898145
100
AcDbArc
 50
0.0
 51
90.0
  0
TEXT
  5
2097
100
AcDbEntity
  8
BORDER
 62
     6
100
AcDbText
 10
-404.948412
 20
90.500506
 30
0.0
 40
1.950493
  1
Revisions
  7
ROMANC
100
AcDbText
  0
TEXT
  5
2099
100
AcDbEntity
  8
BORDER
 62
     6
100
AcDbText
 10
-407.810201
 20
87.031398
 30
0.0
 40
1.449073
  1
First Released.
  7
ROMAND
100
AcDbText
  0
LINE
  5
209B
100
AcDbEntity
  8
BORDER
100
AcDbLine
 10
-381.279027
 20
89.202535
 30
0.0
 11
-381.279027
 21
77.609953
 31
0.0
  0
LINE
  5
209C
100
AcDbEntity
  8
BORDER
100
AcDbLine
 10
-378.380882
 20
76.985738
 30
0.0
 11
-378.380882
 21
91.476466
 31
0.0
  0
ARC
  5
209D
100
AcDbEntity
  8
BORDER
100
AcDbCircle
 10
-381.279027
 20
76.985738
 30
0.0
 40
2.898145
100
AcDbArc
 50
270.0
 51
0.0
  0
LINE
  5
2330
100
AcDbEntity
  8
LIMITS
 62
     7
100
AcDbLine
 10
-370.845703
 20
65.393156
 30
0.0
 11
-370.845703
 21
349.399406
 31
0.0
  0
LINE
  5
2331
100
AcDbEntity
  8
LIMITS
100
AcDbLine
 10
-370.845703
 20
343.615123
 30
0.0
 11
-370.845703
 21
65.393156
 31
0.0
  0
LINE
  5
2332
100
AcDbEntity
  8
LIMITS
100
AcDbLine
 10
-370.845703
 20
65.393156
 30
0.0
 11
-370.845703
 21
343.615123
 31
0.0
  0
LINE
  5
2357
100
AcDbEntity
  8
OBJECT
100
AcDbLine
 10
-460.31026
 20
211.201398
 30
0.0
 11
-460.31026
 21
138.629931
 31
0.0
  0
LINE
  5
2358
100
AcDbEntity
  8
OBJECT
100
AcDbLine
 10
-456.81026
 20
211.201398
 30
0.0
 11
-456.81026
 21
138.629931
 31
0.0
  0
LINE
  5
2359
100
AcDbEntity
  8
CENTER
100
AcDbLine
 10
-458.56026
 20
220.944421
 30
0.0
 11
-458.56026
 21
137.691931
 31
0.0
  0
LINE
  5
235A
100
AcDbEntity
  8
OBJECT
100
AcDbLine
 10
-469.724483
 20
208.964337
 30
0.0
 11
-469.724483
 21
207.399755
 31
0.0
  0
LINE
  5
235B
100
AcDbEntity
  8
OBJECT
100
AcDbLine
 10
-467.824483
 20
208.964337
 30
0.0
 11
-467.824483
 21
187.984438
 31
0.0
  0
LINE
  5
235C
100
AcDbEntity
  8
DIM
100
AcDbLine
 10
-519.85852
 20
209.076398
 30
0.0
 11
-519.85852
 21
193.841351
 31
0.0
  0
LINE
  5
235D
100
AcDbEntity
  8
DIM
100
AcDbLine
 10
-436.586061
 20
209.076398
 30
0.0
 11
-436.586061
 21
165.899118
 31
0.0
  0
ARC
  5
235E
100
AcDbEntity
  8
OBJECT
100
AcDbCircle
 10
-787.00204
 20
308.809236
 30
0.0
 40
341.656327
100
AcDbArc
 50
332.211994
 51
343.334261
  0
ARC
  5
235F
100
AcDbEntity
  8
OBJECT
100
AcDbCircle
 10
-787.00204
 20
308.809236
 30
0.0
 40
341.281327
100
AcDbArc
 50
332.178812
 51
343.315413
  0
LINE
  5
2360
100
AcDbEntity
  8
ELEV
100
AcDbLine
 10
-559.584097
 20
214.198758
 30
0.0
 11
-559.584097
 21
207.454037
 31
0.0
  0
ARC
  5
2361
100
AcDbEntity
  8
ELEV
 62
     3
100
AcDbCircle
 39
18.0
 10
-559.584097
 20
210.826398
 30
0.0
 40
2.472361
100
AcDbArc
 50
180.0
 51
270.0
  0
ARC
  5
2362
100
AcDbEntity
  8
ELEV
 62
     3
100
AcDbCircle
 39
18.0
 10
-559.584097
 20
210.826398
 30
0.0
 40
2.472361
100
AcDbArc
 50
270.0
 51
0.0
  0
LINE
  5
2363
100
AcDbEntity
  8
OBJECT
100
AcDbLine
 10
-501.109461
 20
121.889591
 30
0.0
 11
-501.109461
 21
209.941016
 31
0.0
  0
LINE
  5
2364
100
AcDbEntity
  8
OBJECT
100
AcDbLine
 10
-501.949461
 20
121.889591
 30
0.0
 11
-501.949461
 21
209.941016
 31
0.0
  0
ARC
  5
2369
100
AcDbEntity
  8
OBJECT
100
AcDbCircle
 10
-466.074578
 20
208.460857
 30
0.0
 40
0.750049
100
AcDbArc
 50
302.232449
 51
0.00007
  0
LINE
  5
236A
100
AcDbEntity
  8
OBJECT
100
AcDbLine
 10
-465.674535
 20
210.826398
 30
0.0
 11
-465.674535
 21
207.826398
 31
0.0
  0
LINE
  5
236B
100
AcDbEntity
  8
OBJECT
  6
CONTINUOUS
 62
     2
100
AcDbLine
 10
-494.674535
 20
210.826398
 30
0.0
 11
-494.674535
 21
207.826398
 31
0.0
  0
ARC
  5
236C
100
AcDbEntity
  8
OBJECT
  6
CONTINUOUS
 62
     2
100
AcDbCircle
 10
-494.274493
 20
208.460857
 30
0.0
 40
0.750049
100
AcDbArc
 50
179.99993
 51
237.767551
  0
LINE
  5
236D
100
AcDbEntity
  8
OBJECT
100
AcDbLine
 10
-450.174535
 20
113.711839
 30
0.0
 11
-450.174535
 21
210.576398
 31
0.0
  0
LINE
  5
236E
100
AcDbEntity
  8
OBJECT
100
AcDbLine
 10
-449.674535
 20
113.461839
 30
0.0
 11
-449.674535
 21
210.076398
 31
0.0
  0
LINE
  5
236F
100
AcDbEntity
  8
OBJECT
100
AcDbLine
 10
-510.674535
 20
113.461839
 30
0.0
 11
-510.674535
 21
210.076398
 31
0.0
  0
LINE
  5
2370
100
AcDbEntity
  8
OBJECT
100
AcDbLine
 10
-510.174535
 20
113.711839
 30
0.0
 11
-510.174535
 21
210.576398
 31
0.0
  0
LINE
  5
2371
100
AcDbEntity
  8
OBJECT
  6
CONTINUOUS
 62
     2
100
AcDbLine
 39
50.0
 10
-496.989371
 20
168.977499
 30
0.0
 11
-498.403585
 21
167.563286
 31
0.0
  0
LINE
  5
2372
100
AcDbEntity
  8
OBJECT
  6
CONTINUOUS
 62
     2
100
AcDbLine
 39
50.0
 10
-497.741535
 20
166.901236
 30
0.0
 11
-496.327322
 21
168.31545
 31
0.0
  0
LINE
  5
2373
100
AcDbEntity
  8
OBJECT
  6
CONTINUOUS
 62
     2
100
AcDbLine
 39
50.0
 10
-498.403585
 20
167.563286
 30
0.0
 11
-497.741535
 21
166.901236
 31
0.0
  0
LINE
  5
2374
100
AcDbEntity
  8
OBJECT
  6
CONTINUOUS
 62
     2
100
AcDbLine
 39
50.0
 10
-496.327322
 20
168.31545
 30
0.0
 11
-496.989371
 21
168.977499
 31
0.0
  0
LINE
  5
2375
100
AcDbEntity
  8
OBJECT
  6
CONTINUOUS
 62
     2
100
AcDbLine
 39
50.0
 10
-496.318906
 20
129.675614
 30
0.0
 11
-496.980955
 21
130.337663
 31
0.0
  0
LINE
  5
2376
100
AcDbEntity
  8
OBJECT
  6
CONTINUOUS
 62
     2
100
AcDbLine
 39
50.0
 10
-498.395169
 20
128.92345
 30
0.0
 11
-497.733119
 21
128.2614
 31
0.0
  0
LINE
  5
2377
100
AcDbEntity
  8
OBJECT
  6
CONTINUOUS
 62
     2
100
AcDbLine
 39
50.0
 10
-497.733119
 20
128.2614
 30
0.0
 11
-496.318906
 21
129.675614
 31
0.0
  0
LINE
  5
2378
100
AcDbEntity
  8
OBJECT
  6
CONTINUOUS
 62
     2
100
AcDbLine
 39
50.0
 10
-493.397559
 20
127.440399
 30
0.0
 11
-495.497904
 21
125.340053
 31
0.0
  0
ARC
  5
2379
100
AcDbEntity
  8
OBJECT
  6
CONTINUOUS
 62
     2
100
AcDbCircle
 39
50.0
 10
-494.447775
 20
126.390269
 30
0.0
 40
1.485168
100
AcDbArc
 50
225.002355
 51
44.997645
  0
LINE
  5
237A
100
AcDbEntity
  8
OBJECT
  6
CONTINUOUS
 62
     2
100
AcDbLine
 39
50.0
 10
-496.688903
 20
128.631397
 30
0.0
 11
-495.489445
 21
125.316661
 31
0.0
  0
LINE
  5
237B
100
AcDbEntity
  8
OBJECT
  6
CONTINUOUS
 62
     2
100
AcDbLine
 39
50.0
 10
-496.688903
 20
128.631397
 30
0.0
 11
-493.397559
 21
127.440399
 31
0.0
  0
LINE
  5
237C
100
AcDbEntity
  8
OBJECT
  6
CONTINUOUS
 62
     2
100
AcDbLine
 39
50.0
 10
-496.980955
 20
130.337663
 30
0.0
 11
-498.395169
 21
128.92345
 31
0.0
  0
LINE
  5
237D
100
AcDbEntity
  8
OBJECT
  6
CONTINUOUS
 62
     2
100
AcDbLine
 39
50.0
 10
-496.318842
 20
141.593327
 30
0.0
 11
-496.980891
 21
142.255376
 31
0.0
  0
LINE
  5
237E
100
AcDbEntity
  8
OBJECT
  6
CONTINUOUS
 62
     2
100
AcDbLine
 39
50.0
 10
-498.395105
 20
140.841163
 30
0.0
 11
-497.733055
 21
140.179113
 31
0.0
  0
LINE
  5
237F
100
AcDbEntity
  8
OBJECT
  6
CONTINUOUS
 62
     2
100
AcDbLine
 39
50.0
 10
-497.733055
 20
140.179113
 30
0.0
 11
-496.318842
 21
141.593327
 31
0.0
  0
LINE
  5
2380
100
AcDbEntity
  8
OBJECT
  6
CONTINUOUS
 62
     2
100
AcDbLine
 39
50.0
 10
-496.980891
 20
142.255376
 30
0.0
 11
-498.395105
 21
140.841163
 31
0.0
  0
ARC
  5
2381
100
AcDbEntity
  8
OBJECT
  6
CONTINUOUS
 62
     2
100
AcDbCircle
 39
50.0
 10
-494.44771
 20
138.307982
 30
0.0
 40
1.485168
100
AcDbArc
 50
225.002355
 51
44.997645
  0
LINE
  5
2382
100
AcDbEntity
  8
OBJECT
  6
CONTINUOUS
 62
     2
100
AcDbLine
 39
50.0
 10
-496.688838
 20
140.54911
 30
0.0
 11
-493.397495
 21
139.358112
 31
0.0
  0
LINE
  5
2383
100
AcDbEntity
  8
OBJECT
  6
CONTINUOUS
 62
     2
100
AcDbLine
 39
50.0
 10
-496.688838
 20
140.54911
 30
0.0
 11
-495.489381
 21
137.234374
 31
0.0
  0
LINE
  5
2384
100
AcDbEntity
  8
OBJECT
  6
CONTINUOUS
 62
     2
100
AcDbLine
 39
50.0
 10
-493.397495
 20
139.358112
 30
0.0
 11
-495.49784
 21
137.257766
 31
0.0
  0
LINE
  5
2385
100
AcDbEntity
  8
OBJECT
  6
CONTINUOUS
 62
     2
100
AcDbLine
 39
50.0
 10
-496.327322
 20
154.954377
 30
0.0
 11
-496.989371
 21
155.616427
 31
0.0
  0
LINE
  5
2386
100
AcDbEntity
  8
OBJECT
  6
CONTINUOUS
 62
     2
100
AcDbLine
 39
50.0
 10
-498.403585
 20
154.202213
 30
0.0
 11
-497.741535
 21
153.540164
 31
0.0
  0
LINE
  5
2387
100
AcDbEntity
  8
OBJECT
  6
CONTINUOUS
 62
     2
100
AcDbLine
 39
50.0
 10
-497.741535
 20
153.540164
 30
0.0
 11
-496.327322
 21
154.954377
 31
0.0
  0
LINE
  5
2388
100
AcDbEntity
  8
OBJECT
  6
CONTINUOUS
 62
     2
100
AcDbLine
 39
50.0
 10
-496.989371
 20
155.616427
 30
0.0
 11
-498.403585
 21
154.202213
 31
0.0
  0
ARC
  5
2389
100
AcDbEntity
  8
OBJECT
  6
CONTINUOUS
 62
     2
100
AcDbCircle
 39
50.0
 10
-494.456191
 20
151.669032
 30
0.0
 40
1.485168
100
AcDbArc
 50
225.002355
 51
44.997645
  0
LINE
  5
238A
100
AcDbEntity
  8
OBJECT
  6
CONTINUOUS
 62
     2
100
AcDbLine
 39
50.0
 10
-496.697319
 20
153.91016
 30
0.0
 11
-493.405975
 21
152.719162
 31
0.0
  0
LINE
  5
238B
100
AcDbEntity
  8
OBJECT
  6
CONTINUOUS
 62
     2
100
AcDbLine
 39
50.0
 10
-496.697319
 20
153.91016
 30
0.0
 11
-495.497861
 21
150.595425
 31
0.0
  0
LINE
  5
238C
100
AcDbEntity
  8
OBJECT
  6
CONTINUOUS
 62
     2
100
AcDbLine
 39
50.0
 10
-493.405975
 20
152.719162
 30
0.0
 11
-495.50632
 21
150.618816
 31
0.0
  0
LINE
  5
238D
100
AcDbEntity
  8
OBJECT
  6
CONTINUOUS
 62
     2
100
AcDbLine
 39
50.0
 10
-493.405975
 20
166.080234
 30
0.0
 11
-495.50632
 21
163.979889
 31
0.0
  0
ARC
  5
238E
100
AcDbEntity
  8
OBJECT
  6
CONTINUOUS
 62
     2
100
AcDbCircle
 39
50.0
 10
-494.456191
 20
165.030105
 30
0.0
 40
1.485168
100
AcDbArc
 50
225.002355
 51
44.997645
  0
LINE
  5
238F
100
AcDbEntity
  8
OBJECT
  6
CONTINUOUS
 62
     2
100
AcDbLine
 39
50.0
 10
-496.697319
 20
167.271233
 30
0.0
 11
-495.497861
 21
163.956497
 31
0.0
  0
LINE
  5
2390
100
AcDbEntity
  8
OBJECT
  6
CONTINUOUS
 62
     2
100
AcDbLine
 39
50.0
 10
-496.697319
 20
167.271233
 30
0.0
 11
-493.405975
 21
166.080234
 31
0.0
  0
LINE
  5
2391
100
AcDbEntity
  8
PUMP
 62
     4
100
AcDbLine
 39
78.125
 10
-472.60816
 20
113.211839
 30
0.0
 11
-472.60816
 21
119.65637
 31
0.0
  0
LINE
  5
2392
100
AcDbEntity
  8
PUMP
 62
     4
100
AcDbLine
 39
78.125
 10
-464.316462
 20
120.676362
 30
0.0
 11
-464.316462
 21
113.211839
 31
0.0
  0
LINE
  5
2393
100
AcDbEntity
  8
PUMP
 62
     4
100
AcDbLine
 39
78.125
 10
-477.226384
 20
128.733644
 30
0.0
 11
-477.226384
 21
123.417043
 31
0.0
  0
LINE
  5
2394
100
AcDbEntity
  8
PUMP
 62
     4
100
AcDbLine
 39
78.125
 10
-488.504545
 20
128.733644
 30
0.0
 11
-488.504545
 21
123.417043
 31
0.0
  0
LINE
  5
2395
100
AcDbEntity
  8
PUMP
 62
     4
100
AcDbLine
 39
78.125
 10
-488.504545
 20
119.606635
 30
0.0
 11
-477.226384
 21
119.606635
 31
0.0
  0
LINE
  5
2396
100
AcDbEntity
  8
PUMP
 62
     4
100
AcDbLine
 39
78.125
 10
-477.226384
 20
130.207358
 30
0.0
 11
-477.226384
 21
129.5933
 31
0.0
  0
LINE
  5
2397
100
AcDbEntity
  8
PUMP
 62
     4
100
AcDbLine
 39
78.125
 10
-477.226384
 20
134.628579
 30
0.0
 11
-477.226384
 21
132.540728
 31
0.0
  0
LINE
  5
2398
100
AcDbEntity
  8
PUMP
 62
     4
100
AcDbLine
 39
78.125
 10
-477.226384
 20
131.681072
 30
0.0
 11
-477.226384
 21
131.067014
 31
0.0
  0
LINE
  5
2399
100
AcDbEntity
  8
PUMP
 62
     4
100
AcDbLine
 39
78.125
 10
-488.504545
 20
131.681072
 30
0.0
 11
-488.504545
 21
131.067014
 31
0.0
  0
LINE
  5
239A
100
AcDbEntity
  8
PUMP
 62
     4
100
AcDbLine
 39
78.125
 10
-488.504545
 20
134.628579
 30
0.0
 11
-488.504545
 21
132.540728
 31
0.0
  0
LINE
  5
239B
100
AcDbEntity
  8
PUMP
 62
     4
100
AcDbLine
 39
78.125
 10
-488.504545
 20
130.207358
 30
0.0
 11
-488.504545
 21
129.5933
 31
0.0
  0
LINE
  5
239D
100
AcDbEntity
  8
ELEV
100
AcDbLine
 10
-510.174535
 20
113.211839
 30
0.0
 11
-562.956457
 21
113.211839
 31
0.0
  0
DIMENSION
  5
239E
100
AcDbEntity
  8
DIM
100
AcDbDimension
  2
*D5
 10
-510.174535
 20
104.526737
 30
0.0
 11
-518.45564
 21
104.526737
 31
0.0
 12
-308.313431
 22
4.427771
 32
0.0
 70
   160
  1
3"
  3
STANDARD
100
AcDbAlignedDimension
 13
-513.174535
 23
112.211839
 33
0.0
 14
-510.174535
 24
113.711839
 34
0.0
100
AcDbRotatedDimension
1001
ACAD
1000
DSTYLE
1002
{
1070
    78
1070
    12
1070
   284
1070
    12
1070
   140
1040
2.5
1070
   340
1005
2B
1070
   272
1070
     0
1070
   147
1040
1.5
1070
   287
1070
     5
1070
    44
1040
1.85
1070
    41
1040
1.5
1002
}
  0
LINE
  5
239F
100
AcDbEntity
  8
ELEV
 62
     3
100
AcDbLine
 10
-548.431341
 20
124.905116
 30
0.0
 11
-494.454577
 21
124.905116
 31
0.0
  0
LINE
  5
23A0
100
AcDbEntity
  8
ELEV
 62
     3
100
AcDbLine
 10
-548.431341
 20
136.822829
 30
0.0
 11
-494.454513
 21
136.822829
 31
0.0
  0
LINE
  5
23A1
100
AcDbEntity
  8
ELEV
 62
     3
100
AcDbLine
 10
-548.431341
 20
150.183879
 30
0.0
 11
-494.462993
 21
150.183879
 31
0.0
  0
LINE
  5
23A2
100
AcDbEntity
  8
ELEV
 62
     3
100
AcDbLine
 10
-548.431341
 20
163.544952
 30
0.0
 11
-494.462993
 21
163.544952
 31
0.0
  0
LINE
  5
23A3
100
AcDbEntity
  8
OBJECT
100
AcDbLine
 10
-513.174535
 20
112.961839
 30
0.0
 11
-511.174535
 21
112.961839
 31
0.0
  0
LINE
  5
23A4
100
AcDbEntity
  8
OBJECT
100
AcDbLine
 10
-513.174535
 20
112.211839
 30
0.0
 11
-447.174535
 21
112.211839
 31
0.0
  0
LINE
  5
23A5
100
AcDbEntity
  8
OBJECT
100
AcDbLine
 10
-513.611535
 20
171.971304
 30
0.0
 11
-511.033535
 21
171.971304
 31
0.0
  0
LINE
  5
23A6
100
AcDbEntity
  8
OBJECT
100
AcDbLine
 10
-513.611535
 20
166.221304
 30
0.0
 11
-511.033535
 21
166.221304
 31
0.0
  0
ARC
  5
23A7
100
AcDbEntity
  8
ELEV
 62
     3
100
AcDbCircle
 39
18.0
 10
-559.584097
 20
167.200255
 30
0.0
 40
2.472361
100
AcDbArc
 50
90.0
 51
180.0
  0
ARC
  5
23A8
100
AcDbEntity
  8
ELEV
 62
     3
100
AcDbCircle
 39
18.0
 10
-559.584097
 20
167.200255
 30
0.0
 40
2.472361
100
AcDbArc
 50
180.0
 51
270.0
  0
ARC
  5
23A9
100
AcDbEntity
  8
ELEV
 62
     3
100
AcDbCircle
 39
18.0
 10
-559.584097
 20
167.200255
 30
0.0
 40
2.472361
100
AcDbArc
 50
270.0
 51
0.0
  0
ARC
  5
23AA
100
AcDbEntity
  8
ELEV
 62
     3
100
AcDbCircle
 39
18.0
 10
-559.584097
 20
167.200255
 30
0.0
 40
2.472361
100
AcDbArc
 50
0.0
 51
90.0
  0
ARC
  5
23AB
100
AcDbEntity
  8
ELEV
 62
     3
100
AcDbCircle
 39
18.0
 10
-559.584097
 20
113.211839
 30
0.0
 40
2.472361
100
AcDbArc
 50
0.0
 51
90.0
  0
ARC
  5
23AC
100
AcDbEntity
  8
ELEV
 62
     3
100
AcDbCircle
 39
18.0
 10
-559.584097
 20
113.211839
 30
0.0
 40
2.472361
100
AcDbArc
 50
270.0
 51
0.0
  0
ARC
  5
23AD
100
AcDbEntity
  8
ELEV
 62
     3
100
AcDbCircle
 39
18.0
 10
-559.584097
 20
113.211839
 30
0.0
 40
2.472361
100
AcDbArc
 50
180.0
 51
270.0
  0
ARC
  5
23AE
100
AcDbEntity
  8
ELEV
 62
     3
100
AcDbCircle
 39
18.0
 10
-559.584097
 20
113.211839
 30
0.0
 40
2.472361
100
AcDbArc
 50
90.0
 51
180.0
  0
ARC
  5
23AF
100
AcDbEntity
  8
ELEV
 62
     3
100
AcDbCircle
 39
18.0
 10
-550.899003
 20
124.967167
 30
0.0
 40
2.472361
100
AcDbArc
 50
0.0
 51
90.0
  0
ARC
  5
23B0
100
AcDbEntity
  8
ELEV
 62
     3
100
AcDbCircle
 39
18.0
 10
-550.899003
 20
124.967167
 30
0.0
 40
2.472361
100
AcDbArc
 50
90.0
 51
180.0
  0
ARC
  5
23B1
100
AcDbEntity
  8
ELEV
 62
     3
100
AcDbCircle
 39
18.0
 10
-550.901297
 20
136.867286
 30
0.0
 40
2.472361
100
AcDbArc
 50
270.0
 51
0.0
  0
ARC
  5
23B2
100
AcDbEntity
  8
ELEV
 62
     3
100
AcDbCircle
 39
18.0
 10
-550.901297
 20
136.867286
 30
0.0
 40
2.472361
100
AcDbArc
 50
0.0
 51
90.0
  0
ARC
  5
23B3
100
AcDbEntity
  8
ELEV
 62
     3
100
AcDbCircle
 39
18.0
 10
-550.901297
 20
136.867286
 30
0.0
 40
2.472361
100
AcDbArc
 50
90.0
 51
180.0
  0
ARC
  5
23B4
100
AcDbEntity
  8
ELEV
 62
     3
100
AcDbCircle
 39
18.0
 10
-550.901297
 20
136.867286
 30
0.0
 40
2.472361
100
AcDbArc
 50
180.0
 51
270.0
  0
ARC
  5
23B5
100
AcDbEntity
  8
ELEV
 62
     3
100
AcDbCircle
 39
18.0
 10
-550.901297
 20
150.228336
 30
0.0
 40
2.472361
100
AcDbArc
 50
270.0
 51
0.0
  0
ARC
  5
23B6
100
AcDbEntity
  8
ELEV
 62
     3
100
AcDbCircle
 39
18.0
 10
-550.901297
 20
150.228336
 30
0.0
 40
2.472361
100
AcDbArc
 50
0.0
 51
90.0
  0
ARC
  5
23B7
100
AcDbEntity
  8
ELEV
 62
     3
100
AcDbCircle
 39
18.0
 10
-550.901297
 20
150.228336
 30
0.0
 40
2.472361
100
AcDbArc
 50
90.0
 51
180.0
  0
ARC
  5
23B8
100
AcDbEntity
  8
ELEV
 62
     3
100
AcDbCircle
 39
18.0
 10
-550.901297
 20
150.228336
 30
0.0
 40
2.472361
100
AcDbArc
 50
180.0
 51
270.0
  0
ARC
  5
23B9
100
AcDbEntity
  8
ELEV
 62
     3
100
AcDbCircle
 39
18.0
 10
-550.903702
 20
163.544952
 30
0.0
 40
2.472361
100
AcDbArc
 50
270.0
 51
0.0
  0
ARC
  5
23BA
100
AcDbEntity
  8
ELEV
 62
     3
100
AcDbCircle
 39
18.0
 10
-550.903702
 20
163.544952
 30
0.0
 40
2.472361
100
AcDbArc
 50
180.0
 51
270.0
  0
ARC
  5
23BB
100
AcDbEntity
  8
ELEV
 62
     3
100
AcDbCircle
 39
18.0
 10
-550.899003
 20
124.967167
 30
0.0
 40
2.472361
100
AcDbArc
 50
270.0
 51
0.0
  0
ARC
  5
23BC
100
AcDbEntity
  8
ELEV
 62
     3
100
AcDbCircle
 39
18.0
 10
-550.899003
 20
124.967167
 30
0.0
 40
2.472361
100
AcDbArc
 50
180.0
 51
270.0
  0
ARC
  5
23BD
100
AcDbEntity
  8
ELEV
 62
     3
100
AcDbCircle
 39
18.0
 10
-550.903702
 20
163.544952
 30
0.0
 40
2.472361
100
AcDbArc
 50
0.0
 51
90.0
  0
ARC
  5
23BE
100
AcDbEntity
  8
ELEV
 62
     3
100
AcDbCircle
 39
18.0
 10
-550.903702
 20
163.544952
 30
0.0
 40
2.472361
100
AcDbArc
 50
90.0
 51
180.0
  0
TEXT
  5
23BF
100
AcDbEntity
  8
ELEV
 62
     3
100
AcDbText
 10
-556.169893
 20
113.856194
 30
0.0
 40
1.8
  1
ELEV 
  7
ROMANS
100
AcDbText
  0
LINE
  5
23C0
100
AcDbEntity
  8
ELEV
 62
     3
100
AcDbLine
 10
-557.111736
 20
113.211839
 30
0.0
 11
-527.154001
 21
113.211839
 31
0.0
  0
INSERT
  5
23C1
100
AcDbEntity
  8
ELEV
 62
     3
100
AcDbBlockReference
  2
*X1
 10
-651.880378
 20
67.372071
 30
0.0
 41
0.9
 42
0.9
 43
0.9
1001
ACAD
1000
HATCH
1002
{
1070
    16
1000
ANSI37
1040
0.75
1040
0.0
1002
}
  0
LINE
  5
23C2
100
AcDbEntity
  8
ELEV
 62
     3
100
AcDbLine
 10
-550.901297
 20
150.228336
 30
0.0
 11
-554.273657
 21
150.228336
 31
0.0
  0
LINE
  5
23C3
100
AcDbEntity
  8
ELEV
 62
     3
100
AcDbLine
 10
-550.901297
 20
136.867286
 30
0.0
 11
-554.273657
 21
136.867286
 31
0.0
  0
INSERT
  5
23C4
100
AcDbEntity
  8
ELEV
 62
     3
100
AcDbBlockReference
  2
*X1
 10
-651.880378
 20
54.011021
 30
0.0
 41
0.9
 42
0.9
 43
0.9
1001
ACAD
1000
HATCH
1002
{
1070
    16
1000
ANSI37
1040
0.75
1040
0.0
1002
}
  0
INSERT
  5
23C5
100
AcDbEntity
  8
ELEV
 62
     3
100
AcDbBlockReference
  2
*X1
 10
-651.878084
 20
42.110902
 30
0.0
 41
0.9
 42
0.9
 43
0.9
1001
ACAD
1000
HATCH
1002
{
1070
    16
1000
ANSI37
1040
0.75
1040
0.0
1002
}
  0
LINE
  5
23C6
100
AcDbEntity
  8
ELEV
 62
     3
100
AcDbLine
 10
-550.899003
 20
124.967167
 30
0.0
 11
-554.271364
 21
124.967167
 31
0.0
  0
LINE
  5
23C7
100
AcDbEntity
  8
ELEV
100
AcDbLine
 10
-559.584097
 20
116.584199
 30
0.0
 11
-559.584097
 21
109.839478
 31
0.0
  0
INSERT
  5
23C8
100
AcDbEntity
  8
ELEV
100
AcDbBlockReference
  2
*X4
 10
-695.477925
 20
23.484636
 30
0.0
 41
1.2
 42
1.2
 43
1.2
1001
ACAD
1000
HATCH
1002
{
1070
    16
1000
ANSI37
1040
1.0
1040
0.0
1002
}
  0
LINE
  5
23C9
100
AcDbEntity
  8
ELEV
 62
     3
100
AcDbLine
 10
-559.584097
 20
113.211839
 30
0.0
 11
-559.584097
 21
115.684199
 31
0.0
  0
INSERT
  5
23CA
100
AcDbEntity
  8
ELEV
100
AcDbBlockReference
  2
*X3
 10
-695.477925
 20
23.484636
 30
0.0
 41
1.2
 42
1.2
 43
1.2
1001
ACAD
1000
HATCH
1002
{
1070
    16
1000
ANSI37
1040
1.0
1040
0.0
1002
}
  0
LINE
  5
23CB
100
AcDbEntity
  8
ELEV
 62
     3
100
AcDbLine
 10
-559.584097
 20
113.211839
 30
0.0
 11
-559.584097
 21
110.739478
 31
0.0
  0
TEXT
  5
23CC
100
AcDbEntity
  8
ELEV
 62
     3
100
AcDbText
 10
-547.4848
 20
125.611522
 30
0.0
 40
1.8
  1
ELEV 
  7
ROMANS
100
AcDbText
  0
TEXT
  5
23CD
100
AcDbEntity
  8
ELEV
 62
     3
100
AcDbText
 10
-547.4848
 20
122.697237
 30
0.0
 40
1.8
  1
PUMP OFF
  7
ROMANS
100
AcDbText
  0
LINE
  5
23CE
100
AcDbEntity
  8
ELEV
 62
     3
100
AcDbLine
 10
-550.899003
 20
124.967167
 30
0.0
 11
-550.899003
 21
121.594806
 31
0.0
  0
LINE
  5
23CF
100
AcDbEntity
  8
ELEV
 62
     3
100
AcDbLine
 10
-550.899003
 20
124.967167
 30
0.0
 11
-550.899003
 21
128.339527
 31
0.0
  0
LINE
  5
23D0
100
AcDbEntity
  8
ELEV
 62
     3
100
AcDbLine
 10
-550.899003
 20
124.967167
 30
0.0
 11
-548.426642
 21
124.967167
 31
0.0
  0
INSERT
  5
23D1
100
AcDbEntity
  8
ELEV
 62
     3
100
AcDbBlockReference
  2
*X0
 10
-651.878084
 20
42.110902
 30
0.0
 41
0.9
 42
0.9
 43
0.9
1001
ACAD
1000
HATCH
1002
{
1070
    16
1000
ANSI37
1040
0.75
1040
0.0
1002
}
  0
LINE
  5
23D2
100
AcDbEntity
  8
OBJECT
100
AcDbLine
 10
-513.174535
 20
112.211839
 30
0.0
 11
-513.174535
 21
112.961839
 31
0.0
  0
TEXT
  5
23D3
100
AcDbEntity
  8
ELEV
 62
     3
100
AcDbText
 10
-547.487093
 20
134.597356
 30
0.0
 40
1.8
  1
PUMP #1 ON
  7
ROMANS
100
AcDbText
  0
TEXT
  5
23D4
100
AcDbEntity
  8
ELEV
 62
     3
100
AcDbText
 10
-547.487093
 20
147.958406
 30
0.0
 40
1.8
  1
PUMP #2 ON
  7
ROMANS
100
AcDbText
  0
TEXT
  5
23D5
100
AcDbEntity
  8
ELEV
 62
     3
100
AcDbText
 10
-547.487093
 20
137.511641
 30
0.0
 40
1.8
  1
ELEV 
  7
ROMANS
100
AcDbText
  0
INSERT
  5
23D6
100
AcDbEntity
  8
ELEV
 62
     3
100
AcDbBlockReference
  2
*X0
 10
-651.880378
 20
54.011021
 30
0.0
 41
0.9
 42
0.9
 43
0.9
1001
ACAD
1000
HATCH
1002
{
1070
    16
1000
ANSI37
1040
0.75
1040
0.0
1002
}
  0
LINE
  5
23D7
100
AcDbEntity
  8
ELEV
 62
     3
100
AcDbLine
 10
-550.901297
 20
136.867286
 30
0.0
 11
-550.901297
 21
133.494925
 31
0.0
  0
LINE
  5
23D8
100
AcDbEntity
  8
ELEV
 62
     3
100
AcDbLine
 10
-550.901297
 20
136.867286
 30
0.0
 11
-548.428936
 21
136.867286
 31
0.0
  0
LINE
  5
23D9
100
AcDbEntity
  8
ELEV
 62
     3
100
AcDbLine
 10
-550.901297
 20
136.867286
 30
0.0
 11
-550.901297
 21
140.239646
 31
0.0
  0
TEXT
  5
23DA
100
AcDbEntity
  8
ELEV
 62
     3
100
AcDbText
 10
-547.487093
 20
150.872692
 30
0.0
 40
1.8
  1
ELEV 
  7
ROMANS
100
AcDbText
  0
LINE
  5
23DB
100
AcDbEntity
  8
ELEV
 62
     3
100
AcDbLine
 10
-550.901297
 20
150.228336
 30
0.0
 11
-550.901297
 21
146.855975
 31
0.0
  0
INSERT
  5
23DC
100
AcDbEntity
  8
ELEV
 62
     3
100
AcDbBlockReference
  2
*X0
 10
-651.880378
 20
67.372071
 30
0.0
 41
0.9
 42
0.9
 43
0.9
1001
ACAD
1000
HATCH
1002
{
1070
    16
1000
ANSI37
1040
0.75
1040
0.0
1002
}
  0
LINE
  5
23DD
100
AcDbEntity
  8
ELEV
 62
     3
100
AcDbLine
 10
-550.901297
 20
150.228336
 30
0.0
 11
-548.428936
 21
150.228336
 31
0.0
  0
LINE
  5
23DE
100
AcDbEntity
  8
ELEV
 62
     3
100
AcDbLine
 10
-550.901297
 20
150.228336
 30
0.0
 11
-550.901297
 21
153.600697
 31
0.0
  0
TEXT
  5
23DF
100
AcDbEntity
  8
DIM
100
AcDbText
 10
-552.946011
 20
175.298359
 30
0.0
 40
1.85
  1
Types Available)
  7
ROMAND
 72
     2
 11
-529.953154
 21
176.223359
 31
0.0
100
AcDbText
 73
     2
  0
TEXT
  5
23E0
100
AcDbEntity
  8
DIM
100
AcDbText
 10
-559.288868
 20
178.148918
 30
0.0
 40
1.85
  1
(Different Sizes and
  7
ROMAND
 72
     2
 11
-529.953154
 21
179.073918
 31
0.0
100
AcDbText
 73
     2
  0
TEXT
  5
23E2
100
AcDbEntity
  8
DIM
100
AcDbText
 10
-558.14363
 20
181.474567
 30
0.0
 40
1.85
  1
Cast Iron Inlet Hub
  7
ROMAND
 72
     2
 11
-529.953154
 21
182.399567
 31
0.0
100
AcDbText
 73
     2
  0
LINE
  5
23E3
100
AcDbEntity
  8
ELEV
 62
     3
100
AcDbLine
 10
-557.111736
 20
167.200255
 30
0.0
 11
-513.611535
 21
167.200255
 31
0.0
  0
LINE
  5
23E4
100
AcDbEntity
  8
ELEV
100
AcDbLine
 10
-527.154001
 20
167.200255
 30
0.0
 11
-562.956457
 21
167.200255
 31
0.0
  0
TEXT
  5
23E5
100
AcDbEntity
  8
ELEV
 62
     3
100
AcDbText
 10
-556.169893
 20
167.844611
 30
0.0
 40
1.8
  1
INV ELEV 
  7
ROMANS
100
AcDbText
  0
INSERT
  5
23E6
100
AcDbEntity
  8
ELEV
 62
     3
100
AcDbBlockReference
  2
*X1
 10
-651.882783
 20
80.688687
 30
0.0
 41
0.9
 42
0.9
 43
0.9
1001
ACAD
1000
HATCH
1002
{
1070
    16
1000
ANSI37
1040
0.75
1040
0.0
1002
}
  0
LINE
  5
23E7
100
AcDbEntity
  8
ELEV
 62
     3
100
AcDbLine
 10
-550.903702
 20
163.544952
 30
0.0
 11
-554.276063
 21
163.544952
 31
0.0
  0
LINE
  5
23E8
100
AcDbEntity
  8
ELEV
 62
     3
100
AcDbLine
 10
-559.584097
 20
167.200255
 30
0.0
 11
-559.584097
 21
169.672616
 31
0.0
  0
INSERT
  5
23E9
100
AcDbEntity
  8
ELEV
100
AcDbBlockReference
  2
*X4
 10
-695.477925
 20
77.473052
 30
0.0
 41
1.2
 42
1.2
 43
1.2
1001
ACAD
1000
HATCH
1002
{
1070
    16
1000
ANSI37
1040
1.0
1040
0.0
1002
}
  0
LINE
  5
23EA
100
AcDbEntity
  8
ELEV
100
AcDbLine
 10
-559.584097
 20
170.572616
 30
0.0
 11
-559.584097
 21
163.827895
 31
0.0
  0
LINE
  5
23EB
100
AcDbEntity
  8
ELEV
 62
     3
100
AcDbLine
 10
-559.584097
 20
167.200255
 30
0.0
 11
-559.584097
 21
164.727895
 31
0.0
  0
INSERT
  5
23EC
100
AcDbEntity
  8
ELEV
100
AcDbBlockReference
  2
*X3
 10
-695.477925
 20
77.473052
 30
0.0
 41
1.2
 42
1.2
 43
1.2
1001
ACAD
1000
HATCH
1002
{
1070
    16
1000
ANSI37
1040
1.0
1040
0.0
1002
}
  0
LINE
  5
23ED
100
AcDbEntity
  8
DIM
100
AcDbLine
 10
-565.964655
 20
181.401077
 30
0.0
 11
-558.564655
 21
181.401077
 31
0.0
  0
LINE
  5
23EE
100
AcDbEntity
  8
DIM
100
AcDbLine
 10
-519.85852
 20
170.846304
 30
0.0
 11
-519.85852
 21
186.081351
 31
0.0
  0
LINE
  5
23EF
100
AcDbEntity
  8
DIM
100
AcDbLine
 10
-513.611535
 20
170.927013
 30
0.0
 11
-526.353154
 21
182.399567
 31
0.0
  0
TEXT
  5
23F0
100
AcDbEntity
  8
ELEV
 62
     3
100
AcDbText
 10
-547.489498
 20
161.275022
 30
0.0
 40
1.8
  1
HIGH LEVEL ALARM
  7
ROMANS
100
AcDbText
  0
TEXT
  5
23F1
100
AcDbEntity
  8
ELEV
 62
     3
100
AcDbText
 10
-547.489498
 20
164.189308
 30
0.0
 40
1.8
  1
ELEV 
  7
ROMANS
100
AcDbText
  0
LINE
  5
23F2
100
AcDbEntity
  8
ELEV
 62
     3
100
AcDbLine
 10
-550.903702
 20
163.544952
 30
0.0
 11
-550.903702
 21
160.172591
 31
0.0
  0
INSERT
  5
23F3
100
AcDbEntity
  8
ELEV
 62
     3
100
AcDbBlockReference
  2
*X0
 10
-651.882783
 20
80.688687
 30
0.0
 41
0.9
 42
0.9
 43
0.9
1001
ACAD
1000
HATCH
1002
{
1070
    16
1000
ANSI37
1040
0.75
1040
0.0
1002
}
  0
LINE
  5
23F4
100
AcDbEntity
  8
ELEV
 62
     3
100
AcDbLine
 10
-550.903702
 20
163.544952
 30
0.0
 11
-548.431341
 21
163.544952
 31
0.0
  0
LINE
  5
23F5
100
AcDbEntity
  8
ELEV
 62
     3
100
AcDbLine
 10
-550.903702
 20
163.544952
 30
0.0
 11
-550.903702
 21
166.917313
 31
0.0
  0
LINE
  5
23F6
100
AcDbEntity
  8
OBJECT
100
AcDbLine
 10
-513.611535
 20
166.221304
 30
0.0
 11
-513.611535
 21
171.971304
 31
0.0
  0
LINE
  5
23F7
100
AcDbEntity
  8
CENTER
100
AcDbLine
 10
-513.611535
 20
169.096304
 30
0.0
 11
-518.567356
 21
169.096304
 31
0.0
  0
SOLID
  5
23F8
100
AcDbEntity
  8
DIM
100
AcDbTrace
 10
-520.150187
 20
170.846304
 30
0.0
 11
-519.566853
 21
170.846304
 31
0.0
 12
-519.85852
 22
169.096304
 32
0.0
 13
-519.85852
 23
169.096304
 33
0.0
  0
LINE
  5
23F9
100
AcDbEntity
  8
DIM
100
AcDbLine
 10
-518.629856
 20
169.096304
 30
0.0
 11
-521.70852
 21
169.096304
 31
0.0
  0
SOLID
  5
23FA
100
AcDbEntity
  8
DIM
100
AcDbTrace
 10
-514.716879
 20
172.31474
 30
0.0
 11
-515.107204
 21
171.881238
 31
0.0
 12
-513.611535
 22
170.927013
 32
0.0
 13
-513.611535
 23
170.927013
 33
0.0
  0
LINE
  5
23FF
100
AcDbEntity
  8
DIM
100
AcDbLine
 10
-526.353154
 20
182.399567
 30
0.0
 11
-528.103154
 21
182.399567
 31
0.0
  0
LINE
  5
2402
100
AcDbEntity
  8
PUMP
 62
     4
100
AcDbLine
 39
31.25
 10
-459.052901
 20
126.13054
 30
0.0
 11
-466.552901
 21
126.13054
 31
0.0
  0
LINE
  5
2403
100
AcDbEntity
  8
PUMP
 62
     4
100
AcDbLine
 39
31.25
 10
-474.979545
 20
118.914479
 30
0.0
 11
-474.979545
 21
117.898558
 31
0.0
  0
LINE
  5
2404
100
AcDbEntity
  8
PUMP
 62
     4
100
AcDbLine
 39
31.25
 10
-474.979545
 20
125.12512
 30
0.0
 11
-474.979545
 21
124.109199
 31
0.0
  0
LINE
  5
2405
100
AcDbEntity
  8
PUMP
 62
     4
100
AcDbLine
 39
31.25
 10
-473.660795
 20
119.65637
 30
0.0
 11
-473.660795
 21
117.898558
 31
0.0
  0
LINE
  5
2406
100
AcDbEntity
  8
PUMP
 62
     4
100
AcDbLine
 39
31.25
 10
-473.660795
 20
125.12512
 30
0.0
 11
-473.660795
 21
123.367308
 31
0.0
  0
LINE
  5
2407
100
AcDbEntity
  8
15
 62
     2
100
AcDbLine
 39
31.25
 10
-459.052901
 20
127.44929
 30
0.0
 11
-466.552901
 21
127.44929
 31
0.0
  0
LEADER
  5
2408
100
AcDbEntity
  8
DIM
100
AcDbLeader
  3
STANDARD
 76
     3
 10
-473.495197
 20
185.783815
 30
0.0
 10
-426.324278
 20
201.055325
 30
0.0
 10
-424.398456
 20
201.055325
 30
0.0
 77
   256
1001
ACAD
1000
DSTYLE
1002
{
1070
    78
1070
    12
1070
   284
1070
    12
1070
   140
1040
2.5
1070
   340
1005
2B
1070
   272
1070
     0
1070
   147
1040
1.5
1070
   287
1070
     5
1070
    44
1040
1.85
1070
    41
1040
1.5
1002
}
  0
LEADER
  5
2409
100
AcDbEntity
  8
DIM
100
AcDbLeader
  3
STANDARD
 76
     2
 10
-456.57926
 20
134.883114
 30
0.0
 10
-428.690565
 20
137.173551
 30
0.0
 77
   256
1001
ACAD
1000
DSTYLE
1002
{
1070
    78
1070
    12
1070
   284
1070
    12
1070
   140
1040
2.5
1070
   340
1005
2B
1070
   272
1070
     0
1070
   147
1040
1.5
1070
   287
1070
     5
1070
    44
1040
1.85
1070
    41
1040
1.5
1002
}
  0
LEADER
  5
240A
100
AcDbEntity
  8
DIM
100
AcDbLeader
  3
STANDARD
 76
     2
 10
-460.660401
 20
127.99729
 30
0.0
 10
-428.690565
 20
137.173551
 30
0.0
 77
   256
1001
ACAD
1000
DSTYLE
1002
{
1070
    78
1070
    12
1070
   284
1070
    12
1070
   140
1040
2.5
1070
   340
1005
2B
1070
   272
1070
     0
1070
   147
1040
1.5
1070
   287
1070
     5
1070
    44
1040
1.85
1070
    41
1040
1.5
1002
}
  0
LEADER
  5
240B
100
AcDbEntity
  8
DIM
100
AcDbLeader
  3
STANDARD
 76
     2
 10
-454.81026
 20
138.174095
 30
0.0
 10
-428.780431
 20
149.483404
 30
0.0
 77
   256
1001
ACAD
1000
DSTYLE
1002
{
1070
    78
1070
    12
1070
   284
1070
    12
1070
   140
1040
2.5
1070
   340
1005
2B
1070
   272
1070
     0
1070
   147
1040
1.5
1070
   287
1070
     5
1070
    44
1040
1.85
1070
    41
1040
1.5
1002
}
  0
LINE
  5
240C
100
AcDbEntity
  8
DIM
100
AcDbLine
 10
-466.197418
 20
164.172709
 30
0.0
 11
-428.780431
 21
178.990032
 31
0.0
  0
LINE
  5
2410
100
AcDbEntity
  8
DIM
100
AcDbLine
 10
-436.586061
 20
114.961839
 30
0.0
 11
-436.586061
 21
158.139118
 31
0.0
  0
LINE
  5
2411
100
AcDbEntity
  8
OBJECT
100
AcDbLine
 10
-467.824483
 20
186.92924
 30
0.0
 11
-467.824483
 21
124.965061
 31
0.0
  0
LINE
  5
2412
100
AcDbEntity
  8
OBJECT
100
AcDbLine
 10
-469.724483
 20
182.065407
 30
0.0
 11
-469.724483
 21
124.965061
 31
0.0
  0
INSERT
  5
2413
100
AcDbEntity
  8
HATCH
100
AcDbBlockReference
  2
*X2
 10
-545.106407
 20
-31.277588
 30
0.0
 50
45.0
1001
ACAD
1000
HATCH
1002
{
1070
    16
1000
ANSI37
1040
0.5
1040
0.0
1002
}
  0
LINE
  5
2414
100
AcDbEntity
  8
OBJECT
100
AcDbLine
 10
-501.109461
 20
158.145526
 30
0.0
 11
-496.597078
 21
153.633143
 31
0.0
  0
LINE
  5
2415
100
AcDbEntity
  8
OBJECT
100
AcDbLine
 10
-501.109461
 20
158.499079
 30
0.0
 11
-496.420301
 21
153.809919
 31
0.0
  0
LINE
  5
2416
100
AcDbEntity
  8
DIM
100
AcDbLine
 10
-451.924535
 20
104.526737
 30
0.0
 11
-472.774535
 21
104.526737
 31
0.0
  0
LINE
  5
2417
100
AcDbEntity
  8
OBJECT
100
AcDbLine
 10
-509.674535
 20
113.211839
 30
0.0
 11
-450.674535
 21
113.211839
 31
0.0
  0
LINE
  5
2418
100
AcDbEntity
  8
PUMP
 62
     4
100
AcDbLine
 10
-473.660795
 20
123.367308
 30
0.0
 11
-470.169031
 21
123.367308
 31
0.0
  0
TEXT
  5
2419
100
AcDbEntity
  8
PUMP
 62
     4
100
AcDbText
 10
-486.751218
 20
127.844929
 30
0.0
 40
1.85
  1
Pump
  7
SCRIPTC
100
AcDbText
  0
INSERT
  5
241A
100
AcDbEntity
  8
HATCH
100
AcDbBlockReference
  2
*X2
 10
-545.097991
 20
-56.556351
 30
0.0
 50
45.0
1001
ACAD
1000
HATCH
1002
{
1070
    16
1000
ANSI37
1040
0.5
1040
0.0
1002
}
  0
LINE
  5
241B
100
AcDbEntity
  8
OBJECT
100
AcDbLine
 10
-501.109461
 20
132.875179
 30
0.0
 11
-496.588662
 21
128.35438
 31
0.0
  0
LINE
  5
241C
100
AcDbEntity
  8
OBJECT
100
AcDbLine
 10
-501.109461
 20
133.228732
 30
0.0
 11
-496.411885
 21
128.531156
 31
0.0
  0
LINE
  5
241D
100
AcDbEntity
  8
DIM
100
AcDbLine
 10
-508.424535
 20
104.526737
 30
0.0
 11
-487.574535
 21
104.526737
 31
0.0
  0
ARC
  5
241E
100
AcDbEntity
  8
OBJECT
100
AcDbCircle
 10
-509.674535
 20
113.711839
 30
0.0
 40
0.5
100
AcDbArc
 50
180.0
 51
270.0
  0
ARC
  5
241F
100
AcDbEntity
  8
OBJECT
100
AcDbCircle
 10
-511.174535
 20
113.461839
 30
0.0
 40
0.5
100
AcDbArc
 50
270.0
 51
0.0
  0
LINE
  5
2420
100
AcDbEntity
  8
OBJECT
100
AcDbLine
 10
-501.949461
 20
121.889591
 30
0.0
 11
-501.109461
 21
121.889591
 31
0.0
  0
TEXT
  5
2421
100
AcDbEntity
  8
PUMP
 62
     4
100
AcDbText
 10
-488.045444
 20
120.74565
 30
0.0
 40
1.85
  1
Disconnect
  7
SCRIPTC
100
AcDbText
  0
ARC
  5
2422
100
AcDbEntity
  8
PUMP
 62
     4
100
AcDbCircle
 10
-487.322234
 20
121.511839
 30
0.0
 40
2.242245
100
AcDbArc
 50
121.822467
 51
238.177533
  0
TEXT
  5
2423
100
AcDbEntity
  8
PUMP
 62
     4
100
AcDbText
 10
-484.567205
 20
124.578118
 30
0.0
 40
1.85
  1
&
  7
SCRIPTC
100
AcDbText
  0
LINE
  5
2424
100
AcDbEntity
  8
PUMP
 62
     4
100
AcDbLine
 10
-474.979545
 20
118.914479
 30
0.0
 11
-476.984187
 21
119.568145
 31
0.0
  0
ARC
  5
2425
100
AcDbEntity
  8
PUMP
 62
     4
100
AcDbCircle
 10
-477.226384
 20
118.825385
 30
0.0
 40
0.78125
100
AcDbArc
 50
71.940087
 51
90.0
  0
LINE
  5
2426
100
AcDbEntity
  8
PUMP
 62
     4
100
AcDbLine
 10
-473.660795
 20
119.65637
 30
0.0
 11
-473.647562
 21
119.65637
 31
0.0
  0
LINE
  5
2427
100
AcDbEntity
  8
PUMP
 62
     4
100
AcDbLine
 10
-473.660795
 20
117.898558
 30
0.0
 11
-474.979545
 21
117.898558
 31
0.0
  0
LINE
  5
2428
100
AcDbEntity
  8
PUMP
 62
     4
100
AcDbLine
 10
-473.660795
 20
119.65637
 30
0.0
 11
-472.60816
 21
119.65637
 31
0.0
  0
ARC
  5
2429
100
AcDbEntity
  8
PUMP
 62
     4
100
AcDbCircle
 10
-477.226384
 20
124.198293
 30
0.0
 40
0.78125
100
AcDbArc
 50
270.0
 51
288.059913
  0
LINE
  5
242A
100
AcDbEntity
  8
PUMP
 62
     4
100
AcDbLine
 10
-474.979545
 20
124.109199
 30
0.0
 11
-476.984187
 21
123.455533
 31
0.0
  0
LINE
  5
242B
100
AcDbEntity
  8
PUMP
 62
     4
100
AcDbLine
 10
-473.660795
 20
123.367308
 30
0.0
 11
-473.655375
 21
123.367308
 31
0.0
  0
LINE
  5
242C
100
AcDbEntity
  8
PUMP
 62
     4
100
AcDbLine
 10
-473.660795
 20
125.12512
 30
0.0
 11
-474.979545
 21
125.12512
 31
0.0
  0
INSERT
  5
242D
100
AcDbEntity
  8
HATCH
100
AcDbBlockReference
  2
*X2
 10
-545.097926
 20
-44.638638
 30
0.0
 50
45.0
1001
ACAD
1000
HATCH
1002
{
1070
    16
1000
ANSI37
1040
0.5
1040
0.0
1002
}
  0
LINE
  5
242E
100
AcDbEntity
  8
OBJECT
100
AcDbLine
 10
-501.109461
 20
144.792956
 30
0.0
 11
-496.588598
 21
140.272093
 31
0.0
  0
LINE
  5
242F
100
AcDbEntity
  8
OBJECT
100
AcDbLine
 10
-501.109461
 20
145.146509
 30
0.0
 11
-496.411821
 21
140.448869
 31
0.0
  0
LINE
  5
2430
100
AcDbEntity
  8
PUMP
 62
     4
100
AcDbLine
 10
-477.226384
 20
134.628579
 30
0.0
 11
-478.788884
 21
145.590804
 31
0.0
  0
LINE
  5
2431
100
AcDbEntity
  8
PUMP
 62
     4
100
AcDbLine
 10
-488.504545
 20
134.628579
 30
0.0
 11
-486.942045
 21
145.590804
 31
0.0
  0
TEXT
  5
2432
100
AcDbEntity
  8
PUMP
 62
     4
100
AcDbText
 10
-486.104103
 20
131.192548
 30
0.0
 40
1.85
  1
Your
  7
SCRIPTC
100
AcDbText
  0
LINE
  5
2433
100
AcDbEntity
  8
PUMP
 62
     4
100
AcDbLine
 10
-489.480374
 20
132.540728
 30
0.0
 11
-488.504545
 21
132.540728
 31
0.0
  0
LINE
  5
2434
100
AcDbEntity
  8
PUMP
 62
     4
100
AcDbLine
 10
-489.480374
 20
131.681072
 30
0.0
 11
-488.504545
 21
131.681072
 31
0.0
  0
LINE
  5
2435
100
AcDbEntity
  8
PUMP
 62
     4
100
AcDbLine
 10
-489.480374
 20
131.681072
 30
0.0
 11
-489.480374
 21
132.540728
 31
0.0
  0
LINE
  5
2436
100
AcDbEntity
  8
PUMP
 62
     4
100
AcDbLine
 10
-489.480374
 20
130.207358
 30
0.0
 11
-489.480374
 21
131.067014
 31
0.0
  0
LINE
  5
2437
100
AcDbEntity
  8
PUMP
 62
     4
100
AcDbLine
 10
-489.480374
 20
130.207358
 30
0.0
 11
-488.504545
 21
130.207358
 31
0.0
  0
LINE
  5
2438
100
AcDbEntity
  8
PUMP
 62
     4
100
AcDbLine
 10
-489.480374
 20
131.067014
 30
0.0
 11
-488.504545
 21
131.067014
 31
0.0
  0
LINE
  5
2439
100
AcDbEntity
  8
PUMP
 62
     4
100
AcDbLine
 10
-489.480374
 20
129.5933
 30
0.0
 11
-488.504545
 21
129.5933
 31
0.0
  0
LINE
  5
243A
100
AcDbEntity
  8
PUMP
 62
     4
100
AcDbLine
 10
-489.480374
 20
128.733644
 30
0.0
 11
-488.504545
 21
128.733644
 31
0.0
  0
LINE
  5
243B
100
AcDbEntity
  8
PUMP
 62
     4
100
AcDbLine
 10
-489.480374
 20
128.733644
 30
0.0
 11
-489.480374
 21
129.5933
 31
0.0
  0
LINE
  5
243C
100
AcDbEntity
  8
PUMP
 62
     4
100
AcDbLine
 10
-476.250555
 20
128.733644
 30
0.0
 11
-476.250555
 21
129.5933
 31
0.0
  0
LINE
  5
243D
100
AcDbEntity
  8
PUMP
 62
     4
100
AcDbLine
 10
-476.250555
 20
128.733644
 30
0.0
 11
-477.226384
 21
128.733644
 31
0.0
  0
LINE
  5
243E
100
AcDbEntity
  8
PUMP
 62
     4
100
AcDbLine
 10
-476.250555
 20
129.5933
 30
0.0
 11
-477.226384
 21
129.5933
 31
0.0
  0
LINE
  5
243F
100
AcDbEntity
  8
PUMP
 62
     4
100
AcDbLine
 10
-476.250555
 20
131.067014
 30
0.0
 11
-477.226384
 21
131.067014
 31
0.0
  0
LINE
  5
2440
100
AcDbEntity
  8
PUMP
 62
     4
100
AcDbLine
 10
-476.250555
 20
130.207358
 30
0.0
 11
-477.226384
 21
130.207358
 31
0.0
  0
LINE
  5
2441
100
AcDbEntity
  8
PUMP
 62
     4
100
AcDbLine
 10
-476.250555
 20
130.207358
 30
0.0
 11
-476.250555
 21
131.067014
 31
0.0
  0
LINE
  5
2442
100
AcDbEntity
  8
PUMP
 62
     4
100
AcDbLine
 10
-476.250555
 20
131.681072
 30
0.0
 11
-476.250555
 21
132.540728
 31
0.0
  0
LINE
  5
2443
100
AcDbEntity
  8
PUMP
 62
     4
100
AcDbLine
 10
-476.250555
 20
131.681072
 30
0.0
 11
-477.226384
 21
131.681072
 31
0.0
  0
LINE
  5
2444
100
AcDbEntity
  8
PUMP
 62
     4
100
AcDbLine
 10
-476.250555
 20
132.540728
 30
0.0
 11
-477.226384
 21
132.540728
 31
0.0
  0
ARC
  5
2445
100
AcDbEntity
  8
PUMP
 62
     4
100
AcDbCircle
 10
-481.612552
 20
149.92872
 30
0.0
 40
1.03087
100
AcDbArc
 50
80.12258
 51
245.657002
  0
LINE
  5
2446
100
AcDbEntity
  8
PUMP
 62
     4
100
AcDbLine
 10
-484.216786
 20
147.85838
 30
0.0
 11
-481.807865
 21
147.85838
 31
0.0
  0
LINE
  5
2447
100
AcDbEntity
  8
PUMP
 62
     4
100
AcDbLine
 10
-484.216786
 20
147.85838
 30
0.0
 11
-484.216786
 21
148.768252
 31
0.0
  0
LINE
  5
2448
100
AcDbEntity
  8
PUMP
 62
     4
100
AcDbLine
 10
-485.699136
 20
147.85838
 30
0.0
 11
-485.699136
 21
148.768252
 31
0.0
  0
LINE
  5
2449
100
AcDbEntity
  8
PUMP
 62
     4
100
AcDbLine
 10
-486.094792
 20
147.85838
 30
0.0
 11
-485.699136
 21
147.85838
 31
0.0
  0
LINE
  5
244A
100
AcDbEntity
  8
PUMP
 62
     4
100
AcDbLine
 10
-486.942045
 20
145.590804
 30
0.0
 11
-486.094792
 21
145.590804
 31
0.0
  0
LINE
  5
244B
100
AcDbEntity
  8
PUMP
 62
     4
100
AcDbLine
 10
-486.094792
 20
145.590804
 30
0.0
 11
-486.094792
 21
147.85838
 31
0.0
  0
LINE
  5
244C
100
AcDbEntity
  8
PUMP
 62
     4
100
AcDbLine
 10
-485.378668
 20
149.528557
 30
0.0
 11
-484.537254
 21
149.528557
 31
0.0
  0
LINE
  5
244D
100
AcDbEntity
  8
PUMP
 62
     4
100
AcDbLine
 10
-484.216786
 20
148.768252
 30
0.0
 11
-484.537254
 21
149.528557
 31
0.0
  0
LINE
  5
244E
100
AcDbEntity
  8
PUMP
 62
     4
100
AcDbLine
 10
-485.699136
 20
148.768252
 30
0.0
 11
-485.378668
 21
149.528557
 31
0.0
  0
LINE
  5
244F
100
AcDbEntity
  8
PUMP
 62
     4
100
AcDbLine
 10
-481.807865
 20
148.633605
 30
0.0
 11
-481.807865
 21
147.85838
 31
0.0
  0
LINE
  5
2450
100
AcDbEntity
  8
PUMP
 62
     4
100
AcDbLine
 10
-481.41724
 20
148.633605
 30
0.0
 11
-481.41724
 21
147.85838
 31
0.0
  0
LINE
  5
2451
100
AcDbEntity
  8
PUMP
 62
     4
100
AcDbLine
 10
-481.41724
 20
147.85838
 30
0.0
 11
-479.636137
 21
147.85838
 31
0.0
  0
LINE
  5
2452
100
AcDbEntity
  8
PUMP
 62
     4
100
AcDbLine
 10
-478.788884
 20
145.590804
 30
0.0
 11
-479.636137
 21
145.590804
 31
0.0
  0
LINE
  5
2453
100
AcDbEntity
  8
PUMP
 62
     4
100
AcDbLine
 10
-479.636137
 20
145.590804
 30
0.0
 11
-479.636137
 21
147.85838
 31
0.0
  0
ARC
  5
245F
100
AcDbEntity
  8
PUMP
 62
     4
100
AcDbCircle
 10
-481.612552
 20
149.92872
 30
0.0
 40
1.03087
100
AcDbArc
 50
294.342998
 51
68.989062
  0
ARC
  5
2460
100
AcDbEntity
  8
PUMP
 62
     4
100
AcDbCircle
 10
-481.026615
 20
148.633605
 30
0.0
 40
0.390625
100
AcDbArc
 50
114.342998
 51
180.0
  0
ARC
  5
2461
100
AcDbEntity
  8
PUMP
 62
     4
100
AcDbCircle
 10
-482.19849
 20
148.633605
 30
0.0
 40
0.390625
100
AcDbArc
 50
0.0
 51
65.657002
  0
ARC
  5
2462
100
AcDbEntity
  8
PUMP
 62
     4
100
AcDbCircle
 10
-481.612552
 20
149.92872
 30
0.0
 40
0.640245
100
AcDbArc
 50
83.541659
 51
65.569983
  0
DIMENSION
  5
2466
100
AcDbEntity
  8
DIM
100
AcDbDimension
  2
*D6
 10
-447.174535
 20
104.526737
 30
0.0
 11
-441.489882
 21
104.656109
 31
0.0
 70
   160
  1
3"
  3
STANDARD
100
AcDbAlignedDimension
 13
-450.174535
 23
113.711839
 33
0.0
 14
-447.174535
 24
112.211839
 34
0.0
100
AcDbRotatedDimension
1001
ACAD
1000
DSTYLE
1002
{
1070
    78
1070
    12
1070
   284
1070
    12
1070
   140
1040
2.5
1070
   340
1005
2B
1070
   272
1070
     0
1070
   147
1040
1.5
1070
   287
1070
     5
1070
    44
1040
1.85
1070
    41
1040
1.5
1002
}
  0
ARC
  5
2467
100
AcDbEntity
  8
PUMP
 62
     4
100
AcDbCircle
 10
-467.416182
 20
126.12512
 30
0.0
 40
6.26875
100
AcDbArc
 50
299.634929
 51
0.0
  0
LINE
  5
2468
100
AcDbEntity
  8
PUMP
 62
     4
100
AcDbLine
 10
-467.275899
 20
124.965061
 30
0.0
 11
-470.169031
 21
124.965061
 31
0.0
  0
LINE
  5
2469
100
AcDbEntity
  8
PUMP
 62
     4
100
AcDbLine
 10
-470.169031
 20
124.965061
 30
0.0
 11
-470.169031
 21
123.367308
 31
0.0
  0
ARC
  5
246A
100
AcDbEntity
  8
PUMP
 62
     4
100
AcDbCircle
 10
-467.408369
 20
126.117308
 30
0.0
 40
2.95
100
AcDbArc
 50
270.0
 51
0.257012
  0
LINE
  5
246B
100
AcDbEntity
  8
PUMP
 62
     4
100
AcDbLine
 10
-467.275899
 20
123.367308
 30
0.0
 11
-467.275899
 21
124.965061
 31
0.0
  0
LINE
  5
246C
100
AcDbEntity
  8
PUMP
 62
     4
100
AcDbLine
 10
-466.552901
 20
126.13054
 30
0.0
 11
-466.552901
 21
127.44929
 31
0.0
  0
LINE
  5
246D
100
AcDbEntity
  8
PUMP
 62
     4
100
AcDbLine
 10
-464.658369
 20
126.13054
 30
0.0
 11
-464.658369
 21
126.117308
 31
0.0
  0
LINE
  5
246E
100
AcDbEntity
  8
PUMP
 62
     4
100
AcDbLine
 10
-459.052901
 20
126.13054
 30
0.0
 11
-459.052901
 21
127.44929
 31
0.0
  0
LINE
  5
246F
100
AcDbEntity
  8
PUMP
 62
     4
100
AcDbLine
 10
-460.947432
 20
126.13054
 30
0.0
 11
-460.947432
 21
126.12512
 31
0.0
  0
LINE
  5
2470
100
AcDbEntity
  8
DIM
100
AcDbLine
 10
-450.612035
 20
113.211839
 30
0.0
 11
-434.736061
 21
113.211839
 31
0.0
  0
LINE
  5
2471
100
AcDbEntity
  8
OBJECT
100
AcDbLine
 10
-447.174535
 20
112.961839
 30
0.0
 11
-449.174535
 21
112.961839
 31
0.0
  0
ARC
  5
2472
100
AcDbEntity
  8
OBJECT
100
AcDbCircle
 10
-449.174535
 20
113.461839
 30
0.0
 40
0.5
100
AcDbArc
 50
180.0
 51
270.0
  0
ARC
  5
2473
100
AcDbEntity
  8
OBJECT
100
AcDbCircle
 10
-450.674535
 20
113.711839
 30
0.0
 40
0.5
100
AcDbArc
 50
270.0
 51
0.0
  0
LINE
  5
2474
100
AcDbEntity
  8
OBJECT
100
AcDbLine
 10
-447.174535
 20
112.211839
 30
0.0
 11
-447.174535
 21
112.961839
 31
0.0
  0
SOLID
  5
2475
100
AcDbEntity
  8
DIM
100
AcDbTrace
 10
-436.877727
 20
114.961839
 30
0.0
 11
-436.294394
 21
114.961839
 31
0.0
 12
-436.586061
 22
113.211839
 32
0.0
 13
-436.586061
 23
113.211839
 33
0.0
  0
LINE
  5
249D
100
AcDbEntity
  8
OBJECT
  6
CONTINUOUS
 62
     2
100
AcDbLine
 10
-494.674535
 20
207.826398
 30
0.0
 11
-469.724483
 21
207.826398
 31
0.0
  0
INSERT
  5
249E
100
AcDbEntity
  8
HATCH
100
AcDbBlockReference
  2
*X2
 10
-545.106407
 20
-17.916515
 30
0.0
 50
45.0
1001
ACAD
1000
HATCH
1002
{
1070
    16
1000
ANSI37
1040
0.5
1040
0.0
1002
}
  0
LINE
  5
249F
100
AcDbEntity
  8
OBJECT
100
AcDbLine
 10
-501.109461
 20
171.860152
 30
0.0
 11
-496.420301
 21
167.170992
 31
0.0
  0
LINE
  5
24A0
100
AcDbEntity
  8
OBJECT
100
AcDbLine
 10
-501.109461
 20
171.506598
 30
0.0
 11
-496.597078
 21
166.994216
 31
0.0
  0
LINE
  5
24A1
100
AcDbEntity
  8
OBJECT
100
AcDbLine
 10
-511.033535
 20
168.612304
 30
0.0
 11
-511.033535
 21
165.862304
 31
0.0
  0
LINE
  5
24A2
100
AcDbEntity
  8
OBJECT
100
AcDbLine
 10
-511.033535
 20
168.190304
 30
0.0
 11
-510.674535
 21
168.190304
 31
0.0
  0
LINE
  5
24A3
100
AcDbEntity
  8
OBJECT
100
AcDbLine
 10
-511.033535
 20
165.862304
 30
0.0
 11
-510.674535
 21
165.862304
 31
0.0
  0
LINE
  5
24A4
100
AcDbEntity
  8
OBJECT
100
AcDbLine
 10
-511.033535
 20
172.330304
 30
0.0
 11
-510.674535
 21
172.330304
 31
0.0
  0
LINE
  5
24A5
100
AcDbEntity
  8
OBJECT
100
AcDbLine
 10
-511.033535
 20
169.580304
 30
0.0
 11
-510.674535
 21
169.580304
 31
0.0
  0
LINE
  5
24A6
100
AcDbEntity
  8
OBJECT
100
AcDbLine
 10
-511.033535
 20
170.002304
 30
0.0
 11
-510.674535
 21
170.002304
 31
0.0
  0
LINE
  5
24A7
100
AcDbEntity
  8
OBJECT
100
AcDbLine
 10
-511.033535
 20
172.330304
 30
0.0
 11
-511.033535
 21
169.580304
 31
0.0
  0
LINE
  5
24A8
100
AcDbEntity
  8
OBJECT
100
AcDbLine
 10
-511.033535
 20
168.612304
 30
0.0
 11
-510.674535
 21
168.612304
 31
0.0
  0
SOLID
  5
24B6
100
AcDbEntity
  8
DIM
100
AcDbTrace
 10
-466.09003
 20
163.901531
 30
0.0
 11
-466.304805
 21
164.443886
 31
0.0
 12
-467.824483
 22
163.528382
 32
0.0
 13
-467.824483
 23
163.528382
 33
0.0
  0
LINE
  5
24B7
100
AcDbEntity
  8
OBJECT
100
AcDbLine
 10
-467.824483
 20
207.826398
 30
0.0
 11
-465.674535
 21
207.826398
 31
0.0
  0
TEXT
  5
24C6
100
AcDbEntity
  8
DIM
100
AcDbText
 10
-425.180431
 20
148.686998
 30
0.0
 40
1.85
  1
   Companion Flange
  7
ROMAND
 11
-425.180431
 21
149.611998
 31
0.0
100
AcDbText
 73
     2
  0
TEXT
  5
24C7
100
AcDbEntity
  8
DIM
100
AcDbText
 10
-425.180431
 20
136.061886
 30
0.0
 40
1.85
  1
45º Flanged Elbows
  7
ROMAND
 11
-425.180431
 21
136.986886
 31
0.0
100
AcDbText
 73
     2
  0
LINE
  5
24C8
100
AcDbEntity
  8
DIM
100
AcDbLine
 10
-427.500547
 20
147.901059
 30
0.0
 11
-420.100547
 21
147.901059
 31
0.0
  0
LINE
  5
24C9
100
AcDbEntity
  8
DIM
100
AcDbLine
 10
-428.780431
 20
149.483404
 30
0.0
 11
-427.030431
 21
149.483404
 31
0.0
  0
LINE
  5
24CA
100
AcDbEntity
  8
DIM
100
AcDbLine
 10
-426.004027
 20
137.173551
 30
0.0
 11
-428.690565
 21
137.173551
 31
0.0
  0
TEXT
  5
24CD
100
AcDbEntity
  8
DIM
100
AcDbText
 10
-425.180431
 20
172.315467
 30
0.0
 40
1.85
  1
     304 Stainless Steel
  7
ROMAND
 11
-425.180431
 21
173.240467
 31
0.0
100
AcDbText
 73
     2
  0
TEXT
  5
24CE
100
AcDbEntity
  8
DIM
100
AcDbText
 10
-425.180431
 20
175.065262
 30
0.0
 40
1.85
  1
     Sch40 Galvanized
  7
ROMAND
 11
-425.180431
 21
175.990262
 31
0.0
100
AcDbText
 73
     2
  0
TEXT
  5
24CF
100
AcDbEntity
  8
DIM
100
AcDbText
 10
-425.180431
 20
178.065032
 30
0.0
 40
1.85
  1
   Guiderail
  7
ROMAND
 11
-425.180431
 21
178.990032
 31
0.0
100
AcDbText
 73
     2
  0
LINE
  5
24D0
100
AcDbEntity
  8
BORDER
 62
     6
100
AcDbLine
 10
-427.500547
 20
177.407688
 30
0.0
 11
-420.100547
 21
177.407688
 31
0.0
  0
LINE
  5
24D1
100
AcDbEntity
  8
DIM
100
AcDbLine
 10
-428.780431
 20
178.990032
 30
0.0
 11
-427.030431
 21
178.990032
 31
0.0
  0
LWPOLYLINE
  5
24D2
100
AcDbEntity
  8
DIM
100
AcDbPolyline
 90
        4
 70
     1
 43
0.0
 10
-416.516926
 20
172.241168
 10
-416.516926
 20
173.882175
 10
-418.157933
 20
173.882175
 10
-418.157933
 20
172.241168
  0
LWPOLYLINE
  5
24D3
100
AcDbEntity
  8
DIM
100
AcDbPolyline
 90
        4
 70
     1
 43
0.0
 10
-416.516926
 20
175.136281
 10
-416.516926
 20
176.777288
 10
-418.157933
 20
176.777288
 10
-418.157933
 20
175.136281
  0
LINE
  5
24D6
100
AcDbEntity
  8
OBJECT
 62
     2
100
AcDbLine
 39
50.0
 10
-513.225707
 20
210.35088
 30
0.0
 11
-513.924535
 21
210.685234
 31
0.0
  0
LINE
  5
24D7
100
AcDbEntity
  8
OBJECT
 62
     2
100
AcDbLine
 39
50.0
 10
-513.174535
 20
210.826398
 30
0.0
 11
-513.924535
 21
211.054191
 31
0.0
  0
ARC
  5
24D8
100
AcDbEntity
  8
OBJECT
 62
     2
100
AcDbCircle
 39
50.0
 10
-513.867033
 20
210.869712
 30
0.0
 40
0.193233
100
AcDbArc
 50
107.312204
 51
252.687796
  0
ARC
  5
24D9
100
AcDbEntity
  8
OBJECT
 62
     2
100
AcDbCircle
 39
50.0
 10
-513.117809
 20
210.576398
 30
0.0
 40
0.25
100
AcDbArc
 50
244.431316
 51
270.0
  0
LINE
  5
24DA
100
AcDbEntity
  8
OBJECT
 62
     2
100
AcDbLine
 39
50.0
 10
-510.924535
 20
210.326398
 30
0.0
 11
-513.117809
 21
210.326398
 31
0.0
  0
ARC
  5
24DB
100
AcDbEntity
  8
OBJECT
 62
     2
100
AcDbCircle
 39
50.0
 10
-510.924535
 20
210.076398
 30
0.0
 40
0.25
100
AcDbArc
 50
0.0
 51
90.0
  0
ARC
  5
24DC
100
AcDbEntity
  8
OBJECT
 62
     2
100
AcDbCircle
 39
50.0
 10
-510.424535
 20
210.576398
 30
0.0
 40
0.25
100
AcDbArc
 50
0.0
 51
90.0
  0
LINE
  5
24DD
100
AcDbEntity
  8
OBJECT
 62
     2
100
AcDbLine
 39
50.0
 10
-513.174535
 20
211.201398
 30
0.0
 11
-513.174535
 21
210.82917
 31
0.0
  0
LINE
  5
24DE
100
AcDbEntity
  8
OBJECT
 62
     2
100
AcDbLine
 39
50.0
 10
-447.174535
 20
211.201398
 30
0.0
 11
-447.174535
 21
210.826398
 31
0.0
  0
LINE
  5
24DF
100
AcDbEntity
  8
OBJECT
 62
     2
100
AcDbLine
 39
50.0
 10
-447.123364
 20
210.35088
 30
0.0
 11
-446.424535
 21
210.685234
 31
0.0
  0
LINE
  5
24E0
100
AcDbEntity
  8
OBJECT
 62
     2
100
AcDbLine
 39
50.0
 10
-447.174535
 20
210.826398
 30
0.0
 11
-446.424535
 21
211.054191
 31
0.0
  0
ARC
  5
24E1
100
AcDbEntity
  8
OBJECT
 62
     2
100
AcDbCircle
 39
50.0
 10
-446.482037
 20
210.869712
 30
0.0
 40
0.193233
100
AcDbArc
 50
287.312204
 51
72.687796
  0
ARC
  5
24E2
100
AcDbEntity
  8
OBJECT
 62
     2
100
AcDbCircle
 39
50.0
 10
-447.231262
 20
210.576398
 30
0.0
 40
0.25
100
AcDbArc
 50
270.0
 51
295.568684
  0
LINE
  5
24E3
100
AcDbEntity
  8
OBJECT
 62
     2
100
AcDbLine
 39
50.0
 10
-449.424535
 20
210.326398
 30
0.0
 11
-447.231262
 21
210.326398
 31
0.0
  0
ARC
  5
24E4
100
AcDbEntity
  8
OBJECT
 62
     2
100
AcDbCircle
 39
50.0
 10
-449.424535
 20
210.076398
 30
0.0
 40
0.25
100
AcDbArc
 50
90.0
 51
180.0
  0
ARC
  5
24E5
100
AcDbEntity
  8
OBJECT
 62
     2
100
AcDbCircle
 39
50.0
 10
-449.924535
 20
210.576398
 30
0.0
 40
0.25
100
AcDbArc
 50
90.0
 51
180.0
  0
LINE
  5
24E6
100
AcDbEntity
  8
OBJECT
100
AcDbLine
 10
-447.174535
 20
211.201398
 30
0.0
 11
-513.174535
 21
211.201398
 31
0.0
  0
LINE
  5
24E7
100
AcDbEntity
  8
OBJECT
100
AcDbLine
 10
-447.174535
 20
210.826398
 30
0.0
 11
-513.174535
 21
210.826398
 31
0.0
  0
ARC
  5
24E8
100
AcDbEntity
  8
ELEV
 62
     3
100
AcDbCircle
 39
18.0
 10
-559.584097
 20
210.826398
 30
0.0
 40
2.472361
100
AcDbArc
 50
90.0
 51
180.0
  0
ARC
  5
24E9
100
AcDbEntity
  8
ELEV
 62
     3
100
AcDbCircle
 39
18.0
 10
-559.584097
 20
210.826398
 30
0.0
 40
2.472361
100
AcDbArc
 50
0.0
 51
90.0
  0
LINE
  5
24EA
100
AcDbEntity
  8
ELEV
 62
     3
100
AcDbLine
 10
-557.111736
 20
210.826398
 30
0.0
 11
-514.055349
 21
210.826398
 31
0.0
  0
LINE
  5
24EB
100
AcDbEntity
  8
ELEV
100
AcDbLine
 10
-527.154001
 20
210.826398
 30
0.0
 11
-562.956457
 21
210.826398
 31
0.0
  0
TEXT
  5
24EC
100
AcDbEntity
  8
ELEV
 62
     3
100
AcDbText
 10
-556.169893
 20
211.470753
 30
0.0
 40
1.8
  1
ELEV 
  7
ROMANS
100
AcDbText
  0
INSERT
  5
24ED
100
AcDbEntity
  8
ELEV
100
AcDbBlockReference
  2
*X4
 10
-695.477925
 20
121.099195
 30
0.0
 41
1.2
 42
1.2
 43
1.2
1001
ACAD
1000
HATCH
1002
{
1070
    16
1000
ANSI37
1040
1.0
1040
0.0
1002
}
  0
LINE
  5
24EE
100
AcDbEntity
  8
ELEV
 62
     3
100
AcDbLine
 10
-559.584097
 20
210.826398
 30
0.0
 11
-559.584097
 21
208.354037
 31
0.0
  0
INSERT
  5
24EF
100
AcDbEntity
  8
ELEV
100
AcDbBlockReference
  2
*X3
 10
-695.477925
 20
121.099195
 30
0.0
 41
1.2
 42
1.2
 43
1.2
1001
ACAD
1000
HATCH
1002
{
1070
    16
1000
ANSI37
1040
1.0
1040
0.0
1002
}
  0
LINE
  5
24F0
100
AcDbEntity
  8
ELEV
 62
     3
100
AcDbLine
 10
-559.584097
 20
210.826398
 30
0.0
 11
-559.584097
 21
213.298758
 31
0.0
  0
SOLID
  5
24F1
100
AcDbEntity
  8
DIM
100
AcDbTrace
 10
-520.150187
 20
209.076398
 30
0.0
 11
-519.566853
 21
209.076398
 31
0.0
 12
-519.85852
 22
210.826398
 32
0.0
 13
-519.85852
 23
210.826398
 33
0.0
  0
LINE
  5
24F7
100
AcDbEntity
  8
OBJECT
100
AcDbLine
 10
-496.529461
 20
211.451398
 30
0.0
 11
-506.529461
 21
211.451398
 31
0.0
  0
LINE
  5
24F8
100
AcDbEntity
  8
OBJECT
100
AcDbLine
 10
-506.529461
 20
211.201398
 30
0.0
 11
-506.529461
 21
211.451398
 31
0.0
  0
LINE
  5
24F9
100
AcDbEntity
  8
OBJECT
  6
CONTINUOUS
 62
     2
100
AcDbLine
 10
-497.362539
 20
210.476422
 30
0.0
 11
-495.774526
 21
210.476422
 31
0.0
  0
LINE
  5
24FA
100
AcDbEntity
  8
OBJECT
100
AcDbLine
 10
-501.000668
 20
209.941016
 30
0.0
 11
-501.000668
 21
210.826398
 31
0.0
  0
LINE
  5
24FB
100
AcDbEntity
  8
OBJECT
100
AcDbLine
 10
-502.058254
 20
209.941016
 30
0.0
 11
-502.058254
 21
210.826398
 31
0.0
  0
LINE
  5
24FC
100
AcDbEntity
  8
OBJECT
100
AcDbLine
 10
-502.058254
 20
209.941016
 30
0.0
 11
-501.000668
 21
209.941016
 31
0.0
  0
ARC
  5
24FD
100
AcDbEntity
  8
OBJECT
  6
CONTINUOUS
 62
     2
100
AcDbCircle
 10
-497.362582
 20
210.976402
 30
0.0
 40
0.49998
100
AcDbArc
 50
197.458835
 51
270.004889
  0
LINE
  5
24FE
100
AcDbEntity
  8
OBJECT
100
AcDbLine
 10
-496.529461
 20
211.201398
 30
0.0
 11
-496.529461
 21
211.451398
 31
0.0
  0
ARC
  5
24FF
100
AcDbEntity
  8
OBJECT
  6
CONTINUOUS
 62
     2
100
AcDbCircle
 10
-495.774631
 20
209.726333
 30
0.0
 40
0.750089
100
AcDbArc
 50
0.006816
 51
89.992019
  0
LINE
  5
2500
100
AcDbEntity
  8
OBJECT
  6
CONTINUOUS
 62
     2
100
AcDbLine
 10
-495.024541
 20
209.726422
 30
0.0
 11
-495.024541
 21
208.460858
 31
0.0
  0
ARC
  5
250A
100
AcDbEntity
  8
OBJECT
  6
CONTINUOUS
 62
     2
100
AcDbCircle
 10
-462.953693
 20
211.226254
 30
0.0
 40
0.749832
100
AcDbArc
 50
269.991659
 51
327.773927
  0
LINE
  5
250B
100
AcDbEntity
  8
OBJECT
100
AcDbLine
 10
-465.674535
 20
208.964337
 30
0.0
 11
-470.10453
 21
208.964337
 31
0.0
  0
LINE
  5
250C
100
AcDbEntity
  8
OBJECT
100
AcDbLine
 10
-470.10453
 20
210.826398
 30
0.0
 11
-470.10453
 21
208.964337
 31
0.0
  0
LINE
  5
250F
100
AcDbEntity
  8
OBJECT
100
AcDbLine
 10
-465.324529
 20
209.726422
 30
0.0
 11
-465.324529
 21
208.460858
 31
0.0
  0
ARC
  5
2510
100
AcDbEntity
  8
OBJECT
100
AcDbCircle
 10
-464.57444
 20
209.726333
 30
0.0
 40
0.750089
100
AcDbArc
 50
90.007981
 51
179.993184
  0
LINE
  5
2511
100
AcDbEntity
  8
OBJECT
  6
CONTINUOUS
 62
     2
100
AcDbLine
 10
-464.82102
 20
211.179974
 30
0.0
 11
-465.174535
 21
210.826398
 31
0.0
  0
LINE
  5
2512
100
AcDbEntity
  8
OBJECT
  6
CONTINUOUS
 62
     2
100
AcDbLine
 10
-462.950018
 20
210.476422
 30
0.0
 11
-464.574544
 21
210.476422
 31
0.0
  0
LINE
  5
2515
100
AcDbEntity
  8
OBJECT
100
AcDbLine
 10
-456.81026
 20
220.064867
 30
0.0
 11
-456.81026
 21
211.951398
 31
0.0
  0
LINE
  5
2516
100
AcDbEntity
  8
OBJECT
100
AcDbLine
 10
-460.31026
 20
220.064867
 30
0.0
 11
-460.31026
 21
211.951398
 31
0.0
  0
LINE
  5
2518
100
AcDbEntity
  8
OBJECT
100
AcDbLine
 10
-456.31026
 20
211.951398
 30
0.0
 11
-460.81026
 21
211.951398
 31
0.0
  0
LINE
  5
2519
100
AcDbEntity
  8
OBJECT
100
AcDbLine
 10
-460.81026
 20
211.951398
 30
0.0
 11
-460.81026
 21
211.201398
 31
0.0
  0
LINE
  5
251A
100
AcDbEntity
  8
OBJECT
100
AcDbLine
 10
-456.31026
 20
211.951398
 30
0.0
 11
-456.31026
 21
211.201398
 31
0.0
  0
LINE
  5
251B
100
AcDbEntity
  8
OBJECT
100
AcDbLine
 10
-460.31026
 20
220.064867
 30
0.0
 11
-456.81026
 21
220.064867
 31
0.0
  0
LINE
  5
251C
100
AcDbEntity
  8
OBJECT
100
AcDbLine
 10
-456.81026
 20
218.864867
 30
0.0
 11
-460.31026
 21
218.864867
 31
0.0
  0
LINE
  5
251D
100
AcDbEntity
  8
OBJECT
100
AcDbLine
 10
-456.81026
 20
219.164867
 30
0.0
 11
-460.31026
 21
219.164867
 31
0.0
  0
LINE
  5
251E
100
AcDbEntity
  8
OBJECT
100
AcDbLine
 10
-456.81026
 20
219.464867
 30
0.0
 11
-460.31026
 21
219.464867
 31
0.0
  0
LINE
  5
251F
100
AcDbEntity
  8
OBJECT
100
AcDbLine
 10
-456.81026
 20
219.764867
 30
0.0
 11
-460.31026
 21
219.764867
 31
0.0
  0
LINE
  5
2520
100
AcDbEntity
  8
DIM
100
AcDbLine
 10
-446.293722
 20
210.826398
 30
0.0
 11
-434.736061
 21
210.826398
 31
0.0
  0
SOLID
  5
2521
100
AcDbEntity
  8
DIM
100
AcDbTrace
 10
-436.877727
 20
209.076398
 30
0.0
 11
-436.294394
 21
209.076398
 31
0.0
 12
-436.586061
 22
210.826398
 32
0.0
 13
-436.586061
 23
210.826398
 33
0.0
  0
LINE
  5
2522
100
AcDbEntity
  8
DIM
100
AcDbLine
 10
-427.500547
 20
227.105309
 30
0.0
 11
-420.100547
 21
227.105309
 31
0.0
  0
LINE
  5
2524
100
AcDbEntity
  8
OBJECT
  6
CONTINUOUS
 62
     2
100
AcDbLine
 10
-465.174535
 20
210.826398
 30
0.0
 11
-486.387746
 21
232.039594
 31
0.0
  0
LINE
  5
2525
100
AcDbEntity
  8
OBJECT
  6
CONTINUOUS
 62
     2
100
AcDbLine
 10
-464.82102
 20
211.179974
 30
0.0
 11
-486.031246
 21
232.390201
 31
0.0
  0
ARC
  5
2526
100
AcDbEntity
  8
OBJECT
  6
PHANTOM
100
AcDbCircle
 10
-465.174535
 20
210.826398
 30
0.0
 40
30.0
100
AcDbArc
 50
134.045046
 51
180.0
  0
TEXT
  5
2527
100
AcDbEntity
  8
DIM
100
AcDbText
 10
-425.180431
 20
227.762654
 30
0.0
 40
1.85
  1
   Discharge Pipe
  7
ROMAND
 11
-425.180431
 21
228.687654
 31
0.0
100
AcDbText
 73
     2
  0
LINE
  5
2528
100
AcDbEntity
  8
DIM
100
AcDbLine
 10
-428.780431
 20
228.687654
 30
0.0
 11
-427.030431
 21
228.687654
 31
0.0
  0
CIRCLE
  5
2529
100
AcDbEntity
  8
OBJECT
100
AcDbCircle
 10
-480.174535
 20
291.28233
 30
0.0
 40
33.0
  0
LINE
  5
252A
100
AcDbEntity
  8
CENTER
100
AcDbLine
 10
-516.174535
 20
291.28233
 30
0.0
 11
-444.174535
 21
291.28233
 31
0.0
  0
LINE
  5
252B
100
AcDbEntity
  8
OBJECT
100
AcDbLine
 10
-447.174535
 20
324.28233
 30
0.0
 11
-513.174535
 21
324.28233
 31
0.0
  0
LINE
  5
252C
100
AcDbEntity
  8
OBJECT
100
AcDbLine
 10
-447.174535
 20
258.28233
 30
0.0
 11
-513.174535
 21
258.28233
 31
0.0
  0
LINE
  5
252D
100
AcDbEntity
  8
OBJECT
100
AcDbLine
 10
-513.174535
 20
324.28233
 30
0.0
 11
-513.174535
 21
258.28233
 31
0.0
  0
TEXT
  5
252E
100
AcDbEntity
  8
DIM
100
AcDbText
 10
-566.336487
 20
241.806169
 30
0.0
 40
1.85
  1
ASTM A-36 Square Steel
  7
ROMAND
 72
     2
 11
-529.953154
 21
242.731169
 31
0.0
100
AcDbText
 73
     2
  0
TEXT
  5
252F
100
AcDbEntity
  8
DIM
100
AcDbText
 10
-564.398392
 20
244.777763
 30
0.0
 40
1.85
  1
Fiberglass Encapsulated
  7
ROMAND
 72
     2
 11
-529.953154
 21
245.702763
 31
0.0
100
AcDbText
 73
     2
  0
TEXT
  5
2530
100
AcDbEntity
  8
DIM
100
AcDbText
 10
-562.019821
 20
247.949369
 30
0.0
 40
1.85
  1
Anti-Floatation Flange
  7
ROMAND
 72
     2
 11
-529.953154
 21
248.874369
 31
0.0
100
AcDbText
 73
     2
  0
LINE
  5
2531
100
AcDbEntity
  8
DIM
100
AcDbLine
 10
-514.497115
 20
259.147362
 30
0.0
 11
-526.353154
 21
248.874369
 31
0.0
  0
LINE
  5
2532
100
AcDbEntity
  8
DIM
100
AcDbLine
 10
-526.353154
 20
248.874369
 30
0.0
 11
-528.103154
 21
248.874369
 31
0.0
  0
SOLID
  5
2533
100
AcDbEntity
  8
DIM
100
AcDbTrace
 10
-514.688113
 20
259.367792
 30
0.0
 11
-514.306117
 21
258.926932
 31
0.0
 12
-513.174535
 22
260.293348
 32
0.0
 13
-513.174535
 23
260.293348
 33
0.0
  0
LINE
  5
2534
100
AcDbEntity
  8
OBJECT
100
AcDbLine
 10
-447.174535
 20
324.28233
 30
0.0
 11
-447.174535
 21
258.28233
 31
0.0
  0
CIRCLE
  5
2535
100
AcDbEntity
  8
OBJECT
100
AcDbCircle
 10
-480.174535
 20
291.28233
 30
0.0
 40
30.0
  0
LINE
  5
2536
100
AcDbEntity
  8
CENTER
100
AcDbLine
 10
-480.174535
 20
327.28233
 30
0.0
 11
-480.174535
 21
255.28233
 31
0.0
  0
LINE
  5
2537
100
AcDbEntity
  8
15
 62
     2
100
AcDbLine
 39
24.0
 10
-477.373456
 20
304.277103
 30
0.0
 11
-477.373456
 21
305.05733
 31
0.0
  0
LINE
  5
2538
100
AcDbEntity
  8
15
 62
     2
100
AcDbLine
 39
24.0
 10
-476.360656
 20
303.70733
 30
0.0
 11
-476.360656
 21
305.05733
 31
0.0
  0
LINE
  5
2539
100
AcDbEntity
  8
15
 62
     2
100
AcDbLine
 39
24.0
 10
-477.373456
 20
299.50733
 30
0.0
 11
-477.373456
 21
300.287557
 31
0.0
  0
LINE
  5
253A
100
AcDbEntity
  8
15
 62
     2
100
AcDbLine
 39
24.0
 10
-476.360656
 20
299.50733
 30
0.0
 11
-476.360656
 21
300.85733
 31
0.0
  0
LINE
  5
253B
100
AcDbEntity
  8
15
 62
     2
100
AcDbLine
 39
24.0
 10
-476.360656
 20
283.05733
 30
0.0
 11
-476.360656
 21
281.70733
 31
0.0
  0
LINE
  5
253C
100
AcDbEntity
  8
15
 62
     2
100
AcDbLine
 39
24.0
 10
-477.373456
 20
283.05733
 30
0.0
 11
-477.373456
 21
282.277103
 31
0.0
  0
LINE
  5
253D
100
AcDbEntity
  8
15
 62
     2
100
AcDbLine
 39
24.0
 10
-476.360656
 20
278.85733
 30
0.0
 11
-476.360656
 21
277.50733
 31
0.0
  0
LINE
  5
253E
100
AcDbEntity
  8
15
 62
     2
100
AcDbLine
 39
24.0
 10
-477.373456
 20
278.287557
 30
0.0
 11
-477.373456
 21
277.50733
 31
0.0
  0
TEXT
  5
253F
100
AcDbEntity
  8
DIM
100
AcDbText
 10
-480.939491
 20
253.646709
 30
0.0
 40
1.5
  1
C
  7
ROMANS
100
AcDbText
  0
TEXT
  5
2540
100
AcDbEntity
  8
DIM
100
AcDbText
 10
-480.464865
 20
252.7588
 30
0.0
 40
1.5
  1
L
  7
ROMANS
100
AcDbText
  0
CIRCLE
  5
2541
100
AcDbEntity
  8
OBJECT
100
AcDbCircle
 10
-464.424535
 20
264.00253
 30
0.0
 40
0.3125
  0
LINE
  5
2542
100
AcDbEntity
  8
OBJECT
100
AcDbLine
 10
-473.999365
 20
307.573715
 30
0.0
 11
-470.999365
 21
307.573715
 31
0.0
  0
LINE
  5
2543
100
AcDbEntity
  8
OBJECT
100
AcDbLine
 10
-473.999365
 20
296.990944
 30
0.0
 11
-470.999365
 21
296.990944
 31
0.0
  0
LINE
  5
2544
100
AcDbEntity
  8
OBJECT
100
AcDbLine
 10
-473.999365
 20
285.573715
 30
0.0
 11
-470.999365
 21
285.573715
 31
0.0
  0
LINE
  5
2545
100
AcDbEntity
  8
OBJECT
100
AcDbLine
 10
-473.999365
 20
274.990944
 30
0.0
 11
-470.999365
 21
274.990944
 31
0.0
  0
LINE
  5
2546
100
AcDbEntity
  8
HIDDEN
100
AcDbLine
 10
-494.674535
 20
310.78233
 30
0.0
 11
-465.674535
 21
310.78233
 31
0.0
  0
LINE
  5
2547
100
AcDbEntity
  8
HIDDEN
100
AcDbLine
 10
-494.674535
 20
271.78233
 30
0.0
 11
-465.674535
 21
271.78233
 31
0.0
  0
LINE
  5
2548
100
AcDbEntity
  8
HIDDEN
100
AcDbLine
 10
-494.674535
 20
310.78233
 30
0.0
 11
-494.674535
 21
271.78233
 31
0.0
  0
CIRCLE
  5
2549
100
AcDbEntity
  8
OBJECT
100
AcDbCircle
 10
-495.924535
 20
264.00253
 30
0.0
 40
0.3125
  0
ARC
  5
254A
100
AcDbEntity
  8
OBJECT
100
AcDbCircle
 10
-485.439894
 20
274.525894
 30
0.0
 40
11.186986
100
AcDbArc
 50
43.858304
 51
76.046917
  0
ARC
  5
254B
100
AcDbEntity
  8
OBJECT
100
AcDbCircle
 10
-483.429842
 20
280.28233
 30
0.0
 40
5.146579
100
AcDbArc
 50
59.1793
 51
348.143382
  0
ARC
  5
254C
100
AcDbEntity
  8
OBJECT
100
AcDbCircle
 10
-485.439894
 20
270.536349
 30
0.0
 40
11.186986
100
AcDbArc
 50
43.858304
 51
50.956295
  0
LINE
  5
254D
100
AcDbEntity
  8
OBJECT
100
AcDbLine
 10
-475.552233
 20
276.704337
 30
0.0
 11
-475.552233
 21
278.85733
 31
0.0
  0
LINE
  5
254E
100
AcDbEntity
  8
OBJECT
100
AcDbLine
 10
-476.360656
 20
278.85733
 30
0.0
 11
-475.552233
 21
278.85733
 31
0.0
  0
LINE
  5
254F
100
AcDbEntity
  8
OBJECT
100
AcDbLine
 10
-476.360656
 20
277.50733
 30
0.0
 11
-477.373456
 21
277.50733
 31
0.0
  0
LINE
  5
2550
100
AcDbEntity
  8
OBJECT
100
AcDbLine
 10
-473.999365
 20
274.990944
 30
0.0
 11
-473.999365
 21
276.704337
 31
0.0
  0
LINE
  5
2551
100
AcDbEntity
  8
OBJECT
100
AcDbLine
 10
-475.552233
 20
276.704337
 30
0.0
 11
-473.999365
 21
276.704337
 31
0.0
  0
LINE
  5
2552
100
AcDbEntity
  8
OBJECT
100
AcDbLine
 10
-475.552233
 20
281.70733
 30
0.0
 11
-475.552233
 21
283.860322
 31
0.0
  0
LINE
  5
2553
100
AcDbEntity
  8
OBJECT
100
AcDbLine
 10
-476.360656
 20
281.70733
 30
0.0
 11
-475.552233
 21
281.70733
 31
0.0
  0
LINE
  5
2554
100
AcDbEntity
  8
OBJECT
100
AcDbLine
 10
-476.360656
 20
283.05733
 30
0.0
 11
-477.373456
 21
283.05733
 31
0.0
  0
LINE
  5
2555
100
AcDbEntity
  8
OBJECT
100
AcDbLine
 10
-475.552233
 20
283.860322
 30
0.0
 11
-473.999365
 21
283.860322
 31
0.0
  0
LINE
  5
2556
100
AcDbEntity
  8
OBJECT
100
AcDbLine
 10
-473.999365
 20
285.573715
 30
0.0
 11
-473.999365
 21
283.860322
 31
0.0
  0
CIRCLE
  5
2557
100
AcDbEntity
  8
OBJECT
100
AcDbCircle
 10
-511.674535
 20
291.28233
 30
0.0
 40
0.3125
  0
ARC
  5
2558
100
AcDbEntity
  8
OBJECT
100
AcDbCircle
 10
-485.439894
 20
292.536349
 30
0.0
 40
11.186986
100
AcDbArc
 50
43.858304
 51
50.956295
  0
ARC
  5
2559
100
AcDbEntity
  8
OBJECT
100
AcDbCircle
 10
-483.429842
 20
302.28233
 30
0.0
 40
5.146579
100
AcDbArc
 50
59.1793
 51
348.143382
  0
LINE
  5
255A
100
AcDbEntity
  8
OBJECT
100
AcDbLine
 10
-473.999365
 20
296.990944
 30
0.0
 11
-473.999365
 21
298.704337
 31
0.0
  0
LINE
  5
255B
100
AcDbEntity
  8
OBJECT
100
AcDbLine
 10
-475.552233
 20
298.704337
 30
0.0
 11
-473.999365
 21
298.704337
 31
0.0
  0
LINE
  5
255C
100
AcDbEntity
  8
OBJECT
100
AcDbLine
 10
-476.360656
 20
299.50733
 30
0.0
 11
-477.373456
 21
299.50733
 31
0.0
  0
LINE
  5
255D
100
AcDbEntity
  8
OBJECT
100
AcDbLine
 10
-476.360656
 20
300.85733
 30
0.0
 11
-475.552233
 21
300.85733
 31
0.0
  0
LINE
  5
255E
100
AcDbEntity
  8
OBJECT
100
AcDbLine
 10
-475.552233
 20
300.85733
 30
0.0
 11
-475.552233
 21
298.704337
 31
0.0
  0
ARC
  5
255F
100
AcDbEntity
  8
OBJECT
100
AcDbCircle
 10
-485.439894
 20
296.525894
 30
0.0
 40
11.186986
100
AcDbArc
 50
43.858304
 51
76.046917
  0
LINE
  5
2560
100
AcDbEntity
  8
OBJECT
100
AcDbLine
 10
-475.552233
 20
305.860322
 30
0.0
 11
-473.999365
 21
305.860322
 31
0.0
  0
LINE
  5
2561
100
AcDbEntity
  8
OBJECT
100
AcDbLine
 10
-473.999365
 20
307.573715
 30
0.0
 11
-473.999365
 21
305.860322
 31
0.0
  0
LINE
  5
2562
100
AcDbEntity
  8
OBJECT
100
AcDbLine
 10
-476.360656
 20
305.05733
 30
0.0
 11
-477.373456
 21
305.05733
 31
0.0
  0
LINE
  5
2563
100
AcDbEntity
  8
OBJECT
100
AcDbLine
 10
-476.360656
 20
303.70733
 30
0.0
 11
-475.552233
 21
303.70733
 31
0.0
  0
LINE
  5
2564
100
AcDbEntity
  8
OBJECT
100
AcDbLine
 10
-475.552233
 20
305.860322
 30
0.0
 11
-475.552233
 21
303.70733
 31
0.0
  0
LINE
  5
2565
100
AcDbEntity
  8
HIDDEN
100
AcDbLine
 10
-465.674535
 20
271.78233
 30
0.0
 11
-465.674535
 21
310.78233
 31
0.0
  0
CIRCLE
  5
2566
100
AcDbEntity
  8
OBJECT
100
AcDbCircle
 10
-448.674535
 20
291.28233
 30
0.0
 40
0.3125
  0
ARC
  5
2569
100
AcDbEntity
  8
OBJECT
100
AcDbCircle
 10
-466.917833
 20
280.28233
 30
0.0
 40
2.775
100
AcDbArc
 50
245.235585
 51
297.571974
  0
LINE
  5
256A
100
AcDbEntity
  8
OBJECT
100
AcDbLine
 10
-470.999365
 20
274.990944
 30
0.0
 11
-470.999365
 21
276.704337
 31
0.0
  0
LINE
  5
256B
100
AcDbEntity
  8
OBJECT
100
AcDbLine
 10
-470.999365
 20
276.704337
 30
0.0
 11
-468.080248
 21
276.704337
 31
0.0
  0
LINE
  5
256C
100
AcDbEntity
  8
OBJECT
100
AcDbLine
 10
-468.080248
 20
276.704337
 30
0.0
 11
-468.080248
 21
277.762525
 31
0.0
  0
ARC
  5
256E
100
AcDbEntity
  8
OBJECT
100
AcDbCircle
 10
-466.917833
 20
280.28233
 30
0.0
 40
2.775
100
AcDbArc
 50
62.428026
 51
114.764415
  0
LINE
  5
256F
100
AcDbEntity
  8
OBJECT
100
AcDbLine
 10
-470.999365
 20
283.860322
 30
0.0
 11
-468.080248
 21
283.860322
 31
0.0
  0
LINE
  5
2570
100
AcDbEntity
  8
OBJECT
100
AcDbLine
 10
-470.999365
 20
285.573715
 30
0.0
 11
-470.999365
 21
283.860322
 31
0.0
  0
LINE
  5
2571
100
AcDbEntity
  8
OBJECT
100
AcDbLine
 10
-468.080248
 20
282.802135
 30
0.0
 11
-468.080248
 21
283.860322
 31
0.0
  0
CIRCLE
  5
2579
100
AcDbEntity
  8
OBJECT
100
AcDbCircle
 10
-464.424535
 20
318.56213
 30
0.0
 40
0.3125
  0
ARC
  5
257F
100
AcDbEntity
  8
OBJECT
100
AcDbCircle
 10
-466.917833
 20
302.28233
 30
0.0
 40
2.775
100
AcDbArc
 50
245.235585
 51
297.571974
  0
LINE
  5
2580
100
AcDbEntity
  8
OBJECT
100
AcDbLine
 10
-468.080248
 20
299.762525
 30
0.0
 11
-468.080248
 21
298.704337
 31
0.0
  0
LINE
  5
2581
100
AcDbEntity
  8
OBJECT
100
AcDbLine
 10
-470.999365
 20
296.990944
 30
0.0
 11
-470.999365
 21
298.704337
 31
0.0
  0
LINE
  5
2582
100
AcDbEntity
  8
OBJECT
100
AcDbLine
 10
-470.999365
 20
298.704337
 30
0.0
 11
-468.080248
 21
298.704337
 31
0.0
  0
ARC
  5
2585
100
AcDbEntity
  8
OBJECT
100
AcDbCircle
 10
-466.917833
 20
302.28233
 30
0.0
 40
2.775
100
AcDbArc
 50
62.428026
 51
114.764415
  0
LINE
  5
2586
100
AcDbEntity
  8
OBJECT
100
AcDbLine
 10
-468.080248
 20
305.860322
 30
0.0
 11
-468.080248
 21
304.802135
 31
0.0
  0
LINE
  5
2587
100
AcDbEntity
  8
OBJECT
100
AcDbLine
 10
-470.999365
 20
305.860322
 30
0.0
 11
-468.080248
 21
305.860322
 31
0.0
  0
LINE
  5
2588
100
AcDbEntity
  8
OBJECT
100
AcDbLine
 10
-470.999365
 20
307.573715
 30
0.0
 11
-470.999365
 21
305.860322
 31
0.0
  0
TEXT
  5
258C
100
AcDbEntity
  8
DIM
100
AcDbText
 10
-443.955971
 20
290.479839
 30
0.0
 40
1.5
  1
L
  7
ROMANS
100
AcDbText
  0
TEXT
  5
258D
100
AcDbEntity
  8
DIM
100
AcDbText
 10
-444.430597
 20
291.367749
 30
0.0
 40
1.5
  1
C
  7
ROMANS
100
AcDbText
  0
CIRCLE
  5
258E
100
AcDbEntity
  8
OBJECT
100
AcDbCircle
 10
-495.924535
 20
318.56213
 30
0.0
 40
0.3125
  0
TEXT
  5
258F
100
AcDbEntity
  8
DIM
100
AcDbText
 10
-564.239979
 20
238.854017
 30
0.0
 40
1.85
  1
Round Fiberglass
  7
ROMAND
 72
     2
 11
-539.661408
 21
239.779017
 31
0.0
100
AcDbText
 73
     2
  0
TEXT
  5
2590
100
AcDbEntity
  8
DIM
100
AcDbText
 10
-564.324248
 20
236.05233
 30
0.0
 40
1.85
  1
None
  7
ROMAND
 72
     2
 11
-557.62901
 21
236.97733
 31
0.0
100
AcDbText
 73
     2
  0
LWPOLYLINE
  5
2591
100
AcDbEntity
  8
DIM
100
AcDbPolyline
 90
        4
 70
     1
 43
0.0
 10
-564.764063
 20
236.127177
 10
-564.764063
 20
237.768184
 10
-566.40507
 20
237.768184
 10
-566.40507
 20
236.127177
  0
LWPOLYLINE
  5
2592
100
AcDbEntity
  8
DIM
100
AcDbPolyline
 90
        4
 70
     1
 43
0.0
 10
-564.764063
 20
239.022289
 10
-564.764063
 20
240.663296
 10
-566.40507
 20
240.663296
 10
-566.40507
 20
239.022289
  0
LWPOLYLINE
  5
2593
100
AcDbEntity
  8
DIM
100
AcDbPolyline
 90
        4
 70
     1
 43
0.0
 10
-564.764063
 20
245.10194
 10
-564.764063
 20
246.742947
 10
-566.40507
 20
246.742947
 10
-566.40507
 20
245.10194
  0
LINE
  5
25B0
100
AcDbEntity
  8
DIM
100
AcDbLine
 10
-435.357063
 20
299.191685
 30
0.0
 11
-387.627889
 21
299.191685
 31
0.0
  0
TEXT
  5
25B1
100
AcDbEntity
  8
DIM
100
AcDbText
 10
-433.667199
 20
296.02275
 30
0.0
 40
1.85
  1
Fiberglass   Aluminum   Steel
  7
ROMAND
100
AcDbText
  0
TEXT
  5
25B2
100
AcDbEntity
  8
DIM
100
AcDbText
 10
-435.661172
 20
299.556641
 30
0.0
 40
2.3125
  1
Gas Tight Hatch Cover
  7
ROMAND
100
AcDbText
  0
LWPOLYLINE
  5
25B3
100
AcDbEntity
  8
DIM
100
AcDbPolyline
 90
        4
 70
     1
 43
0.0
 10
-433.964475
 20
295.989695
 10
-433.964475
 20
297.938733
 10
-435.913513
 20
297.938733
 10
-435.913513
 20
295.989695
  0
LWPOLYLINE
  5
25B4
100
AcDbEntity
  8
DIM
100
AcDbPolyline
 90
        4
 70
     1
 43
0.0
 10
-414.315168
 20
295.989695
 10
-414.315168
 20
297.938733
 10
-416.264207
 20
297.938733
 10
-416.264207
 20
295.989695
  0
LWPOLYLINE
  5
25B5
100
AcDbEntity
  8
DIM
100
AcDbPolyline
 90
        4
 70
     1
 43
0.0
 10
-394.526506
 20
295.989695
 10
-394.526506
 20
297.938733
 10
-396.475545
 20
297.938733
 10
-396.475545
 20
295.989695
  0
MTEXT
  5
2733
102
{ACAD_REACTORS
330
273A
102
}
100
AcDbEntity
  8
DIM
100
AcDbMText
 10
-454.272525
 20
334.226085
 30
0.0
 40
1.85
 41
0.0
 71
     6
 72
     1
  1
Inspection Plate\Pwith (4) 1/2" Cord Grips and \P1" Coupling
  7
ROMAND
  0
LEADER
  5
2738
100
AcDbEntity
  8
DIM
100
AcDbLeader
  3
STANDARD
 76
     3
 10
-414.554447
 20
320.368087
 30
0.0
 10
-407.442112
 20
327.48042
 30
0.0
 10
-405.670027
 20
327.480418
 30
0.0
 77
   256
1001
ACAD
1000
DSTYLE
1002
{
1070
   340
1005
31
1070
   272
1070
     2
1070
   147
1040
1.7
1070
   287
1070
     5
1070
    44
1040
1.7
1070
   271
1070
     2
1070
    41
1040
1.6
1002
}
  0
LINE
  5
2739
100
AcDbEntity
  8
OBJECT
100
AcDbLine
 10
-420.345405
 20
310.386724
 30
0.0
 11
-420.345405
 21
328.886724
 31
0.0
  0
LEADER
  5
273A
100
AcDbEntity
  8
DIM
100
AcDbLeader
  3
STANDARD
 73
     0
 75
     1
 40
9.338095
 41
44.57619
 76
     3
 10
-437.102675
 20
321.97481
 30
0.0
 10
-450.734002
 20
326.892465
 30
0.0
 10
-452.234002
 20
326.892465
 30
0.0
 77
   256
340
2733
213
0.538522984041947
223
-7.333619399780104
233
0.0
1001
ACAD
1000
DSTYLE
1002
{
1070
   140
1040
1.5
1070
   147
1040
1.5
1070
   287
1070
     0
1070
    42
1040
0.1
1070
    44
1040
1.0
1070
   271
1070
     3
1070
   141
1040
-0.09
1070
    41
1040
1.5
1002
}
  0
LINE
  5
273B
100
AcDbEntity
  8
CENTER
100
AcDbLine
 10
-436.413646
 20
322.342145
 30
0.0
 11
-436.413646
 21
316.931303
 31
0.0
  0
LINE
  5
273C
100
AcDbEntity
  8
CENTER
100
AcDbLine
 10
-426.595405
 20
334.636724
 30
0.0
 11
-426.595405
 21
304.636724
 31
0.0
  0
LINE
  5
273D
100
AcDbEntity
  8
OBJECT
100
AcDbLine
 10
-432.845405
 20
310.386724
 30
0.0
 11
-432.845405
 21
328.886724
 31
0.0
  0
CIRCLE
  5
273E
100
AcDbEntity
  8
HIDDEN
100
AcDbCircle
 10
-436.413646
 20
319.636724
 30
0.0
 40
1.95
  0
CIRCLE
  5
273F
100
AcDbEntity
  8
OBJECT
100
AcDbCircle
 10
-436.413646
 20
319.636724
 30
0.0
 40
2.4375
  0
CIRCLE
  5
2740
100
AcDbEntity
  8
OBJECT
100
AcDbCircle
 10
-426.595405
 20
319.636724
 30
0.0
 40
13.5
  0
TEXT
  5
2741
100
AcDbEntity
  8
DIM
100
AcDbText
 10
-412.765987
 20
309.079672
 30
0.0
 40
1.85
  1
   3/4" Cord Grip
  7
ROMAND
 11
-412.765987
 21
310.004672
 31
0.0
100
AcDbText
 73
     2
  0
CIRCLE
  5
2742
100
AcDbEntity
  8
OBJECT
100
AcDbCircle
 10
-429.846868
 20
310.636724
 30
0.0
 40
0.155
  0
LINE
  5
2743
100
AcDbEntity
  8
OBJECT
100
AcDbLine
 10
-432.845405
 20
310.386724
 30
0.0
 11
-420.345405
 21
310.386724
 31
0.0
  0
LINE
  5
2744
100
AcDbEntity
  8
CENTER
100
AcDbLine
 10
-441.595405
 20
319.636724
 30
0.0
 11
-411.595405
 21
319.636724
 31
0.0
  0
LWPOLYLINE
  5
2765
100
AcDbEntity
  8
OBJECT
100
AcDbPolyline
 90
        6
 70
     1
 43
0.0
 10
-432.970405
 20
308.883575
 10
-433.220405
 20
308.739238
 10
-433.220405
 20
308.450563
 10
-432.970405
 20
308.306225
 10
-432.720405
 20
308.450563
 10
-432.720405
 20
308.739238
  0
CIRCLE
  5
2766
100
AcDbEntity
  8
OBJECT
100
AcDbCircle
 10
-432.595405
 20
312.905287
 30
0.0
 40
0.155
  0
LINE
  5
2787
100
AcDbEntity
  8
CENTER
100
AcDbLine
 10
-439.119067
 20
319.636724
 30
0.0
 11
-433.708225
 21
319.636724
 31
0.0
  0
LWPOLYLINE
  5
2788
100
AcDbEntity
  8
OBJECT
100
AcDbPolyline
 90
        6
 70
     1
 43
0.0
 10
-434.705966
 20
321.146015
 10
-434.74789
 20
321.30248
 10
-434.904355
 20
321.344404
 10
-435.018896
 20
321.229864
 10
-434.976971
 20
321.073399
 10
-434.820506
 20
321.031475
  0
LWPOLYLINE
  5
2789
100
AcDbEntity
  8
OBJECT
100
AcDbPolyline
 90
        6
 70
     1
 43
0.0
 10
-434.904355
 20
317.929044
 10
-434.74789
 20
317.970968
 10
-434.705966
 20
318.127433
 10
-434.820506
 20
318.241973
 10
-434.976971
 20
318.200049
 10
-435.018896
 20
318.043584
  0
CIRCLE
  5
278A
100
AcDbEntity
  8
OBJECT
100
AcDbCircle
 10
-435.154131
 20
319.636724
 30
0.0
 40
0.121875
  0
LWPOLYLINE
  5
278B
100
AcDbEntity
  8
OBJECT
100
AcDbPolyline
 90
        6
 70
     1
 43
0.0
 10
-435.044386
 20
319.44664
 10
-434.934641
 20
319.636724
 10
-435.044386
 20
319.826808
 10
-435.263875
 20
319.826808
 10
-435.37362
 20
319.636724
 10
-435.263875
 20
319.44664
  0
CIRCLE
  5
278C
100
AcDbEntity
  8
OBJECT
100
AcDbCircle
 10
-436.413646
 20
318.377208
 30
0.0
 40
0.121875
  0
LWPOLYLINE
  5
278D
100
AcDbEntity
  8
OBJECT
100
AcDbPolyline
 90
        6
 70
     1
 43
0.0
 10
-436.60373
 20
318.267464
 10
-436.413646
 20
318.157719
 10
-436.223563
 20
318.267464
 10
-436.223563
 20
318.486953
 10
-436.413646
 20
318.596698
 10
-436.60373
 20
318.486953
  0
CIRCLE
  5
278E
100
AcDbEntity
  8
OBJECT
100
AcDbCircle
 10
-437.673162
 20
319.636724
 30
0.0
 40
0.121875
  0
LWPOLYLINE
  5
278F
100
AcDbEntity
  8
OBJECT
100
AcDbPolyline
 90
        6
 70
     1
 43
0.0
 10
-437.782906
 20
319.826808
 10
-437.892651
 20
319.636724
 10
-437.782906
 20
319.44664
 10
-437.563417
 20
319.44664
 10
-437.453672
 20
319.636724
 10
-437.563417
 20
319.826808
  0
LWPOLYLINE
  5
2790
100
AcDbEntity
  8
OBJECT
100
AcDbPolyline
 90
        6
 70
     1
 43
0.0
 10
-436.223563
 20
321.005984
 10
-436.413646
 20
321.115729
 10
-436.60373
 20
321.005984
 10
-436.60373
 20
320.786495
 10
-436.413646
 20
320.67675
 10
-436.223563
 20
320.786495
  0
LWPOLYLINE
  5
2791
100
AcDbEntity
  8
OBJECT
100
AcDbPolyline
 90
        6
 70
     1
 43
0.0
 10
-437.922937
 20
321.344404
 10
-438.079402
 20
321.30248
 10
-438.121327
 20
321.146015
 10
-438.006786
 20
321.031475
 10
-437.850321
 20
321.073399
 10
-437.808397
 20
321.229864
  0
CIRCLE
  5
2792
100
AcDbEntity
  8
OBJECT
100
AcDbCircle
 10
-436.413646
 20
320.89624
 30
0.0
 40
0.121875
  0
LWPOLYLINE
  5
2793
100
AcDbEntity
  8
OBJECT
100
AcDbPolyline
 90
        6
 70
     1
 43
0.0
 10
-439.095405
 20
319.781062
 10
-439.345405
 20
319.925399
 10
-439.595405
 20
319.781062
 10
-439.595405
 20
319.492386
 10
-439.345405
 20
319.348049
 10
-439.095405
 20
319.492386
  0
LWPOLYLINE
  5
2794
100
AcDbEntity
  8
OBJECT
100
AcDbPolyline
 90
        6
 70
     1
 43
0.0
 10
-438.121327
 20
318.127433
 10
-438.079402
 20
317.970968
 10
-437.922937
 20
317.929044
 10
-437.808397
 20
318.043584
 10
-437.850321
 20
318.200049
 10
-438.006786
 20
318.241973
  0
CIRCLE
  5
2795
100
AcDbEntity
  8
HIDDEN
100
AcDbCircle
 10
-436.413646
 20
319.636724
 30
0.0
 40
0.320531
  0
CIRCLE
  5
2796
100
AcDbEntity
  8
HIDDEN
100
AcDbCircle
 10
-436.413646
 20
319.636724
 30
0.0
 40
0.433906
  0
CIRCLE
  5
2797
100
AcDbEntity
  8
OBJECT
100
AcDbCircle
 10
-432.595405
 20
317.392912
 30
0.0
 40
0.155
  0
LEADER
  5
2798
100
AcDbEntity
  8
DIM
100
AcDbLeader
  3
STANDARD
 76
     3
 10
-416.502114
 20
315.689854
 30
0.0
 10
-410.039705
 20
320.873954
 30
0.0
 10
-408.267621
 20
320.873951
 30
0.0
 77
   256
1001
ACAD
1000
DSTYLE
1002
{
1070
   340
1005
31
1070
   272
1070
     2
1070
   147
1040
1.7
1070
   287
1070
     5
1070
    44
1040
1.7
1070
   271
1070
     2
1070
    41
1040
1.6
1002
}
  0
LEADER
  5
2799
100
AcDbEntity
  8
DIM
100
AcDbLeader
  3
STANDARD
 76
     3
 10
-417.205006
 20
312.8739
 30
0.0
 10
-410.09267
 20
310.049976
 30
0.0
 10
-408.320586
 20
310.049973
 30
0.0
 77
   256
1001
ACAD
1000
DSTYLE
1002
{
1070
   340
1005
31
1070
   272
1070
     2
1070
   147
1040
1.7
1070
   287
1070
     5
1070
    44
1040
1.7
1070
   271
1070
     2
1070
    41
1040
1.6
1002
}
  0
LWPOLYLINE
  5
279A
100
AcDbEntity
  8
OBJECT
100
AcDbPolyline
 90
        6
 70
     1
 43
0.0
 10
-420.470405
 20
308.739238
 10
-420.470405
 20
308.450563
 10
-420.220405
 20
308.306225
 10
-419.970405
 20
308.450563
 10
-419.970405
 20
308.739238
 10
-420.220405
 20
308.883575
  0
CIRCLE
  5
279B
100
AcDbEntity
  8
OBJECT
100
AcDbCircle
 10
-423.343942
 20
310.636724
 30
0.0
 40
0.155
  0
CIRCLE
  5
279C
100
AcDbEntity
  8
OBJECT
100
AcDbCircle
 10
-420.595405
 20
312.905287
 30
0.0
 40
0.155
  0
CIRCLE
  5
279D
100
AcDbEntity
  8
OBJECT
100
AcDbCircle
 10
-420.595405
 20
317.392912
 30
0.0
 40
0.155
  0
INSERT
  5
279E
100
AcDbEntity
  8
0
100
AcDbBlockReference
  2
150PF
 10
-418.710814
 20
313.509727
 30
0.0
 41
0.5
 42
0.5
 43
0.5
  0
LINE
  5
279F
100
AcDbEntity
  8
CENTER
100
AcDbLine
 10
-417.661743
 20
312.622913
 30
0.0
 11
-417.946743
 21
312.622913
 31
0.0
  0
CIRCLE
  5
27A0
100
AcDbEntity
  8
OBJECT
100
AcDbCircle
 10
-417.481743
 20
312.622913
 30
0.0
 40
0.375
  0
LINE
  5
27A1
100
AcDbEntity
  8
CENTER
100
AcDbLine
 10
-417.481743
 20
312.802913
 30
0.0
 11
-417.481743
 21
313.087913
 31
0.0
  0
LINE
  5
27A2
100
AcDbEntity
  8
CENTER
100
AcDbLine
 10
-417.481743
 20
312.442913
 30
0.0
 11
-417.481743
 21
312.157913
 31
0.0
  0
LINE
  5
27A3
100
AcDbEntity
  8
CENTER
100
AcDbLine
 10
-417.301743
 20
312.622913
 30
0.0
 11
-417.016743
 21
312.622913
 31
0.0
  0
LINE
  5
27A4
100
AcDbEntity
  8
CENTER
100
AcDbLine
 10
-417.481743
 20
312.532913
 30
0.0
 11
-417.481743
 21
312.712913
 31
0.0
  0
LINE
  5
27A5
100
AcDbEntity
  8
CENTER
100
AcDbLine
 10
-417.571743
 20
312.622913
 30
0.0
 11
-417.391743
 21
312.622913
 31
0.0
  0
CIRCLE
  5
27A6
100
AcDbEntity
  8
OBJECT
100
AcDbCircle
 10
-417.481743
 20
312.622913
 30
0.0
 40
0.25
  0
INSERT
  5
27A7
100
AcDbEntity
  8
0
100
AcDbBlockReference
  2
150PF
 10
-416.589902
 20
318.009727
 30
0.0
 41
0.5
 42
0.5
 43
0.5
  0
LWPOLYLINE
  5
27A8
100
AcDbEntity
  8
OBJECT
100
AcDbPolyline
 90
        6
 70
     1
 43
0.0
 10
-414.095405
 20
319.492386
 10
-413.845405
 20
319.348049
 10
-413.595405
 20
319.492386
 10
-413.595405
 20
319.781062
 10
-413.845405
 20
319.925399
 10
-414.095405
 20
319.781062
  0
LINE
  5
27A9
100
AcDbEntity
  8
DIM
100
AcDbLine
 10
-409.588084
 20
319.544482
 30
0.0
 11
-401.745489
 21
319.544482
 31
0.0
  0
TEXT
  5
27AA
100
AcDbEntity
  8
DIM
100
AcDbText
 10
-412.765987
 20
338.876059
 30
0.0
 40
1.85
  1
   3/4" Cord Grip
  7
ROMAND
 11
-412.765987
 21
339.801059
 31
0.0
100
AcDbText
 73
     2
  0
TEXT
  5
27AB
100
AcDbEntity
  8
DIM
100
AcDbText
 10
-404.974986
 20
333.917188
 30
0.0
 40
1.85
  1
  NPT Discharge
  7
ROMAND
 11
-404.974986
 21
334.842188
 31
0.0
100
AcDbText
 73
     2
  0
CIRCLE
  5
27AC
100
AcDbEntity
  8
OBJECT
100
AcDbCircle
 10
-429.846868
 20
328.636724
 30
0.0
 40
0.155
  0
LINE
  5
27AD
100
AcDbEntity
  8
OBJECT
100
AcDbLine
 10
-432.845405
 20
328.886724
 30
0.0
 11
-420.345405
 21
328.886724
 31
0.0
  0
CIRCLE
  5
27AE
100
AcDbEntity
  8
OBJECT
100
AcDbCircle
 10
-432.595405
 20
326.368161
 30
0.0
 40
0.155
  0
CIRCLE
  5
27AF
100
AcDbEntity
  8
OBJECT
100
AcDbCircle
 10
-432.595405
 20
321.880536
 30
0.0
 40
0.155
  0
LWPOLYLINE
  5
27B0
100
AcDbEntity
  8
OBJECT
100
AcDbPolyline
 90
        6
 70
     1
 43
0.0
 10
-432.720405
 20
330.53421
 10
-432.720405
 20
330.822885
 10
-432.970405
 20
330.967223
 10
-433.220405
 20
330.822885
 10
-433.220405
 20
330.53421
 10
-432.970405
 20
330.389873
  0
LEADER
  5
27B1
100
AcDbEntity
  8
DIM
100
AcDbLeader
  3
STANDARD
 76
     3
 10
-417.212896
 20
326.911967
 30
0.0
 10
-410.09267
 20
339.801062
 30
0.0
 10
-408.320586
 20
339.801059
 30
0.0
 77
   256
1001
ACAD
1000
DSTYLE
1002
{
1070
   340
1005
31
1070
   272
1070
     2
1070
   147
1040
1.7
1070
   287
1070
     5
1070
    44
1040
1.7
1070
   271
1070
     2
1070
    41
1040
1.6
1002
}
  0
LEADER
  5
27B2
100
AcDbEntity
  8
DIM
100
AcDbLeader
  3
STANDARD
 76
     3
 10
-416.735464
 20
325.074118
 30
0.0
 10
-410.039705
 20
334.84219
 30
0.0
 10
-408.267621
 20
334.842188
 30
0.0
 77
   256
1001
ACAD
1000
DSTYLE
1002
{
1070
   340
1005
31
1070
   272
1070
     2
1070
   147
1040
1.7
1070
   287
1070
     5
1070
    44
1040
1.7
1070
   271
1070
     2
1070
    41
1040
1.6
1002
}
  0
CIRCLE
  5
27B3
100
AcDbEntity
  8
OBJECT
100
AcDbCircle
 10
-420.595405
 20
321.880536
 30
0.0
 40
0.155
  0
CIRCLE
  5
27B4
100
AcDbEntity
  8
OBJECT
100
AcDbCircle
 10
-420.595405
 20
326.368161
 30
0.0
 40
0.155
  0
CIRCLE
  5
27B5
100
AcDbEntity
  8
OBJECT
100
AcDbCircle
 10
-423.343942
 20
328.636724
 30
0.0
 40
0.155
  0
LWPOLYLINE
  5
27B6
100
AcDbEntity
  8
OBJECT
100
AcDbPolyline
 90
        6
 70
     1
 43
0.0
 10
-420.220405
 20
330.389873
 10
-419.970405
 20
330.53421
 10
-419.970405
 20
330.822885
 10
-420.220405
 20
330.967223
 10
-420.470405
 20
330.822885
 10
-420.470405
 20
330.53421
  0
LINE
  5
27B7
100
AcDbEntity
  8
CENTER
100
AcDbLine
 10
-417.481743
 20
326.830535
 30
0.0
 11
-417.481743
 21
327.115535
 31
0.0
  0
CIRCLE
  5
27B8
100
AcDbEntity
  8
OBJECT
100
AcDbCircle
 10
-417.481743
 20
326.650535
 30
0.0
 40
0.25
  0
CIRCLE
  5
27B9
100
AcDbEntity
  8
OBJECT
100
AcDbCircle
 10
-417.481743
 20
326.650535
 30
0.0
 40
0.375
  0
LINE
  5
27BA
100
AcDbEntity
  8
CENTER
100
AcDbLine
 10
-417.571743
 20
326.650535
 30
0.0
 11
-417.391743
 21
326.650535
 31
0.0
  0
LINE
  5
27BB
100
AcDbEntity
  8
CENTER
100
AcDbLine
 10
-417.481743
 20
326.740535
 30
0.0
 11
-417.481743
 21
326.560535
 31
0.0
  0
LINE
  5
27BC
100
AcDbEntity
  8
CENTER
100
AcDbLine
 10
-417.301743
 20
326.650535
 30
0.0
 11
-417.016743
 21
326.650535
 31
0.0
  0
LINE
  5
27BD
100
AcDbEntity
  8
CENTER
100
AcDbLine
 10
-417.481743
 20
326.470535
 30
0.0
 11
-417.481743
 21
326.185535
 31
0.0
  0
LINE
  5
27BE
100
AcDbEntity
  8
CENTER
100
AcDbLine
 10
-417.661743
 20
326.650535
 30
0.0
 11
-417.946743
 21
326.650535
 31
0.0
  0
INSERT
  5
27BF
100
AcDbEntity
  8
0
100
AcDbBlockReference
  2
150PF
 10
-418.710814
 20
325.763721
 30
0.0
 41
-0.5
 42
0.5
 43
0.5
 50
180.0
  0
LINE
  5
27C0
100
AcDbEntity
  8
DIM
100
AcDbLine
 10
-405.947895
 20
326.150949
 30
0.0
 11
-399.147895
 21
326.150949
 31
0.0
  0
LINE
  5
27C1
100
AcDbEntity
  8
DIM
100
AcDbLine
 10
-409.588084
 20
333.512718
 30
0.0
 11
-401.745489
 21
333.512718
 31
0.0
  0
TEXT
  5
27C2
100
AcDbEntity
  8
DIM
100
AcDbText
 10
-403.970027
 20
326.555418
 30
0.0
 40
1.85
  1
   NPT Vent
  7
ROMAND
 11
-403.970027
 21
327.480418
 31
0.0
100
AcDbText
 73
     2
  0
TEXT
  5
27C3
100
AcDbEntity
  8
DIM
100
AcDbText
 10
-403.970027
 20
323.720057
 30
0.0
 40
1.85
  1
   Flange
  7
ROMAND
 11
-403.970027
 21
324.645057
 31
0.0
100
AcDbText
 73
     2
  0
TEXT
  5
3C25
100
AcDbEntity
  8
BORDER
 62
     6
100
AcDbText
 10
-523.306514
 20
84.00848
 30
0.0
 40
1.300329
  1
Top Discharge
  7
ROMANC
100
AcDbText
  0
ARC
  5
3C37
100
AcDbEntity
  8
OBJECT
100
AcDbCircle
 10
-470.131524
 20
203.63882
 30
0.0
 40
0.44299
100
AcDbArc
 50
270.980397
 51
347.934088
  0
LINE
  5
3C38
100
AcDbEntity
  8
CENTER
  6
CONTINUOUS
 62
     2
100
AcDbLine
 10
-470.595129
 20
201.948385
 30
0.0
 11
-470.229315
 21
203.659724
 31
0.0
  0
LINE
  5
3C39
100
AcDbEntity
  8
CENTER
  6
CONTINUOUS
 62
     2
100
AcDbLine
 10
-470.399548
 20
201.906578
 30
0.0
 11
-470.033733
 21
203.617916
 31
0.0
  0
LINE
  5
3C3A
100
AcDbEntity
  8
OBJECT
100
AcDbLine
 10
-470.595129
 20
201.948385
 30
0.0
 11
-470.399548
 21
201.906578
 31
0.0
  0
ARC
  5
3C3B
100
AcDbEntity
  8
OBJECT
100
AcDbCircle
 10
-470.501934
 20
201.905983
 30
0.0
 40
0.34299
100
AcDbArc
 50
94.885062
 51
167.934088
  0
ARC
  5
3C3C
100
AcDbEntity
  8
OBJECT
100
AcDbCircle
 10
-470.501934
 20
201.905983
 30
0.0
 40
0.44299
100
AcDbArc
 50
90.980397
 51
167.934088
  0
ARC
  5
3C3D
100
AcDbEntity
  8
OBJECT
100
AcDbCircle
 10
-470.501934
 20
201.905983
 30
0.0
 40
0.34299
100
AcDbArc
 50
347.934088
 51
60.983114
  0
ARC
  5
3C3E
100
AcDbEntity
  8
OBJECT
100
AcDbCircle
 10
-470.501934
 20
201.905983
 30
0.0
 40
0.44299
100
AcDbArc
 50
347.934088
 51
64.887779
  0
ARC
  5
3C3F
100
AcDbEntity
  8
OBJECT
100
AcDbCircle
 10
-470.686302
 20
201.04348
 30
0.0
 40
0.44299
100
AcDbArc
 50
167.934088
 51
244.887779
  0
ARC
  5
3C40
100
AcDbEntity
  8
OBJECT
100
AcDbCircle
 10
-470.686302
 20
201.04348
 30
0.0
 40
0.34299
100
AcDbArc
 50
167.934088
 51
240.983114
  0
ARC
  5
3C41
100
AcDbEntity
  8
OBJECT
100
AcDbCircle
 10
-470.686302
 20
201.04348
 30
0.0
 40
0.44299
100
AcDbArc
 50
270.980397
 51
347.934088
  0
ARC
  5
3C42
100
AcDbEntity
  8
OBJECT
100
AcDbCircle
 10
-470.686302
 20
201.04348
 30
0.0
 40
0.34299
100
AcDbArc
 50
274.885062
 51
347.934088
  0
LINE
  5
3C43
100
AcDbEntity
  8
OBJECT
100
AcDbLine
 10
-470.786901
 20
201.051247
 30
0.0
 11
-470.591319
 21
201.00944
 31
0.0
  0
LINE
  5
3C44
100
AcDbEntity
  8
OBJECT
100
AcDbLine
 10
-470.935138
 20
201.998585
 30
0.0
 11
-471.119506
 21
201.136081
 31
0.0
  0
LINE
  5
3C45
100
AcDbEntity
  8
OBJECT
100
AcDbLine
 10
-470.837347
 20
201.977681
 30
0.0
 11
-471.021715
 21
201.115177
 31
0.0
  0
LINE
  5
3C46
100
AcDbEntity
  8
OBJECT
100
AcDbLine
 10
-470.166521
 20
201.834286
 30
0.0
 11
-470.350889
 21
200.971782
 31
0.0
  0
LINE
  5
3C47
100
AcDbEntity
  8
OBJECT
100
AcDbLine
 10
-470.06873
 20
201.813382
 30
0.0
 11
-470.253098
 21
200.950878
 31
0.0
  0
ARC
  5
3C48
100
AcDbEntity
  8
OBJECT
100
AcDbCircle
 10
-469.38957
 20
207.1098
 30
0.0
 40
0.34299
100
AcDbArc
 50
94.885062
 51
167.934088
  0
ARC
  5
3C49
100
AcDbEntity
  8
OBJECT
100
AcDbCircle
 10
-469.38957
 20
207.1098
 30
0.0
 40
0.44299
100
AcDbArc
 50
90.980397
 51
167.934088
  0
LINE
  5
3C4A
100
AcDbEntity
  8
OBJECT
100
AcDbLine
 10
-469.116951
 20
208.863541
 30
0.0
 11
-468.921369
 21
208.821733
 31
0.0
  0
LINE
  5
3C4D
100
AcDbEntity
  8
CENTER
  6
CONTINUOUS
 62
     2
100
AcDbLine
 10
-470.040351
 20
204.543726
 30
0.0
 11
-469.674537
 21
206.255064
 31
0.0
  0
LINE
  5
3C4E
100
AcDbEntity
  8
CENTER
  6
CONTINUOUS
 62
     2
100
AcDbLine
 10
-469.84477
 20
204.501918
 30
0.0
 11
-469.478955
 21
206.213257
 31
0.0
  0
ARC
  5
3C4F
100
AcDbEntity
  8
OBJECT
100
AcDbCircle
 10
-469.947156
 20
204.501324
 30
0.0
 40
0.34299
100
AcDbArc
 50
94.885062
 51
167.934088
  0
ARC
  5
3C50
100
AcDbEntity
  8
OBJECT
100
AcDbCircle
 10
-469.947156
 20
204.501324
 30
0.0
 40
0.44299
100
AcDbArc
 50
90.980397
 51
167.934088
  0
LINE
  5
3C51
100
AcDbEntity
  8
OBJECT
100
AcDbLine
 10
-470.229315
 20
203.659724
 30
0.0
 11
-470.033733
 21
203.617916
 31
0.0
  0
ARC
  5
3C52
100
AcDbEntity
  8
OBJECT
100
AcDbCircle
 10
-470.131524
 20
203.63882
 30
0.0
 40
0.44299
100
AcDbArc
 50
167.934088
 51
244.887779
  0
ARC
  5
3C53
100
AcDbEntity
  8
OBJECT
100
AcDbCircle
 10
-470.131524
 20
203.63882
 30
0.0
 40
0.34299
100
AcDbArc
 50
167.934088
 51
240.983114
  0
LINE
  5
3C54
100
AcDbEntity
  8
OBJECT
100
AcDbLine
 10
-469.611743
 20
204.429626
 30
0.0
 11
-469.796111
 21
203.567123
 31
0.0
  0
LINE
  5
3C55
100
AcDbEntity
  8
OBJECT
100
AcDbLine
 10
-469.513952
 20
204.408723
 30
0.0
 11
-469.69832
 21
203.546219
 31
0.0
  0
ARC
  5
3C56
100
AcDbEntity
  8
OBJECT
100
AcDbCircle
 10
-470.131524
 20
203.63882
 30
0.0
 40
0.34299
100
AcDbArc
 50
274.885062
 51
347.934088
  0
LINE
  5
3C57
100
AcDbEntity
  8
OBJECT
100
AcDbLine
 10
-470.040351
 20
204.543726
 30
0.0
 11
-469.84477
 21
204.501918
 31
0.0
  0
LINE
  5
3C58
100
AcDbEntity
  8
OBJECT
100
AcDbLine
 10
-470.38036
 20
204.593925
 30
0.0
 11
-470.564728
 21
203.731421
 31
0.0
  0
LINE
  5
3C59
100
AcDbEntity
  8
OBJECT
100
AcDbLine
 10
-470.282569
 20
204.573022
 30
0.0
 11
-470.466937
 21
203.710518
 31
0.0
  0
ARC
  5
3C5A
100
AcDbEntity
  8
OBJECT
100
AcDbCircle
 10
-469.947156
 20
204.501324
 30
0.0
 40
0.34299
100
AcDbArc
 50
347.934088
 51
60.983114
  0
ARC
  5
3C5B
100
AcDbEntity
  8
OBJECT
100
AcDbCircle
 10
-469.947156
 20
204.501324
 30
0.0
 40
0.44299
100
AcDbArc
 50
347.934088
 51
64.887779
  0
LINE
  5
3C5C
100
AcDbEntity
  8
OBJECT
100
AcDbLine
 10
-469.674537
 20
206.255064
 30
0.0
 11
-469.478955
 21
206.213257
 31
0.0
  0
LINE
  5
3C5D
100
AcDbEntity
  8
OBJECT
100
AcDbLine
 10
-469.674537
 20
206.255064
 30
0.0
 11
-469.478955
 21
206.213257
 31
0.0
  0
ARC
  5
3C5E
100
AcDbEntity
  8
OBJECT
100
AcDbCircle
 10
-469.573938
 20
206.247297
 30
0.0
 40
0.34299
100
AcDbArc
 50
167.934088
 51
240.983114
  0
ARC
  5
3C5F
100
AcDbEntity
  8
OBJECT
100
AcDbCircle
 10
-469.573938
 20
206.247297
 30
0.0
 40
0.44299
100
AcDbArc
 50
167.934088
 51
244.887779
  0
LINE
  5
3C60
100
AcDbEntity
  8
OBJECT
100
AcDbLine
 10
-469.482765
 20
207.152202
 30
0.0
 11
-469.287184
 21
207.110395
 31
0.0
  0
ARC
  5
3C61
100
AcDbEntity
  8
OBJECT
100
AcDbCircle
 10
-469.573938
 20
206.247297
 30
0.0
 40
0.34299
100
AcDbArc
 50
274.885062
 51
347.934088
  0
ARC
  5
3C62
100
AcDbEntity
  8
OBJECT
100
AcDbCircle
 10
-469.573938
 20
206.247297
 30
0.0
 40
0.44299
100
AcDbArc
 50
270.980397
 51
347.934088
  0
LINE
  5
3C63
100
AcDbEntity
  8
OBJECT
100
AcDbLine
 10
-468.956366
 20
207.017199
 30
0.0
 11
-469.140734
 21
206.154695
 31
0.0
  0
LINE
  5
3C64
100
AcDbEntity
  8
OBJECT
100
AcDbLine
 10
-469.054157
 20
207.038103
 30
0.0
 11
-469.238525
 21
206.175599
 31
0.0
  0
LINE
  5
3C65
100
AcDbEntity
  8
OBJECT
100
AcDbLine
 10
-469.724983
 20
207.181498
 30
0.0
 11
-469.909351
 21
206.318994
 31
0.0
  0
LINE
  5
3C66
100
AcDbEntity
  8
OBJECT
100
AcDbLine
 10
-469.822774
 20
207.202402
 30
0.0
 11
-470.007142
 21
206.339898
 31
0.0
  0
ARC
  5
3C67
100
AcDbEntity
  8
OBJECT
100
AcDbCircle
 10
-469.38957
 20
207.1098
 30
0.0
 40
0.34299
100
AcDbArc
 50
347.934088
 51
60.983114
  0
ARC
  5
3C68
100
AcDbEntity
  8
OBJECT
100
AcDbCircle
 10
-469.38957
 20
207.1098
 30
0.0
 40
0.44299
100
AcDbArc
 50
347.934088
 51
64.887779
  0
LINE
  5
3C69
100
AcDbEntity
  8
CENTER
  6
CONTINUOUS
 62
     2
100
AcDbLine
 10
-469.482765
 20
207.152202
 30
0.0
 11
-469.116951
 21
208.863541
 31
0.0
  0
LINE
  5
3C6A
100
AcDbEntity
  8
CENTER
  6
CONTINUOUS
 62
     2
100
AcDbLine
 10
-469.287184
 20
207.110395
 30
0.0
 11
-468.921369
 21
208.821733
 31
0.0
  0
ARC
  5
3C94
100
AcDbEntity
  8
OBJECT
100
AcDbCircle
 10
-471.614298
 20
196.702167
 30
0.0
 40
0.44299
100
AcDbArc
 50
90.980397
 51
167.934088
  0
ARC
  5
3C95
100
AcDbEntity
  8
OBJECT
100
AcDbCircle
 10
-471.614298
 20
196.702167
 30
0.0
 40
0.34299
100
AcDbArc
 50
94.885062
 51
167.934088
  0
ARC
  5
3C96
100
AcDbEntity
  8
OBJECT
100
AcDbCircle
 10
-471.614298
 20
196.702167
 30
0.0
 40
0.44299
100
AcDbArc
 50
347.934088
 51
64.887779
  0
ARC
  5
3C97
100
AcDbEntity
  8
OBJECT
100
AcDbCircle
 10
-471.614298
 20
196.702167
 30
0.0
 40
0.34299
100
AcDbArc
 50
347.934088
 51
60.983114
  0
LINE
  5
3C98
100
AcDbEntity
  8
CENTER
  6
CONTINUOUS
 62
     2
100
AcDbLine
 10
-471.511911
 20
196.702761
 30
0.0
 11
-471.146097
 21
198.4141
 31
0.0
  0
LINE
  5
3C99
100
AcDbEntity
  8
CENTER
  6
CONTINUOUS
 62
     2
100
AcDbLine
 10
-471.707493
 20
196.744568
 30
0.0
 11
-471.341679
 21
198.455907
 31
0.0
  0
LINE
  5
3C9A
100
AcDbEntity
  8
OBJECT
100
AcDbLine
 10
-471.707493
 20
196.744568
 30
0.0
 11
-471.511911
 21
196.702761
 31
0.0
  0
ARC
  5
3C9B
100
AcDbEntity
  8
OBJECT
100
AcDbCircle
 10
-471.798666
 20
195.839663
 30
0.0
 40
0.34299
100
AcDbArc
 50
274.885062
 51
347.934088
  0
ARC
  5
3C9C
100
AcDbEntity
  8
OBJECT
100
AcDbCircle
 10
-471.798666
 20
195.839663
 30
0.0
 40
0.44299
100
AcDbArc
 50
270.980397
 51
347.934088
  0
LINE
  5
3C9D
100
AcDbEntity
  8
OBJECT
100
AcDbLine
 10
-472.391248
 20
191.426652
 30
0.0
 11
-472.575616
 21
190.564148
 31
0.0
  0
LINE
  5
3C9E
100
AcDbEntity
  8
OBJECT
100
AcDbLine
 10
-472.293458
 20
191.405748
 30
0.0
 11
-472.477826
 21
190.543244
 31
0.0
  0
LINE
  5
3C9F
100
AcDbEntity
  8
OBJECT
100
AcDbLine
 10
-473.053235
 20
191.603194
 30
0.0
 11
-473.053235
 21
190.448972
 31
0.0
  0
LINE
  5
3CA0
100
AcDbEntity
  8
OBJECT
100
AcDbLine
 10
-473.062074
 20
191.570047
 30
0.0
 11
-473.246442
 21
190.707543
 31
0.0
  0
LINE
  5
3CA1
100
AcDbEntity
  8
OBJECT
100
AcDbLine
 10
-473.159865
 20
191.590951
 30
0.0
 11
-473.344233
 21
190.728447
 31
0.0
  0
LINE
  5
3CA2
100
AcDbEntity
  8
OBJECT
100
AcDbLine
 10
-473.00882
 20
190.656749
 30
0.0
 11
-472.813239
 21
190.614942
 31
0.0
  0
LINE
  5
3CA3
100
AcDbEntity
  8
CENTER
  6
CONTINUOUS
 62
     2
100
AcDbLine
 10
-473.374635
 20
188.945411
 30
0.0
 11
-473.00882
 21
190.656749
 31
0.0
  0
ARC
  5
3CA4
100
AcDbEntity
  8
OBJECT
100
AcDbCircle
 10
-472.911029
 20
190.635846
 30
0.0
 40
0.34299
100
AcDbArc
 50
167.934088
 51
240.983114
  0
ARC
  5
3CA5
100
AcDbEntity
  8
OBJECT
100
AcDbCircle
 10
-472.911029
 20
190.635846
 30
0.0
 40
0.44299
100
AcDbArc
 50
167.934088
 51
244.887779
  0
ARC
  5
3CA6
100
AcDbEntity
  8
OBJECT
100
AcDbCircle
 10
-472.911029
 20
190.635846
 30
0.0
 40
0.44299
100
AcDbArc
 50
270.980397
 51
347.934088
  0
ARC
  5
3CA7
100
AcDbEntity
  8
OBJECT
100
AcDbCircle
 10
-472.911029
 20
190.635846
 30
0.0
 40
0.34299
100
AcDbArc
 50
274.885062
 51
347.934088
  0
ARC
  5
3CA8
100
AcDbEntity
  8
OBJECT
100
AcDbCircle
 10
-473.281439
 20
188.903009
 30
0.0
 40
0.34299
100
AcDbArc
 50
347.934088
 51
60.983114
  0
ARC
  5
3CA9
100
AcDbEntity
  8
OBJECT
100
AcDbCircle
 10
-473.281439
 20
188.903009
 30
0.0
 40
0.44299
100
AcDbArc
 50
347.934088
 51
64.887779
  0
LINE
  5
3CAA
100
AcDbEntity
  8
CENTER
  6
CONTINUOUS
 62
     2
100
AcDbLine
 10
-473.179053
 20
188.903603
 30
0.0
 11
-472.813239
 21
190.614942
 31
0.0
  0
LINE
  5
3CAB
100
AcDbEntity
  8
OBJECT
100
AcDbLine
 10
-473.374635
 20
188.945411
 30
0.0
 11
-473.179053
 21
188.903603
 31
0.0
  0
LINE
  5
3CAC
100
AcDbEntity
  8
OBJECT
100
AcDbLine
 10
-473.053235
 20
189.492203
 30
0.0
 11
-473.053235
 21
189.282697
 31
0.0
  0
ARC
  5
3CAD
100
AcDbEntity
  8
OBJECT
100
AcDbCircle
 10
-473.281439
 20
188.903009
 30
0.0
 40
0.34299
100
AcDbArc
 50
94.885062
 51
167.934088
  0
ARC
  5
3CAE
100
AcDbEntity
  8
OBJECT
100
AcDbCircle
 10
-473.281439
 20
188.903009
 30
0.0
 40
0.44299
100
AcDbArc
 50
90.980397
 51
167.934088
  0
LINE
  5
3CAF
100
AcDbEntity
  8
OBJECT
100
AcDbLine
 10
-471.833662
 20
194.035128
 30
0.0
 11
-472.018031
 21
193.172625
 31
0.0
  0
LINE
  5
3CB0
100
AcDbEntity
  8
OBJECT
100
AcDbLine
 10
-471.735872
 20
194.014225
 30
0.0
 11
-471.92024
 21
193.151721
 31
0.0
  0
LINE
  5
3CB1
100
AcDbEntity
  8
OBJECT
100
AcDbLine
 10
-472.504489
 20
194.178524
 30
0.0
 11
-472.688857
 21
193.31602
 31
0.0
  0
LINE
  5
3CB2
100
AcDbEntity
  8
OBJECT
100
AcDbLine
 10
-472.602279
 20
194.199427
 30
0.0
 11
-472.786647
 21
193.336923
 31
0.0
  0
ARC
  5
3CB3
100
AcDbEntity
  8
OBJECT
100
AcDbCircle
 10
-472.353444
 20
193.244322
 30
0.0
 40
0.44299
100
AcDbArc
 50
167.934088
 51
244.887779
  0
LINE
  5
3CB4
100
AcDbEntity
  8
CENTER
  6
CONTINUOUS
 62
     2
100
AcDbLine
 10
-472.624275
 20
191.498944
 30
0.0
 11
-472.258461
 21
193.210283
 31
0.0
  0
LINE
  5
3CB5
100
AcDbEntity
  8
CENTER
  6
CONTINUOUS
 62
     2
100
AcDbLine
 10
-472.819857
 20
191.540751
 30
0.0
 11
-472.454042
 21
193.25209
 31
0.0
  0
ARC
  5
3CB6
100
AcDbEntity
  8
OBJECT
100
AcDbCircle
 10
-472.726661
 20
191.49835
 30
0.0
 40
0.34299
100
AcDbArc
 50
94.885062
 51
167.934088
  0
ARC
  5
3CB7
100
AcDbEntity
  8
OBJECT
100
AcDbCircle
 10
-472.726661
 20
191.49835
 30
0.0
 40
0.44299
100
AcDbArc
 50
90.980397
 51
167.934088
  0
ARC
  5
3CB8
100
AcDbEntity
  8
OBJECT
100
AcDbCircle
 10
-472.353444
 20
193.244322
 30
0.0
 40
0.34299
100
AcDbArc
 50
167.934088
 51
240.983114
  0
LINE
  5
3CB9
100
AcDbEntity
  8
OBJECT
100
AcDbLine
 10
-472.454042
 20
193.25209
 30
0.0
 11
-472.258461
 21
193.210283
 31
0.0
  0
ARC
  5
3CBA
100
AcDbEntity
  8
OBJECT
100
AcDbCircle
 10
-472.353444
 20
193.244322
 30
0.0
 40
0.44299
100
AcDbArc
 50
270.980397
 51
347.934088
  0
ARC
  5
3CBB
100
AcDbEntity
  8
OBJECT
100
AcDbCircle
 10
-472.353444
 20
193.244322
 30
0.0
 40
0.34299
100
AcDbArc
 50
274.885062
 51
347.934088
  0
ARC
  5
3CBC
100
AcDbEntity
  8
OBJECT
100
AcDbCircle
 10
-472.726661
 20
191.49835
 30
0.0
 40
0.44299
100
AcDbArc
 50
347.934088
 51
64.887779
  0
ARC
  5
3CBD
100
AcDbEntity
  8
OBJECT
100
AcDbCircle
 10
-472.726661
 20
191.49835
 30
0.0
 40
0.34299
100
AcDbArc
 50
347.934088
 51
60.983114
  0
LINE
  5
3CBE
100
AcDbEntity
  8
CENTER
  6
CONTINUOUS
 62
     2
100
AcDbLine
 10
-472.066689
 20
194.10742
 30
0.0
 11
-471.700875
 21
195.818759
 31
0.0
  0
LINE
  5
3CBF
100
AcDbEntity
  8
CENTER
  6
CONTINUOUS
 62
     2
100
AcDbLine
 10
-472.262271
 20
194.149228
 30
0.0
 11
-471.896456
 21
195.860566
 31
0.0
  0
ARC
  5
3CC0
100
AcDbEntity
  8
OBJECT
100
AcDbCircle
 10
-472.169076
 20
194.106826
 30
0.0
 40
0.44299
100
AcDbArc
 50
347.934088
 51
64.887779
  0
ARC
  5
3CC1
100
AcDbEntity
  8
OBJECT
100
AcDbCircle
 10
-472.169076
 20
194.106826
 30
0.0
 40
0.34299
100
AcDbArc
 50
347.934088
 51
60.983114
  0
LINE
  5
3CC2
100
AcDbEntity
  8
OBJECT
100
AcDbLine
 10
-472.262271
 20
194.149228
 30
0.0
 11
-472.066689
 21
194.10742
 31
0.0
  0
ARC
  5
3CC3
100
AcDbEntity
  8
OBJECT
100
AcDbCircle
 10
-472.169076
 20
194.106826
 30
0.0
 40
0.44299
100
AcDbArc
 50
90.980397
 51
167.934088
  0
ARC
  5
3CC4
100
AcDbEntity
  8
OBJECT
100
AcDbCircle
 10
-472.169076
 20
194.106826
 30
0.0
 40
0.34299
100
AcDbArc
 50
94.885062
 51
167.934088
  0
ARC
  5
3CC5
100
AcDbEntity
  8
OBJECT
100
AcDbCircle
 10
-471.798666
 20
195.839663
 30
0.0
 40
0.34299
100
AcDbArc
 50
167.934088
 51
240.983114
  0
ARC
  5
3CC6
100
AcDbEntity
  8
OBJECT
100
AcDbCircle
 10
-471.798666
 20
195.839663
 30
0.0
 40
0.44299
100
AcDbArc
 50
167.934088
 51
244.887779
  0
LINE
  5
3CC7
100
AcDbEntity
  8
OBJECT
100
AcDbLine
 10
-471.896456
 20
195.860566
 30
0.0
 11
-471.700875
 21
195.818759
 31
0.0
  0
LINE
  5
3CC8
100
AcDbEntity
  8
OBJECT
100
AcDbLine
 10
-472.819857
 20
191.540751
 30
0.0
 11
-472.624275
 21
191.498944
 31
0.0
  0
LINE
  5
3CC9
100
AcDbEntity
  8
OBJECT
100
AcDbLine
 10
-472.003235
 20
194.404272
 30
0.0
 11
-472.003235
 21
193.241843
 31
0.0
  0
LINE
  5
3CCA
100
AcDbEntity
  8
OBJECT
100
AcDbLine
 10
-472.003235
 20
195.446735
 30
0.0
 11
-472.003235
 21
195.361041
 31
0.0
  0
LINE
  5
3CCB
100
AcDbEntity
  8
OBJECT
100
AcDbLine
 10
-471.949711
 20
196.773864
 30
0.0
 11
-472.134079
 21
195.91136
 31
0.0
  0
LINE
  5
3CCC
100
AcDbEntity
  8
OBJECT
100
AcDbLine
 10
-472.047501
 20
196.794768
 30
0.0
 11
-472.231869
 21
195.932264
 31
0.0
  0
LINE
  5
3CCD
100
AcDbEntity
  8
OBJECT
100
AcDbLine
 10
-472.003235
 20
196.52347
 30
0.0
 11
-472.003235
 21
195.564356
 31
0.0
  0
LINE
  5
3CCE
100
AcDbEntity
  8
OBJECT
100
AcDbLine
 10
-471.181094
 20
196.609565
 30
0.0
 11
-471.365462
 21
195.747061
 31
0.0
  0
LINE
  5
3CCF
100
AcDbEntity
  8
OBJECT
100
AcDbLine
 10
-471.278885
 20
196.630469
 30
0.0
 11
-471.463253
 21
195.767965
 31
0.0
  0
ARC
  5
3CD0
100
AcDbEntity
  8
OBJECT
100
AcDbCircle
 10
-471.243888
 20
198.435003
 30
0.0
 40
0.44299
100
AcDbArc
 50
167.934088
 51
244.887779
  0
ARC
  5
3CD1
100
AcDbEntity
  8
OBJECT
100
AcDbCircle
 10
-471.243888
 20
198.435003
 30
0.0
 40
0.34299
100
AcDbArc
 50
167.934088
 51
240.983114
  0
LINE
  5
3CD2
100
AcDbEntity
  8
OBJECT
100
AcDbLine
 10
-471.492723
 20
199.390108
 30
0.0
 11
-471.677092
 21
198.527605
 31
0.0
  0
LINE
  5
3CD3
100
AcDbEntity
  8
OBJECT
100
AcDbLine
 10
-471.394933
 20
199.369205
 30
0.0
 11
-471.579301
 21
198.506701
 31
0.0
  0
LINE
  5
3CD4
100
AcDbEntity
  8
CENTER
  6
CONTINUOUS
 62
     2
100
AcDbLine
 10
-471.152715
 20
199.339909
 30
0.0
 11
-470.786901
 21
201.051247
 31
0.0
  0
LINE
  5
3CD5
100
AcDbEntity
  8
CENTER
  6
CONTINUOUS
 62
     2
100
AcDbLine
 10
-470.957133
 20
199.298101
 30
0.0
 11
-470.591319
 21
201.00944
 31
0.0
  0
ARC
  5
3CD6
100
AcDbEntity
  8
OBJECT
100
AcDbCircle
 10
-471.05952
 20
199.297507
 30
0.0
 40
0.44299
100
AcDbArc
 50
90.980397
 51
167.934088
  0
ARC
  5
3CD7
100
AcDbEntity
  8
OBJECT
100
AcDbCircle
 10
-471.05952
 20
199.297507
 30
0.0
 40
0.34299
100
AcDbArc
 50
94.885062
 51
167.934088
  0
ARC
  5
3CD8
100
AcDbEntity
  8
OBJECT
100
AcDbCircle
 10
-471.05952
 20
199.297507
 30
0.0
 40
0.44299
100
AcDbArc
 50
347.934088
 51
64.887779
  0
LINE
  5
3CD9
100
AcDbEntity
  8
OBJECT
100
AcDbLine
 10
-471.152715
 20
199.339909
 30
0.0
 11
-470.957133
 21
199.298101
 31
0.0
  0
ARC
  5
3CDA
100
AcDbEntity
  8
OBJECT
100
AcDbCircle
 10
-471.05952
 20
199.297507
 30
0.0
 40
0.34299
100
AcDbArc
 50
347.934088
 51
60.983114
  0
LINE
  5
3CDB
100
AcDbEntity
  8
OBJECT
100
AcDbLine
 10
-471.341679
 20
198.455907
 30
0.0
 11
-471.146097
 21
198.4141
 31
0.0
  0
ARC
  5
3CDC
100
AcDbEntity
  8
OBJECT
100
AcDbCircle
 10
-471.243888
 20
198.435003
 30
0.0
 40
0.34299
100
AcDbArc
 50
274.885062
 51
347.934088
  0
ARC
  5
3CDD
100
AcDbEntity
  8
OBJECT
100
AcDbCircle
 10
-471.243888
 20
198.435003
 30
0.0
 40
0.44299
100
AcDbArc
 50
270.980397
 51
347.934088
  0
LINE
  5
3CDE
100
AcDbEntity
  8
OBJECT
100
AcDbLine
 10
-470.724107
 20
199.225809
 30
0.0
 11
-470.908475
 21
198.363306
 31
0.0
  0
LINE
  5
3CDF
100
AcDbEntity
  8
OBJECT
100
AcDbLine
 10
-470.626316
 20
199.204906
 30
0.0
 11
-470.810684
 21
198.342402
 31
0.0
  0
LINE
  5
3CE0
100
AcDbEntity
  8
CENTER
  6
CONTINUOUS
 62
     2
100
AcDbLine
 10
-474.486998
 20
183.741594
 30
0.0
 11
-474.121184
 21
185.452933
 31
0.0
  0
LINE
  5
3CE1
100
AcDbEntity
  8
CENTER
  6
CONTINUOUS
 62
     2
100
AcDbLine
 10
-474.291417
 20
183.699787
 30
0.0
 11
-473.925602
 21
185.411125
 31
0.0
  0
ARC
  5
3CE2
100
AcDbEntity
  8
OBJECT
100
AcDbCircle
 10
-474.948581
 20
181.103852
 30
0.0
 40
0.34299
100
AcDbArc
 50
94.885062
 51
167.934088
  0
ARC
  5
3CE3
100
AcDbEntity
  8
OBJECT
100
AcDbCircle
 10
-474.948581
 20
181.103852
 30
0.0
 40
0.44299
100
AcDbArc
 50
347.934088
 51
64.887779
  0
ARC
  5
3CE4
100
AcDbEntity
  8
OBJECT
100
AcDbCircle
 10
-474.948581
 20
181.103852
 30
0.0
 40
0.34299
100
AcDbArc
 50
347.934088
 51
60.983114
  0
LINE
  5
3CE5
100
AcDbEntity
  8
CENTER
  6
CONTINUOUS
 62
     2
100
AcDbLine
 10
-474.846195
 20
181.104446
 30
0.0
 11
-474.48038
 21
182.815785
 31
0.0
  0
LINE
  5
3CE6
100
AcDbEntity
  8
CENTER
  6
CONTINUOUS
 62
     2
100
AcDbLine
 10
-475.041776
 20
181.146253
 30
0.0
 11
-474.675962
 21
182.857592
 31
0.0
  0
LINE
  5
3CE7
100
AcDbEntity
  8
OBJECT
100
AcDbLine
 10
-475.041776
 20
181.146253
 30
0.0
 11
-474.846195
 21
181.104446
 31
0.0
  0
LINE
  5
3CE8
100
AcDbEntity
  8
OBJECT
100
AcDbLine
 10
-474.05839
 20
183.627495
 30
0.0
 11
-474.242758
 21
182.764991
 31
0.0
  0
LINE
  5
3CE9
100
AcDbEntity
  8
OBJECT
100
AcDbLine
 10
-473.960599
 20
183.606591
 30
0.0
 11
-474.144967
 21
182.744087
 31
0.0
  0
LINE
  5
3CEA
100
AcDbEntity
  8
OBJECT
100
AcDbLine
 10
-474.675962
 20
182.857592
 30
0.0
 11
-474.48038
 21
182.815785
 31
0.0
  0
ARC
  5
3CEB
100
AcDbEntity
  8
OBJECT
100
AcDbCircle
 10
-474.578171
 20
182.836688
 30
0.0
 40
0.34299
100
AcDbArc
 50
274.885062
 51
347.934088
  0
ARC
  5
3CEC
100
AcDbEntity
  8
OBJECT
100
AcDbCircle
 10
-474.578171
 20
182.836688
 30
0.0
 40
0.44299
100
AcDbArc
 50
270.980397
 51
347.934088
  0
LINE
  5
3CED
100
AcDbEntity
  8
OBJECT
100
AcDbLine
 10
-474.486998
 20
183.741594
 30
0.0
 11
-474.291417
 21
183.699787
 31
0.0
  0
ARC
  5
3CEE
100
AcDbEntity
  8
OBJECT
100
AcDbCircle
 10
-474.393803
 20
183.699192
 30
0.0
 40
0.34299
100
AcDbArc
 50
347.934088
 51
60.983114
  0
ARC
  5
3CEF
100
AcDbEntity
  8
OBJECT
100
AcDbCircle
 10
-474.393803
 20
183.699192
 30
0.0
 40
0.44299
100
AcDbArc
 50
347.934088
 51
64.887779
  0
ARC
  5
3CF0
100
AcDbEntity
  8
OBJECT
100
AcDbCircle
 10
-474.578171
 20
182.836688
 30
0.0
 40
0.44299
100
AcDbArc
 50
167.934088
 51
244.887779
  0
ARC
  5
3CF1
100
AcDbEntity
  8
OBJECT
100
AcDbCircle
 10
-474.948581
 20
181.103852
 30
0.0
 40
0.44299
100
AcDbArc
 50
90.980397
 51
167.934088
  0
LINE
  5
3CF2
100
AcDbEntity
  8
OBJECT
100
AcDbLine
 10
-474.827007
 20
183.791793
 30
0.0
 11
-475.011375
 21
182.92929
 31
0.0
  0
ARC
  5
3CF3
100
AcDbEntity
  8
OBJECT
100
AcDbCircle
 10
-474.578171
 20
182.836688
 30
0.0
 40
0.34299
100
AcDbArc
 50
167.934088
 51
240.983114
  0
ARC
  5
3CF4
100
AcDbEntity
  8
OBJECT
100
AcDbCircle
 10
-474.393803
 20
183.699192
 30
0.0
 40
0.44299
100
AcDbArc
 50
90.980397
 51
167.934088
  0
ARC
  5
3CF5
100
AcDbEntity
  8
OBJECT
100
AcDbCircle
 10
-474.393803
 20
183.699192
 30
0.0
 40
0.34299
100
AcDbArc
 50
94.885062
 51
167.934088
  0
LINE
  5
3CF6
100
AcDbEntity
  8
OBJECT
100
AcDbLine
 10
-474.729216
 20
183.77089
 30
0.0
 11
-474.913584
 21
182.908386
 31
0.0
  0
LINE
  5
3CF7
100
AcDbEntity
  8
OBJECT
100
AcDbLine
 10
-474.869797
 20
183.11323
 30
0.0
 11
-474.824744
 21
182.598268
 31
0.0
  0
LINE
  5
3CF8
100
AcDbEntity
  8
OBJECT
100
AcDbLine
 10
-474.812725
 20
182.460889
 30
0.0
 11
-474.797633
 21
182.288394
 31
0.0
  0
LINE
  5
3CF9
100
AcDbEntity
  8
OBJECT
100
AcDbLine
 10
-473.403013
 20
186.215067
 30
0.0
 11
-473.587382
 21
185.352563
 31
0.0
  0
ARC
  5
3CFA
100
AcDbEntity
  8
OBJECT
100
AcDbCircle
 10
-473.836217
 20
186.307669
 30
0.0
 40
0.44299
100
AcDbArc
 50
347.934088
 51
64.887779
  0
LINE
  5
3CFB
100
AcDbEntity
  8
OBJECT
100
AcDbLine
 10
-472.848235
 20
188.810408
 30
0.0
 11
-473.032604
 21
187.947904
 31
0.0
  0
LINE
  5
3CFC
100
AcDbEntity
  8
OBJECT
100
AcDbLine
 10
-473.563598
 20
188.061409
 30
0.0
 11
-473.368017
 21
188.019602
 31
0.0
  0
ARC
  5
3CFD
100
AcDbEntity
  8
OBJECT
100
AcDbCircle
 10
-473.465807
 20
188.040505
 30
0.0
 40
0.44299
100
AcDbArc
 50
270.980397
 51
347.934088
  0
ARC
  5
3CFE
100
AcDbEntity
  8
OBJECT
100
AcDbCircle
 10
-473.465807
 20
188.040505
 30
0.0
 40
0.34299
100
AcDbArc
 50
274.885062
 51
347.934088
  0
LINE
  5
3CFF
100
AcDbEntity
  8
OBJECT
100
AcDbLine
 10
-472.946026
 20
188.831311
 30
0.0
 11
-473.130394
 21
187.968808
 31
0.0
  0
LINE
  5
3D00
100
AcDbEntity
  8
OBJECT
100
AcDbLine
 10
-473.053235
 20
189.159066
 30
0.0
 11
-473.053235
 21
188.329774
 31
0.0
  0
LINE
  5
3D01
100
AcDbEntity
  8
OBJECT
100
AcDbLine
 10
-474.269421
 20
186.40027
 30
0.0
 11
-474.453789
 21
185.537766
 31
0.0
  0
LINE
  5
3D02
100
AcDbEntity
  8
OBJECT
100
AcDbLine
 10
-474.17163
 20
186.379366
 30
0.0
 11
-474.355998
 21
185.516862
 31
0.0
  0
LINE
  5
3D03
100
AcDbEntity
  8
OBJECT
100
AcDbLine
 10
-474.121184
 20
185.452933
 30
0.0
 11
-473.925602
 21
185.411125
 31
0.0
  0
ARC
  5
3D04
100
AcDbEntity
  8
OBJECT
100
AcDbCircle
 10
-474.020585
 20
185.445165
 30
0.0
 40
0.34299
100
AcDbArc
 50
167.934088
 51
240.983114
  0
LINE
  5
3D05
100
AcDbEntity
  8
OBJECT
100
AcDbLine
 10
-473.929413
 20
186.35007
 30
0.0
 11
-473.733831
 21
186.308263
 31
0.0
  0
ARC
  5
3D06
100
AcDbEntity
  8
OBJECT
100
AcDbCircle
 10
-473.836217
 20
186.307669
 30
0.0
 40
0.34299
100
AcDbArc
 50
94.885062
 51
167.934088
  0
ARC
  5
3D07
100
AcDbEntity
  8
OBJECT
100
AcDbCircle
 10
-473.836217
 20
186.307669
 30
0.0
 40
0.44299
100
AcDbArc
 50
90.980397
 51
167.934088
  0
LINE
  5
3D08
100
AcDbEntity
  8
OBJECT
100
AcDbLine
 10
-473.714643
 20
188.99561
 30
0.0
 11
-473.899011
 21
188.133107
 31
0.0
  0
LINE
  5
3D09
100
AcDbEntity
  8
CENTER
  6
CONTINUOUS
 62
     2
100
AcDbLine
 10
-473.929413
 20
186.35007
 30
0.0
 11
-473.563598
 21
188.061409
 31
0.0
  0
LINE
  5
3D0A
100
AcDbEntity
  8
CENTER
  6
CONTINUOUS
 62
     2
100
AcDbLine
 10
-473.733831
 20
186.308263
 30
0.0
 11
-473.368017
 21
188.019602
 31
0.0
  0
LINE
  5
3D0B
100
AcDbEntity
  8
OBJECT
100
AcDbLine
 10
-473.500804
 20
186.235971
 30
0.0
 11
-473.685172
 21
185.373467
 31
0.0
  0
ARC
  5
3D0C
100
AcDbEntity
  8
OBJECT
100
AcDbCircle
 10
-473.836217
 20
186.307669
 30
0.0
 40
0.34299
100
AcDbArc
 50
347.934088
 51
60.983114
  0
LINE
  5
3D0D
100
AcDbEntity
  8
OBJECT
100
AcDbLine
 10
-473.616852
 20
188.974707
 30
0.0
 11
-473.80122
 21
188.112203
 31
0.0
  0
ARC
  5
3D0E
100
AcDbEntity
  8
OBJECT
100
AcDbCircle
 10
-473.465807
 20
188.040505
 30
0.0
 40
0.44299
100
AcDbArc
 50
167.934088
 51
244.887779
  0
ARC
  5
3D0F
100
AcDbEntity
  8
OBJECT
100
AcDbCircle
 10
-473.465807
 20
188.040505
 30
0.0
 40
0.34299
100
AcDbArc
 50
167.934088
 51
240.983114
  0
ARC
  5
3D10
100
AcDbEntity
  8
OBJECT
100
AcDbCircle
 10
-474.020585
 20
185.445165
 30
0.0
 40
0.44299
100
AcDbArc
 50
167.934088
 51
244.887779
  0
ARC
  5
3D11
100
AcDbEntity
  8
OBJECT
100
AcDbCircle
 10
-474.020585
 20
185.445165
 30
0.0
 40
0.44299
100
AcDbArc
 50
270.980397
 51
347.934088
  0
ARC
  5
3D12
100
AcDbEntity
  8
OBJECT
100
AcDbCircle
 10
-474.020585
 20
185.445165
 30
0.0
 40
0.34299
100
AcDbArc
 50
274.885062
 51
347.934088
  0
ARC
  5
3D13
100
AcDbEntity
  8
OBJECT
100
AcDbCircle
 10
-476.800091
 20
172.44219
 30
0.0
 40
0.34299
100
AcDbArc
 50
274.885062
 51
347.934088
  0
LINE
  5
3D14
100
AcDbEntity
  8
CENTER
  6
CONTINUOUS
 62
     2
100
AcDbLine
 10
-477.263696
 20
170.751755
 30
0.0
 11
-476.897882
 21
172.463094
 31
0.0
  0
LINE
  5
3D15
100
AcDbEntity
  8
CENTER
  6
CONTINUOUS
 62
     2
100
AcDbLine
 10
-477.068114
 20
170.709948
 30
0.0
 11
-476.7023
 21
172.421287
 31
0.0
  0
ARC
  5
3D16
100
AcDbEntity
  8
OBJECT
100
AcDbCircle
 10
-476.800091
 20
172.44219
 30
0.0
 40
0.44299
100
AcDbArc
 50
167.934088
 51
244.887779
  0
ARC
  5
3D17
100
AcDbEntity
  8
OBJECT
100
AcDbCircle
 10
-476.800091
 20
172.44219
 30
0.0
 40
0.34299
100
AcDbArc
 50
167.934088
 51
240.983114
  0
LINE
  5
3D18
100
AcDbEntity
  8
OBJECT
100
AcDbLine
 10
-476.182519
 20
173.212093
 30
0.0
 11
-476.366887
 21
172.349589
 31
0.0
  0
LINE
  5
3D19
100
AcDbEntity
  8
CENTER
  6
CONTINUOUS
 62
     2
100
AcDbLine
 10
-478.37606
 20
165.547939
 30
0.0
 11
-478.010245
 21
167.259277
 31
0.0
  0
LINE
  5
3D1A
100
AcDbEntity
  8
CENTER
  6
CONTINUOUS
 62
     2
100
AcDbLine
 10
-478.180478
 20
165.506131
 30
0.0
 11
-477.814664
 21
167.21747
 31
0.0
  0
LINE
  5
3D1B
100
AcDbEntity
  8
OBJECT
100
AcDbLine
 10
-479.270846
 20
163.002798
 30
0.0
 11
-479.455214
 21
162.140294
 31
0.0
  0
ARC
  5
3D1C
100
AcDbEntity
  8
OBJECT
100
AcDbCircle
 10
-479.02201
 20
162.047692
 30
0.0
 40
0.44299
100
AcDbArc
 50
167.934088
 51
244.887779
  0
ARC
  5
3D1D
100
AcDbEntity
  8
OBJECT
100
AcDbCircle
 10
-479.02201
 20
162.047692
 30
0.0
 40
0.34299
100
AcDbArc
 50
167.934088
 51
240.983114
  0
LINE
  5
3D1E
100
AcDbEntity
  8
OBJECT
100
AcDbLine
 10
-477.947451
 20
165.433839
 30
0.0
 11
-478.131819
 21
164.571335
 31
0.0
  0
LINE
  5
3D1F
100
AcDbEntity
  8
OBJECT
100
AcDbLine
 10
-477.849661
 20
165.412935
 30
0.0
 11
-478.034029
 21
164.550432
 31
0.0
  0
LINE
  5
3D20
100
AcDbEntity
  8
OBJECT
100
AcDbLine
 10
-478.565023
 20
164.663937
 30
0.0
 11
-478.369442
 21
164.622129
 31
0.0
  0
ARC
  5
3D21
100
AcDbEntity
  8
OBJECT
100
AcDbCircle
 10
-478.467232
 20
164.643033
 30
0.0
 40
0.44299
100
AcDbArc
 50
270.980397
 51
347.934088
  0
ARC
  5
3D22
100
AcDbEntity
  8
OBJECT
100
AcDbCircle
 10
-478.467232
 20
164.643033
 30
0.0
 40
0.34299
100
AcDbArc
 50
274.885062
 51
347.934088
  0
LINE
  5
3D23
100
AcDbEntity
  8
OBJECT
100
AcDbLine
 10
-478.37606
 20
165.547939
 30
0.0
 11
-478.180478
 21
165.506131
 31
0.0
  0
ARC
  5
3D24
100
AcDbEntity
  8
OBJECT
100
AcDbCircle
 10
-478.282864
 20
165.505537
 30
0.0
 40
0.34299
100
AcDbArc
 50
347.934088
 51
60.983114
  0
ARC
  5
3D25
100
AcDbEntity
  8
OBJECT
100
AcDbCircle
 10
-478.282864
 20
165.505537
 30
0.0
 40
0.44299
100
AcDbArc
 50
347.934088
 51
64.887779
  0
LINE
  5
3D26
100
AcDbEntity
  8
OBJECT
100
AcDbLine
 10
-478.404438
 20
162.817595
 30
0.0
 11
-478.588807
 21
161.955091
 31
0.0
  0
LINE
  5
3D27
100
AcDbEntity
  8
OBJECT
100
AcDbLine
 10
-478.716068
 20
165.598138
 30
0.0
 11
-478.900436
 21
164.735634
 31
0.0
  0
ARC
  5
3D28
100
AcDbEntity
  8
OBJECT
100
AcDbCircle
 10
-478.467232
 20
164.643033
 30
0.0
 40
0.44299
100
AcDbArc
 50
167.934088
 51
244.887779
  0
LINE
  5
3D29
100
AcDbEntity
  8
OBJECT
100
AcDbLine
 10
-479.173055
 20
162.981894
 30
0.0
 11
-479.357423
 21
162.11939
 31
0.0
  0
LINE
  5
3D2A
100
AcDbEntity
  8
OBJECT
100
AcDbLine
 10
-479.122609
 20
162.05546
 30
0.0
 11
-478.927028
 21
162.013653
 31
0.0
  0
ARC
  5
3D2B
100
AcDbEntity
  8
OBJECT
100
AcDbCircle
 10
-479.02201
 20
162.047692
 30
0.0
 40
0.34299
100
AcDbArc
 50
274.885062
 51
347.934088
  0
LINE
  5
3D2C
100
AcDbEntity
  8
OBJECT
100
AcDbLine
 10
-478.930838
 20
162.952598
 30
0.0
 11
-478.735256
 21
162.910791
 31
0.0
  0
ARC
  5
3D2D
100
AcDbEntity
  8
OBJECT
100
AcDbCircle
 10
-478.837642
 20
162.910196
 30
0.0
 40
0.34299
100
AcDbArc
 50
94.885062
 51
167.934088
  0
ARC
  5
3D2E
100
AcDbEntity
  8
OBJECT
100
AcDbCircle
 10
-478.837642
 20
162.910196
 30
0.0
 40
0.44299
100
AcDbArc
 50
90.980397
 51
167.934088
  0
ARC
  5
3D2F
100
AcDbEntity
  8
OBJECT
100
AcDbCircle
 10
-478.837642
 20
162.910196
 30
0.0
 40
0.44299
100
AcDbArc
 50
347.934088
 51
64.887779
  0
LINE
  5
3D30
100
AcDbEntity
  8
OBJECT
100
AcDbLine
 10
-478.502229
 20
162.838499
 30
0.0
 11
-478.686597
 21
161.975995
 31
0.0
  0
ARC
  5
3D31
100
AcDbEntity
  8
OBJECT
100
AcDbCircle
 10
-479.02201
 20
162.047692
 30
0.0
 40
0.44299
100
AcDbArc
 50
270.980397
 51
347.934088
  0
LINE
  5
3D32
100
AcDbEntity
  8
OBJECT
100
AcDbLine
 10
-478.618277
 20
165.577234
 30
0.0
 11
-478.802646
 21
164.714731
 31
0.0
  0
ARC
  5
3D33
100
AcDbEntity
  8
OBJECT
100
AcDbCircle
 10
-478.837642
 20
162.910196
 30
0.0
 40
0.34299
100
AcDbArc
 50
347.934088
 51
60.983114
  0
LINE
  5
3D34
100
AcDbEntity
  8
CENTER
  6
CONTINUOUS
 62
     2
100
AcDbLine
 10
-478.930838
 20
162.952598
 30
0.0
 11
-478.565023
 21
164.663937
 31
0.0
  0
LINE
  5
3D35
100
AcDbEntity
  8
CENTER
  6
CONTINUOUS
 62
     2
100
AcDbLine
 10
-478.735256
 20
162.910791
 30
0.0
 11
-478.369442
 21
164.622129
 31
0.0
  0
ARC
  5
3D36
100
AcDbEntity
  8
OBJECT
100
AcDbCircle
 10
-478.467232
 20
164.643033
 30
0.0
 40
0.34299
100
AcDbArc
 50
167.934088
 51
240.983114
  0
ARC
  5
3D37
100
AcDbEntity
  8
OBJECT
100
AcDbCircle
 10
-478.282864
 20
165.505537
 30
0.0
 40
0.34299
100
AcDbArc
 50
94.885062
 51
167.934088
  0
ARC
  5
3D38
100
AcDbEntity
  8
OBJECT
100
AcDbCircle
 10
-478.282864
 20
165.505537
 30
0.0
 40
0.44299
100
AcDbArc
 50
90.980397
 51
167.934088
  0
LINE
  5
3D39
100
AcDbEntity
  8
OBJECT
100
AcDbLine
 10
-478.010245
 20
167.259277
 30
0.0
 11
-477.814664
 21
167.21747
 31
0.0
  0
ARC
  5
3D3A
100
AcDbEntity
  8
OBJECT
100
AcDbCircle
 10
-477.728086
 20
168.100877
 30
0.0
 40
0.34299
100
AcDbArc
 50
347.934088
 51
60.983114
  0
LINE
  5
3D3B
100
AcDbEntity
  8
OBJECT
100
AcDbLine
 10
-477.392673
 20
168.02918
 30
0.0
 11
-477.577042
 21
167.166676
 31
0.0
  0
LINE
  5
3D3C
100
AcDbEntity
  8
OBJECT
100
AcDbLine
 10
-477.294883
 20
168.008276
 30
0.0
 11
-477.479251
 21
167.145772
 31
0.0
  0
ARC
  5
3D3D
100
AcDbEntity
  8
OBJECT
100
AcDbCircle
 10
-477.912455
 20
167.238373
 30
0.0
 40
0.34299
100
AcDbArc
 50
274.885062
 51
347.934088
  0
ARC
  5
3D3E
100
AcDbEntity
  8
OBJECT
100
AcDbCircle
 10
-477.912455
 20
167.238373
 30
0.0
 40
0.44299
100
AcDbArc
 50
270.980397
 51
347.934088
  0
LINE
  5
3D3F
100
AcDbEntity
  8
OBJECT
100
AcDbLine
 10
-478.16129
 20
168.193479
 30
0.0
 11
-478.345658
 21
167.330975
 31
0.0
  0
LINE
  5
3D40
100
AcDbEntity
  8
OBJECT
100
AcDbLine
 10
-478.063499
 20
168.172575
 30
0.0
 11
-478.247868
 21
167.310071
 31
0.0
  0
ARC
  5
3D41
100
AcDbEntity
  8
OBJECT
100
AcDbCircle
 10
-477.912455
 20
167.238373
 30
0.0
 40
0.44299
100
AcDbArc
 50
167.934088
 51
244.887779
  0
ARC
  5
3D42
100
AcDbEntity
  8
OBJECT
100
AcDbCircle
 10
-477.912455
 20
167.238373
 30
0.0
 40
0.34299
100
AcDbArc
 50
167.934088
 51
240.983114
  0
LINE
  5
3D43
100
AcDbEntity
  8
OBJECT
100
AcDbLine
 10
-477.821282
 20
168.143279
 30
0.0
 11
-477.6257
 21
168.101472
 31
0.0
  0
ARC
  5
3D44
100
AcDbEntity
  8
OBJECT
100
AcDbCircle
 10
-477.728086
 20
168.100877
 30
0.0
 40
0.34299
100
AcDbArc
 50
94.885062
 51
167.934088
  0
ARC
  5
3D45
100
AcDbEntity
  8
OBJECT
100
AcDbCircle
 10
-477.728086
 20
168.100877
 30
0.0
 40
0.44299
100
AcDbArc
 50
347.934088
 51
64.887779
  0
LINE
  5
3D46
100
AcDbEntity
  8
CENTER
  6
CONTINUOUS
 62
     2
100
AcDbLine
 10
-477.821282
 20
168.143279
 30
0.0
 11
-477.455467
 21
169.854618
 31
0.0
  0
LINE
  5
3D47
100
AcDbEntity
  8
CENTER
  6
CONTINUOUS
 62
     2
100
AcDbLine
 10
-477.6257
 20
168.101472
 30
0.0
 11
-477.259886
 21
169.81281
 31
0.0
  0
ARC
  5
3D48
100
AcDbEntity
  8
OBJECT
100
AcDbCircle
 10
-477.728086
 20
168.100877
 30
0.0
 40
0.44299
100
AcDbArc
 50
90.980397
 51
167.934088
  0
ARC
  5
3D49
100
AcDbEntity
  8
OBJECT
100
AcDbCircle
 10
-476.800091
 20
172.44219
 30
0.0
 40
0.44299
100
AcDbArc
 50
270.980397
 51
347.934088
  0
ARC
  5
3D4A
100
AcDbEntity
  8
OBJECT
100
AcDbCircle
 10
-477.170501
 20
170.709354
 30
0.0
 40
0.34299
100
AcDbArc
 50
94.885062
 51
167.934088
  0
ARC
  5
3D4B
100
AcDbEntity
  8
OBJECT
100
AcDbCircle
 10
-477.170501
 20
170.709354
 30
0.0
 40
0.44299
100
AcDbArc
 50
90.980397
 51
167.934088
  0
ARC
  5
3D4C
100
AcDbEntity
  8
OBJECT
100
AcDbCircle
 10
-477.170501
 20
170.709354
 30
0.0
 40
0.34299
100
AcDbArc
 50
347.934088
 51
60.983114
  0
ARC
  5
3D4D
100
AcDbEntity
  8
OBJECT
100
AcDbCircle
 10
-477.170501
 20
170.709354
 30
0.0
 40
0.44299
100
AcDbArc
 50
347.934088
 51
64.887779
  0
ARC
  5
3D4E
100
AcDbEntity
  8
OBJECT
100
AcDbCircle
 10
-477.354869
 20
169.84685
 30
0.0
 40
0.44299
100
AcDbArc
 50
270.980397
 51
347.934088
  0
ARC
  5
3D4F
100
AcDbEntity
  8
OBJECT
100
AcDbCircle
 10
-477.354869
 20
169.84685
 30
0.0
 40
0.34299
100
AcDbArc
 50
274.885062
 51
347.934088
  0
LINE
  5
3D50
100
AcDbEntity
  8
OBJECT
100
AcDbLine
 10
-477.263696
 20
170.751755
 30
0.0
 11
-477.068114
 21
170.709948
 31
0.0
  0
LINE
  5
3D51
100
AcDbEntity
  8
OBJECT
100
AcDbLine
 10
-477.603704
 20
170.801955
 30
0.0
 11
-477.788073
 21
169.939451
 31
0.0
  0
LINE
  5
3D52
100
AcDbEntity
  8
OBJECT
100
AcDbLine
 10
-477.505914
 20
170.781051
 30
0.0
 11
-477.690282
 21
169.918547
 31
0.0
  0
LINE
  5
3D53
100
AcDbEntity
  8
OBJECT
100
AcDbLine
 10
-476.835088
 20
170.637656
 30
0.0
 11
-477.019456
 21
169.775152
 31
0.0
  0
LINE
  5
3D54
100
AcDbEntity
  8
OBJECT
100
AcDbLine
 10
-476.737297
 20
170.616752
 30
0.0
 11
-476.921665
 21
169.754249
 31
0.0
  0
LINE
  5
3D55
100
AcDbEntity
  8
OBJECT
100
AcDbLine
 10
-477.455467
 20
169.854618
 30
0.0
 11
-477.259886
 21
169.81281
 31
0.0
  0
ARC
  5
3D56
100
AcDbEntity
  8
OBJECT
100
AcDbCircle
 10
-477.354869
 20
169.84685
 30
0.0
 40
0.44299
100
AcDbArc
 50
167.934088
 51
244.887779
  0
ARC
  5
3D57
100
AcDbEntity
  8
OBJECT
100
AcDbCircle
 10
-477.354869
 20
169.84685
 30
0.0
 40
0.34299
100
AcDbArc
 50
167.934088
 51
240.983114
  0
LINE
  5
3D58
100
AcDbEntity
  8
CENTER
  6
CONTINUOUS
 62
     2
100
AcDbLine
 10
-475.400973
 20
178.509106
 30
0.0
 11
-475.035158
 21
180.220444
 31
0.0
  0
ARC
  5
3D59
100
AcDbEntity
  8
OBJECT
100
AcDbCircle
 10
-475.503359
 20
178.508511
 30
0.0
 40
0.44299
100
AcDbArc
 50
347.934088
 51
64.887779
  0
ARC
  5
3D5A
100
AcDbEntity
  8
OBJECT
100
AcDbCircle
 10
-475.503359
 20
178.508511
 30
0.0
 40
0.34299
100
AcDbArc
 50
347.934088
 51
60.983114
  0
LINE
  5
3D5B
100
AcDbEntity
  8
OBJECT
100
AcDbLine
 10
-475.838772
 20
178.580209
 30
0.0
 11
-476.02314
 21
177.717705
 31
0.0
  0
LINE
  5
3D5C
100
AcDbEntity
  8
OBJECT
100
AcDbLine
 10
-475.936563
 20
178.601112
 30
0.0
 11
-476.120931
 21
177.738609
 31
0.0
  0
LINE
  5
3D5D
100
AcDbEntity
  8
OBJECT
100
AcDbLine
 10
-475.596554
 20
178.550913
 30
0.0
 11
-475.400973
 21
178.509106
 31
0.0
  0
LINE
  5
3D5E
100
AcDbEntity
  8
OBJECT
100
AcDbLine
 10
-475.523287
 20
178.535251
 30
0.0
 11
-475.426085
 21
177.424229
 31
0.0
  0
ARC
  5
3D5F
100
AcDbEntity
  8
OBJECT
100
AcDbCircle
 10
-476.615723
 20
173.304694
 30
0.0
 40
0.34299
100
AcDbArc
 50
347.934088
 51
60.983114
  0
ARC
  5
3D60
100
AcDbEntity
  8
OBJECT
100
AcDbCircle
 10
-476.615723
 20
173.304694
 30
0.0
 40
0.44299
100
AcDbArc
 50
347.934088
 51
64.887779
  0
LINE
  5
3D61
100
AcDbEntity
  8
CENTER
  6
CONTINUOUS
 62
     2
100
AcDbLine
 10
-476.708918
 20
173.347096
 30
0.0
 11
-476.343104
 21
175.058435
 31
0.0
  0
LINE
  5
3D62
100
AcDbEntity
  8
CENTER
  6
CONTINUOUS
 62
     2
100
AcDbLine
 10
-476.513336
 20
173.305289
 30
0.0
 11
-476.147522
 21
175.016627
 31
0.0
  0
ARC
  5
3D63
100
AcDbEntity
  8
OBJECT
100
AcDbCircle
 10
-476.245313
 20
175.037531
 30
0.0
 40
0.34299
100
AcDbArc
 50
167.934088
 51
240.983114
  0
ARC
  5
3D64
100
AcDbEntity
  8
OBJECT
100
AcDbCircle
 10
-476.245313
 20
175.037531
 30
0.0
 40
0.44299
100
AcDbArc
 50
167.934088
 51
244.887779
  0
LINE
  5
3D65
100
AcDbEntity
  8
OBJECT
100
AcDbLine
 10
-475.627741
 20
175.807433
 30
0.0
 11
-475.812109
 21
174.94493
 31
0.0
  0
LINE
  5
3D66
100
AcDbEntity
  8
OBJECT
100
AcDbLine
 10
-475.725532
 20
175.828337
 30
0.0
 11
-475.9099
 21
174.965833
 31
0.0
  0
LINE
  5
3D67
100
AcDbEntity
  8
OBJECT
100
AcDbLine
 10
-476.343104
 20
175.058435
 30
0.0
 11
-476.147522
 21
175.016627
 31
0.0
  0
ARC
  5
3D68
100
AcDbEntity
  8
OBJECT
100
AcDbCircle
 10
-476.245313
 20
175.037531
 30
0.0
 40
0.44299
100
AcDbArc
 50
270.980397
 51
347.934088
  0
ARC
  5
3D69
100
AcDbEntity
  8
OBJECT
100
AcDbCircle
 10
-476.245313
 20
175.037531
 30
0.0
 40
0.34299
100
AcDbArc
 50
274.885062
 51
347.934088
  0
LINE
  5
3D6A
100
AcDbEntity
  8
CENTER
  6
CONTINUOUS
 62
     2
100
AcDbLine
 10
-475.958559
 20
175.900629
 30
0.0
 11
-475.592744
 21
177.611968
 31
0.0
  0
LINE
  5
3D6B
100
AcDbEntity
  8
CENTER
  6
CONTINUOUS
 62
     2
100
AcDbLine
 10
-476.15414
 20
175.942436
 30
0.0
 11
-475.788326
 21
177.653775
 31
0.0
  0
LINE
  5
3D6C
100
AcDbEntity
  8
OBJECT
100
AcDbLine
 10
-476.396358
 20
175.971732
 30
0.0
 11
-476.580726
 21
175.109228
 31
0.0
  0
LINE
  5
3D6D
100
AcDbEntity
  8
OBJECT
100
AcDbLine
 10
-476.494149
 20
175.992636
 30
0.0
 11
-476.678517
 21
175.130132
 31
0.0
  0
ARC
  5
3D6E
100
AcDbEntity
  8
OBJECT
100
AcDbCircle
 10
-476.060945
 20
175.900035
 30
0.0
 40
0.44299
100
AcDbArc
 50
347.934088
 51
64.887779
  0
ARC
  5
3D6F
100
AcDbEntity
  8
OBJECT
100
AcDbCircle
 10
-476.060945
 20
175.900035
 30
0.0
 40
0.34299
100
AcDbArc
 50
347.934088
 51
60.983114
  0
ARC
  5
3D70
100
AcDbEntity
  8
OBJECT
100
AcDbCircle
 10
-476.060945
 20
175.900035
 30
0.0
 40
0.34299
100
AcDbArc
 50
94.885062
 51
167.934088
  0
ARC
  5
3D71
100
AcDbEntity
  8
OBJECT
100
AcDbCircle
 10
-476.060945
 20
175.900035
 30
0.0
 40
0.44299
100
AcDbArc
 50
90.980397
 51
167.934088
  0
LINE
  5
3D72
100
AcDbEntity
  8
OBJECT
100
AcDbLine
 10
-476.15414
 20
175.942436
 30
0.0
 11
-475.958559
 21
175.900629
 31
0.0
  0
LINE
  5
3D73
100
AcDbEntity
  8
OBJECT
100
AcDbLine
 10
-475.167946
 20
178.436813
 30
0.0
 11
-475.352314
 21
177.57431
 31
0.0
  0
LINE
  5
3D74
100
AcDbEntity
  8
OBJECT
100
AcDbLine
 10
-475.070155
 20
178.41591
 30
0.0
 11
-475.254523
 21
177.553406
 31
0.0
  0
ARC
  5
3D75
100
AcDbEntity
  8
OBJECT
100
AcDbCircle
 10
-475.687727
 20
177.646007
 30
0.0
 40
0.34299
100
AcDbArc
 50
167.934088
 51
240.983114
  0
ARC
  5
3D76
100
AcDbEntity
  8
OBJECT
100
AcDbCircle
 10
-475.687727
 20
177.646007
 30
0.0
 40
0.44299
100
AcDbArc
 50
167.934088
 51
244.887779
  0
LINE
  5
3D77
100
AcDbEntity
  8
OBJECT
100
AcDbLine
 10
-475.788326
 20
177.653775
 30
0.0
 11
-475.592744
 21
177.611968
 31
0.0
  0
ARC
  5
3D78
100
AcDbEntity
  8
OBJECT
100
AcDbCircle
 10
-475.687727
 20
177.646007
 30
0.0
 40
0.44299
100
AcDbArc
 50
270.980397
 51
347.934088
  0
ARC
  5
3D79
100
AcDbEntity
  8
OBJECT
100
AcDbCircle
 10
-475.687727
 20
177.646007
 30
0.0
 40
0.34299
100
AcDbArc
 50
274.885062
 51
347.934088
  0
ARC
  5
3D7A
100
AcDbEntity
  8
OBJECT
100
AcDbCircle
 10
-476.615723
 20
173.304694
 30
0.0
 40
0.34299
100
AcDbArc
 50
94.885062
 51
167.934088
  0
ARC
  5
3D7B
100
AcDbEntity
  8
OBJECT
100
AcDbCircle
 10
-476.615723
 20
173.304694
 30
0.0
 40
0.44299
100
AcDbArc
 50
90.980397
 51
167.934088
  0
LINE
  5
3D7C
100
AcDbEntity
  8
OBJECT
100
AcDbLine
 10
-476.897882
 20
172.463094
 30
0.0
 11
-476.7023
 21
172.421287
 31
0.0
  0
LINE
  5
3D7D
100
AcDbEntity
  8
OBJECT
100
AcDbLine
 10
-477.048926
 20
173.397295
 30
0.0
 11
-477.233295
 21
172.534792
 31
0.0
  0
LINE
  5
3D7E
100
AcDbEntity
  8
OBJECT
100
AcDbLine
 10
-476.951136
 20
173.376392
 30
0.0
 11
-477.135504
 21
172.513888
 31
0.0
  0
LINE
  5
3D7F
100
AcDbEntity
  8
OBJECT
100
AcDbLine
 10
-476.708918
 20
173.347096
 30
0.0
 11
-476.513336
 21
173.305289
 31
0.0
  0
LINE
  5
3D80
100
AcDbEntity
  8
OBJECT
100
AcDbLine
 10
-476.28031
 20
173.232997
 30
0.0
 11
-476.464678
 21
172.370493
 31
0.0
  0
LINE
  5
3D81
100
AcDbEntity
  8
CENTER
  6
CONTINUOUS
 62
     2
100
AcDbLine
 10
-475.596554
 20
178.550913
 30
0.0
 11
-475.23074
 21
180.262251
 31
0.0
  0
LINE
  5
3D82
100
AcDbEntity
  8
OBJECT
100
AcDbLine
 10
-475.381785
 20
181.196453
 30
0.0
 11
-475.566153
 21
180.333949
 31
0.0
  0
LINE
  5
3D83
100
AcDbEntity
  8
OBJECT
100
AcDbLine
 10
-474.515377
 20
181.01125
 30
0.0
 11
-474.699745
 21
180.148747
 31
0.0
  0
ARC
  5
3D84
100
AcDbEntity
  8
OBJECT
100
AcDbCircle
 10
-475.132949
 20
180.241348
 30
0.0
 40
0.34299
100
AcDbArc
 50
274.885062
 51
347.934088
  0
LINE
  5
3D85
100
AcDbEntity
  8
OBJECT
100
AcDbLine
 10
-475.23074
 20
180.262251
 30
0.0
 11
-475.035158
 21
180.220444
 31
0.0
  0
ARC
  5
3D86
100
AcDbEntity
  8
OBJECT
100
AcDbCircle
 10
-475.132949
 20
180.241348
 30
0.0
 40
0.34299
100
AcDbArc
 50
167.934088
 51
240.983114
  0
ARC
  5
3D87
100
AcDbEntity
  8
OBJECT
100
AcDbCircle
 10
-475.132949
 20
180.241348
 30
0.0
 40
0.44299
100
AcDbArc
 50
167.934088
 51
244.887779
  0
LINE
  5
3D88
100
AcDbEntity
  8
OBJECT
100
AcDbLine
 10
-475.283994
 20
181.175549
 30
0.0
 11
-475.468362
 21
180.313045
 31
0.0
  0
ARC
  5
3D89
100
AcDbEntity
  8
OBJECT
100
AcDbCircle
 10
-475.132949
 20
180.241348
 30
0.0
 40
0.44299
100
AcDbArc
 50
270.980397
 51
347.934088
  0
LINE
  5
3D8A
100
AcDbEntity
  8
OBJECT
100
AcDbLine
 10
-474.613168
 20
181.032154
 30
0.0
 11
-474.797536
 21
180.16965
 31
0.0
  0
ARC
  5
3D8B
100
AcDbEntity
  8
OBJECT
100
AcDbCircle
 10
-475.503359
 20
178.508511
 30
0.0
 40
0.44299
100
AcDbArc
 50
90.980397
 51
167.934088
  0
ARC
  5
3D8C
100
AcDbEntity
  8
OBJECT
100
AcDbCircle
 10
-475.503359
 20
178.508511
 30
0.0
 40
0.34299
100
AcDbArc
 50
94.885062
 51
167.934088
  0
LINE
  5
3D8D
100
AcDbEntity
  8
OBJECT
100
AcDbLine
 10
-475.550668
 20
178.848223
 30
0.0
 11
-475.545537
 21
178.789578
 31
0.0
  0
LINE
  5
3D8E
100
AcDbEntity
  8
OBJECT
100
AcDbLine
 10
-479.059815
 20
160.230022
 30
0.0
 11
-479.244183
 21
159.367518
 31
0.0
  0
LINE
  5
3D8F
100
AcDbEntity
  8
OBJECT
100
AcDbLine
 10
-478.962024
 20
160.209119
 30
0.0
 11
-479.146392
 21
159.346615
 31
0.0
  0
LINE
  5
3D90
100
AcDbEntity
  8
OBJECT
100
AcDbLine
 10
-479.828432
 20
160.394321
 30
0.0
 11
-480.0128
 21
159.531817
 31
0.0
  0
LINE
  5
3D91
100
AcDbEntity
  8
OBJECT
100
AcDbLine
 10
-479.730641
 20
160.373417
 30
0.0
 11
-479.915009
 21
159.510914
 31
0.0
  0
LINE
  5
3D92
100
AcDbEntity
  8
CENTER
  6
CONTINUOUS
 62
     2
100
AcDbLine
 10
-480.959984
 20
152.503157
 30
0.0
 11
-480.594169
 21
154.214495
 31
0.0
  0
LINE
  5
3D93
100
AcDbEntity
  8
CENTER
  6
CONTINUOUS
 62
     2
100
AcDbLine
 10
-481.155565
 20
152.544964
 30
0.0
 11
-480.789751
 21
154.256303
 31
0.0
  0
ARC
  5
3D94
100
AcDbEntity
  8
OBJECT
100
AcDbCircle
 10
-480.689152
 20
154.248535
 30
0.0
 40
0.44299
100
AcDbArc
 50
167.934088
 51
244.887779
  0
ARC
  5
3D95
100
AcDbEntity
  8
OBJECT
100
AcDbCircle
 10
-480.689152
 20
154.248535
 30
0.0
 40
0.34299
100
AcDbArc
 50
274.885062
 51
347.934088
  0
ARC
  5
3D96
100
AcDbEntity
  8
OBJECT
100
AcDbCircle
 10
-480.689152
 20
154.248535
 30
0.0
 40
0.44299
100
AcDbArc
 50
270.980397
 51
347.934088
  0
ARC
  5
3D97
100
AcDbEntity
  8
OBJECT
100
AcDbCircle
 10
-481.06237
 20
152.502562
 30
0.0
 40
0.44299
100
AcDbArc
 50
347.934088
 51
64.887779
  0
ARC
  5
3D98
100
AcDbEntity
  8
OBJECT
100
AcDbCircle
 10
-481.06237
 20
152.502562
 30
0.0
 40
0.34299
100
AcDbArc
 50
347.934088
 51
60.983114
  0
ARC
  5
3D99
100
AcDbEntity
  8
OBJECT
100
AcDbCircle
 10
-481.06237
 20
152.502562
 30
0.0
 40
0.34299
100
AcDbArc
 50
94.885062
 51
167.934088
  0
ARC
  5
3D9A
100
AcDbEntity
  8
OBJECT
100
AcDbCircle
 10
-481.06237
 20
152.502562
 30
0.0
 40
0.44299
100
AcDbArc
 50
90.980397
 51
167.934088
  0
LINE
  5
3D9B
100
AcDbEntity
  8
OBJECT
100
AcDbLine
 10
-481.155565
 20
152.544964
 30
0.0
 11
-480.959984
 21
152.503157
 31
0.0
  0
ARC
  5
3D9C
100
AcDbEntity
  8
OBJECT
100
AcDbCircle
 10
-479.579596
 20
159.439216
 30
0.0
 40
0.34299
100
AcDbArc
 50
274.885062
 51
347.934088
  0
ARC
  5
3D9D
100
AcDbEntity
  8
OBJECT
100
AcDbCircle
 10
-479.579596
 20
159.439216
 30
0.0
 40
0.44299
100
AcDbArc
 50
270.980397
 51
347.934088
  0
LINE
  5
3D9E
100
AcDbEntity
  8
CENTER
  6
CONTINUOUS
 62
     2
100
AcDbLine
 10
-479.84762
 20
157.706974
 30
0.0
 11
-479.481805
 21
159.418312
 31
0.0
  0
LINE
  5
3D9F
100
AcDbEntity
  8
CENTER
  6
CONTINUOUS
 62
     2
100
AcDbLine
 10
-480.043201
 20
157.748781
 30
0.0
 11
-479.677387
 21
159.46012
 31
0.0
  0
ARC
  5
3DA0
100
AcDbEntity
  8
OBJECT
100
AcDbCircle
 10
-479.950006
 20
157.706379
 30
0.0
 40
0.44299
100
AcDbArc
 50
347.934088
 51
64.887779
  0
ARC
  5
3DA1
100
AcDbEntity
  8
OBJECT
100
AcDbCircle
 10
-479.950006
 20
157.706379
 30
0.0
 40
0.34299
100
AcDbArc
 50
347.934088
 51
60.983114
  0
ARC
  5
3DA2
100
AcDbEntity
  8
OBJECT
100
AcDbCircle
 10
-479.950006
 20
157.706379
 30
0.0
 40
0.44299
100
AcDbArc
 50
90.980397
 51
167.934088
  0
ARC
  5
3DA3
100
AcDbEntity
  8
OBJECT
100
AcDbCircle
 10
-479.950006
 20
157.706379
 30
0.0
 40
0.34299
100
AcDbArc
 50
94.885062
 51
167.934088
  0
LINE
  5
3DA4
100
AcDbEntity
  8
OBJECT
100
AcDbLine
 10
-480.043201
 20
157.748781
 30
0.0
 11
-479.84762
 21
157.706974
 31
0.0
  0
LINE
  5
3DA5
100
AcDbEntity
  8
OBJECT
100
AcDbLine
 10
-479.677387
 20
159.46012
 30
0.0
 11
-479.481805
 21
159.418312
 31
0.0
  0
ARC
  5
3DA6
100
AcDbEntity
  8
OBJECT
100
AcDbCircle
 10
-479.579596
 20
159.439216
 30
0.0
 40
0.44299
100
AcDbArc
 50
167.934088
 51
244.887779
  0
ARC
  5
3DA7
100
AcDbEntity
  8
OBJECT
100
AcDbCircle
 10
-479.579596
 20
159.439216
 30
0.0
 40
0.34299
100
AcDbArc
 50
167.934088
 51
240.983114
  0
ARC
  5
3DA8
100
AcDbEntity
  8
OBJECT
100
AcDbCircle
 10
-480.134374
 20
156.843875
 30
0.0
 40
0.34299
100
AcDbArc
 50
167.934088
 51
240.983114
  0
LINE
  5
3DA9
100
AcDbEntity
  8
CENTER
  6
CONTINUOUS
 62
     2
100
AcDbLine
 10
-480.402398
 20
155.111633
 30
0.0
 11
-480.036583
 21
156.822972
 31
0.0
  0
LINE
  5
3DAA
100
AcDbEntity
  8
CENTER
  6
CONTINUOUS
 62
     2
100
AcDbLine
 10
-480.597979
 20
155.153441
 30
0.0
 11
-480.232165
 21
156.864779
 31
0.0
  0
ARC
  5
3DAB
100
AcDbEntity
  8
OBJECT
100
AcDbCircle
 10
-480.134374
 20
156.843875
 30
0.0
 40
0.34299
100
AcDbArc
 50
274.885062
 51
347.934088
  0
ARC
  5
3DAC
100
AcDbEntity
  8
OBJECT
100
AcDbCircle
 10
-480.134374
 20
156.843875
 30
0.0
 40
0.44299
100
AcDbArc
 50
270.980397
 51
347.934088
  0
ARC
  5
3DAD
100
AcDbEntity
  8
OBJECT
100
AcDbCircle
 10
-480.134374
 20
156.843875
 30
0.0
 40
0.44299
100
AcDbArc
 50
167.934088
 51
244.887779
  0
ARC
  5
3DAE
100
AcDbEntity
  8
OBJECT
100
AcDbCircle
 10
-480.504784
 20
155.111039
 30
0.0
 40
0.44299
100
AcDbArc
 50
90.980397
 51
167.934088
  0
LINE
  5
3DAF
100
AcDbEntity
  8
OBJECT
100
AcDbLine
 10
-480.840197
 20
155.182736
 30
0.0
 11
-481.024565
 21
154.320233
 31
0.0
  0
ARC
  5
3DB0
100
AcDbEntity
  8
OBJECT
100
AcDbCircle
 10
-480.689152
 20
154.248535
 30
0.0
 40
0.34299
100
AcDbArc
 50
167.934088
 51
240.983114
  0
LINE
  5
3DB1
100
AcDbEntity
  8
OBJECT
100
AcDbLine
 10
-480.937988
 20
155.20364
 30
0.0
 11
-481.122356
 21
154.341136
 31
0.0
  0
ARC
  5
3DB2
100
AcDbEntity
  8
OBJECT
100
AcDbCircle
 10
-480.504784
 20
155.111039
 30
0.0
 40
0.44299
100
AcDbArc
 50
347.934088
 51
64.887779
  0
ARC
  5
3DB3
100
AcDbEntity
  8
OBJECT
100
AcDbCircle
 10
-480.504784
 20
155.111039
 30
0.0
 40
0.34299
100
AcDbArc
 50
347.934088
 51
60.983114
  0
LINE
  5
3DB4
100
AcDbEntity
  8
OBJECT
100
AcDbLine
 10
-480.07158
 20
155.018437
 30
0.0
 11
-480.255948
 21
154.155934
 31
0.0
  0
LINE
  5
3DB5
100
AcDbEntity
  8
OBJECT
100
AcDbLine
 10
-480.169371
 20
155.039341
 30
0.0
 11
-480.353739
 21
154.176837
 31
0.0
  0
ARC
  5
3DB6
100
AcDbEntity
  8
OBJECT
100
AcDbCircle
 10
-480.504784
 20
155.111039
 30
0.0
 40
0.34299
100
AcDbArc
 50
94.885062
 51
167.934088
  0
LINE
  5
3DB7
100
AcDbEntity
  8
OBJECT
100
AcDbLine
 10
-480.789751
 20
154.256303
 30
0.0
 11
-480.594169
 21
154.214495
 31
0.0
  0
LINE
  5
3DB8
100
AcDbEntity
  8
OBJECT
100
AcDbLine
 10
-480.597979
 20
155.153441
 30
0.0
 11
-480.402398
 21
155.111633
 31
0.0
  0
LINE
  5
3DB9
100
AcDbEntity
  8
OBJECT
100
AcDbLine
 10
-480.232165
 20
156.864779
 30
0.0
 11
-480.036583
 21
156.822972
 31
0.0
  0
LINE
  5
3DBA
100
AcDbEntity
  8
OBJECT
100
AcDbLine
 10
-479.516802
 20
157.613778
 30
0.0
 11
-479.70117
 21
156.751274
 31
0.0
  0
LINE
  5
3DBB
100
AcDbEntity
  8
OBJECT
100
AcDbLine
 10
-479.614593
 20
157.634682
 30
0.0
 11
-479.798961
 21
156.772178
 31
0.0
  0
LINE
  5
3DBC
100
AcDbEntity
  8
OBJECT
100
AcDbLine
 10
-480.285419
 20
157.778077
 30
0.0
 11
-480.469787
 21
156.915573
 31
0.0
  0
LINE
  5
3DBD
100
AcDbEntity
  8
OBJECT
100
AcDbLine
 10
-480.38321
 20
157.798981
 30
0.0
 11
-480.567578
 21
156.936477
 31
0.0
  0
LINE
  5
3DBE
100
AcDbEntity
  8
OBJECT
100
AcDbLine
 10
-479.488423
 20
160.344122
 30
0.0
 11
-479.292842
 21
160.302314
 31
0.0
  0
LINE
  5
3DBF
100
AcDbEntity
  8
CENTER
  6
CONTINUOUS
 62
     2
100
AcDbLine
 10
-479.488423
 20
160.344122
 30
0.0
 11
-479.122609
 21
162.05546
 31
0.0
  0
ARC
  5
3DC0
100
AcDbEntity
  8
OBJECT
100
AcDbCircle
 10
-479.395228
 20
160.30172
 30
0.0
 40
0.44299
100
AcDbArc
 50
90.980397
 51
167.934088
  0
ARC
  5
3DC1
100
AcDbEntity
  8
OBJECT
100
AcDbCircle
 10
-479.395228
 20
160.30172
 30
0.0
 40
0.34299
100
AcDbArc
 50
94.885062
 51
167.934088
  0
LINE
  5
3DC2
100
AcDbEntity
  8
CENTER
  6
CONTINUOUS
 62
     2
100
AcDbLine
 10
-479.292842
 20
160.302314
 30
0.0
 11
-478.927028
 21
162.013653
 31
0.0
  0
ARC
  5
3DC3
100
AcDbEntity
  8
OBJECT
100
AcDbCircle
 10
-479.395228
 20
160.30172
 30
0.0
 40
0.34299
100
AcDbArc
 50
347.934088
 51
60.983114
  0
ARC
  5
3DC4
100
AcDbEntity
  8
OBJECT
100
AcDbCircle
 10
-479.395228
 20
160.30172
 30
0.0
 40
0.44299
100
AcDbArc
 50
347.934088
 51
64.887779
  0
LINE
  5
3DC5
100
AcDbEntity
  8
CENTER
  6
CONTINUOUS
 62
     2
100
AcDbLine
 10
-481.514762
 20
149.907816
 30
0.0
 11
-481.148947
 21
151.619155
 31
0.0
  0
LINE
  5
3DC6
100
AcDbEntity
  8
CENTER
  6
CONTINUOUS
 62
     2
100
AcDbLine
 10
-481.710343
 20
149.949624
 30
0.0
 11
-481.344529
 21
151.660962
 31
0.0
  0
ARC
  5
3DC7
100
AcDbEntity
  8
OBJECT
100
AcDbCircle
 10
-481.246738
 20
151.640059
 30
0.0
 40
0.44299
100
AcDbArc
 50
270.980397
 51
347.934088
  0
ARC
  5
3DC8
100
AcDbEntity
  8
OBJECT
100
AcDbCircle
 10
-481.246738
 20
151.640059
 30
0.0
 40
0.34299
100
AcDbArc
 50
274.885062
 51
347.934088
  0
ARC
  5
3DC9
100
AcDbEntity
  8
OBJECT
100
AcDbCircle
 10
-481.246738
 20
151.640059
 30
0.0
 40
0.34299
100
AcDbArc
 50
167.934088
 51
240.983114
  0
LINE
  5
3DCA
100
AcDbEntity
  8
OBJECT
100
AcDbLine
 10
-481.344529
 20
151.660962
 30
0.0
 11
-481.148947
 21
151.619155
 31
0.0
  0
ARC
  5
3DCB
100
AcDbEntity
  8
OBJECT
100
AcDbCircle
 10
-481.246738
 20
151.640059
 30
0.0
 40
0.44299
100
AcDbArc
 50
167.934088
 51
244.887779
  0
LINE
  5
3DCC
100
AcDbEntity
  8
OBJECT
100
AcDbLine
 10
-480.629166
 20
152.409961
 30
0.0
 11
-480.813534
 21
151.547457
 31
0.0
  0
LINE
  5
3DCD
100
AcDbEntity
  8
OBJECT
100
AcDbLine
 10
-480.726957
 20
152.430865
 30
0.0
 11
-480.911325
 21
151.568361
 31
0.0
  0
LINE
  5
3DCE
100
AcDbEntity
  8
OBJECT
100
AcDbLine
 10
-481.397783
 20
152.57426
 30
0.0
 11
-481.582151
 21
151.711756
 31
0.0
  0
LINE
  5
3DCF
100
AcDbEntity
  8
OBJECT
100
AcDbLine
 10
-481.495574
 20
152.595164
 30
0.0
 11
-481.679942
 21
151.73266
 31
0.0
  0
LINE
  5
3DD0
100
AcDbEntity
  8
OBJECT
100
AcDbLine
 10
-481.710343
 20
149.949624
 30
0.0
 11
-481.514762
 21
149.907816
 31
0.0
  0
LINE
  5
3DD1
100
AcDbEntity
  8
OBJECT
100
AcDbLine
 10
-469.724483
 20
207.183797
 30
0.0
 11
-469.724483
 21
206.021407
 31
0.0
  0
LINE
  5
3DD2
100
AcDbEntity
  8
OBJECT
100
AcDbLine
 10
-469.724483
 20
205.064637
 30
0.0
 11
-469.724483
 21
204.884283
 31
0.0
  0
LINE
  5
3DD3
100
AcDbEntity
  8
OBJECT
100
AcDbLine
 10
-469.724483
 20
204.762206
 30
0.0
 11
-469.724483
 21
203.902208
 31
0.0
  0
LINE
  5
3DD4
100
AcDbEntity
  8
OBJECT
100
AcDbLine
 10
-469.724483
 20
203.46401
 30
0.0
 11
-469.724483
 21
183.079778
 31
0.0
  0
TEXT
  5
3DD5
100
AcDbEntity
  8
DIM
100
AcDbText
 10
-421.876158
 20
187.353995
 30
0.0
 40
1.85
  1
is Available
  7
ROMAND
 11
-421.876158
 21
188.278995
 31
0.0
100
AcDbText
 73
     2
  0
TEXT
  5
3DD6
100
AcDbEntity
  8
DIM
100
AcDbText
 10
-419.034263
 20
194.566468
 30
0.0
 40
1.85
  1
Galvanized Steel
  7
ROMAND
100
AcDbText
  0
TEXT
  5
3DD7
100
AcDbEntity
  8
DIM
100
AcDbText
 10
-419.034263
 20
197.197425
 30
0.0
 40
1.85
  1
304 Stainless Steel
  7
ROMAND
100
AcDbText
  0
TEXT
  5
3DD8
100
AcDbEntity
  8
DIM
100
AcDbText
 10
-421.876158
 20
200.344061
 30
0.0
 40
1.85
  1
3/16" Lifting Chain
  7
ROMAND
 11
-421.876158
 21
201.269061
 31
0.0
100
AcDbText
 73
     2
  0
TEXT
  5
3DD9
100
AcDbEntity
  8
DIM
100
AcDbText
 10
-421.876158
 20
190.605227
 30
0.0
 40
1.85
  1
* Stainless Steel Cable
  7
ROMAND
 11
-421.876158
 21
191.530227
 31
0.0
100
AcDbText
 73
     2
  0
LWPOLYLINE
  5
3DDA
100
AcDbEntity
  8
DIM
100
AcDbPolyline
 90
        4
 70
     1
 43
0.0
 10
-419.926066
 20
197.119543
 10
-421.651056
 20
197.119543
 10
-421.651056
 20
198.844533
 10
-419.926066
 20
198.844533
  0
LWPOLYLINE
  5
3DDB
100
AcDbEntity
  8
DIM
100
AcDbPolyline
 90
        4
 70
     1
 43
0.0
 10
-419.926066
 20
196.254011
 10
-421.651056
 20
196.254011
 10
-421.651056
 20
194.529022
 10
-419.926066
 20
194.529022
  0
TEXT
  5
3DDD
100
AcDbEntity
  8
DIM
100
AcDbText
 10
-417.771748
 20
223.861057
 30
0.0
 40
1.85
  1
304 Stainless Steel
  7
ROMAND
100
AcDbText
  0
TEXT
  5
3DDE
100
AcDbEntity
  8
DIM
100
AcDbText
 10
-417.771748
 20
218.63958
 30
0.0
 40
1.85
  1
Sch80 PVC Pipe
  7
ROMAND
100
AcDbText
  0
TEXT
  5
3DDF
100
AcDbEntity
  8
DIM
100
AcDbText
 10
-417.771748
 20
221.230101
 30
0.0
 40
1.85
  1
Sch40 Galvanized Steel
  7
ROMAND
100
AcDbText
  0
LWPOLYLINE
  5
3DE0
100
AcDbEntity
  8
DIM
100
AcDbPolyline
 90
        4
 70
     1
 43
0.0
 10
-418.663551
 20
220.327123
 10
-420.388541
 20
220.327123
 10
-420.388541
 20
218.602133
 10
-418.663551
 20
218.602133
  0
LWPOLYLINE
  5
3DE1
100
AcDbEntity
  8
DIM
100
AcDbPolyline
 90
        4
 70
     1
 43
0.0
 10
-418.663551
 20
223.783176
 10
-420.388541
 20
223.783176
 10
-420.388541
 20
225.508165
 10
-418.663551
 20
225.508165
  0
LWPOLYLINE
  5
3DE2
100
AcDbEntity
  8
DIM
100
AcDbPolyline
 90
        4
 70
     1
 43
0.0
 10
-418.663551
 20
222.917644
 10
-420.388541
 20
222.917644
 10
-420.388541
 20
221.192655
 10
-418.663551
 20
221.192655
  0
LINE
  5
3DE3
100
AcDbEntity
  8
BORDER
 62
     6
100
AcDbLine
 10
-561.128698
 20
318.099122
 30
0.0
 11
-552.563795
 21
318.099122
 31
0.0
  0
LINE
  5
3DE4
100
AcDbEntity
  8
BORDER
 62
     6
100
AcDbLine
 10
-562.842979
 20
309.686513
 30
0.0
 11
-553.030438
 21
309.686513
 31
0.0
  0
LINE
  5
3DE5
100
AcDbEntity
  8
BORDER
 62
     6
100
AcDbLine
 10
-562.842981
 20
313.892817
 30
0.0
 11
-553.108213
 21
313.892817
 31
0.0
  0
TEXT
  5
3DE6
100
AcDbEntity
  8
BORDER
 62
     6
100
AcDbText
 10
-566.893737
 20
305.480208
 30
0.0
 40
1.513413
  1
FL AMPS
  7
ROMANT
100
AcDbText
  0
TEXT
  5
3DE7
100
AcDbEntity
  8
BORDER
 62
     6
100
AcDbText
 10
-582.839264
 20
299.271497
 30
0.0
 40
1.563018
  1
DISCHARGE PIPE
  7
ITALICT
100
AcDbText
  0
LINE
  5
3DE8
100
AcDbEntity
  8
BORDER
 62
     6
100
AcDbLine
 10
-582.887799
 20
298.808652
 30
0.0
 11
-560.754265
 21
298.808652
 31
0.0
  0
LINE
  5
3DE9
100
AcDbEntity
  8
BORDER
 62
     6
100
AcDbLine
 10
-582.887799
 20
298.425502
 30
0.0
 11
-560.754265
 21
298.425502
 31
0.0
  0
TEXT
  5
3DEA
100
AcDbEntity
  8
BORDER
 62
     6
100
AcDbText
 10
-580.197821
 20
292.156053
 30
0.0
 40
1.525377
  1
Sch40 Galvanized Steel
  7
ROMANT
100
AcDbText
  0
TEXT
  5
3DEB
100
AcDbEntity
  8
BORDER
 62
     6
100
AcDbText
 10
-580.197821
 20
289.565532
 30
0.0
 40
1.525377
  1
Sch80 PVC Pipe
  7
ROMANT
100
AcDbText
  0
TEXT
  5
3DEC
100
AcDbEntity
  8
BORDER
 62
     6
100
AcDbText
 10
-580.197821
 20
294.78701
 30
0.0
 40
1.525377
  1
304 Stainless Steel
  7
ROMANT
100
AcDbText
  0
LWPOLYLINE
  5
3DED
100
AcDbEntity
  8
BORDER
 62
     6
100
AcDbPolyline
 90
        4
 70
     1
 43
0.0
 10
-581.089623
 20
294.709128
 10
-582.814613
 20
294.709128
 10
-582.814613
 20
296.434118
 10
-581.089623
 20
296.434118
  0
LWPOLYLINE
  5
3DEE
100
AcDbEntity
  8
BORDER
 62
     6
100
AcDbPolyline
 90
        4
 70
     1
 43
0.0
 10
-581.103153
 20
283.605001
 10
-582.814613
 20
283.605001
 10
-582.814613
 20
281.893541
 10
-581.103153
 20
281.893541
  0
TEXT
  5
3DEF
100
AcDbEntity
  8
BORDER
 62
     6
100
AcDbText
 10
-580.218344
 20
281.989591
 30
0.0
 40
1.513413
  1
4"
  7
ROMANT
100
AcDbText
  0
TEXT
  5
3DF2
100
AcDbEntity
  8
BORDER
 62
     6
100
AcDbText
 10
-580.218344
 20
285.078415
 30
0.0
 40
1.513413
  1
3"
  7
ROMANT
100
AcDbText
  0
LWPOLYLINE
  5
3DF3
100
AcDbEntity
  8
BORDER
 62
     6
100
AcDbPolyline
 90
        4
 70
     1
 43
0.0
 10
-581.103153
 20
286.733945
 10
-582.814613
 20
286.733945
 10
-582.814613
 20
285.022485
 10
-581.103153
 20
285.022485
  0
LWPOLYLINE
  5
3DF4
100
AcDbEntity
  8
BORDER
 62
     6
100
AcDbPolyline
 90
        4
 70
     1
 43
0.0
 10
-581.089623
 20
291.253075
 10
-582.814613
 20
291.253075
 10
-582.814613
 20
289.528086
 10
-581.089623
 20
289.528086
  0
LWPOLYLINE
  5
3DF5
100
AcDbEntity
  8
BORDER
 62
     6
100
AcDbPolyline
 90
        4
 70
     1
 43
0.0
 10
-581.089623
 20
293.843596
 10
-582.814613
 20
293.843596
 10
-582.814613
 20
292.118607
 10
-581.089623
 20
292.118607
  0
LINE
  5
3DF6
100
AcDbEntity
  8
BORDER
 62
     6
100
AcDbLine
 10
-577.406245
 20
305.480208
 30
0.0
 11
-567.363635
 21
305.480208
 31
0.0
  0
TEXT
  5
3DF7
100
AcDbEntity
  8
BORDER
 62
     6
100
AcDbText
 10
-583.718955
 20
305.480208
 30
0.0
 40
1.513413
  1
Elec:
  7
ROMANT
100
AcDbText
  0
TEXT
  5
3DF8
100
AcDbEntity
  8
BORDER
 62
     6
100
AcDbText
 10
-583.718955
 20
318.099122
 30
0.0
 40
1.513413
  1
Rating:
  7
ROMANT
100
AcDbText
  0
TEXT
  5
3DF9
100
AcDbEntity
  8
BORDER
 62
     6
100
AcDbText
 10
-583.718955
 20
313.892817
 30
0.0
 40
1.513413
  1
Motor:
  7
ROMANT
100
AcDbText
  0
LINE
  5
3DFA
100
AcDbEntity
  8
BORDER
 62
     6
100
AcDbLine
 10
-577.172922
 20
309.686513
 30
0.0
 11
-567.67473
 21
309.686513
 31
0.0
  0
TEXT
  5
3DFB
100
AcDbEntity
  8
BORDER
 62
     6
100
AcDbText
 10
-583.718955
 20
309.686513
 30
0.0
 40
1.513413
  1
Elec:
  7
ROMANT
100
AcDbText
  0
TEXT
  5
3DFC
100
AcDbEntity
  8
BORDER
 62
     6
100
AcDbText
 10
-566.893737
 20
309.686513
 30
0.0
 40
1.513413
  1
PH
  7
ROMANT
100
AcDbText
  0
LINE
  5
3DFD
100
AcDbEntity
  8
BORDER
 62
     6
100
AcDbLine
 10
-575.306346
 20
313.892817
 30
0.0
 11
-567.596957
 21
313.892817
 31
0.0
  0
LINE
  5
3DFE
100
AcDbEntity
  8
BORDER
 62
     6
100
AcDbLine
 10
-574.369803
 20
318.099122
 30
0.0
 11
-567.441408
 21
318.099122
 31
0.0
  0
TEXT
  5
3DFF
100
AcDbEntity
  8
BORDER
 62
     6
100
AcDbText
 10
-566.893737
 20
318.099122
 30
0.0
 40
1.513413
  1
GPM
  7
ROMANT
100
AcDbText
  0
TEXT
  5
3E00
100
AcDbEntity
  8
BORDER
 62
     6
100
AcDbText
 10
-566.893737
 20
313.892817
 30
0.0
 40
1.513413
  1
HP
  7
ROMANT
100
AcDbText
  0
LINE
  5
3E01
100
AcDbEntity
  8
BORDER
 62
     6
100
AcDbLine
 10
-548.509784
 20
309.686513
 30
0.0
 11
-541.655909
 21
309.686513
 31
0.0
  0
TEXT
  5
3E02
100
AcDbEntity
  8
BORDER
 62
     6
100
AcDbText
 10
-552.17167
 20
309.686513
 30
0.0
 40
1.513413
  1
HZ
  7
ROMANT
100
AcDbText
  0
TEXT
  5
3E03
100
AcDbEntity
  8
BORDER
 62
     6
100
AcDbText
 10
-552.17167
 20
313.892817
 30
0.0
 40
1.513413
  1
RPM
  7
ROMANT
100
AcDbText
  0
TEXT
  5
3E04
100
AcDbEntity
  8
BORDER
 62
     6
100
AcDbText
 10
-552.17167
 20
318.099122
 30
0.0
 40
1.513413
  1
TDH
  7
ROMANT
100
AcDbText
  0
TEXT
  5
3E05
100
AcDbEntity
  8
BORDER
 62
     6
100
AcDbText
 10
-541.655909
 20
309.686513
 30
0.0
 40
1.513413
  1
v
  7
ROMANT
100
AcDbText
  0
TEXT
  5
3E06
100
AcDbEntity
  8
BORDER
 62
     6
100
AcDbText
 10
-573.203194
 20
328.614884
 30
0.0
 40
1.513413
  1
Non-Clog Pump(s)
  7
ROMANT
100
AcDbText
  0
TEXT
  5
3E07
100
AcDbEntity
  8
BORDER
 62
     6
100
AcDbText
 10
-573.203194
 20
332.821188
 30
0.0
 40
1.513413
  1
Grinder Pump(s)
  7
ROMANT
100
AcDbText
  0
LINE
  5
3E08
100
AcDbEntity
  8
BORDER
 62
     6
100
AcDbLine
 10
-582.887799
 20
340.693185
 30
0.0
 11
-556.80743
 21
340.693185
 31
0.0
  0
TEXT
  5
3E09
100
AcDbEntity
  8
BORDER
 62
     6
100
AcDbText
 10
-573.203194
 20
337.027493
 30
0.0
 40
1.513413
  1
Sump Pump(s)
  7
ROMANT
100
AcDbText
  0
LINE
  5
3E0A
100
AcDbEntity
  8
BORDER
 62
     6
100
AcDbLine
 10
-582.887799
 20
341.076334
 30
0.0
 11
-556.80743
 21
341.076334
 31
0.0
  0
TEXT
  5
3E0B
100
AcDbEntity
  8
BORDER
 62
     6
100
AcDbText
 10
-582.839264
 20
341.53918
 30
0.0
 40
1.563018
  1
PUMP INFORMATION
  7
ITALICT
100
AcDbText
  0
LINE
  5
3E0C
100
AcDbEntity
  8
BORDER
 62
     6
100
AcDbLine
 10
-570.085726
 20
322.305427
 30
0.0
 11
-548.363998
 21
322.305427
 31
0.0
  0
TEXT
  5
3E0D
100
AcDbEntity
  8
BORDER
 62
     6
100
AcDbText
 10
-583.718955
 20
322.305427
 30
0.0
 40
1.513413
  1
Model NO:
  7
ROMANT
100
AcDbText
  0
LWPOLYLINE
  5
3E0E
100
AcDbEntity
  8
BORDER
 62
     6
100
AcDbPolyline
 90
        4
 70
     1
 43
0.0
 10
-573.942414
 20
328.513463
 10
-573.942414
 20
330.263985
 10
-575.692937
 20
330.263985
 10
-575.692937
 20
328.513463
  0
TEXT
  5
3E0F
100
AcDbEntity
  8
BORDER
 62
     6
100
AcDbText
 10
-583.718955
 20
337.027493
 30
0.0
 40
1.513413
  1
Type:
  7
ROMANT
100
AcDbText
  0
LWPOLYLINE
  5
3E10
100
AcDbEntity
  8
BORDER
 62
     6
100
AcDbPolyline
 90
        4
 70
     1
 43
0.0
 10
-573.942414
 20
336.890964
 10
-573.942414
 20
338.641486
 10
-575.692937
 20
338.641486
 10
-575.692937
 20
336.890964
  0
LWPOLYLINE
  5
3E11
100
AcDbEntity
  8
BORDER
 62
     6
100
AcDbPolyline
 90
        4
 70
     1
 43
0.0
 10
-573.942414
 20
332.889769
 10
-573.942414
 20
334.640292
 10
-575.692937
 20
334.640292
 10
-575.692937
 20
332.889769
  0
TEXT
  5
3F0B
100
AcDbEntity
  8
DIM
100
AcDbText
 10
-559.708259
 20
195.747777
 30
0.0
 40
1.85
  1
Sch40 Galvanized Steel
  7
ROMAND
100
AcDbText
  0
TEXT
  5
3F0C
100
AcDbEntity
  8
DIM
100
AcDbText
 10
-559.708259
 20
198.378733
 30
0.0
 40
1.85
  1
304 Stainless Steel
  7
ROMAND
100
AcDbText
  0
TEXT
  5
3F0D
100
AcDbEntity
  8
DIM
100
AcDbText
 10
-559.708259
 20
193.157256
 30
0.0
 40
1.85
  1
Sch80 PVC Pipe
  7
ROMAND
100
AcDbText
  0
MTEXT
  5
3F0E
100
AcDbEntity
  8
DIM
100
AcDbMText
 10
-544.485228
 20
202.501966
 30
0.0
 40
1.85
 41
0.0
 71
     6
 72
     1
  1
\A1;1" Float Pole
  7
ROMAND
  0
LWPOLYLINE
  5
3F0F
100
AcDbEntity
  8
DIM
100
AcDbPolyline
 90
        4
 70
     1
 43
0.0
 10
-560.600062
 20
197.43532
 10
-562.325051
 20
197.43532
 10
-562.325051
 20
195.710331
 10
-560.600062
 20
195.710331
  0
LWPOLYLINE
  5
3F10
100
AcDbEntity
  8
DIM
100
AcDbPolyline
 90
        4
 70
     1
 43
0.0
 10
-560.600062
 20
194.844799
 10
-562.325051
 20
194.844799
 10
-562.325051
 20
193.119809
 10
-560.600062
 20
193.119809
  0
LWPOLYLINE
  5
3F11
100
AcDbEntity
  8
DIM
100
AcDbPolyline
 90
        4
 70
     1
 43
0.0
 10
-560.600062
 20
198.300852
 10
-562.325051
 20
198.300852
 10
-562.325051
 20
200.025841
 10
-560.600062
 20
200.025841
  0
LEADER
  5
3F12
100
AcDbEntity
  8
DIM
100
AcDbLeader
  3
STANDARD
 76
     3
 10
-501.949461
 20
196.91653
 30
0.0
 10
-532.329468
 20
202.651955
 30
0.0
 10
-540.207753
 20
202.651955
 30
0.0
 77
   256
1001
ACAD
1000
DSTYLE
1002
{
1070
    78
1070
    12
1070
   284
1070
    12
1070
   140
1040
2.5
1070
   340
1005
2B
1070
   272
1070
     0
1070
   147
1040
1.5
1070
   287
1070
     5
1070
    44
1040
1.85
1070
    41
1040
1.5
1002
}
  0
LINE
  5
53AD
100
AcDbEntity
  8
15
  6
CENTER
 62
     3
100
AcDbLine
 10
-460.68158
 20
132.570611
 30
0.0
 11
-458.56026
 21
134.691931
 31
0.0
  0
LINE
  5
53AE
100
AcDbEntity
  8
OBJECT
100
AcDbLine
 10
-457.642435
 20
130.306455
 30
0.0
 11
-462.945736
 21
135.609756
 31
0.0
  0
LINE
  5
53AF
100
AcDbEntity
  8
OBJECT
100
AcDbLine
 10
-463.333231
 20
135.222261
 30
0.0
 11
-458.02993
 21
129.91896
 31
0.0
  0
LINE
  5
53B0
100
AcDbEntity
  8
OBJECT
100
AcDbLine
 10
-462.31026
 20
137.143931
 30
0.0
 11
-454.81026
 21
137.143931
 31
0.0
  0
LINE
  5
53B1
100
AcDbEntity
  8
OBJECT
100
AcDbLine
 10
-454.81026
 20
137.691931
 30
0.0
 11
-462.31026
 21
137.691931
 31
0.0
  0
ARC
  5
53B2
100
AcDbEntity
  8
OBJECT
100
AcDbCircle
 10
-461.342703
 20
135.844457
 30
0.0
 40
0.801443
100
AcDbArc
 50
315.0
 51
0.0
  0
LINE
  5
53B3
100
AcDbEntity
  8
15
  6
CENTER
 62
     3
100
AcDbLine
 10
-458.56026
 20
136.331297
 30
0.0
 11
-458.56026
 21
134.691931
 31
0.0
  0
LINE
  5
53B4
100
AcDbEntity
  8
OBJECT
100
AcDbLine
 10
-460.54126
 20
137.143931
 30
0.0
 11
-460.54126
 21
135.844457
 31
0.0
  0
LINE
  5
53B5
100
AcDbEntity
  8
OBJECT
100
AcDbLine
 10
-456.57926
 20
137.143931
 30
0.0
 11
-456.57926
 21
134.883114
 31
0.0
  0
LINE
  5
53B6
100
AcDbEntity
  8
OBJECT
100
AcDbLine
 10
-454.81026
 20
138.629931
 30
0.0
 11
-454.81026
 21
137.143931
 31
0.0
  0
LINE
  5
53B7
100
AcDbEntity
  8
OBJECT
100
AcDbLine
 10
-457.294668
 20
133.155966
 30
0.0
 11
-458.893307
 21
131.557327
 31
0.0
  0
ARC
  5
53B8
100
AcDbEntity
  8
OBJECT
100
AcDbCircle
 10
-459.021817
 20
134.883114
 30
0.0
 40
2.442557
100
AcDbArc
 50
315.0
 51
0.0
  0
LINE
  5
53B9
100
AcDbEntity
  8
OBJECT
100
AcDbLine
 10
-457.642435
 20
130.306455
 30
0.0
 11
-458.02993
 21
129.91896
 31
0.0
  0
LINE
  5
53BA
100
AcDbEntity
  8
OBJECT
100
AcDbLine
 10
-458.304287
 20
132.146347
 30
0.0
 11
-458.306409
 21
132.144225
 31
0.0
  0
LINE
  5
53BB
100
AcDbEntity
  8
OBJECT
100
AcDbLine
 10
-462.31026
 20
138.629931
 30
0.0
 11
-462.31026
 21
137.143931
 31
0.0
  0
LINE
  5
53BC
100
AcDbEntity
  8
OBJECT
100
AcDbLine
 10
-460.775997
 20
135.277751
 30
0.0
 11
-461.694864
 21
134.358884
 31
0.0
  0
LINE
  5
53BD
100
AcDbEntity
  8
OBJECT
100
AcDbLine
 10
-461.107259
 20
134.946489
 30
0.0
 11
-461.107966
 21
134.945782
 31
0.0
  0
LINE
  5
53BE
100
AcDbEntity
  8
OBJECT
100
AcDbLine
 10
-462.945736
 20
135.609756
 30
0.0
 11
-463.333231
 21
135.222261
 31
0.0
  0
LINE
  5
53BF
100
AcDbEntity
  8
15
  6
CENTER
 62
     3
100
AcDbLine
 10
-460.68158
 20
132.570611
 30
0.0
 11
-462.802901
 21
130.44929
 31
0.0
  0
LINE
  5
53C0
100
AcDbEntity
  8
OBJECT
100
AcDbLine
 10
-463.720725
 20
134.834767
 30
0.0
 11
-458.417424
 21
129.531466
 31
0.0
  0
LINE
  5
53C1
100
AcDbEntity
  8
OBJECT
100
AcDbLine
 10
-458.02993
 20
129.91896
 30
0.0
 11
-463.333231
 21
135.222261
 31
0.0
  0
LINE
  5
53C2
100
AcDbEntity
  8
OBJECT
100
AcDbLine
 10
-459.052901
 20
127.99729
 30
0.0
 11
-466.552901
 21
127.99729
 31
0.0
  0
LINE
  5
53C3
100
AcDbEntity
  8
OBJECT
100
AcDbLine
 10
-466.552901
 20
127.44929
 30
0.0
 11
-459.052901
 21
127.44929
 31
0.0
  0
ARC
  5
53C4
100
AcDbEntity
  8
OBJECT
100
AcDbCircle
 10
-460.020458
 20
129.296765
 30
0.0
 40
0.801443
100
AcDbArc
 50
135.0
 51
180.0
  0
LINE
  5
53C5
100
AcDbEntity
  8
15
  6
CENTER
 62
     3
100
AcDbLine
 10
-462.802901
 20
126.51129
 30
0.0
 11
-462.802901
 21
130.44929
 31
0.0
  0
LINE
  5
53C6
100
AcDbEntity
  8
OBJECT
100
AcDbLine
 10
-460.821901
 20
127.99729
 30
0.0
 11
-460.821901
 21
129.296765
 31
0.0
  0
LINE
  5
53C7
100
AcDbEntity
  8
OBJECT
100
AcDbLine
 10
-464.783901
 20
127.99729
 30
0.0
 11
-464.783901
 21
130.258107
 31
0.0
  0
LINE
  5
53C8
100
AcDbEntity
  8
OBJECT
100
AcDbLine
 10
-466.552901
 20
127.44929
 30
0.0
 11
-466.552901
 21
127.99729
 31
0.0
  0
LINE
  5
53C9
100
AcDbEntity
  8
OBJECT
100
AcDbLine
 10
-464.068492
 20
131.985256
 30
0.0
 11
-462.469853
 21
133.583895
 31
0.0
  0
ARC
  5
53CA
100
AcDbEntity
  8
OBJECT
100
AcDbCircle
 10
-462.341344
 20
130.258107
 30
0.0
 40
2.442557
100
AcDbArc
 50
135.0
 51
180.0
  0
LINE
  5
53CB
100
AcDbEntity
  8
OBJECT
100
AcDbLine
 10
-463.720725
 20
134.834767
 30
0.0
 11
-463.333231
 21
135.222261
 31
0.0
  0
LINE
  5
53CC
100
AcDbEntity
  8
OBJECT
100
AcDbLine
 10
-463.058873
 20
132.994875
 30
0.0
 11
-463.056752
 21
132.996996
 31
0.0
  0
LINE
  5
53CD
100
AcDbEntity
  8
OBJECT
100
AcDbLine
 10
-459.052901
 20
127.44929
 30
0.0
 11
-459.052901
 21
127.99729
 31
0.0
  0
LINE
  5
53CE
100
AcDbEntity
  8
OBJECT
100
AcDbLine
 10
-460.587163
 20
129.86347
 30
0.0
 11
-459.668296
 21
130.782338
 31
0.0
  0
LINE
  5
53CF
100
AcDbEntity
  8
OBJECT
100
AcDbLine
 10
-460.255902
 20
130.194732
 30
0.0
 11
-460.255195
 21
130.195439
 31
0.0
  0
LINE
  5
53D0
100
AcDbEntity
  8
OBJECT
100
AcDbLine
 10
-458.417424
 20
129.531466
 30
0.0
 11
-458.02993
 21
129.91896
 31
0.0
  0
LINE
  5
53D5
100
AcDbEntity
  8
OBJECT
100
AcDbLine
 10
-454.81026
 20
138.629931
 30
0.0
 11
-462.31026
 21
138.629931
 31
0.0
  0
CIRCLE
  5
541F
100
AcDbEntity
  8
OBJECT
100
AcDbCircle
 10
-458.56026
 20
302.28233
 30
0.0
 40
1.5
  0
CIRCLE
  5
5420
100
AcDbEntity
  8
OBJECT
100
AcDbCircle
 10
-458.56026
 20
302.28233
 30
0.0
 40
1.981
  0
CIRCLE
  5
5421
100
AcDbEntity
  8
OBJECT
100
AcDbCircle
 10
-458.56026
 20
302.28233
 30
0.0
 40
3.75
  0
ARC
  5
5422
100
AcDbEntity
  8
OBJECT
100
AcDbCircle
 10
-462.802901
 20
302.28233
 30
0.0
 40
3.75
100
AcDbArc
 50
55.550098
 51
304.449902
  0
LINE
  5
5423
100
AcDbEntity
  8
OBJECT
100
AcDbLine
 10
-462.802901
 20
300.30133
 30
0.0
 11
-461.744304
 21
300.30133
 31
0.0
  0
LINE
  5
5424
100
AcDbEntity
  8
OBJECT
100
AcDbLine
 10
-462.802901
 20
304.26333
 30
0.0
 11
-461.744304
 21
304.26333
 31
0.0
  0
ARC
  5
5425
100
AcDbEntity
  8
OBJECT
100
AcDbCircle
 10
-462.802901
 20
302.28233
 30
0.0
 40
1.981
100
AcDbArc
 50
90.0
 51
270.0
  0
CIRCLE
  5
5426
100
AcDbEntity
  8
OBJECT
100
AcDbCircle
 10
-458.56026
 20
280.28233
 30
0.0
 40
1.5
  0
CIRCLE
  5
5427
100
AcDbEntity
  8
OBJECT
100
AcDbCircle
 10
-458.56026
 20
280.28233
 30
0.0
 40
1.981
  0
CIRCLE
  5
5428
100
AcDbEntity
  8
OBJECT
100
AcDbCircle
 10
-458.56026
 20
280.28233
 30
0.0
 40
3.75
  0
ARC
  5
5429
100
AcDbEntity
  8
OBJECT
100
AcDbCircle
 10
-462.802901
 20
280.28233
 30
0.0
 40
3.75
100
AcDbArc
 50
55.550098
 51
304.449902
  0
LINE
  5
542A
100
AcDbEntity
  8
OBJECT
100
AcDbLine
 10
-462.802901
 20
278.30133
 30
0.0
 11
-461.744304
 21
278.30133
 31
0.0
  0
LINE
  5
542B
100
AcDbEntity
  8
OBJECT
100
AcDbLine
 10
-462.802901
 20
282.26333
 30
0.0
 11
-461.744304
 21
282.26333
 31
0.0
  0
ARC
  5
542C
100
AcDbEntity
  8
OBJECT
100
AcDbCircle
 10
-462.802901
 20
280.28233
 30
0.0
 40
1.981
100
AcDbArc
 50
90.0
 51
270.0
  0
TEXT
  5
543D
100
AcDbEntity
  8
DIM
100
AcDbText
 10
-406.567621
 20
331.081827
 30
0.0
 40
1.85
  1
   Flange
  7
ROMAND
 11
-406.567621
 21
332.006827
 31
0.0
100
AcDbText
 73
     2
  0
TEXT
  5
543E
100
AcDbEntity
  8
DIM
100
AcDbText
 10
-404.974986
 20
319.948951
 30
0.0
 40
1.85
  1
  NPT Discharge
  7
ROMAND
 11
-404.974986
 21
320.873951
 31
0.0
100
AcDbText
 73
     2
  0
TEXT
  5
543F
100
AcDbEntity
  8
DIM
100
AcDbText
 10
-406.567621
 20
317.113591
 30
0.0
 40
1.85
  1
   Flange
  7
ROMAND
 11
-406.567621
 21
318.038591
 31
0.0
100
AcDbText
 73
     2
  0
LEADER
  5
5440
100
AcDbEntity
  8
DIM
100
AcDbLeader
  3
STANDARD
 76
     2
 10
-456.81026
 20
214.791181
 30
0.0
 10
-428.780431
 20
228.687654
 30
0.0
 77
   256
1001
ACAD
1000
DSTYLE
1002
{
1070
    78
1070
    12
1070
   284
1070
    12
1070
   140
1040
2.5
1070
   340
1005
2B
1070
   272
1070
     0
1070
   147
1040
1.5
1070
   287
1070
     5
1070
    44
1040
1.85
1070
    41
1040
1.5
1002
}
  0
LINE
  5
A015
100
AcDbEntity
  8
OBJECT
100
AcDbLine
 10
-430.255079
 20
312.513082
 30
0.0
 11
-430.720079
 21
312.513082
 31
0.0
  0
LINE
  5
A016
100
AcDbEntity
  8
OBJECT
100
AcDbLine
 10
-430.255079
 20
314.954332
 30
0.0
 11
-430.720079
 21
314.954332
 31
0.0
  0
LINE
  5
A017
100
AcDbEntity
  8
OBJECT
100
AcDbLine
 10
-430.720079
 20
314.954332
 30
0.0
 11
-430.720079
 21
312.513082
 31
0.0
  0
LINE
  5
A018
100
AcDbEntity
  8
OBJECT
100
AcDbLine
 10
-430.255079
 20
312.513082
 30
0.0
 11
-430.255079
 21
314.954332
 31
0.0
  0
ARC
  5
A019
100
AcDbEntity
  8
OBJECT
100
AcDbCircle
 10
-430.778204
 20
313.733707
 30
0.0
 40
0.31
100
AcDbArc
 50
90.0
 51
270.0
  0
LINE
  5
A01A
100
AcDbEntity
  8
OBJECT
100
AcDbLine
 10
-430.778204
 20
315.012457
 30
0.0
 11
-430.778204
 21
314.043707
 31
0.0
  0
LINE
  5
A01B
100
AcDbEntity
  8
OBJECT
100
AcDbLine
 10
-430.196954
 20
315.012457
 30
0.0
 11
-430.778204
 21
315.012457
 31
0.0
  0
LINE
  5
A01C
100
AcDbEntity
  8
OBJECT
100
AcDbLine
 10
-430.196954
 20
314.043707
 30
0.0
 11
-430.196954
 21
315.012457
 31
0.0
  0
ARC
  5
A01D
100
AcDbEntity
  8
OBJECT
100
AcDbCircle
 10
-430.196954
 20
313.733707
 30
0.0
 40
0.31
100
AcDbArc
 50
270.0
 51
90.0
  0
LINE
  5
A01E
100
AcDbEntity
  8
OBJECT
100
AcDbLine
 10
-430.196954
 20
312.454957
 30
0.0
 11
-430.196954
 21
313.423707
 31
0.0
  0
LINE
  5
A01F
100
AcDbEntity
  8
OBJECT
100
AcDbLine
 10
-430.778204
 20
312.454957
 30
0.0
 11
-430.196954
 21
312.454957
 31
0.0
  0
LINE
  5
A020
100
AcDbEntity
  8
OBJECT
100
AcDbLine
 10
-430.778204
 20
313.423707
 30
0.0
 11
-430.778204
 21
312.454957
 31
0.0
  0
ENDSEC
  0
SECTION
  2
OBJECTS
  0
DICTIONARY
  5
C
100
AcDbDictionary
  3
ACAD_GROUP
350
D
  3
ACAD_MLINESTYLE
350
1A
  3
ACDBVARIABLEDICTIONARY
350
46
  3
CONTENTDICTIONARY
350
14D8
  3
DRAWINGVARIABLESDICT
350
13A9
  0
DICTIONARY
  5
D
102
{ACAD_REACTORS
330
C
102
}
100
AcDbDictionary
  0
DICTIONARY
  5
1A
102
{ACAD_REACTORS
330
C
102
}
100
AcDbDictionary
  3
STANDARD
350
1B
  0
DICTIONARY
  5
46
102
{ACAD_REACTORS
330
C
102
}
100
AcDbDictionary
  3
DIMADEC
350
47
  0
DICTIONARY
  5
14D8
102
{ACAD_REACTORS
330
C
102
}
100
AcDbDictionary
  0
DICTIONARY
  5
13A9
102
{ACAD_REACTORS
330
C
102
}
100
AcDbDictionary
1001
DRAWINGVARIABLESXDATA
1000
POLARANG
1000
0.785398
1000
POLARMODE
1000
0
  0
MLINESTYLE
  5
1B
102
{ACAD_REACTORS
330
1A
102
}
100
AcDbMlineStyle
  2
STANDARD
 70
     0
  3

 62
   256
 51
90.0
 52
90.0
 71
     2
 49
0.5
 62
   256
  6
BYLAYER
 49
-0.5
 62
   256
  6
BYLAYER
  0
DICTIONARYVAR
  5
47
102
{ACAD_REACTORS
330
46
102
}
100
DictionaryVariables
280
     0
  1
0
  0
ENDSEC
  0
EOF
